#VERSION:0.83;
#TITLE:Fly Above (Vicissitude Remix);
#SUBTITLE:;
#ARTIST:Remixed by BEMANI Sound Team "PHQUASE";
#TITLETRANSLIT:;
#SUBTITLETRANSLIT:;
#ARTISTTRANSLIT:PHQUASE;
#GENRE:;
#CREDIT:;
#MUSIC:Fly Above (Vicissitude Remix).ogg;
#BANNER:Fly Above (Vicissitude Remix).png;
#BACKGROUND:Fly Above (Vicissitude Remix)-bg.png;
#CDTITLE:./CDTitles/bm IIDX 27 HEROIC VERSE.png;
#SAMPLESTART:71.986;
#SAMPLELENGTH:15.000;
#SELECTABLE:YES;
#OFFSET:1.332;
#BPMS:0.000=180.000;
#STOPS:212.000=0.666;
#TIMESIGNATURES:0.000=4=4,
212.000=2=4,
214.000=4=4
;
#BGCHANGES:0.000=../BGAs/06ho.mp4=1.000=0=0=0=StretchNoLoop====,
99999.000=-nosongbg-=1.000=0=0=0=StretchNoLoop====
;
#FGCHANGES:;

//--------------- dance-single - forcednature ----------------
#NOTEDATA:;
#STEPSTYPE:dance-single;
#DESCRIPTION:forcednature;
#DIFFICULTY:Beginner;
#METER:3;
#RADARVALUES:0,0,0,0,0;
#CREDIT:forcednature;
#NOTES:
0000
0000
0000
0000
,
0000
0000
0000
0000
,
0000
0000
0000
0000
,
0000
0000
0000
0000
,
0000
0000
0000
0000
,
0000
0000
0000
0000
,
0000
0000
0000
0000
,
0000
0000
0000
0000
,
0000
0000
0000
0000
,
0000
0000
0000
0000
,
0000
0000
0000
0000
,
1001
0000
0000
0000
,
0001
0000
0000
0000
,
0100
0000
0000
0000
,
0010
0000
0000
0000
,
1000
0000
0000
0000
,
0100
0000
0000
0000
,
0010
0000
0000
0000
,
0001
0000
0000
0000
,
1001
0000
0000
0000
,
0000
0000
0000
0000
,
0100
0000
0000
0000
,
0000
0000
0000
0000
,
0001
0000
0000
0000
,
0000
0000
0000
0000
,
1000
0000
0000
0000
,
0000
0000
0000
0000
,
0100
0000
0000
0000
,
0000
0000
0000
0000
,
0110
0000
0000
0000
,
0010
0000
0000
0000
,
0001
0000
0000
0000
,
1000
0000
0000
0000
,
0010
0000
0000
0000
,
0100
0000
0000
0000
,
0001
0000
0000
0000
,
0000
1001
0000
0000
,
0110
0000
0000
0000
,
0001
0000
0000
0000
,
1000
0000
0000
0000
,
0010
0000
0000
0000
,
0100
0000
0000
0000
,
0001
0000
0000
0000
,
1000
0000
0000
0000
,
0100
0000
0000
0000
,
0110
0000
0000
0000
,
0010
0000
0000
0000
,
0001
0000
0000
0000
,
1000
0000
0000
0000
,
0010
0000
0010
0000
,
0100
0000
0100
0000
,
0001
0000
1000
0000
,
0100
0000
0000
0100
0000
0000
0100
0000
,
0020
0000
0000
0000
,
0030
0000
1001
0000
,
0000
0000
1000
0000
,
0000
0000
0001
0000
,
0100
0000
0001
0000
,
0000
0000
0010
0000
,
0000
0000
0100
0000
,
0000
0000
1000
0000
,
0001
0000
1000
0000
,
0000
0000
1001
0000
,
0000
0000
0001
0000
,
0000
0000
1000
0000
,
0010
0000
1000
0000
,
0000
0000
0001
0000
,
0010
0000
0001
0000
,
0000
0000
0100
0000
,
0010
0000
0100
0100
,
0100
0000
2002
0000
,
0000
0000
3003
0000
,
0000
0000
0110
0000
,
0000
0000
0001
0000
,
0000
0000
1000
0000
,
0000
0000
0100
0000
,
0000
0000
1000
0000
,
0000
0000
0010
0000
,
0000
0000
0110
0000
,
0000
0000
0100
0000
,
0000
0000
0001
0000
,
0000
0000
0010
0000
,
0000
0000
0001
0000
,
0001
0000
1000
0000
,
1000
0000
0010
0000
,
0010
0000
0000
0000
0100
0000
0000
0100
,
0000
0000
1001
0000
;

//--------------- dance-single - forcednature ----------------
#NOTEDATA:;
#STEPSTYPE:dance-single;
#DESCRIPTION:forcednature;
#DIFFICULTY:Easy;
#METER:6;
#RADARVALUES:0,0,0,0,0;
#CREDIT:forcednature;
#NOTES:
0000
0000
0000
0000
,
0000
0000
0000
0000
,
0000
0000
0000
0000
,
0000
0000
0000
0000
,
0000
0000
0000
0000
,
0000
0000
0000
0000
,
0000
0000
0000
0000
,
0000
0000
0000
0000
,
0000
0000
0000
0000
,
0000
0000
0000
0000
,
0010
0000
0000
0010
0000
0000
0000
0000
,
1001
0000
0001
0100
,
0010
1000
0001
0000
,
0010
0100
0010
0000
,
0001
1000
0001
0000
,
1001
0000
1000
0100
,
1000
0010
0100
0000
,
0001
0010
0001
0000
,
1000
0010
1000
0000
,
2002
0000
0000
0000
,
0000
0000
3003
0000
,
1000
0000
0001
0000
,
0000
0000
0001
0000
,
0100
0000
0010
0000
,
0000
0000
0110
0000
,
1000
0000
0001
0000
,
0000
0000
0001
0000
,
0010
0000
0100
0000
,
0000
0000
1000
0000
,
1001
0000
0001
0000
,
0100
0001
1000
0000
,
0100
0000
1000
0000
,
0001
1000
0010
0000
,
0100
0000
0001
0000
,
1000
0100
0010
0000
,
0001
0000
1000
0000
,
0000
2002
0000
3003
,
0001
0100
0001
0000
,
1000
0100
1000
0000
,
0001
0010
0001
0000
,
1000
0010
1000
0000
,
0001
0100
0010
0000
,
1000
0100
0010
0000
,
0001
1000
0010
0000
,
1000
0001
0010
0000
,
0100
1000
0010
1000
,
0001
0100
0001
0010
,
0100
1000
0001
0100
,
0010
1000
0001
0000
,
1000
0000
0000
0100
0000
0000
1000
0000
,
0001
0000
0000
0100
0000
0000
0001
0000
,
0010
0010
0100
0100
,
1000
0000
0000
0001
0000
0000
1000
0000
,
0020
0030
0000
0000
0000
0000
0000
0000
,
0000
0000
1001
0000
,
1000
0100
1000
0001
,
0100
0000
0010
1000
,
0010
0100
0001
0100
,
0010
1000
0001
0000
,
0010
0100
1000
0100
,
0010
0000
0001
1000
,
0010
0100
0001
1000
,
0100
0000
0110
0000
,
0010
0001
0100
0001
,
0010
0000
0100
1000
,
0001
0100
0001
1000
,
0010
0000
0100
0001
,
1000
0001
0010
0100
,
1000
0000
0010
0100
,
0001
1000
0001
1000
,
0001
1000
0000
0000
2002
0000
0000
0000
,
0000
0000
3003
0000
,
0000
0000
1001
0000
,
1000
0001
0100
0010
,
1000
0001
0010
0000
,
0100
1000
0100
0010
,
0001
1000
0010
0000
,
0100
0001
0010
0001
,
0100
0010
1000
1000
,
0100
1000
0001
0001
,
0100
0001
0010
0010
,
0100
0010
0001
0100
,
0010
1000
0001
0010
,
0001
0010
0100
1000
,
0100
1000
0001
0100
,
0010
0000
1000
0000
0001
0000
1000
0001
,
0000
1000
0000
0000
2002
0000
0000
0000
,
0000
0000
3003
0000
;

//--------------- dance-single - forcednature ----------------
#NOTEDATA:;
#STEPSTYPE:dance-single;
#DESCRIPTION:forcednature;
#DIFFICULTY:Medium;
#METER:11;
#RADARVALUES:0,0,0,0,0;
#CREDIT:forcednature;
#NOTES:
0000
0000
0000
0000
,
0000
0000
0000
0000
,
0000
0000
0000
0000
,
0000
0000
0000
0000
,
0000
0000
0000
0000
,
0000
0000
0000
0000
,
0000
0000
0000
0000
,
0000
0000
0000
0000
,
0000
0000
0000
0000
,
0000
0000
0000
0000
,
0001
0000
0000
0001
0000
0000
1000
0000
0000
1000
0000
0000
0000
0000
0000
0000
,
1001
0000
1000
0000
0001
0100
0001
0000
,
0010
0000
0100
1000
0000
0100
0010
0000
,
0001
0000
1000
0000
0010
0100
0010
0000
,
1000
0000
0001
0000
0010
0100
0010
0000
,
0011
0001
1000
0010
,
0100
0000
0001
1000
0000
0100
1000
0000
,
0010
0000
1000
0010
0000
0100
0010
0000
,
1000
0001
0000
0010
0001
0000
0100
0000
,
1001
0000
1000
0001
,
0020
0000
0130
1000
,
0002
0000
0000
0000
0000
0003
0000
0000
,
0100
0000
0010
1000
0000
0001
0000
1000
,
0200
0000
0000
0320
0000
0000
0031
0000
,
2000
0000
0000
3020
0000
0000
0130
0000
,
2002
0000
3003
0000
,
0001
0000
0010
0100
0000
1000
0000
0001
,
0200
0000
0000
0320
0000
0000
0030
0000
,
0101
0000
0000
1100
0000
0000
0010
0000
,
1001
0000
1000
0100
1000
0000
0010
0000
,
0100
0000
0001
0010
0001
0000
0100
0000
,
0010
0000
1000
0100
0010
0000
0001
0000
,
1000
0000
0001
0100
0010
0000
1000
0000
,
0001
0000
0010
0100
1000
0000
0001
0000
,
0100
0000
0010
0100
0001
0000
1000
0000
,
0100
0000
0010
0001
1000
0000
0010
0000
,
0110
2002
0000
3003
,
1000
0000
0100
0010
0001
0000
1000
0000
,
0001
0000
0100
0010
1000
0000
0001
0000
,
1000
0000
0100
0010
0001
0000
1000
0000
,
0001
0000
0100
0010
1000
0000
0001
0000
,
0100
0000
1000
0100
0001
0000
1000
0000
,
0100
0000
0001
0100
1000
0000
0001
0000
,
1000
0000
0010
0001
0010
0000
1000
0000
,
0001
0000
0010
1000
0010
0000
0001
0000
,
1001
0000
0000
1000
0000
0000
0001
0000
0000
0100
0000
0000
0010
0000
0000
0000
,
1000
0000
0000
0001
0000
0000
0010
0000
0000
0100
0000
0000
1000
0000
0000
0000
,
0010
0000
0000
0100
0000
0000
0001
0000
0000
1000
0000
0000
0100
0000
0000
0000
,
0010
0000
0000
0001
0000
0000
0100
0000
0010
0000
1000
0000
0010
0000
0000
0000
,
0101
0000
1000
0010
0000
0001
0010
0000
,
1100
0000
0001
0010
0000
1000
0010
0000
,
0100
1000
0100
1000
0001
0100
0010
0000
,
0100
0000
0000
1000
0000
0000
0100
0000
0000
0001
0000
0000
0010
0000
0000
0000
,
2002
3003
0000
0000
1000
0000
0001
0000
,
0200
0000
0300
0000
1010
0000
0001
0010
,
0000
0100
1000
0000
0001
0000
0100
0010
,
0000
1000
0001
0000
0011
0000
1100
0000
,
0001
0000
0000
1000
0000
0000
0010
0000
0100
0000
0000
0000
0001
0000
0010
0000
,
0000
0001
0100
0000
0010
0000
1000
0100
,
0000
0010
0001
0000
0100
0000
0010
1000
,
0000
0001
0010
0000
1100
0000
0001
0100
,
0000
0010
1000
0000
0001
0000
0010
1000
,
0000
0010
0001
0000
2002
0000
3003
0000
,
1000
0000
0010
0000
0100
0000
0001
0000
1000
0000
0000
0100
0000
0000
0020
0000
,
0000
0030
0011
1100
,
0001
0000
0000
1000
0000
0000
0010
0000
0100
0000
0000
0000
1000
0000
0100
0000
,
0000
0001
0100
0000
0010
0000
1000
0001
,
0000
0010
0001
0000
0100
0000
0010
1000
,
0000
0100
1000
0000
0010
0000
0100
0001
,
0000
1000
0100
0000
0110
0000
1001
0000
,
0100
0010
0000
0100
2002
0000
0000
0000
,
0000
0000
3003
0000
1000
0000
1000
0001
,
0000
0001
0100
0000
0110
0000
1001
0000
,
0001
0010
0100
1000
0001
0000
0100
0010
,
1000
0000
0001
0010
0100
0000
0110
0000
,
0010
0001
1000
0001
0100
0000
0010
1000
,
0001
0000
1000
0100
0010
0000
0110
0000
,
0100
1000
0001
0100
0010
0000
0010
0000
,
1000
0000
0001
0000
0010
0000
0000
0000
0100
0000
0000
1000
0000
0000
0100
0000
,
0000
0010
0000
0000
0001
0000
0000
0000
1000
0000
0000
0010
0000
0000
0100
0000
,
0000
0001
0000
0000
0010
0000
0000
0000
0100
0000
0000
0010
0000
0000
0001
0000
,
0000
1000
0000
0000
0010
0000
0000
0000
0100
0000
0000
0001
0000
0000
1000
0000
,
0100
0010
0100
0000
1000
0001
0100
0001
,
1000
0001
0010
0000
0001
1000
0100
1000
,
0001
1000
0010
0000
1000
0100
1000
0100
,
0010
0001
0010
0001
0100
0000
0010
1000
,
0000
0001
0000
0010
2002
0000
0000
0000
,
0000
0000
3003
0000
;

//--------------- dance-single - forcednature ----------------
#NOTEDATA:;
#STEPSTYPE:dance-single;
#DESCRIPTION:forcednature;
#DIFFICULTY:Hard;
#METER:14;
#RADARVALUES:0,0,0,0,0;
#CREDIT:forcednature;
#NOTES:
0000
0000
0000
0000
,
0000
0000
0000
0000
,
0000
0000
0000
0000
,
0000
0000
0000
0000
,
0000
0000
0000
0000
,
0000
0000
0000
0000
,
0000
0000
0000
0000
,
0000
0000
0000
0000
,
0000
0000
0000
0000
,
0000
0000
0000
0000
,
1000
0000
0000
0001
0100
0000
0001
0000
0000
1000
0100
0000
0010
0000
0000
0000
,
0220
0000
0330
0000
1000
0100
0010
0001
,
0100
0000
0001
1000
0000
0010
1000
0000
,
0001
0010
0100
0000
1000
0001
0100
0000
,
0010
1000
0001
0000
0010
0100
1000
0000
,
0202
0303
1000
0010
,
1000
0000
0100
0010
0000
0001
0010
0001
,
0200
0000
1300
0200
0000
0301
0200
0000
,
0310
0000
1000
0000
0001
0000
0010
0000
0100
0000
1000
0000
0001
0100
0001
0100
,
0010
0000
0000
0000
1000
0001
1000
0000
,
0200
0000
0000
0000
0320
0000
0031
1000
,
0020
0000
0000
0000
0000
0030
0000
0100
,
0001
0000
1000
0100
0000
0010
0000
0001
,
0200
0000
0000
0320
0000
0000
1030
0000
,
0002
0000
0000
0023
0000
0000
0130
0000
,
0220
0000
0000
0000
0330
0000
0000
1000
,
0001
0000
0100
0010
0000
1000
0000
0001
,
0020
0000
0000
0230
0000
0000
0300
0000
,
2200
0000
0000
3300
0000
0000
0022
0000
0000
0033
0000
0000
0100
0000
0000
0000
,
1001
0000
0001
0100
0010
0000
1000
0001
,
0010
0000
0100
1000
0010
1000
0100
0010
,
0001
0000
0100
0010
1000
0000
0001
0010
,
0100
0000
1000
0001
0100
0010
1000
0001
,
0010
0000
0100
0010
0001
0000
0100
0010
,
1000
0000
0001
0010
0100
1000
0001
0100
,
0010
0000
1000
0001
0010
0000
0100
0000
,
0110
0000
0000
0000
1001
0000
0000
0000
0001
0000
0100
0000
0010
1000
0010
1000
,
0001
0010
0100
0010
1000
0010
0001
0000
,
1000
0010
0100
0010
0001
0010
1000
0000
,
0001
0100
0010
0100
1000
0100
0001
0000
,
1000
0100
0010
0100
0001
0100
1000
0000
,
0001
0010
0100
1000
0010
0100
0001
0000
,
1000
0100
0010
0001
0100
0010
1000
0000
,
0001
0010
0001
1000
0010
1000
0100
0000
,
0010
0000
0010
0000
0001
0000
1000
0010
,
0100
0000
0001
1000
0000
0001
0010
0000
0000
0100
0000
0000
1000
0000
0100
0000
,
0010
0000
0001
1000
0000
0001
0100
0000
0000
0010
0000
0000
1000
0000
0001
0000
,
1000
0000
0100
1000
0000
0010
1000
0000
0000
0100
0000
0000
0010
0000
0001
0000
,
0100
0000
0010
1000
0000
0001
0010
0000
0100
0000
0100
0000
1000
0000
0000
0000
,
0001
0010
1000
0001
0100
1000
0001
0000
,
1000
0010
0001
1000
0100
0001
1000
0000
,
0100
0000
0001
0000
0100
0000
1000
0000
0100
0000
0010
0000
0001
1000
0001
1000
,
0010
0000
0000
0101
0000
0000
0010
0000
0000
1100
0000
0000
0001
0000
1000
0000
,
2002
3003
0000
0000
0001
0000
1000
0000
,
0010
0010
0100
0000
0001
0010
0100
0001
,
0100
0010
0001
0000
1000
0010
0001
0010
,
0100
0000
0001
0000
1000
0000
0000
0000
0100
0010
0000
0000
0010
0001
0000
0000
,
0100
0000
0000
0110
0000
0000
1000
0000
0001
0000
0100
0000
1000
0000
0001
0000
,
0010
1000
0001
1000
0100
0010
1000
0010
,
0001
1000
0010
0000
0100
1000
0100
0001
,
1000
0000
0001
0000
0010
0000
0000
0000
0100
0000
0000
0100
1000
0000
0001
0000
,
0100
0010
1000
0000
0100
0001
0100
1000
,
0010
1000
0001
0000
0220
0000
0330
0000
,
1000
0000
0100
0000
0010
0000
0001
0000
0101
0000
0000
0110
0000
0000
2020
0000
,
0000
0000
0000
0000
3030
0000
0000
0000
1000
0100
0000
0100
0010
0000
0000
0000
,
0001
0000
0000
0101
0000
0000
1000
0000
0010
0000
0001
0000
0010
0000
1000
0000
,
0100
1000
0010
0000
0100
1000
0100
0001
,
0010
0100
0001
0000
0100
0010
0001
1000
,
0010
0000
0100
0000
0001
0000
0000
0000
1000
0000
0000
1000
0100
0000
0010
0000
,
0001
0000
0001
0000
0100
0000
0010
1000
0010
0000
0000
0000
0101
0000
0000
0000
,
0010
1001
0000
0000
0220
0000
0000
0000
,
0000
0000
0330
0000
0001
0100
1000
0001
,
0010
1000
0001
0000
1100
0000
0011
0000
,
0001
0100
0010
0001
0010
1000
0001
1000
,
0100
0010
0001
0100
0010
0000
0110
0000
,
0100
1000
0100
0001
1000
0010
0001
0010
,
0100
0001
1000
0001
0010
0000
0110
0000
,
0100
0001
0100
1000
0001
1000
0010
0000
,
0100
0000
0100
0000
0002
0000
0000
0000
1003
0000
0001
0010
0000
0001
0010
0000
,
0100
1000
0000
0100
1000
0000
0000
0000
0001
0000
1000
0010
0000
1000
0010
0000
,
0100
0001
0000
0100
0001
0000
0000
0000
1000
0000
0100
0010
0000
0100
0010
0000
,
0001
1000
0000
0001
1000
0000
0000
0000
0010
0000
0100
0001
0000
0100
0001
0000
,
1000
0000
0100
1000
0100
0000
0000
0000
0010
0000
0001
0000
0100
0000
0001
0000
,
0010
0001
0100
0001
1000
0010
1000
0100
,
1000
0010
1000
0100
0010
0010
0001
0001
,
1000
1000
0010
0010
0110
0000
0100
1001
,
0000
0110
0000
0010
2002
0000
0000
0000
,
0000
0000
3003
0000
;

//--------------- dance-single - forcednature ----------------
#NOTEDATA:;
#STEPSTYPE:dance-single;
#DESCRIPTION:forcednature;
#DIFFICULTY:Challenge;
#METER:16;
#RADARVALUES:0,0,0,0,0;
#CREDIT:forcednature;
#NOTES:
0000
0000
0000
0000
,
0000
0000
0000
0000
,
0000
0000
0000
0000
,
0000
0000
0000
0000
,
0000
0000
0000
0000
,
0000
0000
0000
0000
,
0000
0000
0000
0000
,
0000
0000
0000
0000
,
0000
0000
0000
0000
,
0000
0000
0000
0000
,
1000
0100
0000
0100
1000
0000
0001
0100
0000
0100
0001
0000
0010
0000
0000
0000
,
0210
0000
1000
0000
0310
0100
1000
0001
,
0100
0000
0000
0000
1000
0000
0100
0000
0000
0000
0001
0000
0010
0100
0010
0000
,
0001
0000
1000
0000
0010
0000
0000
0000
0100
0000
0001
0000
1000
0100
1000
0000
,
0010
0100
1000
0000
1000
0100
0001
0000
,
0021
1030
0110
1001
,
1100
0000
1000
0010
0000
0001
0010
0100
,
0001
0000
0010
0000
0100
0000
0001
0000
0100
0000
1000
0001
1000
0000
0010
0000
,
0100
0000
0001
1000
0010
0000
0100
0000
0010
1000
0001
0000
1000
0100
1000
0100
,
0010
0000
0000
0000
0001
0100
0010
0000
,
2000
0000
0000
3000
0001
0000
0100
0010
,
2002
0000
0000
0000
0000
3003
0000
0001
,
0010
0000
0100
0001
0000
0100
0000
1000
,
2002
0000
0000
3003
0000
0000
0220
0000
0000
0330
0000
0000
0002
0000
0000
0000
,
0203
0000
0000
0000
0000
0000
0310
1000
0001
0000
0000
0000
0010
0000
0000
0000
,
0220
0000
0000
0000
0330
0000
0000
0100
,
0001
0000
0100
1000
0000
0010
0000
0100
,
0220
0000
0000
0330
0000
0000
2002
0000
0000
0000
3003
0000
0000
0000
0000
0000
,
1100
0000
0000
0000
0000
0000
1000
0010
0100
0000
0001
0100
0000
0001
0100
0001
,
0010
0000
0001
0100
1000
0000
0100
0001
,
0010
0000
1000
0010
0001
0100
0001
1000
,
0010
0000
0001
0010
1000
0000
0100
1000
,
0010
0000
0100
1000
0100
0001
0010
0100
,
1000
0000
0010
0100
1000
0000
0100
0001
,
0010
0000
0100
0001
0100
1000
0001
0010
,
0100
0000
1000
0001
0100
0000
0010
0000
,
0110
0000
0000
0000
1000
0100
0010
0001
0100
0001
0010
0100
1000
0010
1000
0010
,
0100
0000
0001
1000
0000
0001
0010
0000
0100
0000
1000
0000
1100
0000
0000
0000
,
0100
0000
1000
0001
0000
1000
0010
0000
0100
0000
0001
0000
0101
0000
0000
0000
,
1000
0000
0010
0100
0000
0010
0001
0000
0010
0000
1000
0000
1001
0000
0000
0000
,
0001
0000
0010
1000
0000
0010
0100
0000
0010
0000
0001
0000
1001
0000
0000
0000
,
0001
0000
0100
0000
0010
0000
0100
0000
1000
0000
0100
0000
0001
0000
1000
0010
,
1000
0000
0100
0000
0010
0000
0100
0000
0001
0000
0100
0000
1000
0000
0001
0010
,
0001
0000
0100
0000
0010
0000
0001
0000
0010
0000
0100
0000
0001
0000
1000
0010
,
1000
0000
0100
0000
0010
0000
0001
0000
0100
0000
0000
0000
0001
0000
1000
0001
,
0010
0000
0010
0100
0000
0100
1000
0000
0001
0100
0000
0100
0010
1000
0001
1000
,
0100
0000
0100
0010
0000
0010
0001
0000
1000
0010
0000
0010
0100
0001
1000
0001
,
0010
0000
0010
0100
0000
0100
1000
0000
0001
0100
0000
0100
0010
1000
0001
0010
,
0100
0000
0100
1000
0000
1000
0001
0000
0100
0000
0100
0000
0010
0000
1000
0001
,
0010
0000
0100
1000
0100
0000
0001
0000
0100
1000
0100
0000
0010
0000
0001
1000
,
0010
0000
0100
0001
0100
0000
1000
0000
0100
0001
0100
0000
0010
0000
1000
0001
,
0100
0000
0001
1000
0100
0000
1000
0001
0010
0000
0001
1000
0010
0100
0001
1000
,
0100
0000
0000
1010
0000
0000
0101
0000
0000
0011
0000
0000
0100
0000
0010
0000
,
2002
3003
0000
0000
0001
0000
1000
0000
,
0010
0100
0010
0100
0001
0000
0000
0000
0001
0010
0100
0000
1000
0000
0001
0100
,
0010
0000
1000
0000
0001
1000
0100
0000
0010
0001
1000
0000
0010
0000
0100
0001
,
0010
0000
0100
0000
1000
0001
1000
0000
0010
0100
0000
0000
0001
0100
0000
0000
,
0010
1000
0000
1000
0001
0000
0010
0000
0110
0000
0000
0000
1000
0000
1100
0000
,
0000
0000
0001
0000
0101
0000
0000
0000
1000
0100
0010
0000
0001
0000
1000
0010
,
0100
0000
0001
0000
0010
0001
1000
0000
0010
0100
0001
0000
1000
0000
0100
0010
,
0001
0000
0100
0000
0001
1000
0100
0000
0010
0000
0000
0001
0100
0000
1000
0000
,
0100
0010
0100
0000
0001
0000
1000
0000
0100
0010
0001
1000
0001
0000
0100
0010
,
1000
0001
1000
0000
0100
0010
0100
0000
1002
0000
0000
0000
0100
0000
0000
0000
,
0013
0001
0010
0000
0100
0000
1000
0000
0010
0100
0000
1000
0100
0000
0001
0000
,
0010
0100
1000
0000
0001
1000
0010
0100
0001
0010
0000
0001
0100
0000
1000
0000
,
0100
0010
0100
0000
0001
0000
1000
0000
1010
0000
0000
0000
0001
0000
0011
0000
,
0000
0000
0100
0000
0110
0000
0000
0000
0001
1000
0010
0000
0100
0000
0001
1000
,
0100
0000
0010
0000
0001
0100
0010
0000
1000
0100
0010
0000
0100
0000
0001
0100
,
0010
0000
0001
0000
1000
0001
0100
0010
1000
0000
1000
0100
0001
0000
0100
0000
,
0010
0001
0010
0000
0110
0000
0100
1000
0001
0000
0000
0000
0101
0000
0000
0000
,
0010
0110
0000
0100
2002
0000
0000
0000
,
0000
0000
0000
0000
3003
0000
0000
0000
1000
0100
1000
0100
0010
0000
0001
0100
,
0010
1000
0001
1000
0100
0000
0000
0000
0120
0000
0000
0000
0001
0000
0000
0000
,
0130
0000
0010
0000
1000
0000
0010
0000
0001
0000
1000
0000
0001
0000
0100
0010
,
1000
0010
0000
0100
0001
0000
0010
0000
0210
0000
0000
0000
1000
0000
0000
0000
,
0310
0100
0001
0100
1000
0001
1000
0010
,
0100
0001
1000
0000
0100
0000
0001
0000
0200
0000
0000
0000
1000
0000
0000
0000
,
0310
0000
0100
0000
1000
0000
0001
0000
0100
0001
1000
0010
1000
0000
0001
0000
,
0010
0000
0010
0000
0100
1000
0010
0000
0100
0000
0001
1000
0000
1000
0100
0000
,
0010
0001
0000
0001
0100
0000
1000
0000
0100
0000
0001
1000
0000
1000
0100
0000
,
0010
0001
0000
0001
0100
0010
1000
0000
0100
0000
0010
0001
0000
0001
0100
0000
,
1000
0100
0000
0100
0010
1000
0001
0000
1000
0000
1000
0100
0000
0100
0010
0001
,
1000
0001
0100
0010
1000
0000
1000
0000
0001
0000
0010
0000
0100
0000
0010
0000
,
1000
0001
0100
0010
0100
1000
0010
0100
,
0010
0000
0001
0000
1000
0000
0100
0000
0001
0010
0001
0010
0100
1000
0001
1000
,
0010
0100
0001
1000
0100
0010
0001
0100
0010
0000
0000
0000
1000
0000
1100
0000
,
0000
0101
0000
0010
2002
0000
0000
0000
,
0000
0000
3003
0000
;

//--------------- dance-double - forcednature ----------------
#NOTEDATA:;
#STEPSTYPE:dance-double;
#DESCRIPTION:forcednature;
#DIFFICULTY:Easy;
#METER:7;
#RADARVALUES:0,0,0,0,0;
#CREDIT:forcednature;
#NOTES:
00000000
00000000
00000000
00000000
,
00000000
00000000
00000000
00000000
,
00000000
00000000
00000000
00000000
,
00000000
00000000
00000000
00000000
,
00000000
00000000
00000000
00000000
,
00000000
00000000
00000000
00000000
,
00000000
00000000
00000000
00000000
,
00000000
00000000
00000000
00000000
,
00000000
00000000
00000000
00000000
,
00000000
00000000
00000000
00000000
,
00010000
00000000
00000000
00001000
00000000
00000000
00000000
00000000
,
00011000
00000000
01000000
00010000
,
00100000
00010000
10000000
00000000
,
01000000
00010000
00001000
00000000
,
00000100
00001000
00010000
00000000
,
00011000
00000000
00001000
00010000
,
00000010
00001000
00000010
00000000
,
00000100
00000001
00001000
00000000
,
00000100
00010000
00001000
00000000
,
02002000
00000000
00000000
00000000
,
00000000
00000000
03003000
00000000
,
10000000
00000000
00010000
00000000
,
00000000
00000000
00010000
00000000
,
00100000
00000000
00001000
00000000
,
00000000
00000000
00011000
00000000
,
00010000
00000000
00000010
00000000
,
00000000
00000000
00000010
00000000
,
00001000
00000000
00000001
00000000
,
00000000
00000000
00000010
00000000
,
00000110
00000000
00000100
00000000
,
00010000
00001000
00100000
00000000
,
00010000
00000000
01000000
00000000
,
00001000
00010000
00000010
00000000
,
00001000
00000000
00000100
00000000
,
00010000
00001000
00100000
00000000
,
01000000
00000000
10000000
00000000
,
00000000
20020000
00000000
30030000
,
00010000
01000000
00001000
00000000
,
00010000
00000100
00001000
00000000
,
00000010
00010000
00001000
00000000
,
00100000
00001000
00010000
00000000
,
00000100
00000010
00000100
00000000
,
00010000
00001000
00010000
00000000
,
00100000
01000000
00100000
00000000
,
10000000
00010000
00100000
00000000
,
01000000
10000000
01000000
00010000
,
00001000
00010000
00000100
00001000
,
00000010
00000100
00000010
00001000
,
00000001
00000010
00000100
00000000
,
00010000
00000000
00000000
00010000
00000000
00000000
00010000
00000000
,
00001000
00000000
00000000
00001000
00000000
00000000
00001000
00000000
,
01000000
01000000
00010000
00010000
,
00100000
00000000
00000000
01000000
00000000
00000000
10000000
00000000
,
00200000
00300000
00000000
00000000
00000000
00000000
00000000
00000000
,
00000000
00000000
10010000
00000000
,
10000000
01000000
00100000
00001000
,
00010000
00000000
00000010
00001000
,
00000001
00000010
00000001
00000100
,
00001000
00010000
00001000
00000000
,
00100000
00010000
01000000
00010000
,
00100000
00000000
01000000
10000000
,
01000000
00010000
00001000
00010000
,
00001000
00000000
00000110
00000000
,
00000001
00000100
00000001
00000010
,
00000100
00000000
00010000
00001000
,
00100000
00001000
00010000
00100000
,
01000000
00000000
00010000
10000000
,
01000000
10000000
00100000
01000000
,
00010000
00000000
00100000
00001000
,
00010000
00000010
00000100
00000001
,
00000100
00000001
00000000
00000000
00002020
00000000
00000000
00000000
,
00000000
00000000
00003030
00000000
,
00000000
00000000
00011000
00000000
,
00100000
00001000
01000000
00010000
,
10000000
01000000
00100000
00000000
,
01000000
10000000
01000000
00010000
,
00001000
00010000
00000100
00000000
,
00001000
00000010
00000100
00000001
,
00000010
00000000
00000100
00000100
,
00010000
00001000
01000000
01000000
,
00001000
00010000
00000010
00000010
,
00010000
00001000
00100000
00010000
,
01000000
00100000
10000000
01000000
,
10000000
01000000
00010000
00001000
,
00010000
00001000
00000100
00000100
,
00000010
00000000
00000010
00000000
00001000
00000000
00000001
00001000
,
00000000
00000001
00000000
00000000
00002002
00000000
00000000
00000000
,
00000000
00000000
00003003
00000000
;

//--------------- dance-double - forcednature ----------------
#NOTEDATA:;
#STEPSTYPE:dance-double;
#DESCRIPTION:forcednature;
#DIFFICULTY:Medium;
#METER:11;
#RADARVALUES:0,0,0,0,0;
#CREDIT:forcednature;
#NOTES:
00000000
00000000
00000000
00000000
,
00000000
00000000
00000000
00000000
,
00000000
00000000
00000000
00000000
,
00000000
00000000
00000000
00000000
,
00000000
00000000
00000000
00000000
,
00000000
00000000
00000000
00000000
,
00000000
00000000
00000000
00000000
,
00000000
00000000
00000000
00000000
,
00000000
00000000
00000000
00000000
,
00000000
00000000
00000000
00000000
,
00010000
00000000
00000000
00010000
00000000
00000000
00001000
00000000
00000000
00001000
00000000
00000000
00000000
00000000
00000000
00000000
,
00011000
00000000
01000000
00000000
00010000
10000000
00010000
00000000
,
00100000
00000000
01000000
10000000
00000000
01000000
00010000
00000000
,
00001000
00000000
00000100
00000000
00000010
00001000
00000010
00000000
,
00000100
00000000
00000001
00000000
00000010
00000100
00000010
00000000
,
00001100
00010000
00001000
01000000
,
00010000
00000000
00100000
01000000
00000000
10000000
01000000
00000000
,
00010000
00000000
00001000
00000100
00000000
00000001
00000100
00000000
,
00000010
00010000
00000000
00001000
00100000
00000000
01000000
00000000
,
01100000
00000000
00100000
00001000
,
00020000
00000000
00030010
00001000
,
00000200
00000000
00000000
00000000
00000000
00000300
00000000
00000000
,
00000010
00000000
00000001
00001000
00000000
00000001
00000000
00000100
,
00000020
00000000
00000000
00020030
00000000
00000000
00031000
00000000
,
00200000
00000000
00000000
02300000
00000000
00000000
13000000
00000000
,
20020000
00000000
30030000
00000000
,
00010000
00000000
01000000
00001000
00000000
00010000
00000000
00000100
,
00002000
00000000
00000000
00003002
00000000
00000000
00000003
00000000
,
00000101
00000000
00000000
00001010
00000000
00000000
00010000
00000000
,
00011000
00000000
00001000
01000000
00001000
00000000
00100000
00000000
,
00010000
00000000
10000000
00100000
10000000
00000000
01000000
00000000
,
00010000
00000000
00001000
00000010
00000100
00000000
00001000
00000000
,
00000001
00000000
00000100
00000001
00000010
00000000
00000100
00000000
,
00010000
00000000
00001000
01000000
00010000
00000000
10000000
00000000
,
01000000
00000000
00100000
00001000
00010000
00000000
00000010
00000000
,
00001000
00000000
00000100
00000010
00000001
00000000
00000100
00000000
,
00000010
00022000
00000000
00033000
,
01000000
00000000
00001000
00010000
00001000
00000000
00000010
00000000
,
00000100
00000000
00010000
00001000
00010000
00000000
00100000
00000000
,
01000000
00000000
00001000
00010000
00001000
00000000
00000010
00000000
,
00000100
00000000
00010000
00001000
00010000
00000000
00100000
00000000
,
01000000
00000000
00001000
00010000
00001000
00000000
00000100
00000000
,
00000010
00000000
00010000
00001000
00010000
00000000
00100000
00000000
,
10000000
00000000
01000000
00010000
00001000
00000000
00000010
00000000
,
00000001
00000000
00000100
00001000
00010000
00000000
00100000
00000000
,
01000000
00000000
00000000
00010000
00000000
00000000
10000000
00000000
00000000
00010000
00000000
00000000
00100000
00000000
00000000
00000000
,
01000000
00000000
00000000
00010000
00000000
00000000
00001000
00000000
00000000
00010000
00000000
00000000
00000010
00000000
00000000
00000000
,
00000100
00000000
00000000
00001000
00000000
00000000
00000100
00000000
00000000
00000001
00000000
00000000
00000010
00000000
00000000
00000000
,
00000100
00000000
00000000
00010000
00000000
00000000
00001000
00000000
01000000
00000000
00010000
00000000
01000000
00000000
00000000
00000000
,
01100000
00000000
00100000
10000000
00000000
00100000
00010000
00000000
,
00011000
00000000
00001000
00000010
00000000
00000001
00000010
00000000
,
00000100
00001000
00000100
00010000
00001000
01000000
00010000
00000000
,
00100000
00000000
00000000
01000000
00000000
00000000
10000000
00000000
00000000
01000000
00000000
00000000
00010000
00000000
00000000
00000000
,
00022000
00033000
00000000
00000000
00001000
00000000
00000010
00000000
,
00000200
00000000
00000300
00000000
00001001
00000000
00000001
00000100
,
00000000
00000010
00000100
00000000
00001000
00000000
00010000
01000000
,
00000000
00100000
01000000
00000000
11000000
00000000
00110000
00000000
,
00010000
00000000
00000000
01000000
00000000
00000000
00001000
00000000
00010000
00000000
00000000
00000000
00000100
00000000
00001000
00000000
,
00000000
00000010
00001000
00000000
00000100
00000000
00000010
00000001
,
00000000
00000100
00000010
00000000
00000100
00000000
00001000
00010000
,
00000000
00100000
00010000
00000000
00011000
00000000
00001000
01000000
,
00000000
00010000
10000000
00000000
01000000
00000000
00010000
00001000
,
00000000
00000010
00000100
00000000
00002200
00000000
00003300
00000000
,
00001000
00000000
00000001
00000000
00000100
00000000
00000001
00000000
00000010
00000000
00000000
00000100
00000000
00000000
00020000
00000000
,
00000000
00030000
00101000
01001000
,
01000000
00000000
00000000
00010000
00000000
00000000
10000000
00000000
00100000
00000000
00000000
00000000
00010000
00000000
00001000
00000000
,
00000000
00000010
00000100
00000000
00001000
00000000
00000001
00000100
,
00000000
00001000
00010000
00000000
00100000
00000000
01000000
00010000
,
00000000
00100000
00010000
00000000
01000000
00000000
00100000
10000000
,
00000000
01000000
00010000
00000000
00011000
00000000
00001010
00000000
,
00000010
00000100
00000000
00001000
00002002
00000000
00000000
00000000
,
00000000
00000000
00003003
00000000
00000001
00000000
00000100
00001000
,
00000000
00001000
00010000
00000000
00110000
00000000
01100000
00000000
,
01000000
00010000
10000000
00010000
00100000
00000000
01000000
00010000
,
00001000
00000000
00000010
00000100
00001000
00000000
00001010
00000000
,
00000010
00000100
00000001
00000010
00000100
00000000
00010000
00001000
,
01000000
00000000
00010000
00100000
01000000
00000000
01100000
00000000
,
00100000
00010000
10000000
00100000
01000000
00000000
01000000
00000000
,
00001000
00000000
00010000
00000000
00000100
00000000
00000000
00000000
00000010
00000000
00000000
00000001
00000000
00000000
00001000
00000000
,
00000000
00000001
00000000
00000000
00000100
00000000
00000000
00000000
00000010
00000000
00000000
00010000
00000000
00000000
00001000
00000000
,
00000000
01000000
00000000
00000000
00010000
00000000
00000000
00000000
00100000
00000000
00000000
01000000
00000000
00000000
10000000
00000000
,
00000000
01000000
00000000
00000000
00010000
00000000
00000000
00000000
00001000
00000000
00000000
00000100
00000000
00000000
00000001
00000000
,
00000010
00000100
00000010
00000000
00000100
00010000
00001000
00010000
,
00000010
00010000
00001000
00000000
01000000
00001000
00010000
00001000
,
00100000
00001000
00010000
00000000
00100000
01000000
00100000
00010000
,
00001000
00000010
00000100
00000010
00000001
00000000
00000100
00001000
,
00000000
00010000
00000000
01000000
20020000
00000000
00000000
00000000
,
00000000
00000000
30030000
00000000
;

//--------------- dance-double - forcednature ----------------
#NOTEDATA:;
#STEPSTYPE:dance-double;
#DESCRIPTION:forcednature;
#DIFFICULTY:Hard;
#METER:14;
#RADARVALUES:0,0,0,0,0;
#CREDIT:forcednature;
#NOTES:
00000000
00000000
00000000
00000000
,
00000000
00000000
00000000
00000000
,
00000000
00000000
00000000
00000000
,
00000000
00000000
00000000
00000000
,
00000000
00000000
00000000
00000000
,
00000000
00000000
00000000
00000000
,
00000000
00000000
00000000
00000000
,
00000000
00000000
00000000
00000000
,
00000000
00000000
00000000
00000000
,
00000000
00000000
00000000
00000000
,
00001000
00000000
00010000
00100000
00000000
00010000
00000100
00000000
,
00000220
00000000
00000330
00000000
00000010
00000001
00001000
00000001
,
00000100
00000000
00001000
00010000
00000000
00001000
00100000
00000000
,
01000000
00010000
00001000
00000000
00100000
00010000
10000000
00000000
,
00100000
01000000
00001000
00000000
00010000
00000100
00000010
00000000
,
00000022
00000033
00000001
00000100
,
00001000
00000000
00010000
00100000
00000000
01000000
00100000
10000000
,
02200000
00000000
00000000
03300000
00000000
00000000
00022000
00000000
00000000
00033000
00000000
00000000
00000110
00000000
00000000
00000000
,
00000001
00000000
00000010
00000000
00000100
00000000
00010000
00000000
00001000
00000000
01000000
00000000
00100000
10000000
00100000
10000000
,
00010000
00000000
00000000
00000000
00100000
00001000
00010000
00000000
,
00000020
00000000
00000000
00000000
00000230
00000000
00001300
00000100
,
00000002
00000000
00000000
00000000
00000000
00000003
00000000
00000010
,
00000100
00000000
00010000
00001000
00000000
01000000
00000000
00010000
,
20000000
00000000
00000000
32000000
00000000
00000000
03100000
00000000
,
00002000
00000000
00000000
00023000
00000000
00000000
00030010
00000000
,
00000220
00000000
00000000
00000000
00000330
00000000
00000000
00000100
,
00000001
00000000
00001000
00000100
00000000
00010000
00000000
00001000
,
02000000
00000000
00000000
03020000
00000000
00000000
00030000
00000000
,
22000000
00000000
00000000
33000000
00000000
00000000
00220000
00000000
00000000
00330000
00000000
00000000
00001000
00000000
00000000
00000000
,
00011000
00000000
00010000
00000010
00001000
00000000
00000100
00000010
,
00000001
00000000
00000100
00000010
00000100
00001000
00010000
00001000
,
00100000
00000000
00010000
10000000
00100000
00000000
01000000
00001000
,
00010000
00000000
00000100
00001000
00000010
00001000
00000100
00000010
,
00000001
00000000
00000100
00001000
00010000
00000000
00100000
00010000
,
00001000
00000000
01000000
00010000
10000000
00010000
00100000
01000000
,
00010000
00000000
00001000
00000100
00000010
00000000
00001000
00000000
,
00000110
00000000
00000000
00000000
00001001
00000000
00000000
00000000
00001000
00000000
00000100
00000000
00010000
00001000
00010000
00001000
,
01000000
00010000
10000000
01000000
00100000
00001000
00010000
00000000
,
00000100
00001000
00000001
00000100
00000010
00010000
00001000
00000000
,
01000000
00010000
10000000
01000000
00010000
00001000
00010000
00000000
,
00000100
00001000
00000001
00000100
00001000
00010000
00001000
00000000
,
00100000
01000000
00100000
00001000
00010000
00100000
00010000
00000000
,
00000010
00000100
00000010
00010000
00001000
00000010
00001000
00000000
,
00010000
01000000
10000000
00010000
10000000
00100000
00010000
00000000
,
00001000
00000000
00001000
00000000
00000010
00000000
00000001
00001000
,
00000001
00000000
00000100
00000010
00000000
00001000
00000010
00000000
00000000
00010000
00000000
00000000
00001000
00000000
00100000
00000000
,
00010000
00000000
01000000
00010000
00000000
10000000
00010000
00000000
00000000
00100000
00000000
00000000
01000000
00000000
10000000
00000000
,
00010000
00000000
01000000
00001000
00000000
00010000
00001000
00000000
00000000
00000010
00000000
00000000
00000100
00000000
00001000
00000000
,
00000001
00000000
00000100
00000010
00000000
00001000
00000010
00000000
00010000
00000000
00010000
00000000
00001000
00000000
00000000
00000000
,
00000010
00000100
00001000
00000010
00000100
00001000
00010000
00000000
,
00100000
01000000
00010000
00100000
01000000
00010000
00001000
00000000
,
00000010
00000000
00001000
00000000
00000010
00000000
00000100
00000000
00000010
00000000
00000001
00000000
00001000
00000010
00001000
00000010
,
00000100
00000000
00000000
00001000
00000000
00000000
01000000
00000000
00000000
00010000
00000000
00000000
00100000
00000000
01000000
00000000
,
02200000
03300000
00000000
00000000
10000000
00000000
00010000
00000000
,
01000000
01000000
00001000
00000000
00100000
00010000
01000000
00100000
,
00010000
00001000
00000010
00000000
00000100
00010000
00001000
00000100
,
00000010
00000000
00001000
00000000
00000001
00000000
00000000
00000000
00000010
00000100
00000000
00000000
00000100
00010000
00000000
00000000
,
00001000
00000000
00000000
01001000
00000000
00000000
01000000
00000000
00010000
00000000
10000000
00000000
00100000
00000000
00010000
00000000
,
00100000
10000000
01000000
00010000
00001000
00000010
00000100
00000010
,
00000001
00001000
00000010
00000000
00010000
00001000
00100000
00001000
,
00010000
00000000
00100000
00000000
01000000
00000000
00000000
00000000
00010000
00000000
00000000
00010000
10000000
00000000
01000000
00000000
,
00010000
00001000
00000010
00000000
00000100
00000001
00000100
00001000
,
00000010
00010000
00001000
00000000
00220000
00000000
00330000
00000000
,
00001000
00000000
00010000
00000000
00100000
00000000
01000000
00000000
00100000
00000000
00000000
10100000
00000000
00000000
02020000
00000000
,
00000000
00000000
00000000
00000000
03030000
00000000
00000000
00000000
10000000
01000000
00000000
01000000
00100000
00000000
00000000
00000000
,
00001000
00000000
00000000
00010000
00000000
00000000
00000010
00000000
00000100
00000000
00001000
00000000
00000100
00000000
00000001
00000000
,
00000010
00000100
00000010
00000000
00000001
00000100
00001000
00010000
,
01000000
10000000
00100000
00000000
10000000
01000000
00010000
00001000
,
00000100
00000000
00000001
00000000
00000010
00000000
00000000
00000000
00000100
00000000
00000000
00000100
00010000
00000000
00001000
00000000
,
01000000
00000000
01000000
00000000
00010000
00000000
00100000
01000000
00100000
00000000
00000000
00000000
00011000
00000000
00000000
00000000
,
00000010
00000110
00000000
00000000
00002002
00000000
00000000
00000000
,
00000000
00000000
00003003
00000000
00000001
00000010
00001000
00010000
,
00100000
10000000
01000000
00000000
01100000
00000000
00101000
00000000
,
00001000
00010000
00100000
01000000
00010000
10000000
01000000
00010000
,
00001000
00000100
00000010
00001000
00000001
00000000
00000011
00000000
,
00000010
00000100
00010000
00001000
01000000
00100000
00010000
00100000
,
10000000
00010000
00100000
01000000
00010000
00000000
00011000
00000000
,
00001000
00000100
00000010
00001000
00000001
00000010
00001000
00000000
,
00010000
00000000
00010000
00000000
00200000
00000000
00000000
00000000
01300000
00000000
00010000
10000000
00000000
10000000
01000000
00000000
,
01000000
00100000
00000000
00100000
00001000
00000000
00000000
00000000
00010000
00000000
00000010
00001000
00000000
00001000
00000100
00000000
,
00000100
00000010
00000000
00000010
00000001
00000000
00000000
00000000
00000100
00000000
00001000
00010000
00000000
00010000
00100000
00000000
,
00100000
01000000
00000000
01000000
00010000
00000000
00000000
00000000
10000000
00000000
01000000
00010000
00000000
00010000
00001000
00000000
,
00000010
00000000
00000100
00001000
00000100
00000000
00000000
00000000
00000010
00000000
00000001
00000000
00000100
00000000
00001000
00000000
,
00010000
01000000
10000000
00100000
10000000
01000000
00010000
00001000
,
00000100
00000001
00000010
00000100
00010000
00010000
00001000
00001000
,
01000000
01000000
00010000
00010000
00110000
00000000
00001000
00011000
,
00000000
00000110
00000000
00000100
00002002
00000000
00000000
00000000
,
00000000
00000000
00003003
00000000
;

//--------------- dance-double - forcednature ----------------
#NOTEDATA:;
#STEPSTYPE:dance-double;
#DESCRIPTION:forcednature;
#DIFFICULTY:Challenge;
#METER:16;
#RADARVALUES:0,0,0,0,0;
#CREDIT:forcednature;
#NOTES:
00000000
00000000
00000000
00000000
,
00000000
00000000
00000000
00000000
,
00000000
00000000
00000000
00000000
,
00000000
00000000
00000000
00000000
,
00000000
00000000
00000000
00000000
,
00000000
00000000
00000000
00000000
,
00000000
00000000
00000000
00000000
,
00000000
00000000
00000000
00000000
,
00000000
00000000
00000000
00000000
,
00000000
00000000
00000000
00000000
,
00001000
00000000
00000000
01000000
00001000
00000000
00010000
00000000
00000000
00000100
00010000
00000000
00001000
00000000
00000000
00000000
,
00001020
00000000
00000100
00000000
00000031
00000010
00001000
00010000
,
01000000
00000000
00000000
00000000
00100000
00000000
00001000
00000000
00000000
00000000
00010000
00000000
00100000
01000000
00100000
00000000
,
10000000
00000000
00010000
00000000
00100000
00000000
00000000
00000000
01000000
00000000
00010000
00000000
00001000
00010000
00001000
00000000
,
00100000
00010000
00001000
00000000
00000100
00010000
00000010
00000000
,
00000210
00000000
00001300
00000000
00000100
00000001
00000010
00000001
,
00000100
00001000
00010000
00100000
00000000
01000000
00010000
10000000
,
01000000
00000000
00010000
00000000
00001000
00000000
00000100
00000000
00001000
00000000
00010000
00001000
00010000
00000000
00000000
00000000
,
00100000
00000000
01000000
00010000
10000000
00000000
01000000
00000000
00100000
00001000
00010000
00000000
00000010
00001000
00000010
00001000
,
00000100
00000000
00000000
00000000
00000010
00000001
00001000
00000000
,
00000020
00000000
00000000
00000030
00000100
00000000
00001000
00010000
,
00022000
00000000
00000000
00000000
00000000
00033000
00000000
00001000
,
00100000
00000000
01000000
00010000
00000000
01000000
00000000
10000000
,
22000000
00000000
00000000
33000000
00000000
00000000
00220000
00000000
00000000
00330000
00000000
00000000
00002000
00000000
00000000
00000000
,
00023000
00000000
00000000
00000000
00000000
00000000
00030010
00001000
00000001
00000000
00000000
00000000
00000010
00000000
00000000
00000000
,
00000220
00000000
00000000
00000000
00000330
00000000
00000000
00000100
,
00010000
00000000
00001000
00000100
00000000
00010000
00000000
01000000
,
02200000
00000000
00000000
03300000
00000000
00000000
20020000
00000000
00000000
00000000
30030000
00000000
00000000
00000000
00000000
00000000
,
11000000
00000000
00000000
00000000
00000000
00000000
10000000
00010000
01000000
00000000
00001000
00010000
00000000
00000100
00001000
00000100
,
00000010
00000000
00000001
00000100
00001000
00000000
00010000
00100000
,
01000000
00000000
00010000
10000000
01000000
00010000
00001000
00100000
,
00010000
00000000
01000000
00100000
00010000
00000000
00001000
00000010
,
00000100
00000000
00001000
00000100
00000001
00000010
00000100
00001000
,
00000010
00000000
00000100
00001000
00010000
00000000
01000000
00010000
,
00001000
00000000
01000000
00010000
00100000
01000000
00010000
00001000
,
00000010
00000000
00000100
00001000
00000010
00000000
00000100
00000000
,
00001001
00000000
00000000
00000000
00000001
00000100
00000001
00001000
00000010
00010000
00001000
00100000
00010000
00100000
01000000
10000000
,
00100000
00000000
00000000
00100000
01000000
00000000
00001000
00000000
00010000
00000000
00000100
00000000
00000010
00000000
00000000
00000000
,
00000010
00000000
00000000
00000010
00000100
00000000
00010000
00000000
00001000
00000000
01000000
00000000
00100000
00000000
00000000
00000000
,
01000000
00000000
00000000
01000000
00100000
00000000
00010000
00000000
00001000
00000000
00000010
00000000
00000100
00000000
00000000
00000000
,
00000100
00000000
00000000
00000100
00000010
00000000
00001000
00000000
00010000
00000000
00100000
00000000
01000000
00000000
00000000
00000000
,
10000000
00000000
01000000
00000000
00010000
00000000
00100000
00000000
00001000
00000000
00010000
00000000
00000010
00000000
00000100
00000001
,
00000100
00000000
00001000
00000000
00000100
00000000
00000001
00000000
00000010
00000000
00000100
00000000
00010000
00000000
00001000
00100000
,
00001000
00000000
00010000
00000000
00100000
00000000
01000000
00000000
00100000
00000000
10000000
00000000
01000000
00000000
00100000
00010000
,
00100000
00000000
01000000
00000000
00010000
00000000
00001000
00000000
00000010
00000000
00000000
00000000
00000100
00000000
00001000
00000001
,
00000100
00000000
00000100
00000010
00000000
00000010
00001000
00000000
00000100
00010000
00000000
00010000
00001000
01000000
00010000
01000000
,
00100000
00000000
00100000
10000000
00000000
10000000
00010000
00000000
00100000
01000000
00000000
01000000
00100000
00010000
00100000
00001000
,
00010000
00000000
00010000
00000010
00000000
00000010
00001000
00000000
00000100
00000010
00000000
00000010
00000001
00001000
00000001
00000100
,
00000010
00000000
00000010
00010000
00000000
00010000
00001000
00000000
00100000
00000000
00100000
00000000
01000000
00000000
10000000
00010000
,
01000000
00000000
00100000
00010000
00100000
00000000
01000000
00000000
00100000
10000000
00100000
00000000
01000000
00000000
00001000
00010000
,
00000100
00000000
00001000
00000010
00001000
00000000
00000100
00000000
00000010
00000001
00000010
00000000
00000100
00000000
00010000
00001000
,
00100000
00000000
00001000
00010000
00000010
00000000
00010000
00001000
01000000
00000000
00001000
00010000
00000100
00001000
00000100
00000010
,
00000001
00000000
00000000
00000100
00000000
00000000
00001000
00000000
00000000
00100000
00000000
00000000
01000000
00000000
10000000
00000000
,
20020000
30030000
00000000
00000000
10000000
00000000
01000000
00000000
,
00100000
00010000
00100000
00001000
00010000
00000000
00000000
00000000
00000010
00001000
00000100
00000000
00000010
00000000
00000100
00001000
,
00000010
00000000
00000100
00000000
00000001
00001000
00000100
00000000
00010000
00001000
00100000
00000000
01000000
00000000
00100000
00001000
,
00010000
00000000
00100000
00000000
01000000
00010000
01000000
00000000
00100000
00010000
00000000
00000000
00100000
10000000
00000000
00000000
,
01000000
00100000
00000000
00100000
00001000
00000000
00010000
00000000
00010010
00000000
00000000
00000000
00001000
00000000
00101000
00000000
,
00000000
00000000
00010000
00000000
00010100
00000000
00000000
00000000
01000000
00001000
00010000
00000000
00100000
00000000
00010000
00001000
,
01000000
00000000
00100000
00000000
10000000
00010000
00100000
00000000
01000000
10000000
00010000
00000000
01000000
00000000
00001000
00010000
,
00000100
00000000
00000010
00000000
00000100
00001000
00000001
00000000
00000100
00000000
00000000
00000100
00001000
00000000
00010000
00000000
,
00100000
01000000
00100000
00000000
10000000
00000000
00010000
00000000
10000000
01000000
00100000
00010000
00100000
00000000
00001000
00010000
,
00000010
00001000
00000010
00000000
00000100
00000001
00001000
00000000
00001200
00000000
00000000
00000000
00000001
00000000
00000000
00000000
,
00000310
00000100
00000010
00000000
00000001
00000000
00001000
00000000
00000010
00010000
00000000
00001000
00100000
00000000
01000000
00000000
,
00100000
00010000
10000000
00000000
00100000
10000000
00100000
01000000
00010000
00100000
00000000
00001000
00010000
00000000
00000010
00000000
,
00000100
00001000
00000100
00000000
00000001
00000000
00000010
00000000
00000110
00000000
00000000
00000000
00010000
00000000
00011000
00000000
,
00000000
00000000
01000000
00000000
01100000
00000000
00000000
00000000
10000000
00010000
00100000
00000000
01000000
00000000
00100000
00001000
,
00010000
00000000
00000010
00000000
00001000
00000100
00000010
00000000
00000001
00001000
00000010
00000000
00000100
00000000
00000001
00001000
,
00000100
00000000
00010000
00000000
00001000
00100000
00010000
00100000
01000000
00000000
00010000
01000000
10000000
00000000
00100000
00000000
,
01000000
00010000
01000000
00000000
00001000
00000000
00010000
00000100
00001000
00000000
00000000
00000000
00000011
00000000
00000000
00000000
,
00000101
00001010
00000000
00010000
00022000
00000000
00000000
00000000
,
00000000
00000000
00000000
00000000
00033000
00000000
00000000
00000000
00000100
00010000
00001000
00010000
00000010
00000000
00010000
00001000
,
00100000
00010000
00100000
01000000
10000000
00000000
00000000
00000000
10200000
00000000
00000000
00000000
00010000
00000000
00000000
00000000
,
01300000
00000000
00100000
00000000
00010000
00000000
00001000
00000000
00000010
00000000
00000100
00000000
00001000
00000000
00000001
00000100
,
00000010
00001000
00000000
00001000
00000100
00000000
00010000
00000000
00102000
00000000
00000000
00000000
01000000
00000000
00000000
00000000
,
00013000
00001000
00000010
00000100
00001000
00000001
00000100
00001000
,
00000100
00000010
00001000
00000000
00000100
00000000
00010000
00000000
00002000
00000000
00000000
00000000
01000000
00000000
00000000
00000000
,
00103000
00000000
00001000
00000000
00010000
00000000
00100000
00000000
01000000
00010000
10000000
00010000
00100000
00000000
01000000
00000000
,
00010000
00000000
00010000
00000000
00001000
00000010
00000100
00000000
00001000
00000000
00000001
00000100
00000000
00000100
00000010
00000000
,
00001000
00000100
00000000
00000100
00010000
00000000
00001000
00000000
00010000
00000000
00100000
10000000
00000000
10000000
00010000
00000000
,
00100000
01000000
00000000
01000000
10000000
00010000
01000000
00000000
00001000
00000000
00010000
00000100
00000000
00000100
00001000
00000000
,
00000010
00000100
00000000
00000100
00000001
00001000
00000100
00000000
00010000
00000000
00010000
00001000
00000000
00001000
01000000
00010000
,
10000000
01000000
00100000
00010000
01000000
00000000
01000000
00000000
00001000
00000000
00010000
00000000
00100000
00000000
01000000
00000000
,
00100000
00010000
00001000
00000010
00000100
00000010
00001000
00010000
,
01000000
00000000
00100000
00000000
00001000
00000000
00010000
00000000
00100000
01000000
00100000
01000000
00010000
10000000
01000000
10000000
,
00010000
01000000
00010000
00100000
00001000
00010000
00000010
00001000
00000100
00000000
00000000
00000000
00000110
00000000
00001001
00000000
,
00000000
00010100
00000000
00100000
00202000
00000000
00000000
00000000
,
00000000
00000000
00303000
00000000
;
