#VERSION:0.83;
#TITLE:フラッター現象の顛末と単一指向性の感情論;
#SUBTITLE:;
#ARTIST:日向美ビタースイーツ♪;
#TITLETRANSLIT:Flutter genshou no tenmatsu to tanitsu shikousei no kanjouron;
#SUBTITLETRANSLIT:;
#ARTISTTRANSLIT:Hinatabi Bitter Sweets;
#GENRE:;
#CREDIT:;
#MUSIC:Flutter genshou no tenmatsu to tanitsu shikousei no kanjouron.ogg;
#BANNER:Flutter genshou no tenmatsu to tanitsu shikousei no kanjouron.png;
#BACKGROUND:Flutter genshou no tenmatsu to tanitsu shikousei no kanjouron-bg.png;
#CDTITLE:./CDTitles/GITADORA Tri-Boost.png;
#SAMPLESTART:47.112;
#SAMPLELENGTH:15.000;
#SELECTABLE:YES;
#OFFSET:0.000;
#BPMS:0.000=206.000;
#STOPS:;
#TIMESIGNATURES:0.000=4=4;
#BGCHANGES:0.000=Flutter genshou no tenmatsu to tanitsu shikousei no kanjouron.mp4=1.000=0=0=0=StretchNoLoop====,
99999.000=-nosongbg-=1.000=0=0=0=StretchNoLoop====
;
#FGCHANGES:;

//--------------- dance-single - forcednature ----------------
#NOTEDATA:;
#STEPSTYPE:dance-single;
#DESCRIPTION:forcednature;
#DIFFICULTY:Beginner;
#METER:1;
#RADARVALUES:0,0,0,0,0;
#CREDIT:forcednature;
#NOTES:
0000
0000
0000
0000
,
0000
0000
0000
0000
,
0000
0000
0000
0000
,
0000
0000
0000
0000
,
0000
0000
0000
0000
,
0000
0000
0000
0000
,
0000
0000
0000
0000
,
0000
0000
0000
0000
,
0000
0000
0000
0000
,
1000
0000
0000
0000
,
0000
0000
0000
0000
,
0001
0000
0000
0000
,
0000
0000
0000
0000
,
0010
0000
0000
0000
,
0000
0000
0000
0000
,
0100
0000
0000
0000
,
0000
0000
0000
0000
,
1000
0000
0000
0000
,
0000
0000
0000
0000
,
0000
0000
0000
0000
,
0000
0000
0000
0000
,
0001
0000
0000
0000
,
0000
0000
0000
0000
,
0100
0000
0000
0000
,
0000
0000
0000
0000
,
0010
0000
0000
0000
,
0000
0000
0000
0000
,
1000
0000
0000
0000
,
0000
0000
0000
0000
,
0001
0000
0000
0000
,
0000
0000
0000
0000
,
0010
0000
0000
0000
,
0000
0000
0000
0000
,
0100
0000
0000
0000
,
0000
0000
0000
0000
,
1000
0000
0000
0000
,
0000
0000
0000
0000
,
0001
0000
0000
0000
,
0000
0000
0000
0000
,
0100
0000
0000
0000
,
0000
0000
0000
0000
,
1001
0000
0000
0000
,
0000
0000
0000
0000
,
1000
0000
0000
0000
,
0000
0000
0000
0000
,
0010
0000
0000
0000
,
0000
0000
0000
0000
,
0100
0000
0000
0000
,
0000
0000
0000
0000
,
0001
0000
0000
0000
,
0000
0000
0000
0000
,
1000
0000
0000
0000
,
0000
0000
0000
0000
,
0001
0000
0000
0000
,
0000
0000
0000
0000
,
0010
0000
0000
0000
,
0000
0000
0000
0000
,
0100
0000
0000
0000
,
0000
0000
0000
0000
,
1000
0000
0000
0000
,
0000
0000
0000
0000
,
0001
0000
0000
0000
,
0000
0000
0000
0000
,
0100
0000
0000
0000
,
0000
0000
0000
0000
,
0010
0000
0000
0000
,
0000
0000
0000
0000
,
1000
0000
0000
0000
,
0000
0000
0000
0000
,
0001
0000
0000
0000
,
0000
0000
0000
0000
,
0010
0000
0000
0000
,
0000
0000
0000
0000
,
0100
0000
0000
0000
,
0000
0000
0000
0000
,
1000
0000
0000
0000
,
0000
0000
0000
0000
,
0001
0000
0000
0000
,
0000
0000
0000
0000
,
0100
0000
0000
0000
,
0000
0000
0000
0000
,
1001
0000
0000
0000
,
0000
0000
0000
0000
,
0110
0000
0000
0000
,
0000
0000
0000
0000
,
1000
0000
0000
0000
,
0000
0000
0000
0000
,
0001
0000
0000
0000
,
0000
0000
0000
0000
,
0010
0000
0000
0000
,
0000
0000
0000
0000
,
0100
0000
0000
0000
,
0000
0000
0000
0000
,
1000
0000
0000
0000
,
0000
0000
0000
0000
,
0010
0000
0000
0000
,
0000
0000
0000
0000
,
1001
0000
0000
0000
,
0000
0000
0000
0000
,
0001
0000
0000
0000
,
0000
0000
0000
0000
,
0010
0000
0000
0000
,
0000
0000
0000
0000
,
0100
0000
0000
0000
,
1001
0000
0000
0000
;

//--------------- dance-single - forcednature ----------------
#NOTEDATA:;
#STEPSTYPE:dance-single;
#DESCRIPTION:forcednature;
#DIFFICULTY:Easy;
#METER:6;
#RADARVALUES:0,0,0,0,0;
#CREDIT:forcednature;
#NOTES:
0000
0000
0000
0000
,
0000
0000
0000
0000
,
0000
0000
0000
0000
,
0000
0000
0000
0000
,
0000
0000
0000
0000
,
0000
0000
0000
0000
,
0000
0000
0000
0000
,
0000
0000
0000
0000
,
0000
0000
0000
0000
0000
0000
0000
1001
,
0000
0000
0010
0000
0000
0000
0000
0110
,
0000
0000
0100
0000
0000
0000
0000
1001
,
0000
0000
0000
1000
0000
0000
0000
0001
,
0000
0000
0000
0010
0000
0000
0000
1001
,
0000
0000
0010
0000
0000
0000
0000
1001
,
0000
0000
0100
0000
0000
0000
0000
1001
,
0000
0000
0000
1000
0000
0000
0000
0001
,
0000
0000
0000
0000
0100
0000
0000
0010
,
0000
0000
0000
0010
0000
0000
0000
0010
,
0000
0000
0000
0000
0000
0000
0000
1000
,
0000
0000
0000
1000
0000
1000
0000
1000
,
0000
0000
0000
0000
0000
0000
0000
0001
,
0000
0000
0000
0001
0000
0000
0000
0001
,
0000
0000
0000
0000
0010
0000
0000
0100
,
0000
0000
1000
0000
,
0001
0000
0000
0000
0100
0000
0000
0010
,
0000
0000
1000
0000
,
0001
0000
0000
0000
0010
0000
0000
0100
,
0000
0000
1000
0000
,
0001
0000
0000
0000
0100
0000
0000
0010
,
0000
0000
1000
0000
,
0100
0000
0000
0000
0010
0000
0000
0001
,
0000
0000
0000
0000
0100
0000
0000
0010
,
0000
1000
1000
0000
,
0100
0000
0010
0010
,
0010
0000
0000
0000
0001
0000
0000
0001
,
0000
0000
0100
0100
,
0100
0000
0010
1000
,
0010
0000
0100
0100
,
0100
0000
0001
0000
,
0001
0000
0010
0100
,
0010
0100
0000
0000
,
1001
0000
1000
0000
,
0100
0000
1000
0000
,
1001
0000
0001
0000
,
0100
0000
0001
0000
,
1001
0000
1000
0000
,
0010
0000
1000
0000
,
1001
0000
0010
0100
,
0000
0100
0010
0000
,
1001
0000
1000
0000
,
0010
0000
0100
0000
,
1001
0000
0001
0000
,
0010
0000
0100
0000
,
1001
0000
1000
0000
,
0100
0000
0010
0000
,
1001
0000
0001
0100
,
0000
0000
0010
0000
0000
0010
0000
0000
,
1000
0000
0000
0000
,
0001
0000
0000
0000
,
0010
0000
0000
0000
,
0100
0000
0000
0000
0000
1000
0000
1000
,
0000
0001
0000
0000
0000
0001
0000
0001
,
0000
1000
0000
0000
0000
0000
0000
0010
,
0000
0000
0000
0100
0000
0000
0000
1000
,
0000
1000
0001
0001
,
0010
0000
0000
0000
,
0100
0000
1000
0000
,
0010
0000
0000
0000
,
0010
0000
0100
0000
,
0001
0000
0001
0000
,
0010
0100
1000
0000
,
0010
0000
0010
0000
,
0100
0000
0002
0000
,
0013
0000
0000
0000
,
0100
0000
1000
0000
,
0001
0000
0100
0000
,
0010
0000
1000
0000
,
0001
0000
0000
0000
,
0010
0000
0100
0000
,
1001
0000
1000
1000
,
0001
0001
0000
0000
,
0200
0000
0000
0000
,
0000
0000
0310
0000
,
1001
0000
0000
0000
,
0000
0000
0010
0000
,
1001
0000
1000
0000
,
0010
0000
1000
0000
,
1001
0000
0010
0100
,
0000
0100
0010
0000
,
1001
0000
0001
0000
,
0100
0000
0001
0000
,
1001
0000
1000
0000
,
0100
0000
1000
0000
,
0110
0000
0001
0000
,
1000
0000
0001
0000
,
0110
0000
0010
0100
,
0000
0100
0100
0000
,
1001
0000
0000
0010
,
0000
0000
0100
0000
,
1001
0000
0000
0010
,
0000
0000
0100
0000
,
1001
0000
0000
1000
,
0000
0000
0000
0000
0001
0001
0000
0000
,
0100
0000
0010
0000
0100
0000
0000
2002
,
0000
0000
0000
0000
,
0000
0000
0000
0000
,
0000
0000
0000
0000
,
0000
0000
0000
0000
,
0000
0000
0000
0000
,
0000
0000
0000
0000
,
0000
0000
0000
0000
,
0000
0000
0000
0000
,
0000
0000
0000
0000
,
0000
0000
0000
0000
,
0000
0000
0000
0000
,
0000
3003
0000
0000
;

//--------------- dance-single - forcednature ----------------
#NOTEDATA:;
#STEPSTYPE:dance-single;
#DESCRIPTION:forcednature;
#DIFFICULTY:Medium;
#METER:10;
#RADARVALUES:0,0,0,0,0;
#CREDIT:forcednature;
#NOTES:
0000
0000
0000
0000
,
0000
0000
0000
0000
,
0000
0000
0000
0000
,
0000
0000
0000
0000
,
0000
0000
0000
0000
,
0000
0000
0000
0000
,
0000
0000
0000
0000
,
0000
0000
0000
0000
,
0000
0000
0000
0000
0000
0000
0000
1001
,
0000
0000
1000
0000
0100
0000
0000
1001
,
0000
0000
0001
0000
0100
0000
0000
1001
,
0000
1000
0010
0100
,
0001
0000
0010
0000
0100
0000
0000
1001
,
0000
0000
0001
0000
0010
0000
0000
1001
,
0000
0000
1000
0000
0010
0000
0000
0110
,
0000
0100
0001
0010
,
0100
0000
0100
0000
1000
0001
0000
0200
,
0000
0000
0000
0320
0000
0000
0000
2030
,
0000
0000
0000
3000
0000
0001
0000
1000
,
0000
0100
0000
0020
0000
0032
0000
2003
,
0000
0000
0000
3000
0000
0010
0000
0200
,
0000
0000
0000
0302
0000
0000
0000
2003
,
0000
0000
3100
0000
0010
0000
0001
1000
,
0000
0010
0100
0001
,
1000
0000
0100
0000
0010
0001
0000
0001
,
0000
0100
0010
1000
,
0001
0000
0010
0000
0100
0000
1000
0001
,
0000
0100
0010
1000
,
0100
0000
0010
0000
0001
0000
0100
0010
,
0000
1000
0001
0010
,
0100
0000
1000
0000
0001
0000
0000
1001
,
0000
0000
1000
0000
0010
0000
0100
0001
,
0000
0000
0010
0000
0100
0010
0100
0000
,
1000
0000
0002
0203
,
0320
0000
0030
1000
0000
1000
0000
1000
,
0000
0000
2000
3200
,
0320
0000
0030
0000
0001
1000
0001
1000
,
0001
0000
0200
0320
,
2030
0000
3000
0001
0000
0001
0000
0001
,
1000
0010
0010
0100
,
0100
0001
0000
0000
,
1001
1000
0100
0010
,
0100
1000
0100
0010
,
1001
0001
0100
0010
,
0100
0001
0100
0010
,
1001
1000
0010
0001
,
0010
1000
0010
0100
,
1001
0001
0010
0110
,
0000
0100
1000
0010
,
1001
1000
0010
0100
,
0010
1000
0010
0100
,
1001
0001
0010
0100
,
0010
0001
0010
0100
,
1001
0001
0100
1000
,
0100
0001
1000
0001
,
0110
1000
0010
1000
,
0001
0000
0010
0100
0000
0010
0100
0000
,
1000
0000
0000
0001
0000
0001
0000
0100
,
0000
0100
0000
0000
0010
0000
1000
0001
,
0000
0000
0010
0000
0100
0000
1000
0100
,
0000
0000
0010
0000
0001
0000
0000
0100
,
0000
0110
0000
0000
0000
1001
0000
0010
,
0000
0110
0000
0000
0000
1000
0000
0001
,
0000
0010
0000
0100
0000
0010
0000
1001
,
0000
0000
0110
0000
1000
0001
1000
0001
,
0010
0100
0000
0100
,
1000
0001
0100
0010
,
1000
0001
0000
0001
,
0010
0000
0100
0000
1000
0100
0000
0000
,
0010
0000
0010
0000
0010
0001
0000
0000
,
0100
0010
1000
0010
,
0100
0001
1000
0001
,
0010
1001
0200
0000
,
0310
0000
1000
0001
,
0100
0000
0010
1000
,
0001
0010
0100
1000
,
0001
0100
0110
0010
,
1000
0000
0001
0001
,
0001
0100
0010
0010
,
1001
0000
0000
0000
1000
0001
1000
0000
,
0001
1000
0001
0000
0000
0000
0000
0000
,
2001
0000
0100
0000
,
0001
0001
3010
0000
,
2002
0000
0000
3003
0000
0000
0020
0000
,
0000
0130
0010
0010
,
1001
1000
0100
0010
,
0001
0010
0100
1000
,
1001
0001
0100
0110
,
0000
1000
0001
0010
,
0110
0100
1000
0001
,
1000
0010
0100
0001
,
1001
1000
0100
1000
,
0010
0100
0001
0010
,
0110
0000
0100
1000
,
0001
1000
0010
0100
,
0110
0000
0100
1001
,
0000
0000
1000
0001
1000
0001
1000
0000
,
0010
0000
0000
0010
0000
0000
0100
0000
,
0000
0100
0000
0000
0001
0000
1001
0000
,
0010
0000
0000
0010
0000
0000
0100
0000
,
0000
0100
0000
0000
1000
0001
1000
0000
,
0010
0000
0000
0100
0000
0000
0001
0000
,
0000
1000
0000
0000
0100
0000
1001
0000
,
1000
0000
1000
0000
1000
0000
1000
0002
,
0000
0000
0000
0000
,
0000
0000
0000
0000
,
0000
0000
0000
0000
,
0000
0000
0000
0000
,
0000
0000
0000
0000
,
0000
0000
0000
0000
,
0000
0000
0000
0000
,
0000
0000
0000
0000
,
0000
0000
0000
0000
,
0000
0000
0000
0000
,
0000
0000
0000
0000
,
0000
0003
0000
0000
;

//--------------- dance-single - forcednature ----------------
#NOTEDATA:;
#STEPSTYPE:dance-single;
#DESCRIPTION:forcednature;
#DIFFICULTY:Hard;
#METER:14;
#RADARVALUES:0,0,0,0,0;
#CREDIT:forcednature;
#NOTES:
0000
0000
0000
0000
,
0000
0000
0000
0000
,
0000
0000
0000
0000
,
0000
0000
0000
0000
,
0000
0000
0000
0000
,
0000
0000
0000
0000
,
0000
0000
0000
0000
,
0000
0000
0000
0000
,
0000
0000
0000
0000
0000
0000
0000
1001
,
0000
0001
0100
0000
1000
0000
0100
0001
,
0000
1000
0100
0000
0001
0000
0100
0010
,
0000
0001
0010
0001
0000
0100
0001
0100
,
0000
0110
0000
1010
0000
0001
0001
0010
,
0000
0100
0001
0000
0100
0000
1000
0010
,
0000
0001
0010
0000
0100
0000
0001
1000
,
0000
0100
1000
0010
0000
0100
1000
0100
,
0000
0101
0000
0010
0000
0110
0000
2001
,
0000
0000
0000
3200
0000
0000
0000
0320
,
0000
0000
0000
0030
0000
0001
0000
1000
,
0000
0010
0100
0002
0000
2003
0000
3200
,
0000
0000
0000
0300
0000
0010
0001
0020
,
0000
0000
0000
0230
0000
0000
0000
2300
,
0000
0000
3001
0000
1000
0010
0100
0001
,
0000
0010
0100
0000
0100
1000
0001
0000
,
0001
0100
0010
0000
1000
0001
1000
0100
,
0000
0010
0001
0000
0100
0010
0000
2000
,
0000
3001
0010
0000
0100
1000
0001
0100
,
0000
0010
1000
0000
0001
0010
0001
0100
,
0000
0010
1000
0001
0000
0010
0010
0100
,
0000
1000
0001
0000
0100
0010
1000
0010
,
0000
0100
0001
0010
0100
1000
0000
1001
,
0000
0001
0100
0000
0010
1000
0100
0010
,
0000
0001
1000
0000
0001
0001
0100
0010
,
1000
0000
1000
0100
0002
0000
0203
0000
,
2300
0000
3010
0100
0000
0100
0001
0010
,
0001
0000
0001
0100
2000
0000
3200
0000
,
0310
1000
0010
0000
0100
0100
0001
1000
,
0001
0000
0001
0010
2000
0000
3020
0000
,
0032
0000
1003
0010
0000
0100
0100
0001
,
1001
0000
1000
0100
1000
0100
0010
0001
,
0010
0001
0100
0010
0000
0000
0000
0000
,
1001
0000
0001
0100
0001
0100
0010
0100
,
0010
0100
1000
0100
0001
0000
0010
0000
,
1001
0000
1000
0100
1000
0100
0010
0100
,
0010
0100
0001
0100
0010
0000
0001
0000
,
1001
0000
0001
0010
0001
0010
0100
0010
,
0100
0010
1000
0010
0001
0000
0100
0000
,
1001
0000
1000
0010
0100
0010
0001
0000
,
1000
0100
0001
0000
0001
0010
0100
1000
,
1001
0000
1000
0100
1000
0100
0001
0100
,
0001
0100
0010
0001
1000
0000
0010
0000
,
1001
0000
0001
0100
0001
0100
1000
0100
,
1000
0100
0010
1000
0001
0000
0010
0000
,
1001
0000
1000
0010
1000
0010
0001
0010
,
0001
0010
0100
0001
1000
0000
0100
0000
,
0110
1001
0010
1001
,
0001
0100
1000
1000
0100
0001
0010
0000
,
0100
1000
0010
1000
0000
1000
0100
0010
,
0000
0010
0001
0000
0110
0000
1000
0010
,
0000
0100
1000
0100
0000
0100
0001
0010
,
0000
0100
1000
0100
0010
0001
0001
0100
,
0000
0010
0001
0010
0000
0010
1000
0001
,
0000
0010
1000
0010
0000
0010
0001
1000
,
0000
0010
0100
0001
0000
0010
0100
1001
,
0000
0100
0010
0000
1000
0001
0001
0001
,
0020
0000
0230
0000
1300
0020
0000
0230
,
0000
1300
0100
0010
0100
0001
1000
0001
,
0010
0200
0000
2300
0000
3020
0000
0230
,
0000
0301
0020
0000
0130
2000
0000
0000
,
3010
1000
0010
1000
0010
0001
0010
0200
,
0000
0301
0010
0100
1000
0100
0000
0010
,
0001
0100
0010
0100
1000
0100
0001
0010
,
0100
0000
1001
0000
1000
0010
0010
0010
,
0100
0000
0000
0000
0200
0000
0301
0001
,
1000
0000
0010
0100
0100
1000
0100
0001
,
0010
0000
0010
0100
1000
0000
0001
0100
,
1000
0100
0010
0000
0101
0000
1000
1000
,
0010
0000
0010
0100
0002
0000
0023
0000
,
0230
0000
0301
0100
0010
0100
1000
0000
,
1010
0000
0001
0100
0001
0100
0010
1000
,
0010
1000
0100
0010
0000
0000
0000
0000
,
0001
0000
0001
0000
0100
0000
0010
0000
0010
0000
1000
0000
,
0100
0000
0010
0000
0100
0000
0110
0000
0000
0000
0000
0000
,
2002
0000
0000
3003
0000
0000
0020
0000
,
0000
0130
0110
0110
,
1001
0000
1000
0100
1000
0100
0001
0100
,
0001
0100
0010
0001
1000
0001
0100
0000
,
0110
0000
0010
1000
0001
1000
0100
0000
,
0010
0001
0100
0000
1000
0100
0001
0000
,
0011
0000
0001
0100
0001
0100
1000
0100
,
1000
0100
0010
1000
0001
0000
0010
0000
,
1001
0000
1000
0100
1000
0100
0001
0100
,
0001
0100
0010
0001
1000
0000
0010
0000
,
0110
0000
0100
0001
0010
0000
0100
0000
,
1000
0001
0100
0000
0010
1000
0001
0000
,
0011
0000
0010
0100
1000
0001
0100
0000
,
0010
1000
0100
0100
1000
0001
0100
0000
,
0010
0001
0000
0001
0010
0000
1000
0100
,
0000
0100
0001
0000
0110
0000
1001
0000
,
1000
0010
0000
0010
0001
0000
0010
0100
,
0000
0100
0001
0000
0011
0000
1100
0000
,
0001
0100
0000
0100
1000
0000
0100
0001
,
0000
0001
0010
0000
0110
0000
1001
0000
,
1000
0100
0010
0100
0001
0100
0010
2002
,
0000
0000
0000
0000
,
0000
0000
0000
0000
,
0000
0000
0000
0000
,
0000
0000
0000
0000
,
0000
0000
0000
0000
,
0000
0000
0000
0000
,
0000
0000
0000
0000
,
0000
0000
0000
0000
,
0000
0000
0000
0000
,
0000
0000
0000
0000
,
0000
0000
0000
0000
,
0000
3003
0000
0000
;

//--------------- dance-double - forcednature ----------------
#NOTEDATA:;
#STEPSTYPE:dance-double;
#DESCRIPTION:forcednature;
#DIFFICULTY:Easy;
#METER:4;
#RADARVALUES:0,0,0,0,0;
#CREDIT:forcednature;
#NOTES:
00000000
00000000
00000000
00000000
,
00000000
00000000
00000000
00000000
,
00000000
00000000
00000000
00000000
,
00000000
00000000
00000000
00000000
,
00000000
00000000
00000000
00000000
,
00000000
00000000
00000000
00000000
,
00000000
00000000
00000000
00000000
,
00000000
00000000
00000000
00000000
,
00000000
00000000
00000000
00000000
00000000
00000000
00000000
00001000
,
00000000
00000000
00000000
00000000
00000000
00000000
00000000
00010000
,
00000000
00000000
00000000
00000000
00000000
00000000
00000000
00000100
,
00000000
00000000
00000000
00000100
00000000
00000000
00000000
00000100
,
00000000
00000000
00000000
00000000
00000000
00000000
00000000
00010000
,
00000000
00000000
00000000
00000000
00000000
00000000
00000000
00001000
,
00000000
00000000
00000000
00000000
00000000
00000000
00000000
01000000
,
00000000
00000000
00000000
01000000
00000000
00000000
00000000
01000000
,
00000000
00000000
00000000
00000000
00000000
00000000
00000000
00100000
,
00000000
00000000
00000000
00000000
00000000
00000000
00000000
10000000
,
00000000
00000000
00000000
00000000
00000000
00000000
00000000
01000000
,
00000000
00000000
00000000
00000000
00000000
00000000
00000000
00100000
,
00000000
00000000
00000000
00000000
00000000
00000000
00000000
00001000
,
00000000
00000000
00000000
00000000
00000000
00000000
00000000
00010000
,
00000000
00000000
00000000
00000000
00000000
00000000
00000000
00000010
,
00000000
00000000
00000000
00000000
,
00001000
00000000
00000000
00000000
00000000
00000000
00000000
00000001
,
00000000
00000000
00000000
00000000
00000000
00000000
00000000
00000010
,
00000000
00000000
00000000
00000000
00000000
00000000
00000000
00000100
,
00000000
00000000
00000000
00000000
00000000
00000000
00000000
00010000
,
00000000
00000000
00000000
00000000
00000000
00000000
00000000
00001000
,
00000000
00000000
00000000
00000000
00000000
00000000
00000000
01000000
,
00000000
00000000
00000000
00000000
00000000
00000000
00000000
00010000
,
00000000
00000000
00000000
00000000
00000000
00000000
00000000
10000000
,
00000000
00000000
01000000
00000000
,
00100000
00000000
00000000
00000000
,
00001000
00000000
00000000
00000000
,
00010000
00000000
00000000
00000000
,
00000010
00000000
00001000
00000000
,
00000010
00000000
00000000
00000000
,
00000100
00000000
00000000
00000000
,
00000001
00000000
00001000
00000000
,
00001001
00000000
00000000
00000000
,
00011000
00000000
00000000
00000000
,
01000000
00000000
00010000
00000000
,
10010000
00000000
00000000
00000000
,
10000000
00000000
01000000
00000000
,
10010000
00000000
00000000
00000000
,
00010000
00000000
01000000
00000000
,
00001000
00000000
00010000
00000000
,
00001000
00000000
00000000
00000000
,
00011000
00000000
00000000
00000000
,
00010000
00000000
00000100
00000000
,
00000110
00000000
00000000
00000000
,
00000001
00000000
00000100
00000000
,
00001001
00000000
00000000
00000000
,
00001000
00000000
00000100
00000000
,
00010000
00000000
00001000
00000000
,
00010000
00000000
00000000
00000000
,
00011000
00000000
00000000
00000000
,
01000000
00000000
00000000
00000000
,
00010000
00000000
00000000
00000000
,
10000000
00000000
00000000
00000000
,
00000000
01000000
00000000
00000000
00000000
00000000
00000000
00000000
,
00000000
00100000
00000000
00000000
00000000
00000000
00000000
00010000
,
00000000
00000000
00000000
01000000
00000000
00000000
00000000
00002000
,
00000000
00000000
00000000
00003000
,
00010000
00000000
00000000
00000000
,
00000100
00000000
00000000
00000000
,
00001000
00000000
00000000
00000000
,
00000001
00000000
00000000
00000000
,
00000100
00000000
00000000
00000000
,
00000010
00000000
00000000
00000000
,
00010000
00000000
00000000
00000000
,
00001000
00000000
00000000
00000000
,
00010000
00000000
00000000
00000000
,
01000000
00000000
00000000
00000000
,
10010000
00000000
00000000
00000000
,
00010000
00000000
00000000
00000000
,
01000000
00000000
00000000
00000000
,
00001000
00000000
00000000
00000000
,
00001000
00000000
00001000
00000000
,
00001000
00000000
00000000
00000000
,
00022000
00000000
00000000
00000000
,
00000000
00000000
00033000
00000000
,
00011000
00000000
00000000
00000000
,
00000000
00000000
00000000
00000000
,
00000100
00000000
00000000
00000000
,
00001000
00000000
00000000
00000000
,
00000001
00000000
00000001
00000000
,
00000001
00000000
00000000
00000000
,
00001001
00000000
00000000
00000000
,
00001000
00000000
00000000
00000000
,
00000100
00000000
00000000
00000000
,
00010000
00000000
00000000
00000000
,
00001000
00000000
00001000
00000000
,
00001000
00000000
00000000
00000000
,
00010000
00000000
00010000
00000000
,
00010000
00000000
00000000
00000000
,
00011000
00000000
00000000
01000000
,
00000000
00000000
00000000
00000000
,
10010000
00000000
00000000
00100000
,
00000000
00000000
00000000
00000000
,
10010000
00000000
00000000
01000000
,
00000000
00000000
00000000
00000000
,
00011000
00000000
00000000
00000000
00000000
00000000
00000000
00022000
,
00000000
00000000
00000000
00000000
,
00000000
00000000
00000000
00000000
,
00000000
00000000
00000000
00000000
,
00000000
00000000
00000000
00000000
,
00000000
00000000
00000000
00000000
,
00000000
00000000
00000000
00000000
,
00000000
00000000
00000000
00000000
,
00000000
00000000
00000000
00000000
,
00000000
00000000
00000000
00000000
,
00000000
00000000
00000000
00000000
,
00000000
00000000
00000000
00000000
,
00000000
00033000
00000000
00000000
;

//--------------- dance-double - forcednature ----------------
#NOTEDATA:;
#STEPSTYPE:dance-double;
#DESCRIPTION:forcednature;
#DIFFICULTY:Medium;
#METER:10;
#RADARVALUES:0,0,0,0,0;
#CREDIT:forcednature;
#NOTES:
00000000
00000000
00000000
00000000
,
00000000
00000000
00000000
00000000
,
00000000
00000000
00000000
00000000
,
00000000
00000000
00000000
00000000
,
00000000
00000000
00000000
00000000
,
00000000
00000000
00000000
00000000
,
00000000
00000000
00000000
00000000
,
00000000
00000000
00000000
00000000
,
00000000
00000000
00000000
00000000
00000000
00000000
00000000
00011000
,
00000000
00000000
01000000
00000000
00010000
00000000
00000000
10010000
,
00000000
00000000
00010000
00000000
01000000
00000000
00000000
00011000
,
00000000
00010000
00000100
00001000
,
00000100
00000000
00010000
00000000
00001000
00000000
00000000
00011000
,
00000000
00000000
00010000
00000000
00000010
00000000
00000000
00011000
,
00000000
00000000
00001000
00000000
00100000
00000000
00000000
10010000
,
00000000
00010000
01000000
00001000
,
00010000
00000000
00010000
00000000
00000100
00001000
00000000
00000002
,
00000000
00000000
00000000
00000203
00000000
00000000
00000000
00002300
,
00000000
00000000
00000000
00003000
00000000
00010000
00000000
00001000
,
00000000
00010000
00000000
00200000
00000000
20300000
00000000
30020000
,
00000000
00000000
00000000
00030000
00000000
10000000
00000000
02000000
,
00000000
00000000
00000000
03020000
00000000
00000000
00000000
00032000
,
00000000
00000000
00003010
00000000
00000100
00000000
00000010
00000001
,
00000000
00000100
00001000
00000100
,
00000001
00000000
00000100
00000000
00001000
00010000
00000000
00011000
,
00000000
00001000
00100000
00010000
,
00100000
00000000
00001000
00000000
00010000
00000000
00000010
00001000
,
00000000
00000100
00010000
00001000
,
01000000
00000000
00001000
00000000
00010000
00000000
00000010
00001000
,
00000000
00000001
00000010
00000100
,
00010000
00000000
00001000
00000000
00100000
01000000
00000000
01100000
,
00000000
00000000
00100000
00000000
00001000
00000000
00010000
00000100
,
00000000
00000000
00001000
00000000
00000001
00000010
00000001
00000000
,
00000100
00000000
00000000
00000100
00002000
00000000
00023000
00000000
,
00230000
00000000
00300000
01000000
00000000
00010000
10000000
00010000
,
00000000
00000000
20000000
32000000
,
03020000
00000000
00030000
00000000
00001000
00010000
00001000
00010000
,
00001000
00000000
00000020
00000032
,
00000203
00000000
00000300
00000001
00000000
00000001
00001000
00000001
,
00001000
00000100
00010000
00001000
,
01000000
00010000
00000000
00000000
,
10010000
10000000
01000000
00010000
,
00001000
00010000
01000000
10000000
,
00010000
00100000
00001000
00010000
,
00000100
00001000
00000001
00000100
,
00000110
00000000
00000010
00010000
,
00001000
01000000
00010000
00100000
,
01100000
00000000
01000000
10010000
,
00000000
00000000
10000000
00000000
01000000
00000000
00010000
00001000
,
00010000
00000100
00001000
00000100
,
00010000
00001000
00010000
00000010
,
00000110
00000100
00000001
00001000
,
00000001
00000010
00000100
00010000
,
00011000
00001000
01000000
00010000
,
00100000
01000000
00100000
00001000
,
00011000
00010000
00000010
00001000
,
00000010
00000000
00010000
00001000
00000000
00001000
00010000
00000000
,
00100000
00000000
00000000
10000000
00000000
10000000
00000000
01000000
,
00000000
01000000
00010000
00000000
00001000
00000000
00010000
00000010
,
00000000
00000000
00001000
00000000
00000100
00000000
00001000
00000001
,
00000000
00000000
00000001
00000000
00000000
00000100
00000000
00001000
,
00000000
00011000
00000000
00000000
00000000
00100000
00000000
01000000
,
00000000
01100000
00000000
00000000
00000000
10000000
00000000
01000000
,
00000000
00010000
00000000
00001000
00000000
00000100
00000000
00000110
,
00000000
00000000
00001001
00000000
00001000
00000001
00001000
00000001
,
00000100
00001000
00000000
00010000
,
00001000
00100000
00001000
00010000
,
00100000
01000000
00000000
00010000
,
00100000
00000000
01000000
00000000
00100000
00001000
00000000
00000000
,
00010000
00000000
00010000
00000000
00010000
00000010
00000000
00000000
,
00001000
00000100
00000001
00000100
,
00001000
00000001
00000010
00000001
,
00000100
00000000
00001000
00010000
00002000
00000000
00000000
00000000
,
00103000
00000000
00001000
00010000
,
01000000
00000000
10000000
01000000
,
00010000
00001000
00100000
00010000
,
00100000
00001000
00011000
00010000
,
00000010
00000000
00001000
00001000
,
00001000
00000001
00000010
00000010
,
00001001
00000000
00000000
00000000
00001000
00000001
00001000
00000000
,
00001000
00000100
00001000
00000000
00000000
00000000
00000000
00000000
,
00012000
00000000
01000000
00000000
,
00010000
00010000
00103000
00000000
,
20020000
00000000
00000000
30030000
00000000
00000000
20000000
00000000
,
00000000
31000000
00010000
00001000
,
00011000
00010000
00000100
00001000
,
00000100
00010000
00001000
01000000
,
01100000
00100000
10000000
10010000
,
00000000
00010000
00100000
01000000
,
01100000
00100000
00001000
00010000
,
00000010
00001000
00000010
00000100
,
00001001
00000001
00000010
00000001
,
00000100
00001000
00010000
00001000
,
00011000
00000000
01000000
00010000
,
10000000
00010000
00100000
01000000
,
01100000
00000000
00010000
00011000
,
00000000
00000000
00001000
00010000
00001000
00010000
00001000
00000000
,
00010000
00000000
00000000
00000100
00000000
00000000
00001000
00000000
,
00000000
00000100
00000000
00000000
00000010
00000000
00001001
00000000
,
00001000
00000000
00000000
00000100
00000000
00000000
00010000
00000000
,
00000000
00001000
00000000
00000000
00010000
00001000
00010000
00000000
,
00001000
00000000
00000000
01000000
00000000
00000000
00010000
00000000
,
00000000
01000000
00000000
00000000
00100000
00000000
10010000
00000000
,
10000000
00000000
01000000
00000000
00010000
00000000
00001000
00020000
,
00000000
00000000
00000000
00000000
,
00000000
00000000
00000000
00000000
,
00000000
00000000
00000000
00000000
,
00000000
00000000
00000000
00000000
,
00000000
00000000
00000000
00000000
,
00000000
00000000
00000000
00000000
,
00000000
00000000
00000000
00000000
,
00000000
00000000
00000000
00000000
,
00000000
00000000
00000000
00000000
,
00000000
00000000
00000000
00000000
,
00000000
00000000
00000000
00000000
,
00000000
00030000
00000000
00000000
;

//--------------- dance-double - forcednature ----------------
#NOTEDATA:;
#STEPSTYPE:dance-double;
#DESCRIPTION:forcednature;
#DIFFICULTY:Hard;
#METER:14;
#RADARVALUES:0,0,0,0,0;
#CREDIT:forcednature;
#NOTES:
00000000
00000000
00000000
00000000
,
00000000
00000000
00000000
00000000
,
00000000
00000000
00000000
00000000
,
00000000
00000000
00000000
00000000
,
00000000
00000000
00000000
00000000
,
00000000
00000000
00000000
00000000
,
00000000
00000000
00000000
00000000
,
00000000
00000000
00000000
00000000
,
00000000
00000000
00000000
00000000
00000000
00001000
00010000
00001000
,
00000000
00010000
01000000
00000000
10000000
00000000
01000000
00010000
,
00000000
00001000
00000100
00000000
00000001
00000000
00000100
00001000
,
00000000
00010000
00100000
00010000
00000000
00100000
10000000
00100000
,
00000000
10100000
00000000
11000000
00000000
01000000
00010000
00001000
,
00000000
00100000
00001000
00000000
00010000
00000000
00000010
00001000
,
00000000
00000100
00001000
00000000
00000001
00000000
00000100
00001000
,
00000000
00010000
00001000
00100000
00000000
00010000
01000000
10000000
,
00000000
11000000
00000000
01010000
00000000
00110000
00000000
20100000
,
00000000
00000000
00000000
30200000
00000000
00000000
00000000
00302000
,
00000000
00000000
00000000
00003000
00000000
00010000
00000000
00000010
,
00000000
00001000
00000001
00000020
00000000
00000230
00000000
00020300
,
00000000
00000000
00000000
00030000
00000000
00001000
00100000
00020000
,
00000000
00000000
00000000
20030000
00000000
00000000
00000000
30200000
,
00000000
00000000
00310000
00000000
00001000
00010000
00000010
00001000
,
00000000
00000100
00000010
00000000
00000010
00000001
00000100
00000000
,
00000100
00001000
00010000
00000000
00010000
00100000
10000000
00100000
,
00000000
10000000
01000000
00000000
00010000
00001000
00000000
00000020
,
00000000
00001030
00010000
00000000
00000100
00001000
00000001
00000100
,
00000000
00001000
00010000
00000000
00100000
10000000
01000000
10000000
,
00000000
01000000
00010000
00001000
00000000
00000010
00000100
00000110
,
00000000
00000010
00000001
00000000
00000100
00000010
00001000
00000010
,
00000000
00010000
00001000
00100000
00001000
00010000
00000000
00011000
,
00000000
00001000
01000000
00000000
00010000
10000000
01000000
00100000
,
00000000
01000000
00010000
00000000
00001000
00001000
00010000
00000100
,
00001000
00000000
00000001
00000100
00002000
00000000
00023000
00000000
,
00230000
00000000
10300000
00100000
00000000
00100000
10000000
01000000
,
00010000
00000000
00010000
00001000
00000020
00000000
00000032
00000000
,
00000103
00001000
00000100
00000000
00000100
00000001
00001000
00000001
,
00000010
00000000
00000010
00000100
00020000
00000000
00032000
00000000
,
00203000
00000000
00310000
10000000
00000000
00100000
00100000
00000000
,
10010000
00000000
10000000
01000000
10000000
01000000
00010000
00001000
,
00010000
00001000
00000010
00000001
00000000
00000000
00000000
00000000
,
00001001
00000000
00000001
00000100
00001000
00000000
00001000
00010000
,
00100000
00000000
00100000
10000000
00010000
00000000
10010000
00000000
,
10000000
01000000
00010000
00000000
00001000
00000000
00100000
00000000
,
00001000
00010000
00000100
00000000
00001000
00000000
00001001
00000000
,
00000001
00000100
00001000
00000000
00010000
00001000
00000100
00000000
,
00000010
00010000
00001000
01000000
00010000
00000000
00100000
00000000
,
10010000
00000000
10000000
01000000
00010000
00000000
01000000
00010000
,
00001000
00000000
00000010
00000000
00000100
00001000
00000100
00001000
,
00000001
00000000
00000100
00001000
00010000
00000000
00001000
00010000
,
00100000
00000000
01000000
00010000
10000000
00000000
01000000
00000000
,
01100000
00000000
01000000
00010000
00001000
00000000
00010000
00001000
,
00000010
00000000
00001000
00000010
00000001
00000000
00000100
00000000
,
00001001
00000000
00000001
00000100
00000001
00000100
00001000
00010000
,
00001000
00000000
00010000
00100000
10000000
00000000
01000000
00000000
,
01100000
00011000
00100000
10010000
,
10000000
01000000
00010000
00001000
00000000
00001000
00010000
00000000
,
00001000
00000010
00000001
00000010
00000000
00000010
00000100
00010000
,
00000000
00010000
00000010
00000000
00000110
00000000
00000001
00000100
,
00000000
00000100
00001000
00010000
00000000
00001000
00010000
00100000
,
00000000
01000000
00010000
10000000
00010000
00100000
00000000
01100000
,
00000000
01000000
00010000
00001000
00000000
00010000
00001000
00000010
,
00000000
00001000
00000010
00000001
00000000
00000010
00000001
00000100
,
00000000
00000001
00000100
00001000
00000000
00000100
00001000
00010000
,
00000000
01000000
00010000
00000000
00001000
00100000
00100000
00100000
,
00020000
00000000
02030000
00000000
13000000
02000000
00000000
03020000
,
00000000
00130000
01000000
00100000
00001000
00010000
00000100
00001000
,
00000100
00020000
00000000
00032000
00000000
00003020
00000000
00000032
,
00000000
00000103
00002000
00000000
00003100
00000002
00000000
00000000
,
00000013
00000100
00001000
00000100
00010000
00001000
00010000
00200000
,
00000000
01300000
00010000
10000000
00010000
00200000
00000000
02300000
,
00000000
13000000
01000000
00010000
00001000
00010000
00001000
00000020
,
00000000
00000130
00001001
00000000
00000001
00000100
00000010
00000100
,
00001000
00000000
00020000
00230000
,
10300000
00000000
00010000
00100000
01000000
10000000
01000000
00010000
,
00001000
00000000
00010000
00001000
00000010
00000000
00000001
00000100
,
00000001
00001000
00000001
00000000
00000011
00000000
00000010
00001000
,
00010000
00000000
00001000
00010000
02000000
00000000
23000000
00000000
,
30200000
00000000
10300000
01000000
00100000
01000000
00010000
00000000
,
00011000
00000000
00001000
00000010
00000100
00000010
00000001
00000100
,
00000010
00000100
00001000
00010000
00000000
00000000
00000000
00000000
,
00100000
00000000
10000000
00000000
01000000
00000000
00010000
00000000
00001000
00000000
00000100
00000000
,
00000001
00000000
00000010
00000000
00000100
00000000
00001001
00000000
00000000
00000000
00000000
00000000
,
00022000
00000000
00000000
00033000
00000000
00000000
00200000
00000000
,
00000000
01300000
01100000
01100000
,
10010000
00000000
10000000
01000000
00010000
00000000
01000000
00010000
,
00001000
00000000
00010000
00001000
00010000
00000010
00001000
00000000
,
00000110
00000000
00000001
00000100
00001000
00000100
00000001
00000000
,
00000010
00000100
00010000
00000000
00001000
00100000
01000000
00000000
,
01100000
00000000
00100000
00010000
00100000
00001000
00010000
00001000
,
01000000
00010000
01000000
00100000
10000000
00000000
01000000
00000000
,
10010000
00000000
10000000
01000000
00010000
00000000
01000000
00010000
,
00001000
00000000
00010000
00001000
00000010
00000000
00000100
00000000
,
00001001
00000000
00000001
00000100
00001000
00000000
00010000
00000000
,
00001000
00000100
00000001
00000000
00000010
00001000
00010000
00000000
,
00011000
00000000
00001000
00010000
01000000
00000000
00010000
01000000
,
10000000
00000000
00100000
10000000
00100000
01000000
00010000
00000000
,
00100000
01000000
00000000
01000000
00010000
00000000
00010000
00001000
,
00000000
00001000
00000010
00000000
00000110
00000000
00001001
00000000
,
00000001
00000100
00000000
00000100
00001000
00000000
00001000
00010000
,
00000000
00010000
00100000
00000000
01100000
00000000
10010000
00000000
,
10000000
00100000
00000000
00100000
00010000
00000000
00010000
00001000
,
00000000
00001000
00000100
00000000
00000110
00000000
00001001
00000000
,
00000001
00000010
00000100
00001000
00000100
00010000
00001000
00202000
,
00000000
00000000
00000000
00000000
,
00000000
00000000
00000000
00000000
,
00000000
00000000
00000000
00000000
,
00000000
00000000
00000000
00000000
,
00000000
00000000
00000000
00000000
,
00000000
00000000
00000000
00000000
,
00000000
00000000
00000000
00000000
,
00000000
00000000
00000000
00000000
,
00000000
00000000
00000000
00000000
,
00000000
00000000
00000000
00000000
,
00000000
00000000
00000000
00000000
,
00000000
00303000
00000000
00000000
;
