#VERSION:0.83;
#TITLE:Fireball;
#SUBTITLE:;
#ARTIST:BEMANI Sound Team "Bumble Bee";
#TITLETRANSLIT:;
#SUBTITLETRANSLIT:;
#ARTISTTRANSLIT:Bumble Bee;
#GENRE:;
#CREDIT:;
#MUSIC:Fireball.ogg;
#BANNER:Fireball.png;
#BACKGROUND:Fireball-bg.png;
#CDTITLE:./CDTitles/jubeat festo.png;
#SAMPLESTART:81.326;
#SAMPLELENGTH:15.000;
#SELECTABLE:YES;
#OFFSET:0.000;
#BPMS:0.000=180.000;
#STOPS:;
#TIMESIGNATURES:0.000=4=4;
#BGCHANGES:0.000=../BGAs/14te.mp4=1.000=0=0=0=StretchNoLoop====,
99999.000=-nosongbg-=1.000=0=0=0=StretchNoLoop====
;
#FGCHANGES:;

//--------------- dance-single - forcednature ----------------
#NOTEDATA:;
#STEPSTYPE:dance-single;
#DESCRIPTION:forcednature;
#DIFFICULTY:Beginner;
#METER:4;
#RADARVALUES:0,0,0,0,0;
#CREDIT:forcednature;
#NOTES:
0000
0000
0000
0000
,
0000
0000
0000
0000
,
0000
0000
0000
0000
,
0000
0000
0000
0000
,
0000
0000
0000
0000
,
1000
0000
1000
0000
,
0000
0000
0000
0000
,
0001
0000
0000
0000
,
0100
0000
0000
0000
,
0010
0000
0000
0000
,
1000
0000
0000
0000
,
0001
0000
0000
0000
,
1000
0000
0000
0000
,
0100
0000
0000
0000
,
0010
0000
0000
0000
,
0001
0000
0000
0000
,
0010
0000
0000
0000
,
0001
0000
0000
0000
,
0100
0000
0000
0000
,
0010
0000
0000
0000
,
0100
0000
0000
0000
,
0010
0000
0000
0000
,
1000
0000
0000
0000
,
0001
0000
0000
0000
,
1000
0000
1000
0000
,
0100
0000
0000
0000
,
0010
0000
0000
0000
,
0001
0000
0000
0000
,
1000
0000
0000
0000
,
0001
0000
0000
0000
,
0100
0000
0000
0000
,
0010
0000
0000
0000
,
1000
0000
0001
0000
,
1000
0000
0000
0000
,
0100
0000
1000
0000
,
0100
0000
0000
0000
,
0010
0000
0100
0000
,
0010
0000
0000
0000
,
0001
0000
0010
0000
,
0001
0000
0000
0000
,
1000
0000
0001
0000
,
1000
0000
1000
0000
,
1000
0000
0000
0000
,
0010
0000
0010
0000
,
0010
0000
0000
0000
,
0100
0000
0100
0000
,
0100
0000
0000
0000
,
0001
0000
0001
0000
,
0001
0000
0000
0000
,
0010
0000
0000
0000
,
0010
0000
0100
0000
,
1000
0000
0000
0000
,
0010
0000
0100
0000
,
0001
0000
0000
0000
,
1000
0000
0001
0000
,
0100
0000
0000
0000
,
0001
0000
1000
0000
,
1001
0000
0000
0000
,
0000
0000
0000
0000
,
0110
0000
0001
0000
,
1000
0000
0000
0000
,
0001
1000
0001
0000
,
1000
0001
1000
0000
,
0010
0000
0100
0000
,
0001
0000
1000
0000
,
0100
0010
0100
0000
,
0010
0100
0010
0000
,
0001
0000
1000
0000
,
1001
0000
0000
0000
,
1000
0100
1000
0000
,
0001
0100
0001
0000
,
0010
0000
0100
0000
,
0010
0010
0010
0000
,
0001
0010
0001
0000
,
1000
0010
1000
0000
,
0010
0000
0100
0000
,
0010
0010
0010
0000
,
1001
0000
0110
0000
,
1000
0000
0001
0000
,
1001
0000
0010
0000
,
0100
0100
0000
1001
;

//--------------- dance-single - forcednature ----------------
#NOTEDATA:;
#STEPSTYPE:dance-single;
#DESCRIPTION:forcednature;
#DIFFICULTY:Easy;
#METER:9;
#RADARVALUES:0,0,0,0,0;
#CREDIT:forcednature;
#NOTES:
0000
0000
0000
0000
,
0000
0000
0000
0000
,
0000
0000
0000
0000
,
0000
0000
0000
0000
,
0000
0000
0000
0000
,
1001
0000
0110
0000
,
0001
0100
0010
1000
,
2002
0000
0000
3003
,
0100
0100
0100
0010
,
1001
0000
1000
0100
,
1000
0001
0100
0010
,
1001
0000
0001
0010
,
0001
1000
0010
0100
,
0110
0000
0001
1000
,
0100
1000
0001
0100
,
1001
0000
1000
0100
,
0010
0001
0100
0100
,
0000
0010
1000
0020
,
0000
1030
0100
0200
,
0000
0310
0001
0020
,
0000
0031
0100
0200
,
0000
0301
1000
0002
,
0000
0013
0100
0200
,
0000
1300
0001
1000
,
1001
0000
0110
0000
,
0001
0100
0001
0100
,
0010
1000
0001
0001
,
1000
0100
1000
0100
,
0010
0001
1000
1000
,
0010
0100
0010
0100
,
0001
0010
0100
1000
,
0001
1000
0001
1000
,
0100
0000
0010
0010
,
0002
0003
0100
0100
,
0020
0030
1000
1000
,
0002
0003
0010
0010
,
0200
0300
1000
1000
,
2002
3003
0010
0010
,
0220
0330
0001
0001
,
2002
3003
0100
0100
,
0220
0330
1000
0001
,
1000
0100
0010
0100
,
1000
0100
0010
0010
,
0001
0100
0010
0100
,
0001
0100
0010
0010
,
1000
0001
0010
0001
,
0100
0001
0010
0010
,
0001
1000
0010
1000
,
0100
0000
0000
0100
0000
0000
0010
0000
,
0110
0000
0100
1000
,
0001
1000
0010
0000
,
0110
0000
0100
0001
,
1000
0001
0010
0000
,
1001
0000
1000
0100
,
0010
0001
1000
0000
,
1001
0000
0001
0100
,
0010
1000
0001
1000
,
1001
0000
0000
0000
,
0000
0000
0000
0000
,
0110
0000
1000
0100
,
0010
0001
0100
0000
,
0001
1000
0001
0000
0010
0000
0000
0000
,
0001
1000
0001
0000
0100
0000
0000
0000
,
0010
1000
0100
1000
,
0010
0100
0001
0000
,
1000
0001
1000
0000
0100
0000
0000
0000
,
1000
0001
1000
0000
0010
0000
0000
0000
,
0100
0001
0010
0100
,
0110
0000
0000
1001
0000
0000
0000
0000
,
1000
0000
0100
0000
0010
0001
0010
0000
,
0100
0000
1000
0000
0001
0010
0001
0000
,
1000
0010
0100
0001
,
0100
0010
1000
0000
,
0001
0000
0100
0000
0010
1000
0010
0000
,
0100
0000
0001
0000
1000
0010
1000
0000
,
0001
0010
0100
1000
,
0010
0100
0010
0000
1001
0000
0000
0000
,
0110
0000
1001
0000
,
1000
0100
0010
0001
,
0110
0000
1000
0001
,
0100
0010
1000
1001
;

//--------------- dance-single - forcednature ----------------
#NOTEDATA:;
#STEPSTYPE:dance-single;
#DESCRIPTION:forcednature;
#DIFFICULTY:Medium;
#METER:14;
#RADARVALUES:0,0,0,0,0;
#CREDIT:forcednature;
#NOTES:
0000
0000
0000
0000
,
0000
0000
0000
0000
,
0000
0000
0000
0000
,
0000
0000
0000
0000
,
0000
0000
0000
0000
,
1100
0000
0011
0000
,
0001
0000
0100
0000
0010
1000
0001
0000
,
1002
0100
1000
0013
,
0001
1000
0001
1000
0100
0000
0110
0000
,
0010
0001
0010
0100
1000
0001
1000
0010
,
0000
0100
0001
0010
0001
1000
0010
0000
,
1000
0100
1000
0001
0100
0010
1000
0001
,
0000
0010
0100
0000
0110
0000
1001
0000
,
0001
0100
0010
0100
0001
1000
0010
1000
,
0000
0100
0010
0001
0010
0100
1000
0000
,
0001
1000
0010
1000
0001
0010
0100
0010
,
0000
0001
0100
0000
0110
0000
1001
0000
,
1000
0100
0001
0100
1000
0000
0001
0010
,
0000
0001
0100
0000
0110
0000
1001
0000
,
0001
0100
1000
0100
0001
0000
1000
0010
,
0000
1000
0100
0000
0110
0000
1001
0000
,
0001
0010
1000
0010
0001
0000
0100
0001
,
0000
1000
0100
0000
0110
0000
1001
0000
,
1000
0010
0001
0010
1000
0000
0100
1000
,
0001
0100
0100
0010
2000
0000
3002
0000
,
0013
0100
0010
0001
0100
0010
0100
0001
,
1000
0100
0010
0100
1000
0010
0100
0000
,
0001
1000
0100
1000
0001
0100
0001
1000
,
0010
0001
0010
1000
0010
0000
1001
0000
,
1000
0100
1000
0010
0100
0001
0010
0001
,
0100
0010
1000
0001
0010
0000
0110
0000
,
0100
1000
0001
1000
0010
0100
0001
0100
,
0000
0000
0010
0000
1000
0000
0001
0010
0002
0000
0000
0000
0203
0000
0000
0000
,
0310
1000
0010
1000
0000
0000
0001
0000
0001
0010
0000
0010
,
0100
1000
0100
1000
0000
0000
1000
0000
1000
0010
0000
0010
,
0100
0001
0100
0001
0000
0000
1000
0000
1000
0100
0000
0100
,
0010
0001
0010
0001
0000
0000
0100
0000
0100
0010
0000
0010
,
1000
0001
1000
0001
0000
0000
0010
0000
0010
0100
0000
0100
,
1000
0010
1000
0010
0000
0000
0100
0000
0100
0001
0000
0001
,
0010
0001
0010
0001
0000
0000
0100
0000
0100
0010
0000
0000
,
1001
0000
0000
0000
0000
0000
0001
0100
0010
1000
0000
0000
,
1000
0001
0100
0001
0010
0001
0100
0001
,
1000
0000
0001
0000
0100
0000
0001
0000
0010
0000
0000
0110
0000
0000
0010
0000
,
0001
1000
0100
1000
0010
1000
0100
1000
,
0001
0000
1000
0000
0100
0000
1000
0000
0010
0000
0000
0110
0000
0000
0010
0000
,
1000
0001
0010
0001
0100
0001
0010
0001
,
1000
0000
0001
0000
0010
0000
0001
0000
0100
0000
0000
0110
0000
0000
0100
0000
,
0001
1000
0010
1000
0100
1000
0010
0000
,
1100
0000
0000
0110
0000
0000
0011
0000
0000
1001
0000
0000
0110
0000
0000
0000
,
0001
0100
2000
0000
3200
0000
0301
0010
,
0000
0100
1000
0000
0110
0000
1001
0000
,
1000
0100
0002
0000
0203
0000
1300
0010
,
0000
0100
0001
0000
0110
0000
1001
0000
,
0001
0010
2000
0000
3020
0000
0031
0010
,
0000
0100
1000
0000
0110
0000
1001
0000
,
1000
0010
0002
0000
0023
0000
0130
0001
,
0000
1000
0010
0000
1001
0000
0110
0000
,
1001
0000
0000
0000
,
0000
0000
0000
0000
,
1000
0100
1000
1000
0001
0100
0010
0000
,
2000
0100
3001
1001
,
1000
0100
1000
0000
0100
0000
0010
0001
0010
0000
0001
0000
1000
0000
0000
0000
,
0001
0100
0001
0000
0100
0000
0010
1000
0010
0000
1000
0000
0001
0000
0000
0000
,
0010
0000
0100
0000
1000
0100
0000
0010
0000
0001
1000
0000
0001
0000
0100
0000
,
0000
0000
0010
0000
1000
0000
0001
1000
0000
0100
1000
0000
0020
0000
0000
0000
,
0130
0001
0100
0000
0001
0000
1000
0010
1000
0000
0010
0000
0100
0000
0000
0000
,
0001
0010
0001
0000
0010
0000
0100
1000
0100
0000
1000
0000
0010
0000
0000
0000
,
0100
0000
0001
0000
1000
0001
0000
0010
0000
0100
1000
0000
0010
0000
0100
0000
,
0001
0000
0100
0000
0010
1000
0010
1000
0000
0000
0001
0000
0020
0000
0000
0000
,
0130
0000
1000
0000
0100
0010
0100
0000
0010
0001
0010
0000
0001
1000
0001
0000
,
0100
0000
0010
0000
1000
0010
1000
0000
0100
1000
0100
0000
0010
0100
0010
0000
,
0001
0000
1000
0000
0001
0100
0000
0010
0000
1000
0001
0000
1000
0000
0100
0000
,
0010
0000
0001
0000
0100
0001
0000
1000
0000
0100
1000
0000
0010
0000
0000
0000
,
0100
0000
0001
0000
1000
0100
1000
0000
0100
0010
0100
0000
0010
0001
0010
0000
,
0001
0000
0100
0000
0010
1000
0010
0000
1000
0001
1000
0000
0001
0010
0001
0000
,
0100
0000
0010
0000
1000
0010
0000
1000
0000
0001
0010
0000
0100
0000
1000
0000
,
0001
0000
0100
0000
0010
1000
0010
1000
0000
0000
0001
0000
0010
0000
0000
0000
,
0101
0001
0100
0000
1010
0000
0001
0000
,
1000
1000
0100
0001
0100
0100
0010
0000
,
1100
0000
0000
0000
1000
0001
1000
0000
0001
0000
0100
0001
0100
0000
0000
0000
,
0010
0010
1000
1000
0100
0010
1001
0000
;

//--------------- dance-single - forcednature ----------------
#NOTEDATA:;
#STEPSTYPE:dance-single;
#DESCRIPTION:forcednature;
#DIFFICULTY:Hard;
#METER:17;
#RADARVALUES:0,0,0,0,0;
#CREDIT:forcednature;
#NOTES:
0000
0000
0000
0000
,
0000
0000
0000
0000
,
0000
0000
0000
0000
,
0000
0000
0000
0000
,
0000
0000
0000
0000
,
0001
0100
0000
0100
0000
0100
0000
0100
0020
0000
0000
0000
2030
0000
0000
0000
,
3100
0010
0100
0000
0010
0000
0001
0010
0001
0000
1000
0000
0001
0000
0100
0000
,
0120
0000
0001
0001
0001
0000
0100
0000
,
1030
0010
1000
0010
0100
0000
1001
0000
,
1000
0100
0010
0001
0100
0010
1000
0001
,
0010
1000
0001
0100
1000
0010
0110
0000
,
0100
1000
0100
0001
0010
0001
1000
0010
,
1000
0000
0100
0000
0001
0000
0100
0000
0010
0001
0010
0000
0011
0000
0000
0000
,
0001
0100
0010
1000
0100
0010
0001
0100
,
0010
0001
0010
1000
0001
1000
1100
0000
,
0100
0010
1000
0010
0001
0100
0110
0010
,
0000
0000
1001
0000
1000
0000
0100
0000
0010
0001
1000
0000
1010
0000
0000
0000
,
0010
0100
1000
0100
0001
0100
0010
1000
,
0100
0001
0100
1000
1100
0000
0011
0000
,
0010
0100
0001
0100
1000
0100
0010
0001
,
0100
1000
0100
0001
0101
0000
1010
0000
,
0010
0001
0010
1000
0100
0010
0100
0001
,
0100
1000
0001
0010
1100
0000
0011
0000
,
0010
1000
0010
0001
0100
0010
0100
1000
,
0000
0000
0100
0001
0100
0001
0100
0001
1000
0000
0100
0010
0002
0000
0000
0000
,
1003
0000
0010
0100
0010
0000
1000
0000
0001
0000
0010
0100
0010
0000
0001
0000
,
1000
0000
0001
0100
0001
0000
1000
0000
0100
0000
0010
0000
0110
0000
0000
0000
,
0100
0000
1000
0010
1000
0000
0001
0000
0100
0000
0001
0010
0001
0000
1000
0000
,
0100
0000
0010
0100
0010
0000
0001
0000
1001
0000
0100
0000
0110
0000
0000
0000
,
0001
0000
0100
0001
0100
0000
0010
0000
1000
0000
0001
1000
0001
0000
0010
0000
,
0100
0000
1000
0010
1000
0000
0100
0000
0010
0000
0001
0000
0101
0000
0000
0000
,
1000
0000
0010
0100
0010
0000
1000
0000
0001
0000
0010
0100
0010
0000
0001
0000
,
1001
0000
1000
0000
0010
0100
0010
0100
0001
0000
0000
0000
1001
0000
0000
0000
,
1000
0100
0010
0100
0000
0000
1000
0010
0100
0010
1000
0001
,
0010
0100
1000
0001
0000
0000
0100
1000
0100
0010
0100
0001
,
1000
0010
0100
0010
0000
0000
1000
0001
0010
0001
1000
0010
,
0100
0001
0010
0100
0000
0000
0001
0100
1000
0001
0010
1000
,
0010
0001
0100
0001
0000
0000
1000
0010
1000
0001
0010
0001
,
0100
0010
1000
0001
0000
0000
0010
0100
1000
0001
0100
1000
,
0100
0001
0010
0001
0000
0000
1000
0010
1000
0100
0010
0100
,
0110
0000
0000
0000
0000
0000
0010
0100
0010
1001
0000
0000
,
1000
0000
0100
1000
0100
0000
0100
0010
0100
0000
0010
0001
0010
0000
0001
0000
,
1000
0000
0001
0100
0001
0000
0010
0000
0100
0000
0000
0110
0000
0000
1001
0000
,
0001
0000
0100
0001
0100
0000
0100
0010
0100
0000
0010
1000
0010
0000
1000
0000
,
0001
0000
1000
0100
1000
0000
0010
0000
0100
0000
0000
0110
0000
0000
1001
0000
,
1000
0000
0010
1000
0010
0000
0010
0100
0010
0000
0100
0001
0100
0000
0001
0000
,
1000
0000
0001
0010
0001
0000
0100
0000
0110
0000
0000
1001
0000
0000
0110
0000
,
0001
0000
0010
0001
0010
0000
0010
0100
0010
0000
0100
1000
0100
0000
1000
0001
,
1000
0000
1000
0010
0000
0010
0100
0000
0100
0001
0000
0001
0010
0000
0000
0000
,
0100
0000
1000
0100
0020
0000
0000
0000
0001
0000
0000
0000
0130
0000
0110
0000
,
0000
0000
0010
0001
1000
0000
0001
0100
0010
0000
0000
0000
0110
0000
0000
0000
,
0100
0000
0001
0100
0020
0000
0000
0000
1000
0000
0000
0000
0130
0000
0110
0000
,
0000
0000
0010
1000
0001
0000
1000
0100
0010
0000
0000
0000
0110
0000
0000
0000
,
0100
0000
1000
0001
0200
0000
0000
0000
1000
0000
0000
0000
0310
0000
0110
0000
,
0000
0000
1000
0001
0010
0000
0001
1000
0010
0000
0000
0000
0110
0000
0000
0000
,
0100
0000
0001
1000
0200
0000
0000
0000
0001
0000
0000
0000
0310
0000
0110
0000
,
0000
0000
0100
1000
0001
1000
0100
1000
0010
0000
0000
0000
0110
0000
0000
0000
,
1001
0000
0000
0000
,
0000
0000
0000
0000
,
1000
0000
1000
0000
0100
0010
0100
0000
0010
0000
0001
0010
0001
0000
1000
0000
,
0001
0100
0001
0000
0100
0010
0000
0010
1000
0000
0001
0000
1001
0000
0000
0000
,
0001
0100
0010
1000
0001
0000
1000
0100
0010
0000
0001
0010
0002
0000
0000
0000
,
0103
0010
1000
0100
0010
0000
0001
1000
0010
0000
0100
0001
0200
0000
0000
0000
,
0301
1000
0001
0010
0100
0000
0010
0001
0000
1000
0001
0000
0100
0010
1000
0000
,
0100
1000
0001
1000
0010
0000
0100
0001
0000
1000
0001
0000
0012
0000
0000
0000
,
1003
0010
0100
0001
1000
0000
0100
0010
0001
0000
1000
0001
2000
0000
0000
0000
,
3010
0100
0001
0100
0010
0000
1000
0001
0010
0000
0100
1000
0200
0000
0000
0000
,
0310
0001
1000
0001
0100
0000
0010
1000
0000
0001
1000
0000
0100
0010
0001
0000
,
1001
0000
0100
0010
0100
0010
0000
1001
0000
1000
0100
0000
0010
0001
0010
0000
,
0100
1000
0100
1000
0001
0000
0100
0001
0100
0000
0010
0100
0010
0000
1000
0000
,
0001
0010
0001
0010
0100
0000
1000
0001
1000
0000
0001
0100
0001
0000
0010
0000
,
0100
1000
0100
1000
0001
0010
0001
0010
0100
1000
0100
1000
0001
0010
0001
0000
,
0100
0001
0100
0001
1000
0010
1000
0010
0100
0000
0001
1000
0002
0000
0000
0000
,
0103
0010
0100
0010
1000
0000
0100
1000
0100
0000
0010
0100
0010
0000
0001
0000
,
1000
0010
1000
0010
0100
0000
0001
1000
0001
0000
1000
0100
1000
0000
0010
0000
,
0100
0001
0100
0001
1000
0010
1000
0010
0100
0001
0100
0001
1000
0010
1000
0000
,
1001
0000
0001
1000
0001
1000
0100
0010
0000
0100
0010
0001
0010
0001
1000
0000
,
0001
0010
0000
0010
1000
0010
0000
0010
0002
0000
0000
0000
0203
0000
0000
0000
,
0310
1000
0010
0000
1000
0000
0100
0010
0100
0000
0010
0000
0001
0000
1000
0000
,
0001
0100
0000
0100
1000
0100
0000
0100
0001
0000
0010
0001
0020
0000
0000
0000
,
0130
0000
1000
0100
1000
0100
0010
0000
0001
0000
0100
0000
1001
0000
0000
0000
;

//--------------- dance-double - forcednature ----------------
#NOTEDATA:;
#STEPSTYPE:dance-double;
#DESCRIPTION:forcednature;
#DIFFICULTY:Easy;
#METER:10;
#RADARVALUES:0,0,0,0,0;
#CREDIT:forcednature;
#NOTES:
00000000
00000000
00000000
00000000
,
00000000
00000000
00000000
00000000
,
00000000
00000000
00000000
00000000
,
00000000
00000000
00000000
00000000
,
00000000
00000000
00000000
00000000
,
00011000
01000000
00011000
00000100
,
00010000
00000000
00001000
00000000
00100000
00010000
00100000
00000000
,
01100000
01000000
10000000
00100000
,
01000000
00010000
01000000
00010000
01000000
00000000
00001000
00000000
,
00011000
00020000
00030010
00002000
,
00003001
00000010
00000001
00000000
00000010
00000100
00000010
00000000
,
00000100
00020000
00031000
02000000
,
03010000
00100000
00010000
00000000
01000000
00000000
10010000
00000000
,
10000000
00200000
01300000
00020000
,
01030000
00001000
01000000
00000000
00001000
00010000
00001000
00000000
,
00010000
00000200
00001300
00000002
,
00000103
00000001
00000100
00000000
00000010
00000000
00002002
00000000
,
00003003
00000000
00001000
00000100
00001000
00000000
00000100
00000000
,
00010000
00001000
00100000
00220000
,
00330000
00000000
00010000
01000000
00010000
00000000
01000000
00000000
,
00001000
00010000
00000010
00002020
,
00003030
00000000
00001000
00000100
00001000
00000000
00000100
00000000
,
00010000
00001000
00100000
00220000
,
00330000
00000000
00010000
01000000
00010000
00000000
01000000
00000000
,
00001000
00000000
00010000
00001000
00010000
00000000
00001000
00000000
,
00011000
00000000
00010000
00000100
00010000
00000000
00002000
00000000
,
00103000
00000000
00010000
01000000
00010000
00000000
20000000
00000000
,
30100000
00000000
10000000
01000000
10000000
00000000
00020000
00000000
,
01030000
00000000
00001000
00010000
00001000
00000000
00011000
00000000
,
00010000
00000000
00000100
00001000
00000100
00000000
00002000
00000000
,
00003001
00000000
00000010
00000001
00000010
00000000
00001001
00000000
,
00000001
00000000
00000100
00000001
00000100
00000000
00000010
00000000
,
00001001
00000100
00000110
00000010
,
00001001
00000001
00000100
00001000
,
00011000
00010000
00100000
10000000
,
10010000
10000000
01000000
00010000
,
00011000
00001000
00000010
00000001
,
00001001
00000001
00000100
00001000
,
00011000
00010000
00100000
10000000
,
10010000
10000000
01000000
00010000
,
00022000
00000000
00033000
00000000
00010000
00001000
00010000
00000000
,
00000100
00001000
00000100
00000000
00000010
00000000
00000001
00000000
,
00000100
00000001
00000100
00000000
00000110
00000000
00000110
00000000
,
00000010
00001000
00000010
00000000
00010000
00000000
00001000
00000000
,
01000000
00010000
01000000
00000000
01100000
00000000
01100000
00000000
,
00100000
10000000
00100000
00000000
10000000
00000000
01000000
00000000
,
00100000
00010000
00100000
00000000
01100000
00000000
01100000
00000000
,
01000000
10000000
01000000
00000000
00010000
00000000
00001000
00000000
,
00100000
00000000
00000000
00100000
00000000
00000000
00001000
00000000
00000000
00001000
00000000
00000000
00010000
00000000
00000000
00000000
,
00021000
00000000
00000100
00000100
,
00001000
00001000
00030010
00010010
,
00012000
00000000
01000000
01000000
,
00010000
00010000
00103000
00101000
,
00021000
00000000
00000010
00000010
,
00001000
00001000
00030100
00010100
,
00012000
00000000
00100000
00100000
,
00010000
00010000
01003000
01001000
,
00022000
00000000
00000000
00000000
,
00000000
00000000
00000000
00033000
,
00010000
00001000
00000010
00000001
,
00000100
00000001
00000100
00000000
00000010
00000000
00001001
00000000
,
00001000
00000100
00001000
00000000
00000100
00000000
00010000
00000000
,
00001000
00100000
00001000
00000000
00010000
00000000
00001000
00000000
,
01000000
01100000
00100000
01100000
,
01000000
10010000
00100000
10010000
,
10000000
01000000
10000000
00000000
00010000
00000000
00100000
00000000
,
00001000
00010000
00001000
00000000
00010000
00000000
00000100
00000000
,
00000010
00001001
00000100
00001001
,
00000110
00000000
00000001
00001000
00000001
00000000
00000100
00000000
,
00000010
00001000
00000010
00000000
00010000
00000000
00001000
00000000
,
01000000
00010000
01000000
00000000
00001000
00000000
00010000
00000000
,
00000100
00001000
00000100
00000000
00010000
00000000
00011000
00000000
,
00001000
00100000
00001000
00000000
00010000
00000000
00011000
00000000
,
00001000
01000000
00001000
00000000
00010000
00000000
00000010
00000000
,
00001000
00000100
00001000
00000000
00000001
00000000
00000100
00000000
,
00000001
00000010
00000001
00000000
00000010
00000000
00000110
00000000
,
00000100
00001000
00000100
00000000
00010000
00001000
00010000
00000000
,
00011000
00100000
00011000
00000010
,
00010000
00001000
00010000
00000000
00000100
00000000
00010000
00000000
,
00011000
00000100
00011000
01000000
,
00010000
00100000
00010000
00000000
01000000
00000000
10010000
00000000
;

//--------------- dance-double - forcednature ----------------
#NOTEDATA:;
#STEPSTYPE:dance-double;
#DESCRIPTION:forcednature;
#DIFFICULTY:Medium;
#METER:14;
#RADARVALUES:0,0,0,0,0;
#CREDIT:forcednature;
#NOTES:
00000000
00000000
00000000
00000000
,
00000000
00000000
00000000
00000000
,
00000000
00000000
00000000
00000000
,
00000000
00000000
00000000
00000000
,
00000000
00000000
00000000
00000000
,
00022000
00033000
02002000
03003000
,
01000000
00010000
00100000
01000000
00010000
00001000
00100000
00000000
,
00011000
00000000
00000010
00001000
00000010
00010000
00001000
00000000
,
00000010
00000100
00000010
00000100
00002000
00000000
00003002
00000000
,
00000103
00001000
00010000
00000000
00000010
00001000
00000001
00000100
,
00000000
00000001
00000010
00001000
00010000
01000000
10000000
00000000
,
00010000
00100000
00010000
00000000
10000000
00100000
01000000
00010000
,
00000000
10000000
01000000
00010000
00001000
00000000
00011000
00000000
,
00001000
01000000
00010000
00000000
00100000
00010000
10000000
01000000
,
00000000
10000000
00100000
00010000
00001000
00000100
00000001
00000000
,
00001000
00000010
00001000
00000000
00000001
00000010
00000100
00010000
,
00000000
00001000
00100000
00010000
01000000
00000000
01100000
00000000
,
00100000
10000000
02000000
00000000
03020000
00000000
00032000
00000000
,
00003010
00000001
00000200
00000000
00002300
00000000
00023000
00000000
,
01030000
10000000
00200000
00000000
00320000
00000000
00032000
00000000
,
00003100
00000001
00000020
00000000
00002030
00000000
00023000
00000000
,
00130000
10000000
02000000
00000000
03020000
00000000
00032000
00000000
,
00003010
00000001
00000200
00000000
00002300
00000000
00023000
00000000
,
01030000
10000000
00200000
00000000
00320000
00000000
00032000
00000000
,
00003100
00000001
00000010
00000000
00000110
00000000
00001001
00000000
,
00000001
00000100
00001000
00000000
00010000
00001000
00000100
00000000
,
00000010
00010000
00001000
01000000
00001000
00010000
00100000
00000000
,
10000000
01000000
00010000
00000000
00001000
00010000
01000000
00000000
,
10000000
00010000
00100000
00001000
00010000
00000000
00011000
00000000
,
00001000
00000010
00000001
00000000
00000100
00000001
00000010
00000000
,
00001000
00010000
00000010
00001000
00000010
00010000
00000100
00000000
,
00001000
00000010
00000100
00000000
00001000
00010000
00100000
00000000
,
01000000
00010000
10000000
00000000
11000000
00000000
00110000
00000000
,
00010000
00000000
00010000
01000000
00000000
00000000
00001000
00000000
00010000
00000010
00000000
00001000
,
00000010
00000000
00000010
00000100
00000000
00000000
00000001
00000000
00000010
00000100
00000000
00000010
,
00000001
00000000
00000001
00001000
00000000
00000000
00000100
00000000
00010000
00001000
00000000
00100000
,
00010000
00000000
00010000
01000000
00000000
00000000
00100000
10000000
00010000
01000000
00000000
00000000
,
00010000
00000000
00010000
00100000
00000000
00000000
00001000
00000000
00010000
00001000
00000000
00010000
,
00000010
00000000
00001000
00000010
00000000
00000000
00000100
00000000
00000100
00000001
00000000
00000001
,
00000010
00000000
00000010
00000100
00000000
00000000
00001000
00000000
00000100
00010000
00000000
00001000
,
00100000
00000000
00000000
00000000
00000000
00000000
00001000
00010000
00001000
00010000
00000000
00000000
,
00100000
10000000
01000000
00010000
01000000
10000000
00100000
00000000
,
00010000
00001000
00000010
00000000
00000110
00000000
00001001
00000000
,
00000001
00000010
00001000
00000010
00000001
00000100
00001000
00000000
,
00010000
00100000
10000000
00000000
10010000
00000000
01100000
00000000
,
10000000
01000000
00010000
01000000
10000000
00100000
00010000
00000000
,
00001000
00000100
00000001
00000000
00000110
00000000
00001001
00000000
,
00000001
00000100
00001000
00000100
00000001
00000010
00001000
00000000
,
00010000
00000000
00000000
01000000
00000000
00000000
10000000
00000000
00000000
00100000
00000000
00000000
00010000
00000000
00000000
00000000
,
00012000
00000000
01000000
00000000
00010000
00010000
00010000
00000000
,
00100000
00100000
00103000
00000000
00101000
00000000
00010100
00000000
,
00021000
00000000
00000100
00000000
00001000
00001000
00001000
00000000
,
00000010
00000010
00030010
00000000
00010010
00000000
01001000
00000000
,
00012000
00000000
00100000
00000000
00010000
00010000
00010000
00000000
,
01000000
01000000
01003000
00000000
01001000
00000000
00010100
00000000
,
00021000
00000000
00000010
00000000
00001000
00001000
00001000
00000000
,
00000100
00000100
00030100
00000000
00010010
00000000
00101000
00000000
,
00022000
00000000
00000000
00000000
,
00000000
00000000
00000000
00033000
,
01000000
00010000
00100000
00001000
00010000
00000010
00001000
00000100
,
00000020
00000032
00000203
00001300
,
00000100
00000000
00000001
00000000
00001000
00000010
00001000
00000000
00000100
00000000
00010000
00000000
00001000
00000000
00000000
00000000
,
01000000
00000000
00010000
00000000
00100000
00010000
00100000
00000000
01000000
00000000
10000000
00000000
00010000
00000000
00000000
00000000
,
01000000
00001000
00010000
00001000
00100000
00010000
00100000
00000000
,
00001000
00010000
00000010
00001000
00000100
00000001
00000100
00000000
,
00001000
00000000
00000001
00000000
00000010
00000100
00000010
00000000
00000001
00000000
00001000
00000000
00000010
00000000
00000000
00000000
,
00010000
00000000
00001000
00000000
01000000
00010000
01000000
00000000
00100000
00000000
10000000
00000000
00010000
00000000
00000000
00000000
,
00100000
01000000
00010000
00001000
00100000
00010000
10000000
00000000
,
01100000
00000000
10000000
01000000
00010000
00001000
00000010
00000000
,
00000100
00000000
00000010
00000000
00000100
00001000
00000100
00000000
00010000
00001000
00010000
00000000
00000100
00001000
00000100
00000000
,
00010000
00000000
00001000
00000000
01000000
00010000
01000000
00000000
00001000
00010000
00001000
00000000
01000000
00010000
01000000
00000000
,
00100000
00000000
10000000
00000000
00010000
00100000
00000000
01000000
00100000
00000000
00010000
00100000
00010000
00000000
00100000
00000000
,
00001000
00000000
00010000
00000000
00000010
00001000
00000000
00000010
00000100
00000000
00000001
00000100
00000001
00000000
00001000
00000000
,
00000100
00000000
00010000
00000000
00001000
01000000
00001000
00000000
00010000
00001000
00010000
00000000
00001000
01000000
00001000
00000000
,
00010000
00000000
00000010
00000000
00001000
00000100
00001000
00000000
00000100
00000010
00000100
00000000
00001000
00000100
00001000
00000000
,
00000001
00000000
00000100
00000000
00000010
00000100
00000000
00000010
00001000
00000000
00000010
00001000
00000010
00000000
00010000
00000000
,
00011000
00000000
00000000
00000000
00001000
01000000
00000000
00010000
00000000
10000000
00100000
00000000
10000000
00000000
01000000
00000000
,
01100000
00000000
00100000
00001000
00020000
00000000
00030200
00000000
,
00001300
00000010
00000001
00000010
00000100
00000001
00001000
00000000
,
00001001
00000000
00000001
00000010
00001000
00010000
01000000
00000000
,
00100000
00000000
00001000
00000000
00010000
00001000
00010000
00000000
00000010
00000000
00001000
00000000
00000101
00000000
00000000
00000000
;

//--------------- dance-double - forcednature ----------------
#NOTEDATA:;
#STEPSTYPE:dance-double;
#DESCRIPTION:forcednature;
#DIFFICULTY:Hard;
#METER:17;
#RADARVALUES:0,0,0,0,0;
#CREDIT:forcednature;
#NOTES:
00000000
00000000
00000000
00000000
,
00000000
00000000
00000000
00000000
,
00000000
00000000
00000000
00000000
,
00000000
00000000
00000000
00000000
,
00000000
00000000
00000000
00000000
,
00020200
00030300
02002000
03003000
,
00001000
00010000
00100000
10000000
01000000
00010000
00001000
00000000
,
00011000
00000000
00000000
00000000
00010000
00000100
00001000
00000100
00010000
00000000
00001000
00000000
00000010
00000000
00000000
00000000
,
00000001
00001000
00000001
00001000
00000001
00001000
00000001
00001000
00000010
00000000
00000000
00000000
00000110
00000000
00000000
00000000
,
00000100
00001000
00010000
00100000
01000000
00010000
10000000
01000000
,
00010000
00001000
00100000
00010000
00100000
00001000
00010000
00000000
,
00000010
00001000
00000100
00000001
00000100
00001000
00000010
00010000
,
00001000
00000000
00100000
00000000
00010000
00000000
00100000
00000000
01000000
10000000
00010000
00000000
00110000
00000000
00000000
00000000
,
00001000
00010000
00000010
00001000
00000001
00000010
00001000
00000010
,
00000100
00010000
00001000
00100000
01000000
00010000
00001000
00000000
,
01000000
00010000
10000000
00100000
10000000
01000000
00010000
00001000
,
00000010
00000000
00000100
00000000
00001000
00000001
00000010
00000000
00000110
00000000
00000000
00000000
00001001
00000000
00000000
00000000
,
00002000
00000100
00000001
00000010
,
00023000
01000000
10000000
00100000
,
00032000
00000100
00000001
00000010
,
00023000
00000000
01030000
00010000
00100000
01000000
00010000
00000100
,
00002000
00000010
00000001
00000100
,
00023000
00100000
10000000
01000000
,
00032000
00000000
00000010
00000000
00000001
00000000
00003100
00010000
,
00001000
00000000
00100000
00010000
00100000
00001000
00010000
00001000
01000000
00000000
00000000
00000000
01100000
00000000
00000000
00000000
,
00100000
00000000
10000000
00100000
10000000
00000000
00010000
00000000
00100000
00000000
00010000
10000000
01000000
00000000
00100000
00000000
,
00001000
00000000
00010000
00000010
00001000
00000000
00000001
00000000
00000010
00000000
00000110
00000000
00001001
00000000
00000000
00000000
,
00001000
00000000
00000001
00000100
00000010
00000000
00001000
00000000
00000100
00000000
00010000
00001000
00100000
00000000
00001000
00000000
,
00010000
00000000
00001000
01000000
00010000
00000000
10000000
00000000
10010000
00000000
00000000
00000000
01100000
00000000
00000000
00000000
,
00010000
00000000
01000000
00001000
00010000
00000000
00000010
00000000
00001000
00000000
00000001
00000010
00000100
00000000
00001000
00000000
,
00000001
00000000
00000100
00000010
00001000
00000000
00000100
00000000
00010000
00000000
00001000
00000000
00011000
00000000
00000000
00000000
,
00010000
00000000
00001000
01000000
00010000
00000000
10000000
00000000
00100000
00000000
10000000
00010000
00100000
00000000
01000000
00000000
,
00100000
00010000
00100000
00010000
00100000
00001000
00010000
00000100
00002000
00000000
00000000
00000000
00003002
00000000
00000000
00000000
,
00000103
00001000
00000100
00000001
00000000
00000000
00001000
00000010
00010000
00001000
00010000
00000100
,
00001000
00000100
00010000
00001000
00000000
00000000
01000000
00010000
00100000
01000000
10000000
00100000
,
01000000
00010000
01000000
00001000
00000000
00000000
00010000
00000100
00001000
00000010
00010000
00000100
,
00001000
00000001
00000010
00000001
00000000
00000000
00001000
00000010
00010000
00001000
01000000
00010000
,
00100000
01000000
10000000
01000000
00000000
00000000
00100000
00010000
00100000
00001000
00010000
00001000
,
01000000
00010000
10000000
00100000
00000000
00000000
10000000
00010000
00100000
00001000
00010000
00001000
,
01000000
00010000
01000000
00001000
00000000
00000000
00010000
00000010
00001000
00000100
00000010
00000001
,
00000200
00000000
00000000
00000300
00000000
00000000
00000001
00000100
00001000
00010000
00000000
00000000
,
00001000
00010000
00001000
00010000
00001000
01000000
00001000
01000000
00010000
01000000
00010000
01000000
00100000
00000000
00000000
00000000
,
10000000
01000000
10000000
01000000
00100000
01000000
00100000
01000000
00100000
00000000
00010000
00100000
00000000
00001000
00010000
00000000
,
00000010
00001000
00000010
00001000
00000010
00000100
00000010
00000100
00000001
00001000
00000001
00001000
00000010
00000000
00000000
00000000
,
00001000
00000100
00001000
00000100
00010000
00001000
00010000
00001000
00100000
00000000
00010000
00100000
00000000
00010000
00100000
00000000
,
01000000
10000000
01000000
10000000
00010000
01000000
00010000
01000000
00001000
00010000
00001000
00010000
00001000
00000000
00000000
00000000
,
00100000
00010000
00100000
00010000
00100000
00001000
00100000
00001000
00010000
00000000
00001000
00010000
00000000
00001000
00010000
00000000
,
00000010
00001000
00000010
00001000
00000010
00000100
00000010
00000100
00000001
00001000
00000001
00001000
00000100
00000000
00000000
00000000
,
00000110
00000000
00000000
00000011
00000000
00000000
00000101
00000000
00000000
00001100
00000000
00000000
00011000
00000000
00000000
00000000
,
01000000
00000000
00010000
00000000
10000000
00000000
00100000
10000000
00010000
00000000
00100000
00000000
01000000
00000000
00010000
00000000
,
00000000
00001000
00000010
00000100
00001000
00000000
00000011
00000000
,
00000001
00000000
00001000
00000000
00000010
00000000
00001000
00000001
00000010
00000000
00000001
00000000
00000100
00000000
00001000
00000000
,
00000000
00010000
00100000
01000000
00010000
00000000
10100000
00000000
,
10000000
00000000
01000000
00000000
10000000
00000000
00010000
00100000
01000000
00000000
00100000
00000000
00001000
00000000
00010000
00000000
,
00000000
00000010
00010000
00001000
00000010
00000000
00000110
00000000
,
00000100
00000000
00001000
00000000
00000001
00000000
00000010
00000001
00001000
00000000
00000010
00000000
00010000
00000000
00001000
00000000
,
00000000
00000000
01000000
00010000
10000000
00100000
10000000
00010000
00100000
00000000
00000000
00000000
01100000
00000000
00000000
00000000
,
00022000
00000000
00000000
00000000
,
00000000
00000000
00000000
00033000
,
00010000
00001000
00000010
00000100
00001000
00000001
00000100
00000000
,
00001000
00000000
00010000
00000000
00100000
01000000
00000000
00010000
01000000
00000000
00001000
00000000
00011000
00000000
00000000
00000000
,
00000100
00001000
00000100
00010000
00001000
00100000
00010000
00100000
00001000
00000000
00010000
00000000
00010010
00000000
00000000
00000000
,
00000010
00000100
00000001
00001000
00000001
00000100
00000010
00001000
00000010
00000000
00010000
00000000
00011000
00000000
00000000
00000000
,
00001000
00100000
00001000
00000000
00100000
00010000
00100000
01000000
00000000
10000000
01000000
10000000
00010000
01000000
00010000
00000000
,
00100000
00010000
00100000
00000000
00001000
00010000
00001000
00010000
00000000
00000010
00001000
00000000
00001010
00000000
00000000
00000000
,
01000000
00010000
01000000
00001000
00010000
00000010
00001000
00000010
00010000
00000000
00001000
00000000
00101000
00000000
00000000
00000000
,
00100000
01000000
10000000
00010000
10000000
01000000
00100000
00010000
00100000
00000000
00001000
00000000
00011000
00000000
00000000
00000000
,
00010000
00000010
00010000
00000000
00000010
00001000
00000010
00000100
00000000
00000001
00000100
00000001
00001000
00000100
00001000
00000000
,
00001010
00000000
00000010
00000000
00010000
00001000
00010000
00001000
00000000
00100000
00010000
00100000
01000000
10000000
01000000
00000000
,
00100000
00010000
00100000
00001000
00010000
00001000
00010000
00000100
00001000
00000100
00010000
00001000
00010000
00000000
00000010
00000000
,
00001000
00000001
00000100
00000001
00001000
00000010
00010000
00001000
00010000
00001000
01000000
00010000
01000000
00000000
00001000
00000000
,
00100000
00001000
00010000
00000000
00001000
01000000
00010000
00000000
10000000
00100000
01000000
00010000
10000000
00000000
01000000
00000000
,
00100000
00010000
00100000
00000000
00001000
00010000
00001000
00000000
00010000
00000100
00001000
00000100
00020000
00000000
00000000
00000000
,
00030010
00001000
00000010
00010000
00001000
00010000
00001000
01000000
00010000
01000000
00001000
00010000
00001000
00000000
00100000
00000000
,
00010000
10000000
01000000
10000000
00010000
00100000
00001000
00010000
00001000
00010000
00000100
00001000
00000100
00000000
00010000
00000000
,
00000010
00010000
00001000
00000000
00010000
00000100
00001000
00000000
00000001
00000010
00000100
00001000
00000001
00000000
00000100
00000000
,
00000110
00000000
00000010
00000000
00010000
00001000
00010000
00000100
00000000
00010000
00001000
00100000
00010000
00100000
00001000
00000000
,
00010000
01000000
00000000
10000000
00000000
00010000
00000000
00100000
00002000
00000000
00000000
00000000
00023000
00000000
00000000
00000000
,
00030010
00001000
00000010
00000000
00000100
00000000
00000001
00001000
00000100
00000000
00010000
00000000
00001000
00000000
00000010
00000000
,
00000001
00000100
00000000
00001000
00000100
00000001
00000000
00001000
00000010
00000000
00010000
00000000
00001000
00000000
01000000
00000000
,
00010000
00100000
00010000
00100000
01000000
00100000
01000000
00100000
01000000
00000000
10000000
00000000
10100000
00000000
00000000
00000000
;
