#VERSION:0.83;
#TITLE:Fantasia;
#SUBTITLE:;
#ARTIST:TЁЯRA;
#TITLETRANSLIT:;
#SUBTITLETRANSLIT:;
#ARTISTTRANSLIT:TERRA;
#GENRE:HYPER FANTASIA;
#CREDIT:;
#MUSIC:Fantasia.ogg;
#BANNER:Fantasia.png;
#BACKGROUND:Fantasia-bg.png;
#CDTITLE:./CDTitles/pnm 17 THE MOVIE.png;
#SAMPLESTART:29.891;
#SAMPLELENGTH:15.000;
#SELECTABLE:YES;
#OFFSET:1.064;
#BPMS:0.000=165.000;
#STOPS:;
#TIMESIGNATURES:0.000=4=4;
#BGCHANGES:0.000=../BGAs/07tr.mp4=1.000=0=0=0=StretchNoLoop====,
99999.000=-nosongbg-=1.000=0=0=0=StretchNoLoop====
;
#FGCHANGES:;

//--------------- dance-single - forcednature ----------------
#NOTEDATA:;
#STEPSTYPE:dance-single;
#DESCRIPTION:forcednature;
#CREDIT:forcednature;
#DIFFICULTY:Beginner;
#METER:1;
#RADARVALUES:0,0,0,0,0;
#NOTES:
0000
0000
0000
0000
,
0000
0000
0000
0000
,
0000
0000
0000
0000
,
0000
0000
0000
0000
,
0000
0000
0000
0000
,
0001
0000
0000
0000
,
0000
0000
0000
0000
,
1000
0000
0000
0000
,
0000
0000
0000
0000
,
0010
0000
0000
0000
,
0000
0000
0000
0000
,
0000
0000
0000
0000
,
0000
0000
0000
0000
,
0100
0000
0000
0000
,
0000
0000
0000
0000
,
0000
0000
0000
0000
,
0000
0000
0000
0000
,
0001
0000
0000
0000
,
0000
0000
0000
0000
,
0010
0000
0000
0000
,
0000
0000
0000
0000
,
0000
0000
0000
0000
,
1001
0000
0000
0000
,
0000
0000
0000
0000
,
1000
0000
0000
0000
,
0000
0000
0000
0000
,
0010
0000
0000
0000
,
0000
0000
0000
0000
,
0100
0000
0000
0000
,
0000
0000
0000
0000
,
0001
0000
0000
0000
,
0000
0000
0000
0000
,
0010
0000
0000
0000
,
0000
0000
0000
0000
,
0100
0000
0000
0000
,
0000
0000
0000
0000
,
1000
0000
0000
0000
,
1000
0000
0000
0000
,
0001
0000
0000
0000
,
0000
0000
0000
0000
,
0100
0000
0000
0000
,
0000
0000
0000
0000
,
0000
0000
0000
0000
,
0000
0000
0000
0000
,
0010
0000
0000
0000
,
0000
0000
0000
0000
,
1000
0000
0000
0000
,
0001
0000
0000
0000
,
1001
0000
0000
0000
,
0000
0000
0000
0000
,
1000
0000
0000
0000
,
0000
0000
0000
0000
,
0100
0000
0000
0000
,
0000
0000
0000
0000
,
0010
0000
0000
0000
,
0000
0000
0000
0000
,
0001
0000
0000
0000
,
0000
0000
0000
0000
,
0100
0000
0000
0000
,
0000
0000
0000
0000
,
0010
0000
0000
0000
,
0010
0000
0000
0000
,
1000
0000
0000
0000
,
0001
0000
0000
0000
,
1001
0000
0000
0000
,
0000
0000
0000
0000
,
0110
0000
0000
0000
,
0000
0000
0000
0000
,
1001
0000
0000
0000
,
0000
0000
0000
0000
,
0110
0000
0000
0000
;

//--------------- dance-single - forcednature ----------------
#NOTEDATA:;
#STEPSTYPE:dance-single;
#DESCRIPTION:forcednature;
#CREDIT:forcednature;
#DIFFICULTY:Easy;
#METER:6;
#RADARVALUES:0,0,0,0,0;
#NOTES:
0000
0000
0000
0000
,
0000
0000
0000
0000
,
0000
0000
0000
0000
,
0000
0000
0000
0000
,
0000
0000
0000
0000
,
1000
1000
1000
0000
,
0001
0001
0001
0000
,
0100
0100
0010
0100
,
0010
0100
0110
0000
,
1001
0000
1000
0100
,
0010
0000
0001
0000
,
0100
0100
0001
0001
,
1000
0010
1000
0000
,
0001
0000
0010
0000
,
0100
0000
1000
0000
,
0001
0001
0100
0000
,
0010
0000
0100
0000
,
1001
0000
1000
0100
,
1000
0000
0010
0000
,
0100
0100
0001
0001
,
0010
0001
0100
0000
,
2002
0000
0000
3003
,
1000
0100
0010
0100
,
1000
0000
0001
0001
,
0010
0000
0001
0001
,
0100
0010
1000
0000
,
0001
0010
0100
0010
,
0001
1000
0010
0000
,
1000
0100
0010
0100
,
1000
0001
0100
0000
,
0010
0010
1000
0000
,
0001
0100
0010
0000
,
1000
1000
0100
0100
,
1000
0001
0010
0000
,
0100
0100
1000
1000
,
0010
0000
0100
0001
,
2002
0000
3003
0000
,
1000
0100
0010
0001
,
1001
0000
1000
0010
,
0100
0010
1000
0000
,
1001
0000
0001
0000
,
0020
0000
0000
0030
,
0100
0000
1000
0000
,
0001
0200
0000
0300
,
0110
0000
1000
0000
,
0001
0000
0010
0000
,
1001
0100
0110
0010
,
2002
0000
3003
0000
,
1000
0000
0100
0000
,
1000
0000
0010
0000
,
1000
0000
0001
0000
,
0100
0000
0001
0000
,
0010
0010
0010
0000
,
0100
0000
1000
0000
,
0010
0010
0010
0000
,
0100
0001
0010
0000
,
1001
0000
1000
0100
,
0010
0001
0100
0010
,
1000
0000
0001
0010
,
0001
0100
0010
0000
,
0110
1000
1001
0000
,
0100
0001
1001
0000
,
0110
0000
0001
0010
,
0100
1000
0010
0100
,
1001
0000
1000
0100
,
0001
0100
1000
0000
,
0110
0000
0001
0100
,
1000
0100
0001
0000
,
0110
0000
0010
1000
,
0010
0001
0010
0000
,
1001
0000
0000
0000
;

//--------------- dance-single - forcednature ----------------
#NOTEDATA:;
#STEPSTYPE:dance-single;
#DESCRIPTION:forcednature;
#CREDIT:forcednature;
#DIFFICULTY:Medium;
#METER:11;
#RADARVALUES:0,0,0,0,0;
#NOTES:
0000
0000
0000
0000
,
0000
0000
0000
0000
,
0000
0000
0000
0000
,
0000
0000
0000
0000
,
0000
0000
0000
0000
,
1000
0000
0000
1000
0000
0000
0100
0000
0010
0000
0000
0000
0000
0000
0000
0000
,
0001
0000
0000
0001
0000
0000
0100
0000
0010
0000
0000
0000
0000
0000
0000
0000
,
1000
0000
0000
1000
0000
0000
0001
0000
0100
0000
0000
0100
0000
0000
0001
0000
,
0010
0000
0000
0100
0000
0000
0010
0000
0002
0000
0000
0000
0000
0000
0000
0000
,
1003
0000
0010
0100
0001
0100
0010
0000
,
1000
1100
0001
0011
,
1000
0000
0001
0100
0010
0100
0001
0000
,
0000
0011
0000
0011
0000
1100
0000
1000
,
0001
0100
0010
1000
,
0001
0000
0010
0000
,
0001
0100
0010
1000
,
0001
0000
0010
0100
,
0110
0000
1000
1000
,
0001
0100
0010
0000
,
1001
0100
1001
0010
,
0110
0000
1000
0001
0000
0001
0010
0000
,
2002
0000
0000
3003
,
1100
0000
0001
0010
0100
0000
0011
0000
,
0001
0000
0000
0001
0100
0000
0000
0100
0010
0000
0000
0010
1000
0000
0000
0000
,
0001
0010
0100
0000
0010
0001
0100
0000
,
0001
1000
0010
0100
0001
0000
1001
0000
,
1000
0000
0000
1000
0100
0000
0000
0100
0010
0000
0000
0010
0001
0000
0000
0000
,
0100
0000
0000
0100
0000
0000
0010
0000
0120
0000
0000
0000
1030
0000
0000
0000
,
0001
0100
0100
0001
0010
0001
1000
0000
,
0100
0000
0000
0100
0000
0000
0010
0000
0110
0000
0000
0000
1001
0000
0000
0000
,
1000
0000
0100
0000
1000
0000
0000
0001
0010
0000
0000
0000
1100
0000
0000
0000
,
0001
0100
1000
0000
0100
0001
1000
0000
,
1010
0000
0000
0000
0001
0000
0000
0000
0010
0000
0000
0010
0000
0000
0100
0000
,
1000
0000
0000
1000
0000
0000
0001
0000
0200
0000
0000
0000
0310
0000
0000
0000
,
0101
0000
0000
0001
0000
0000
1000
0000
0010
0000
0000
0100
0000
0000
0001
0000
,
0011
0000
0000
0000
0000
0000
0001
0000
1000
0000
0000
1000
0000
0000
0100
0000
,
0020
0001
0130
0010
,
0011
0101
1010
1100
,
1001
0000
0001
0100
0010
0100
0001
0100
,
0000
0110
0000
0110
0000
1000
0010
0100
,
0001
0010
0100
1000
,
0001
0000
0000
0000
,
0100
0010
1000
0100
,
0010
0001
0000
0000
,
1001
1000
0010
0100
,
0001
0010
0100
1000
,
1001
0010
0110
0100
,
2002
0000
0000
3003
,
1000
0100
0010
0000
0100
1000
0010
0000
,
0100
0011
0001
1000
,
0010
0100
0001
0000
0010
0001
0100
0000
,
0010
0110
1000
1100
,
0001
0010
1000
0000
0010
0001
1000
0000
,
0010
0000
0000
0010
0100
0000
0001
0000
2000
0000
0000
0000
3010
0000
0000
0000
,
0101
0000
0001
0001
0010
0000
0001
0000
,
1000
0000
0000
1000
0100
0000
0010
0000
0001
0000
0000
0000
1010
0000
0000
0000
,
0001
0100
1000
0000
0100
0001
1000
0000
,
0010
0100
0100
0001
1000
0000
0110
0000
,
0001
0000
0010
0000
0100
0000
0000
0000
0010
0000
0000
0010
0001
0000
0000
0000
,
0100
0000
0000
0100
0010
0000
0000
0000
1000
0000
0001
0000
0010
0000
0000
0000
,
0100
0000
0000
1000
0000
0000
0100
0000
1000
0000
0000
1000
0000
0000
0010
0000
,
0100
0000
0000
0000
0000
0000
0001
0000
0010
0000
0000
0001
0000
0000
0100
0000
,
1002
0010
0103
0001
,
0011
1100
1010
0101
,
1001
0000
1000
0100
0010
0100
1000
0000
,
0002
0010
1003
0110
,
1001
0000
0001
0100
0010
0100
0001
0000
,
2000
0010
3001
0110
,
1001
0000
0001
0010
1000
0010
0001
0000
,
2000
0100
3010
0110
,
1001
0000
0000
0000
;

//--------------- dance-single - forcednature ----------------
#NOTEDATA:;
#STEPSTYPE:dance-single;
#DESCRIPTION:forcednature;
#CREDIT:forcednature;
#DIFFICULTY:Hard;
#METER:15;
#RADARVALUES:0,0,0,0,0;
#NOTES:
0000
0000
0000
0000
,
0000
0000
0000
0000
,
0000
0000
0000
0000
,
0000
0000
0000
0000
,
0000
0000
0000
0000
,
1100
0000
0000
1100
0000
0000
0001
0000
0011
0000
0000
1000
0001
0000
0000
0000
,
0101
0000
0000
0101
0000
0000
1000
0000
1010
0000
0000
0000
0001
0000
0000
0000
,
0011
0000
0000
0011
0000
0000
1000
0000
1100
0000
0000
1100
0000
0000
0001
0000
,
0101
0000
0000
1010
0000
0000
0010
0000
2002
0000
0000
0000
3003
0000
0000
0000
,
1000
0000
0100
1000
0100
0000
0010
0100
0010
0000
0001
1000
0010
0000
0100
0000
,
0002
0010
2003
0010
,
3001
0000
0100
0001
0100
0000
0010
0100
0010
0000
1000
0001
0010
0000
0100
0000
,
0000
1100
0000
1010
0000
0110
0000
0001
,
2000
0000
0000
3200
0000
0000
0320
0000
0032
0000
0000
0000
0103
0000
0000
0000
,
0020
0000
1030
1000
0200
0000
0310
0000
,
2000
3200
0320
0031
,
1000
0000
0000
0000
0001
0000
0100
0000
0010
0000
1000
0100
0000
0010
0100
0000
,
1001
0001
0000
0001
0100
0010
0000
0010
,
1000
1000
0000
1000
0100
0010
0000
0010
,
1001
0000
0000
0001
0010
0000
0100
0000
0110
0000
0000
1000
0010
0000
0100
0000
,
0110
0000
0000
0001
0100
0000
0010
0000
0100
0000
0001
1000
0010
0000
0100
0000
,
2002
0000
0000
3003
,
1000
0000
0100
1000
0001
0000
0010
0000
0001
0000
0000
0000
0101
0000
0000
0000
,
0100
0000
0010
0100
0010
0000
1000
0010
1000
0000
0001
0000
0010
0000
0000
0000
,
0001
0010
0100
0000
0010
0000
0001
0000
1000
0010
0100
0000
0010
0000
1000
0000
,
0001
0000
0000
0010
0100
0000
0010
0000
0011
0000
0000
1000
0001
0000
0000
0000
,
1010
0000
0000
0001
0100
0000
0001
0000
0011
0000
0000
1000
0100
0000
0000
0000
,
0110
0000
0000
0010
0001
0000
0100
0000
1002
0000
0000
0000
0013
0000
0000
0000
,
0001
0100
0001
0000
1000
0000
0010
0000
1000
0000
0002
0000
0023
0000
0230
0000
,
2300
0000
3000
0010
0100
0000
0001
0000
1000
0100
0010
0001
2000
0000
0000
0000
,
3001
0000
0100
0010
1000
0000
0010
0000
0110
0000
0000
0000
0001
0000
0000
0000
,
1000
0000
0100
1000
0100
0000
0010
0100
0010
0000
0001
0000
0011
0000
0000
0000
,
1000
0010
0100
0000
0010
0000
1000
0000
0001
0100
0000
0010
0100
0000
0001
0000
,
1000
0010
0000
1000
0100
0000
0010
0000
0110
0000
0000
0001
0010
0000
0000
0000
,
0011
0000
0000
1000
0100
0000
1000
0000
1010
0000
0000
0001
0100
0000
0001
0000
,
0011
0000
0000
0010
0100
0000
0010
0000
2001
0000
0000
3020
0000
0000
0230
0000
,
0301
1000
0001
1000
0001
0000
0010
0000
2000
0000
0000
0000
3010
0000
0000
0000
,
0001
1000
0010
0000
1000
0001
0010
0000
0100
1000
0010
0000
0100
0001
0010
0000
,
0110
0000
0000
0000
1000
0000
1000
0001
0100
0000
0100
0000
0020
0000
0000
0000
,
1030
0000
0001
1000
0100
0000
0010
0001
0100
0000
0010
1000
0100
0000
0010
0000
,
1001
0000
1000
0000
0010
1000
0100
0010
,
0001
0010
0001
0010
0001
0010
0001
0010
0001
0000
0000
0000
0100
0000
0010
0000
,
1000
0001
0010
0001
1000
0010
0100
0001
,
0020
0000
0230
0000
1300
1000
1000
0000
,
0011
0000
1000
0000
0001
0010
0001
0100
,
0010
1000
0010
1000
0010
1000
0010
1000
0010
0000
0100
0000
0001
0000
0010
0000
,
0110
0000
0000
0010
0001
0000
0100
0001
0010
0000
0100
1000
0010
0000
0000
0000
,
2002
0000
0000
3003
,
1000
0000
0100
0010
0100
0000
1000
0000
0001
0000
0010
0100
0010
0000
0000
0000
,
0201
1000
0301
0110
,
0001
0000
0010
0100
1000
0000
0010
0100
0001
0000
0010
0000
0001
0000
0000
0000
,
0110
0000
0000
0001
0010
0000
0100
1000
0002
0000
0000
0000
0013
0000
0000
0000
,
0001
0100
0010
0000
1000
0000
1000
0000
0001
0010
0100
0000
1000
0000
1000
0000
,
0010
0100
0000
0001
0010
0000
0100
0000
1100
0000
0000
0000
0010
0000
0000
0000
,
0001
1000
0010
1000
0001
0000
0001
0000
2000
0000
3020
0000
0230
0000
0302
0000
,
0013
0100
0000
0100
0010
0000
0001
0000
0110
0000
0000
1000
0002
0000
0000
0000
,
1003
0100
1000
0100
0010
0000
0001
0010
0100
0000
1000
0000
1100
0000
0000
0000
,
1000
0000
0010
0100
0010
0000
1000
0010
1000
0000
0001
0000
0101
0000
1000
0000
,
0010
0100
0001
0000
0010
0000
0001
0000
1000
0010
0000
0100
0001
0000
0010
0000
,
0100
1000
0000
0100
0010
0000
0001
0000
0011
0000
0000
0100
1000
0000
0000
0000
,
0101
0000
0001
0010
0100
0000
1000
0000
1010
0000
1000
0100
0010
0000
0001
0000
,
1001
0000
0000
1000
0010
0000
0100
0000
1002
0000
0000
0023
0000
0000
0230
0000
,
1300
0001
1000
0001
0010
0001
0010
0001
2000
0000
0000
0000
3100
0000
0000
0000
,
1000
0010
0100
0000
0001
0010
0100
0000
0010
0001
0100
0000
0010
1000
0100
0000
,
0110
0000
0000
0000
0010
0001
0010
0100
0010
0000
0100
1000
0001
0000
0010
0000
,
0002
0100
0103
0000
2000
0001
3010
0000
,
0110
0000
0000
0000
0010
1000
0010
0100
0010
0000
0100
0001
1000
0000
0010
0000
,
2000
0100
3100
0000
0020
0100
0031
0000
,
1001
0000
0000
0000
1000
0100
0010
0001
1000
0000
0010
0100
0001
0000
0010
0000
,
0200
1000
1300
0000
0002
0010
1003
0000
,
0110
0000
0000
0000
;

//--------------- dance-double - forcednature ----------------
#NOTEDATA:;
#STEPSTYPE:dance-double;
#DESCRIPTION:forcednature;
#CREDIT:forcednature;
#DIFFICULTY:Easy;
#METER:5;
#RADARVALUES:0,0,0,0,0;
#NOTES:
00000000
00000000
00000000
00000000
,
00000000
00000000
00000000
00000000
,
00000000
00000000
00000000
00000000
,
00000000
00000000
00000000
00000000
,
00000000
00000000
00000000
00000000
,
00001000
00000000
00000000
00001000
,
00010000
00000000
00000000
00010000
,
00001000
00000000
00010000
00000000
,
00011000
00000000
00011000
00000000
,
01000000
00000000
01000000
00000000
,
00010000
00000000
00000000
00000000
,
10000000
00000000
00100000
00000000
,
10000000
00000000
00000000
00000000
,
00010000
00000000
00000000
00000000
,
00100000
00000000
00000000
00000000
,
00001000
00000000
00001000
00000000
,
00010000
00000000
00000000
00000000
,
00011000
00000000
00000000
00000000
,
00000100
00000000
00000000
00000000
,
00001000
00000000
00001000
00000000
,
00000010
00000000
00001000
00000000
,
00001001
00000000
00000000
00000000
,
00000110
00000000
00000001
00000000
,
00000010
00000000
00000000
00000000
,
00000100
00000000
00001000
00000000
,
00000100
00000000
00010000
00000000
,
00011000
00000000
00100000
00000000
,
00010000
00000000
00010000
00000000
,
01000000
00000000
00100000
00000000
,
10000000
00000000
00010000
00000000
,
10010000
00000000
10000000
00000000
,
01000000
00000000
00000000
00000000
,
00100000
00000000
00010000
00000000
,
00100000
00000000
00001000
00000000
,
00011000
00000000
00000010
00000000
,
00000110
00000000
00000100
00000000
,
00001001
00000000
00000000
00000000
,
00001000
00001000
00000001
00000001
,
00001000
00000000
00000000
00000000
,
00000010
00000000
00000000
00000000
,
00001001
00000000
00000001
00000000
,
00000020
00000000
00000030
00000000
,
00000100
00000000
00001000
00000000
,
00000100
00000000
00000000
00000000
,
00010000
00000000
00001000
00000000
,
00020000
00000000
00030000
00000000
,
00001000
00001000
00010000
00010000
,
00011000
00000000
00000000
00000000
,
01000000
00000000
00010000
00000000
,
01000000
00000000
00000000
00000000
,
00100000
00000000
10000000
00000000
,
00010000
00000000
00100000
00000000
,
00010000
00000000
00010000
00000000
,
01000000
00000000
00000000
00000000
,
00001000
00000000
00010000
00000000
,
00001000
00000000
00000000
00000000
,
00011000
00000000
00000100
00000000
,
00001000
00000000
00000000
00000000
,
00000010
00000000
00000010
00000000
,
00001000
00000000
00000001
00000000
,
00000100
00000000
00000100
00000001
,
00000100
00000000
00000010
00000000
,
00000110
00000000
00000001
00000000
,
00001000
00001000
00000100
00000100
,
00010000
00000000
00000000
00010000
,
00001000
00000000
01000000
00000000
,
10010000
00000000
00000000
00010000
,
00100000
00000000
00001000
00000000
,
00011000
00000000
00000000
00000010
,
00001000
00000000
00000100
00000000
,
00001001
00000000
00000000
00000000
;

//--------------- dance-double - forcednature ----------------
#NOTEDATA:;
#STEPSTYPE:dance-double;
#DESCRIPTION:forcednature;
#CREDIT:forcednature;
#DIFFICULTY:Medium;
#METER:11;
#RADARVALUES:0,0,0,0,0;
#NOTES:
00000000
00000000
00000000
00000000
,
00000000
00000000
00000000
00000000
,
00000000
00000000
00000000
00000000
,
00000000
00000000
00000000
00000000
,
00000000
00000000
00000000
00000000
,
00010000
00000000
00000000
00010000
00000000
00000000
00001000
00000000
00100000
00000000
00000000
00000000
00000000
00000000
00000000
00000000
,
00001000
00000000
00000000
00001000
00000000
00000000
00010000
00000000
00000010
00000000
00000000
00000000
00000000
00000000
00000000
00000000
,
00010000
00000000
00000000
00000100
00000000
00000000
00010000
00000000
00001000
00000000
00000000
01000000
00000000
00000000
00001000
00000000
,
00011000
00000000
00000000
00010000
00000000
00000000
00001000
00000000
00022000
00000000
00000000
00000000
00033000
00000000
00000000
00000000
,
01000000
00010000
01000000
00000000
00100000
10000000
00100000
00000000
,
02000000
00010000
03002000
00010000
,
00103000
00010000
00100000
00000000
00001000
00010000
00001000
00000000
,
00000000
00000110
00000000
00000110
00000000
00000110
00000000
00001000
,
00000001
00000100
00001000
00010000
,
00200000
00300000
20000000
30000000
,
00010000
00100000
01000000
00010000
,
00002000
00000000
00000000
00000000
00003000
00000000
00000000
00000000
00000010
00000000
00000000
00000100
00000000
00000000
00000010
00000000
,
00000110
00001000
00001000
00000001
,
00000001
00000000
00000100
00000000
00001000
00000000
00010000
00001000
,
00011000
00000000
00100000
00010000
01000000
00000000
00100000
10000000
,
01000000
00010000
00001000
00000010
,
00000220
00000000
00000000
00000330
,
00000100
00001000
00000010
00000000
00000100
00000001
00000010
00000000
,
00001000
00010000
01000000
10000000
,
00100000
01000000
00010000
00000000
00100000
01000000
10000000
00000000
,
00100000
00010000
00001000
00000100
,
00000001
00000010
00000100
00000000
00001000
00000010
00000100
00000000
,
00001000
00000000
00000000
00001000
00000000
00000000
00010000
00000000
00001000
00000000
00000000
00000000
00011000
00000000
00000000
00000000
,
00100000
00010000
01000000
00000000
00100000
10000000
01000000
00000000
,
00010000
00000000
00000000
00010000
00000000
00000000
00001000
00000000
00010000
00000000
00000000
00000000
00011000
00000000
00000000
00000000
,
00000010
00001000
00000100
00000000
00000010
00000001
00000100
00000000
,
00001000
00010000
00100000
10000000
,
01000000
00000000
00100000
00000000
00010000
00000000
00000000
00000000
01000000
00000000
00000000
01000000
00000000
00000000
00010000
00000000
,
00100000
00000000
00000000
00100000
00000000
00000000
00001000
00000000
00010000
00000000
00000000
00000000
00011000
00000000
00000000
00000000
,
00000010
00000000
00000000
00001000
00000000
00000000
00000100
00000000
00000010
00000000
00000000
00000001
00000000
00000000
00000100
00000000
,
00000010
00000000
00000000
00000000
00000000
00000000
00001000
00000000
00000001
00000000
00000000
00000010
00000000
00000000
00001000
00000000
,
00020000
00000100
00001000
00030010
,
00011000
00101000
00011000
01001000
,
10010000
00000000
10000000
01000000
,
00000000
00010000
00000000
00010000
00000000
00001000
00000000
00001000
,
00011000
00000000
00010000
00000000
00000100
00001000
00000100
00001000
,
00000020
00000000
00000030
00000000
,
00000100
00000001
00000010
00001000
,
00020000
00032000
00000000
00003000
,
00011000
01000000
00010000
10000000
,
00100000
01000000
00010000
00000000
00100000
01000000
10000000
00000000
,
01100000
00010000
00011000
00001000
,
00000220
00000000
00000000
00000330
,
00000001
00000100
00001000
00010000
,
00100000
01000000
00100000
01000000
00100000
00000000
10000000
00000000
,
01000000
00010000
00001000
00000010
,
00000110
00000000
00000000
00001000
00000001
00000000
00000010
00000000
,
00000100
00001000
00000010
00000000
00000100
00000001
00000010
00000000
,
00001000
00010000
01000000
10000000
,
00100000
01000000
00010000
00000000
00100000
01000000
10000000
00000000
,
01000000
00000000
00000000
00010000
00000000
00000000
00001000
00000000
00010000
00000000
00000000
00000000
00011000
00000000
00000000
00000000
,
00100000
00010000
01000000
00000000
00100000
10000000
01000000
00000000
,
00010000
00000000
00001000
00000000
00000010
00000000
00000001
00000100
,
00000010
00000000
00000000
00000000
00001000
00000000
00000100
00000000
00000010
00000000
00000000
00000010
00000000
00000000
00000100
00000000
,
00001000
00000000
00000000
00001000
00000000
00000000
00000010
00000000
00010000
00000000
00000000
00000000
00011000
00000000
00000000
00000000
,
00001000
00000000
00000000
00100000
00000000
00000000
00001000
00000000
00010000
00000000
00000000
00000010
00000000
00000000
00010000
00000000
,
00011000
00000000
00000000
00000000
00000000
00000000
00001000
00000000
00100000
00000000
00000000
00010000
00000000
00000000
00100000
00000000
,
02000000
10000000
03100000
01000000
,
01100000
00101000
00011000
00010100
,
00000110
00000000
00000010
00000001
00000010
00000001
00000010
00000000
,
00000200
00001000
00010000
00001300
,
00001100
00000000
00010000
00001000
00100000
00001000
00010000
00000000
,
00002000
01000000
00010000
01003000
,
01010000
00000000
10000000
00010000
01000000
00010000
10000000
00000000
,
00200000
01000000
10000000
01300000
,
10010000
00000000
00000000
00000000
;

//--------------- dance-double - forcednature ----------------
#NOTEDATA:;
#STEPSTYPE:dance-double;
#DESCRIPTION:forcednature;
#CREDIT:forcednature;
#DIFFICULTY:Hard;
#METER:15;
#RADARVALUES:0,0,0,0,0;
#NOTES:
00000000
00000000
00000000
00000000
,
00000000
00000000
00000000
00000000
,
00000000
00000000
00000000
00000000
,
00000000
00000000
00000000
00000000
,
00000000
00000000
00000000
00000000
,
00011000
00000000
00000000
00011000
00000000
00000000
00100000
00000000
00010000
00000000
00000000
00010000
01000000
00000000
00000000
00000000
,
01100000
00000000
00000000
01100000
00000000
00000000
10000000
00000000
00020000
00000000
00000000
00000000
00130000
00000000
00000000
00000000
,
00101000
00000000
00000000
00011000
00000000
00000000
00000100
00000000
00001100
00000000
00000000
00001010
00000000
00000000
00000001
00000000
,
00000011
00000000
00000000
00000101
00000000
00000000
00001000
00000000
00002020
00000000
00000000
00000000
00003030
00000000
00000000
00000000
,
00000010
00010000
00001000
00000010
00000100
00001000
00000001
00000000
,
00000201
00001300
00012000
00103000
,
00001000
00010000
01000000
00100000
01000000
00010000
00001000
00100000
,
00000000
00110000
00000000
11000000
00000000
10100000
00000000
00010000
,
00100000
00000000
00000000
01000000
00000000
00000000
00010000
00000000
00001000
00000000
00000000
00000000
00000010
00000000
00000000
00000000
,
00000200
00000000
00000300
00001000
00002000
00000000
00003000
00000001
,
00000002
00000203
00000320
00002030
,
00023000
00000000
00030000
01000000
00000000
00100000
10000000
00010000
,
00100000
01000000
00000000
01000000
00010000
00001000
00000000
00001000
,
00000010
00000100
00000000
00000100
00010000
00001000
00000000
00001000
,
00000010
00000000
00000000
00000000
00000110
00000000
00000000
00000000
00000100
00000000
00000000
00000100
00001000
00000000
00000001
00000000
,
00000200
00000010
00001300
00011000
,
02200000
00000000
00000000
03300000
,
10000000
00010000
00100000
01000000
00010000
00001000
00100000
00010000
,
00100000
00000000
00000000
00100000
00001000
00000000
00000000
00001000
00000010
00000000
00000100
00000000
00001000
00000000
00000000
00000000
,
00000001
00000100
00010000
00001000
00000010
00010000
00011000
00000000
,
00000100
00000000
00001000
00000000
00000010
00000000
00000100
00000010
00000100
00000000
00000001
00000000
00000010
00000000
00000000
00000000
,
00000100
00001000
00000100
00000000
00001000
00000000
00000010
00000000
00010000
00001000
00010000
00000000
00001000
00000000
00100000
00000000
,
00010000
00000000
00000000
00010000
01000000
00000000
00100000
00000000
10000000
00000000
01000000
00000000
00010000
00000000
00000000
00000000
,
00001000
00010000
00001000
00010000
00001000
00000000
00100000
00000000
00100000
00000000
00001000
00000000
00010000
00000000
00000010
00000000
,
00001000
00000100
00000000
00001000
00000100
00000000
00000010
00000000
00000110
00000000
00000000
00000001
00000100
00000000
00000000
00000000
,
00000001
00001000
00000010
00000100
00001000
00010000
00000010
00001000
,
00000010
00000000
00000000
00000010
00010000
00000000
00000000
00010000
00100000
00000000
01000000
00000000
00010000
00000000
00000000
00000000
,
10100000
00000000
00000000
00000000
10000000
00000000
01000000
00000000
00010000
00001000
00000000
00010000
00001000
00000000
00000010
00000000
,
00000100
00001000
00000000
00000100
00000010
00000000
00000001
00000000
00000010
00000000
00000000
00000001
00000100
00000000
00000000
00000000
,
00001000
00010000
00000000
00010000
00001000
00000000
00100000
00000000
00010000
01000000
00000000
00010000
10000000
00000000
00100000
00000000
,
01100000
00000000
00000000
00000000
00010000
00000000
10000000
00000000
01000000
00000000
00000000
01000000
00010000
00000000
00001000
00000000
,
00021000
00000100
00030010
00001010
,
00000001
00000100
00000001
00000000
00000100
00000010
00000100
00000000
00000010
00010000
00001000
00000000
00010000
00000100
00001000
00000000
,
00001100
00000000
00000100
00010000
00001000
00000010
00001000
00010000
,
00000000
00011000
00000000
00011000
00000000
01100000
00000000
10000000
,
00010000
01000000
10000000
00000000
01000000
00010000
00100000
01000000
,
00020000
00000000
00000000
00000000
00030000
00000000
00001000
00000010
,
00000001
00000100
00001000
00000100
00000001
00000010
00001000
00010000
,
02000000
03200000
00000000
00300000
,
10010000
00000000
00010000
01000000
10000000
01000000
00010000
00100000
,
00001000
00000010
00001000
00010000
00000010
00001000
00010000
00001000
,
00000010
00000110
00011000
01100000
,
20020000
00000000
00000000
30030000
,
10000000
01000000
00010000
00001000
00100000
00010000
00100000
00000000
,
00011000
00000000
00010100
00000000
00000100
00001000
00000010
00000000
,
00000100
00000001
00000010
00001000
00010000
00000010
00001000
00000000
,
00010000
00000000
01000000
00000000
00100000
00000000
01000000
00100000
10000000
00000000
00000000
00000000
00010000
00000000
00000000
00000000
,
11000000
00010000
00100000
01000000
00010000
00001000
00100000
00010000
,
00100000
00000000
00000000
00001000
00010000
00000000
00000010
00000000
00001000
00000000
00000100
00000000
00000110
00000000
00000000
00000000
,
00000010
00001000
00000010
00000001
00000100
00001000
00010000
01000000
,
10000000
00100000
00000000
10000000
00100000
00000000
01000000
00000000
00010000
00000000
00100000
00010000
10000000
00000000
00000000
00000000
,
01000000
00000000
00010000
00000000
00001000
00000000
00100000
00010000
00100000
00000000
00001000
00000000
00010000
00000000
00000010
00000000
,
00001000
00000000
00000000
00001000
00000100
00000000
00000000
00000100
00000010
00000000
00000000
00000010
00001000
00000000
00010000
00000000
,
00011000
00000000
00000000
00000000
00100000
00000000
00010000
00000000
01000000
00100000
00000000
01000000
00100000
00000000
10000000
00000000
,
01000000
00010000
00000000
01000000
00010000
00000000
00001000
00000000
00010000
00000000
00000000
00000100
00001000
00000000
00000000
00000000
,
00000010
00000100
00000000
00000001
00000100
00000000
00000010
00000000
00001000
00000100
00000000
00010000
00000100
00000000
00001000
00000000
,
00001010
00000000
00000000
00000000
00000010
00000000
00000100
00000000
00001000
00000000
00000000
00001000
00010000
00000000
00100000
00000000
,
02100000
10000000
03001000
01010000
,
00010000
00100000
00010000
00000000
00100000
00001000
00010000
00000000
00000010
00001000
00000010
00000000
00001000
00000100
00000010
00000000
,
00000110
00000000
00000100
00001000
00000001
00000010
00001000
00010000
,
00000010
00001000
00000100
00000000
00100000
00010000
01000000
00000000
,
00011000
00000000
01000000
00010000
10000000
00100000
00010000
00001000
,
00100000
00010000
01000000
00000000
00000010
00001000
00000100
00000000
,
00011000
00000000
00000010
00001000
00000001
00000100
00000010
00010000
,
00001000
00000010
00001000
00000000
00010000
00100000
00010000
00000000
,
00011000
00000000
00000000
00000000
;
