#VERSION:0.83;
#TITLE:FREEDOM;
#SUBTITLE:;
#ARTIST:USAO;
#TITLETRANSLIT:;
#SUBTITLETRANSLIT:;
#ARTISTTRANSLIT:;
#GENRE:HYPER DUBSTEP;
#CREDIT:;
#MUSIC:FREEDOM.ogg;
#BANNER:FREEDOM.png;
#BACKGROUND:FREEDOM-bg.png;
#CDTITLE:./CDTitles/bm IIDX 25 CANNON BALLERS.png;
#SAMPLESTART:94.144;
#SAMPLELENGTH:15.000;
#SELECTABLE:YES;
#OFFSET:0.248;
#BPMS:0.000=150.000;
#STOPS:;
#TIMESIGNATURES:0.000=4=4;
#BGCHANGES:0.000=FREEDOM.mp4=1.000=0=0=0=StretchNoLoop====,
99999.000=-nosongbg-=1.000=0=0=0=StretchNoLoop====
;
#FGCHANGES:;

//--------------- dance-single - forcednature ----------------
#NOTEDATA:;
#STEPSTYPE:dance-single;
#DESCRIPTION:forcednature;
#DIFFICULTY:Beginner;
#METER:2;
#RADARVALUES:0,0,0,0,0;
#CREDIT:forcednature;
#NOTES:
0000
0000
0000
0000
,
0000
0000
0000
0000
,
0000
0000
0000
0000
,
0000
0000
0000
0000
,
0000
0000
0000
0000
,
1000
0000
0000
0000
,
0000
0000
0000
0000
,
0001
0000
0000
0000
,
0000
0000
0000
0000
,
0100
0000
0000
0000
,
0010
0000
0000
0000
,
1000
0000
0000
0000
,
0010
0000
0000
0000
,
0100
0000
0000
0000
,
0001
0000
0000
0000
,
1000
0000
0000
0000
,
0001
0000
0000
0000
,
1001
0000
0000
0000
,
0000
0000
0000
0000
,
0110
0000
0000
0000
,
0000
0000
0000
0000
,
1000
0000
0000
0000
,
0001
0000
0000
0000
,
0100
0000
0100
0000
,
0100
0000
0000
0000
,
1001
0000
0000
0000
,
0001
0000
0000
0000
,
0010
0000
0000
0000
,
0001
0000
0000
0000
,
1000
0000
0000
0000
,
0010
0000
0000
0000
,
1000
0000
0000
0000
,
0001
0000
0000
0000
,
1001
0000
0000
0000
,
1000
0000
0000
0000
,
0100
0000
0000
0000
,
1000
0000
0000
0000
,
0001
0000
0000
0000
,
0100
0000
0000
0000
,
0001
0000
0000
0000
,
0010
0000
0000
0000
,
2002
0000
0000
0000
,
0000
0000
0000
0000
,
0000
0000
0000
0000
,
3003
0000
0000
0000
,
0110
0000
0000
0000
,
0001
0000
0000
0000
,
1000
0000
0000
0000
,
1001
0000
0000
0000
,
0110
0000
0000
0000
,
0001
0000
1000
0000
,
0001
0000
0000
0000
,
1000
0000
0000
0000
,
0100
0000
0000
0000
,
0010
0000
0000
0000
,
0001
0000
0000
0000
,
1000
0000
0000
0000
,
0001
0000
0000
0000
,
0100
0000
0000
0000
,
1001
0000
0000
0000
,
1000
0000
0010
0000
,
1000
0000
0000
0000
,
0001
0000
0010
0000
,
0001
0000
0000
0000
,
1000
0000
0100
0000
,
1000
0000
0000
0000
,
0001
0000
0100
0000
,
0002
0000
0000
0000
,
0000
0000
0003
0000
,
1001
0000
0000
0000
,
1000
0000
0100
0000
,
1000
0000
0000
0000
,
0001
0000
0100
0000
,
0001
0000
0010
0000
,
0001
0000
0100
0000
,
0010
0000
0010
0000
,
1000
0000
0000
0000
,
1001
0000
0000
0000
;

//--------------- dance-single - forcednature ----------------
#NOTEDATA:;
#STEPSTYPE:dance-single;
#DESCRIPTION:forcednature;
#DIFFICULTY:Easy;
#METER:8;
#RADARVALUES:0,0,0,0,0;
#CREDIT:forcednature;
#NOTES:
0000
0000
0000
0000
,
0000
0000
0000
0000
,
0000
0000
0000
0000
,
0000
0000
0000
0000
,
0000
0000
0000
0000
,
2002
0000
0000
0000
,
0000
0000
3003
0000
,
0220
0000
0000
0330
,
0001
0000
1000
0000
0100
0010
0100
0000
,
1001
0001
0100
0000
,
0001
0000
1000
0000
0010
1000
0010
0000
,
1000
0001
0010
0000
,
0100
0000
1000
0000
0001
1000
0001
0000
,
0100
0010
0110
0000
,
0010
1000
0001
0010
,
0100
1000
1001
0000
,
0220
0330
0001
1000
,
1002
0000
0100
0000
,
0103
0001
0001
0010
,
2001
0000
0001
0000
,
3100
1000
1000
0010
,
1001
0000
0100
0010
,
1001
0000
0010
0100
,
0110
0000
1000
0001
,
2002
0000
0000
3003
,
0001
0100
0010
0010
,
1000
0000
0001
0010
0001
0000
0010
0000
,
0100
0000
1000
0000
1000
0001
1000
0000
,
0010
0000
0100
0000
0100
0100
0100
0000
,
0001
0010
0110
0010
,
0100
0000
1000
0001
1000
0000
0010
0000
,
0100
0100
0001
1000
,
0100
0000
0010
0000
0001
1000
0001
0000
,
1001
1000
0010
1000
,
0100
0000
0010
0000
0010
0010
0010
0000
,
0001
0100
0020
0032
,
0023
2030
3020
0130
,
0000
0002
0203
2300
,
3000
0100
0001
1000
,
0000
0100
0010
0001
,
0200
0000
0310
0100
,
2002
0000
0000
0000
,
0000
0000
0000
0000
,
0000
0000
0000
0000
,
0000
0000
3003
0000
,
0010
1001
0000
0110
,
0000
1001
0000
0110
,
1000
1000
0001
0001
,
2002
3003
0010
0100
,
0220
0330
2002
3003
,
0220
0000
0000
0330
,
1001
1000
0100
0010
,
0001
0000
1000
0001
1000
0000
0010
0000
,
0100
0000
0001
1000
0001
0000
0001
0000
,
1000
0000
1000
0001
1000
0000
1000
0000
,
0010
0000
0100
0000
0001
1000
0001
0000
,
1000
0001
1000
0000
0100
0000
0010
0000
,
0110
0100
1000
0001
,
2000
0100
0001
3010
,
1001
0000
1000
0100
1000
0000
0001
0000
,
0010
0000
0001
0100
0001
0000
1000
0000
,
0010
0000
0100
0010
0100
0000
0001
0000
,
1000
0000
0100
0010
0100
0000
1000
0000
,
1001
0000
0001
0000
0100
0001
0100
0000
,
0001
0000
1000
0000
0001
1000
0001
0000
,
1000
0000
0100
0000
1000
0100
1000
0000
,
0020
0100
2030
3000
,
2002
0000
0000
0000
,
3003
0000
0000
0000
0000
0000
0000
0000
0000
0000
0000
0000
0000
0220
0000
0000
0000
0000
0000
0000
0000
0000
0000
0000
0000
0000
0000
0330
0000
0000
0000
0000
,
1001
0000
1000
0100
1000
0000
1000
0010
,
1000
0000
0001
0000
0100
0010
0100
0000
,
0001
0000
1000
0000
0100
0010
0100
0000
,
1000
0000
0001
0000
0010
0100
0010
0000
,
1001
0000
0001
0000
0100
0001
0100
0000
,
0010
0000
1000
0000
0010
1000
0010
0000
,
1000
0100
1000
0000
0100
0010
0100
0000
,
0010
0000
0001
1000
0001
0000
0000
0000
,
0110
0000
0000
0000
;

//--------------- dance-single - forcednature ----------------
#NOTEDATA:;
#STEPSTYPE:dance-single;
#DESCRIPTION:forcednature;
#DIFFICULTY:Medium;
#METER:12;
#RADARVALUES:0,0,0,0,0;
#CREDIT:forcednature;
#NOTES:
0000
0000
0000
0000
,
0000
0000
0000
0000
,
0000
0000
0000
0000
,
0000
0000
0000
0000
,
0000
0000
0000
0000
,
0001
0000
0000
0000
1000
0000
0000
0010
0000
0000
1000
0000
0000
0000
0001
0000
,
0010
0000
0000
0000
0100
0000
0000
0010
0000
0000
0001
0000
0000
0000
1000
0000
,
0001
0000
0000
0000
0100
0000
0000
0010
0000
0000
1000
0000
0000
0000
0001
0000
,
0010
0000
0000
0000
0100
0000
0000
1000
0000
0000
0010
0000
1000
0000
0000
0000
,
1001
0000
0000
0000
1000
0000
0000
0001
0000
0000
0100
0000
0001
0000
0000
0000
,
0010
0000
0000
0000
0100
0000
0000
0010
0000
0000
0001
0000
1000
0000
0000
0000
,
0010
0000
0000
0000
0100
0000
0000
0001
0000
0000
1000
0000
0100
0000
0000
0000
,
0010
0000
0000
0000
0100
0000
0000
1000
0000
0000
0001
0000
0100
0000
0000
0000
,
0110
0000
0000
0000
0010
0000
0000
1000
0000
0000
0001
0000
0010
0000
0000
0000
,
0100
0000
0000
0000
0010
0000
0000
0001
0000
0000
1000
0000
0010
0000
0000
0000
,
1001
0000
0000
0000
0001
0000
0000
0100
0000
0000
0001
0000
1000
0000
0100
0000
,
0010
0000
0000
0010
0000
0000
0010
0000
0001
0000
1000
0000
0001
0000
0000
0000
,
2001
0001
0001
0001
,
0001
0001
3001
0110
,
1002
1000
1000
1000
,
1000
1000
1003
0110
,
2001
0100
0001
3010
,
1002
0100
1000
0013
,
2002
0000
0000
0000
3003
0000
0010
0100
0010
0000
0000
0100
0000
0000
0100
0000
,
2002
0000
0000
0000
3003
0100
0010
0000
,
1001
0101
0101
0010
,
0110
0000
1000
0001
1001
0000
0010
0000
,
1001
0001
1000
1000
1000
1000
1000
0000
,
1001
0000
0002
0203
0302
0203
0302
1003
,
0010
1000
1100
0010
,
1001
0000
0001
0100
0010
0000
1000
0100
,
0010
0000
0000
0000
0100
0000
0000
1000
0000
0000
0001
0000
0100
0000
0010
0000
,
1000
0000
0000
0001
1000
0000
0001
0000
1000
0000
0100
0000
0010
0000
0000
0000
,
0101
0000
0010
1000
0010
1000
0100
0000
,
0010
0000
0002
2003
3002
2003
3002
0003
,
0100
0000
0010
1000
2002
3003
0220
0330
,
2002
3003
0220
0330
1000
0001
0100
0010
,
2000
3001
0110
1000
,
0100
0000
0001
0010
1000
0100
0001
0000
,
1001
0000
0000
0000
1000
0000
0010
0000
0100
0001
0000
0000
0010
0000
0100
0000
,
0010
0010
0001
1000
0010
0100
0001
0000
,
2002
0000
0000
0000
,
0000
0000
0000
0000
,
0000
0000
0000
0000
,
0000
0000
3003
0000
0001
1000
0010
0000
,
1001
0000
1000
0100
0010
0100
1000
0100
,
0010
0000
0001
0100
0010
0100
0001
0100
,
0010
0000
1000
0001
0010
0001
1000
0010
,
0110
0000
1001
0000
1000
0100
0001
0000
,
0220
0330
2002
3003
,
0110
0000
1000
0001
1000
0001
0100
0000
,
0110
1000
0101
0010
,
1100
0000
0001
0010
1000
0000
0010
0001
,
0100
0000
0002
0203
2300
3200
0302
0203
,
0320
0030
2000
3200
0302
0203
2300
3200
,
0320
0030
0001
0100
0002
0023
2030
3002
,
0203
2300
3002
0023
0130
1000
0010
1000
,
0001
0000
0000
0000
0010
0000
0100
0000
1000
0010
0000
0000
0100
0000
0001
0000
,
0010
0000
0000
0010
0000
0000
0001
0000
0100
0000
0010
0000
0010
0000
1000
0000
,
1001
0000
0001
0100
1000
0100
0001
0100
,
1000
0100
0001
0010
0100
1000
0010
0100
,
0001
0000
1000
0100
0001
0100
1000
0100
,
0001
0100
1000
0010
0100
0001
0010
0000
,
0110
0000
0100
1000
0001
1000
0010
0100
,
0001
0010
0001
0100
0010
1000
0100
0000
,
0110
0000
0000
0000
0100
0000
1000
0000
0001
0000
0000
0100
0000
0100
0010
0000
,
1000
0001
1000
0100
0010
0001
1000
0000
,
1001
0000
0000
0000
0000
0000
0000
0000
0000
0000
0000
0000
0000
0000
0000
0000
1001
0000
0000
0000
0000
0000
0000
0000
0000
0000
0000
0000
0000
0000
0000
0000
0000
0000
1001
0000
0000
0000
0000
0000
0000
0000
0000
0000
0000
0000
0000
0000
0000
0000
0000
0000
0000
0000
0000
0000
0000
0000
0000
1001
0000
0000
0000
0000
,
0000
0000
0000
0000
0000
0000
0000
0000
0000
0000
0000
0000
0000
0000
0000
0000
0000
0000
0000
0000
0000
0000
0000
0000
0000
0000
2002
0000
0000
0000
0000
0000
0000
0000
0000
0000
0000
0000
0000
0000
0000
0000
0000
0000
0000
0000
0000
0000
0000
0000
0000
0000
0000
3003
0000
0000
0000
0000
0000
0000
0000
0000
0000
0000
,
0001
0100
0010
1000
0001
0010
1000
0010
,
0100
1000
0001
0100
0010
1000
0001
0001
,
0100
0010
1000
0100
0001
0100
0010
0001
,
1000
0010
0100
0001
0010
0000
0100
0000
,
1001
0000
0000
0001
1000
0000
0010
0000
1000
0000
0000
0001
0010
0000
0100
0000
,
0010
0000
0000
0001
1000
0000
0010
0000
0100
0001
0000
1000
0100
0000
0010
0000
,
0001
0100
0010
1000
0100
0100
0010
0010
,
0001
0000
0100
0010
1000
0000
0100
0010
,
2002
3003
0000
0000
;

//--------------- dance-single - forcednature ----------------
#NOTEDATA:;
#STEPSTYPE:dance-single;
#DESCRIPTION:forcednature;
#DIFFICULTY:Hard;
#METER:16;
#RADARVALUES:0,0,0,0,0;
#CREDIT:forcednature;
#NOTES:
0000
0000
0000
0000
,
0000
0000
0000
0000
,
0000
0000
0000
0000
,
0000
0000
0000
0000
,
0000
0000
0000
0000
,
0101
0000
0000
0000
1000
0000
0000
0001
0000
0000
1000
0000
0000
0000
0100
0000
,
0010
0000
0000
0000
0001
0000
0000
0100
0000
0000
0010
0000
1000
0001
1000
0100
,
0010
0000
0000
0000
0001
0000
0000
0100
0000
0000
0010
0000
1000
0000
0001
0000
,
1000
0100
0000
0000
0010
0000
0001
0010
0001
1000
0001
0100
0010
1000
0001
1000
,
0100
0000
0000
0000
0010
0000
0000
0010
0001
0000
0100
0000
0010
0000
1000
0000
,
0001
0010
0000
0000
0100
0000
0000
1000
0001
0000
0100
0000
0010
1000
0001
1000
,
0100
0000
0000
0000
0010
0000
0000
0010
0001
0000
1000
0001
0100
0000
0010
0000
,
1000
0001
0000
0000
1000
0000
0000
0100
0010
0000
0001
0000
1000
0010
0100
0001
,
1000
0000
0000
0000
0100
0000
0000
0010
0100
0000
1000
0000
0001
0000
0010
0000
,
0001
1000
0000
0000
0010
0000
0000
0100
0001
0000
0010
0000
0100
1000
0100
0010
,
0001
1000
0000
0000
0001
0100
0001
0010
0000
0000
0100
1000
0010
0000
1000
0000
,
1001
0000
0000
1000
0001
0000
0001
0000
0010
0000
0100
0010
0001
1000
0010
0100
,
0002
0000
1000
1000
1000
0000
1000
1000
,
1000
0000
0000
0000
1000
0000
0000
1000
0003
0000
0001
0000
0110
0000
0000
0000
,
2001
0000
0001
0001
0001
0000
0001
0001
,
0001
0000
0000
0000
0001
0000
0000
0001
3000
0000
1000
0000
0110
0000
0000
0000
,
1001
0001
0100
0010
1000
0100
0010
0001
,
1001
1000
0100
0010
0001
0100
0020
0030
,
0220
0000
0000
0000
0330
0000
0001
1000
0001
0000
0000
0011
0000
0000
1100
0000
,
2002
0000
0000
0000
0000
0000
3003
0000
1000
0100
0010
0000
0001
1000
0001
1000
,
0001
0101
0101
1010
,
0110
0000
0001
0010
0100
0000
0110
0000
,
2001
0000
3100
0100
0100
0100
0010
0000
,
1002
0000
0000
0000
0103
0001
0100
0001
1000
0010
1000
0010
0100
0000
0001
0000
,
1001
1100
1100
0011
,
1001
0000
0001
0100
1000
0000
0110
0000
,
1001
0000
0000
0000
0001
0000
0100
0010
0000
0000
1000
0000
0001
0000
0010
0100
,
1000
0000
0010
0000
0001
0000
0010
0100
0001
0100
0001
0000
1001
0000
0100
0000
,
0110
1000
0001
0001
0001
0001
0001
0000
,
0110
0000
0000
0000
1000
0100
0010
0001
1000
0100
0010
0001
1000
0000
0010
0000
,
1010
0000
0010
0010
0101
0000
1100
0000
,
0101
0000
1100
0000
0011
0010
0100
1000
,
0120
0000
0031
0000
0110
0000
1001
0001
,
0100
0000
0001
0010
0100
1000
0010
0000
,
1001
0000
0000
0000
1000
0000
0001
0000
0100
0010
0000
0000
0110
0000
0001
0000
,
1000
0000
0001
0000
1000
0100
0010
0001
1000
0001
0100
0000
0010
0000
1000
0001
,
0100
0100
0100
0100
,
0100
0100
0100
0100
,
0010
0000
1000
0000
0001
0000
0010
0100
,
0010
0000
0001
0000
1000
0000
0001
0100
0010
1000
0001
1000
0100
0000
0010
0001
,
1000
0000
0010
0000
0110
0000
0010
0000
1000
0000
0010
0000
0110
0000
0010
1000
,
0001
0000
0010
0000
0110
0000
0010
0000
0001
0000
0010
0000
0110
0000
0010
0001
,
1000
0100
1000
0000
0001
0100
0001
0000
1000
0100
0010
0001
0100
0010
1000
0001
,
0020
0000
0230
0000
1300
0001
1001
1000
,
2100
0000
3001
0100
1020
0000
1030
0100
,
0021
0000
0130
0100
0100
0010
1001
0000
,
0110
1000
0011
1000
,
0110
0000
1000
0001
0101
0000
0010
1000
,
0002
0000
0000
0000
1003
0100
0010
0001
1000
0100
0010
0001
1000
0100
0010
0001
,
2000
0000
0000
0000
3001
0100
0010
1000
0001
0100
0010
1000
0001
0100
0010
1000
,
0002
0000
0000
0000
1003
0000
0001
0000
1000
0100
1000
0010
1000
0000
0001
0100
,
0001
0010
0001
0000
1000
0001
1000
0010
0200
0000
0301
0010
0200
0000
1300
0010
,
0100
0000
0000
0000
0001
0000
1000
0000
0100
0010
0000
0100
1000
0000
0001
0000
,
1001
0000
0000
1001
0000
0000
1001
0000
1000
0100
0010
0001
1000
0010
0100
0001
,
0010
0000
0000
0000
0100
0000
1000
0000
0100
0010
0001
0000
0100
0000
0010
0000
,
1000
0001
0010
0000
0100
1000
0010
0100
0001
0010
0100
0000
1000
0000
0001
0000
,
0100
0000
0010
0000
1000
0100
0010
0000
0100
1000
0010
0000
1000
0100
0010
0001
,
0100
0010
1000
0000
0001
0010
0000
0100
0010
0001
1000
0000
0020
0000
0030
0000
,
0110
0000
0001
1000
0101
1000
0001
1000
,
0101
1000
0010
0100
0011
1000
0001
0000
,
0110
0000
0000
0000
1000
0100
0010
0001
1000
0001
0100
0010
1000
0001
0010
0100
,
0010
0000
0010
0000
0001
0000
0100
0010
1000
0001
0010
0100
1000
0000
0000
0000
,
0101
0000
0000
0000
0000
0000
0000
0000
0000
0000
0000
0000
0000
0000
0000
0000
1100
0000
0000
0000
0000
0000
0000
0000
0000
0000
0000
0000
0000
0000
0000
0000
0000
0000
0110
0000
0000
0000
0000
0000
0000
0000
0000
0000
0000
0000
0000
0000
0000
0000
0000
0000
0000
0000
0000
0000
0000
0000
0000
1001
0000
0000
0000
0000
,
0000
0000
0000
0000
0000
0000
0000
0000
0000
0000
0000
0000
0000
0000
0000
0000
0000
0000
0000
0000
0000
0000
0000
0000
0000
0000
0220
0000
0000
0000
0000
0000
0000
0000
0000
0000
0000
0000
0000
0000
0000
0000
0000
0000
0000
0000
0000
0000
0000
0000
0000
0000
0000
0330
0000
0000
0000
0000
0000
0000
0000
0000
0000
0000
,
1001
0000
0000
0000
1000
0010
0100
0000
0001
0010
0100
0000
0010
0001
1000
0000
,
0010
0100
0001
0000
0010
0100
1000
0000
0010
0100
0001
0000
1000
0100
0010
0001
,
1000
0000
0001
0000
0100
0010
1000
0001
0000
0010
0100
0010
0001
1000
0010
0100
,
0001
0000
0010
0000
0100
0000
1000
0001
0100
0010
1000
0001
0020
0000
0030
0000
,
0110
0000
0000
1000
0001
0000
0100
0000
0010
1000
0001
0010
0100
0000
0010
0001
,
0100
0000
0000
0010
1000
0001
1000
0000
0100
0010
0000
0001
1000
0000
0010
0000
,
0100
0001
0100
0001
1000
0100
1000
0100
0010
0001
1000
0010
0100
0001
0010
0100
,
0010
0000
0000
0001
0000
0000
1000
0000
0010
0100
0001
1000
0100
0010
0001
1000
,
0020
0030
0000
0000
;

//--------------- dance-double - forcednature ----------------
#NOTEDATA:;
#STEPSTYPE:dance-double;
#DESCRIPTION:forcednature;
#DIFFICULTY:Easy;
#METER:8;
#RADARVALUES:0,0,0,0,0;
#CREDIT:forcednature;
#NOTES:
00000000
00000000
00000000
00000000
,
00000000
00000000
00000000
00000000
,
00000000
00000000
00000000
00000000
,
00000000
00000000
00000000
00000000
,
00000000
00000000
00000000
00000000
,
00022000
00000000
00000000
00000000
,
00000000
00000000
00033000
00000000
,
00022000
00000000
00000000
00033000
,
00010000
00000000
00001000
00000000
01000000
00010000
01000000
00000000
,
10010000
00010000
10000000
00000000
,
00100000
00000000
10000000
00000000
00100000
10000000
00100000
00000000
,
10000000
01000000
10000000
00000000
,
01000000
00000000
00100000
00000000
01000000
00100000
01000000
00000000
,
00100000
00001000
00011000
00000000
,
00010000
00000010
00001000
00000100
,
00001000
00000001
00001001
00000000
,
00000220
00000330
00000001
00001000
,
00002000
00000000
00000100
00000000
,
00003100
00001000
00001000
00000010
,
00020000
00000000
00001000
00000000
,
00030010
00010000
00010000
00001000
,
00011000
00000000
01000000
00010000
,
10010000
00000000
10000000
01000000
,
01100000
00000000
00100000
00010000
,
20020000
00000000
00000000
30030000
,
00010000
01000000
00001000
00001000
,
00010000
00000000
00000100
00001000
00000100
00000000
00001000
00000000
,
00000001
00000000
00000100
00000000
00000100
00000001
00000100
00000000
,
00000010
00000000
00001000
00000000
00001000
00001000
00001000
00000000
,
00000100
00010000
00011000
00001000
,
01000000
00000000
00010000
10000000
00010000
00000000
00100000
00000000
,
00001000
00001000
00010000
00000010
,
00001000
00000000
00000010
00000000
00000100
00000001
00000100
00000000
,
00000110
00000010
00001000
00000010
,
00010000
00000000
00001000
00000000
00001000
00001000
00001000
00000000
,
00100000
00010000
00200000
02300000
,
23000000
32000000
03200000
00310000
,
00000000
00200000
00302000
00023000
,
00030000
00000010
00010000
00001000
,
00000000
01000000
00001000
00010000
,
00000200
00000000
00001300
00000001
,
00002002
00000000
00000000
00000000
,
00000000
00000000
00000000
00000000
,
00000000
00000000
00000000
00000000
,
00000000
00000000
00003003
00000000
,
00000010
00000110
00000000
00001001
,
00000000
00000110
00000000
00001000
,
00000100
00000100
00010000
00010000
,
00022000
00033000
01000000
00010000
,
20020000
30030000
02200000
03300000
,
20020000
00000000
00000000
30030000
,
10000000
01000000
00100000
00010000
,
01000000
00000000
00001000
00010000
00001000
00000000
00010000
00000000
,
00000100
00000000
00001000
00000100
00001000
00000000
00000100
00000000
,
00000010
00000000
00000001
00000010
00000001
00000000
00001000
00000000
,
00000001
00000000
00000100
00000000
00000010
00001000
00000010
00000000
,
00001000
00000001
00001000
00000000
00000100
00000000
00010000
00000000
,
00011000
00001000
01000000
00010000
,
20000000
01000000
00010000
30100000
,
10010000
00000000
00010000
01000000
00010000
00000000
00100000
00000000
,
00001000
00000000
00010000
00001000
00010000
00000000
00000100
00000000
,
00001000
00000000
00000001
00001000
00000001
00000000
00000100
00000000
,
00000010
00000000
00001000
00000010
00001000
00000000
00000100
00000000
,
00010000
00000000
00001000
00000000
00010000
00001000
00010000
00000000
,
00001000
00000000
01000000
00000000
00010000
01000000
00010000
00000000
,
10000000
00000000
01000000
00000000
10000000
01000000
10000000
00000000
,
00200000
00000000
02300000
03000000
,
20020000
00000000
00000000
00000000
,
30030000
00000000
00000000
00000000
00000000
00000000
00000000
00000000
00000000
00000000
00000000
00000000
00000000
02200000
00000000
00000000
00000000
00000000
00000000
00000000
00000000
00000000
00000000
00000000
00000000
00000000
00000000
03300000
00000000
00000000
00000000
00000000
,
10000000
00000000
01000000
00100000
01000000
00000000
01000000
10000000
,
01000000
00000000
00100000
00000000
00010000
00100000
00010000
00000000
,
00100000
00000000
00001000
00000000
00010000
00001000
00010000
00000000
,
00000010
00000000
00001000
00000000
00000010
00001000
00000010
00000000
,
00000110
00000000
00000100
00000000
00000001
00000100
00000001
00000000
,
00001000
00000000
00000100
00000000
00001000
00000100
00001000
00000000
,
00000100
00010000
00000100
00000000
00010000
00001000
00010000
00000000
,
00001000
00000000
00010000
00001000
00010000
00000000
00000000
00000000
,
00011000
00000000
00000000
00000000
;

//--------------- dance-double - forcednature ----------------
#NOTEDATA:;
#STEPSTYPE:dance-double;
#DESCRIPTION:forcednature;
#DIFFICULTY:Medium;
#METER:13;
#RADARVALUES:0,0,0,0,0;
#CREDIT:forcednature;
#NOTES:
00000000
00000000
00000000
00000000
,
00000000
00000000
00000000
00000000
,
00000000
00000000
00000000
00000000
,
00000000
00000000
00000000
00000000
,
00000000
00000000
00000000
00000000
,
00011000
02000000
03000000
01000000
,
00100000
00000000
00000000
00000000
10000000
00000000
00000000
01000000
00000000
00000000
00100000
00000000
00010000
00000000
01000000
00000000
,
00001000
00000000
00000000
00000000
00010000
00000000
00000000
00000100
00000000
00000000
00010000
00000000
00001000
00000000
00000100
00000000
,
00000001
00000000
00000000
00000000
00000010
00000000
00000000
00000100
00000000
00000000
00001000
00000000
00000010
00000000
00000000
00000000
,
00000110
00000000
00000100
00000001
00001000
00000100
00000010
00000000
,
00000100
00000000
00010000
00001000
01000000
00001000
00010000
00000000
,
01100000
00000000
10000000
00010000
10000000
00100000
10000000
01000000
,
00010000
00000000
00001000
00000010
00000001
00000100
00001000
00000000
,
00011000
00000000
00010000
00100000
01000000
00010000
10000000
00000000
,
01000000
00000000
00100000
00001000
00010000
00100000
01000000
00000000
,
00010000
00000000
10000000
01000000
00010000
00001000
00000010
00000001
,
00000101
00000000
00000001
00001000
00000010
00001000
00000100
00000000
,
00000220
00000000
00000000
00000000
,
00000000
00000000
00000000
00000330
,
00022000
00000000
00000000
00000000
,
00000000
00000000
00000000
00033000
,
01100000
00000000
10000000
00010000
00100000
01000000
10000000
00000000
,
01100000
00000000
00010000
01000000
00001000
00010000
00100000
00000000
,
02200000
00000000
00000000
00000000
03300000
00000000
10000000
00010000
10000000
00000000
00000000
01000000
00000000
00000000
00010000
00000000
,
00011000
00000000
00001000
00000100
00000001
00001000
00000100
00000000
,
00000120
00000130
00011000
02000000
,
03100000
00000000
10000000
01000000
00020000
00000000
00031000
00000000
,
00000110
00000000
00001000
00000001
00000100
00001000
00010000
00000000
,
01100000
00000000
00000000
00000000
10000000
01000000
10000000
01000000
10000000
01000000
10000000
01000000
00100000
00000000
00000000
00000000
,
01100000
01000000
10100000
00010000
,
00011000
00000000
00000100
00001000
00000020
00000000
00000130
00000000
,
00001001
00000000
00000000
00000000
00000001
00000000
00000000
00000010
00000000
00000000
00000100
00000000
00001000
00000000
00000010
00000000
,
00000100
00000000
00000000
00000000
00001000
00000000
00000000
00010000
00000000
00000000
01000000
00000000
00100000
00000000
00000000
00000000
,
10010000
10000000
01000000
00010000
00001000
00000010
00000001
00000000
,
00001001
00000000
00000000
00000000
00000001
00000100
00000001
00000100
00000001
00000100
00000001
00000100
00000010
00000000
00000000
00000000
,
00001000
00000000
00000100
00000010
00000110
00000000
00010000
00000000
,
00000110
00000000
00010000
00000000
00000100
00010000
00001000
01000000
,
00100000
00010000
00001100
01000000
,
00001100
00000000
00010000
00001000
01000000
00100000
10000000
00000000
,
01100000
00000000
00000000
00000000
10000000
00000000
01000000
00000000
00010000
00001000
00000000
00000000
00010000
00000000
00000100
00000000
,
00001000
00001000
00000010
00000100
00001000
00010000
00100000
00000000
,
02200000
00000000
00000000
00000000
,
00000000
00000000
00000000
00000000
,
00000000
00000000
00000000
00000000
,
00000000
00000000
03300000
00000000
00100000
10000000
01000000
00000000
,
00011000
00000000
00000100
00001000
00000010
00010000
00001000
00000000
,
00000110
00000000
00000010
00000001
00000100
00001000
00010000
00000000
,
00100000
10000000
01000000
10000000
00100000
00010000
00001000
00000010
,
00000220
00000000
00000330
00000000
00000100
00001000
00000001
00000100
,
00000110
00000000
00000010
00010000
00011000
00000000
00100000
00001000
,
00011000
00000000
00100000
00100000
00100000
00100000
00100000
00000000
,
01100000
00010000
11000000
00010000
,
01100000
00000000
00001000
00010000
00000100
00000000
00001000
00000000
,
00001001
00000000
00000000
00000000
00010000
00000100
00010000
00000100
00010000
00000100
00010000
00000100
00010000
00000100
00010000
00000100
,
00010000
00000000
00000000
00000000
00001000
01000000
00001000
01000000
00001000
01000000
00001000
01000000
00001000
01000000
00001000
01000000
,
00001000
00000000
00010000
00100000
01000000
01000000
00010000
10000000
,
10000000
01000000
00100000
00100000
00001000
00010000
00100000
00000000
,
01100000
00000000
01000000
00001000
00010000
00000100
00000010
00000000
,
00000110
00000000
00000100
00001000
00000001
00000100
00001000
00000000
,
00011000
00000000
00101000
00000000
00001000
00010000
00100000
00000000
,
01000000
00000000
00010000
00000000
10000000
00000000
01000000
00100000
00000000
01000000
10000000
00000000
00010000
00000000
00000000
00000000
,
01000000
00000000
00001000
00000000
00010000
00000000
00000100
00001000
00000000
00000100
00000010
00000000
00000001
00000000
00001000
00000000
,
00000001
00000000
00000100
00000000
00000010
00000000
00010000
00001000
00010000
00000000
00100000
00000000
01000000
00000000
00000000
00000000
,
01100000
00000000
00100000
10000000
01000000
00010000
00001000
00000000
,
00011000
00000000
00010000
00000100
00001000
00000010
00010000
00001000
,
00011000
00000000
00010000
00100000
01000000
00010000
10000000
01000000
,
00100000
00000000
00100000
00000000
00001000
00000000
00010000
00000100
00010000
00000100
00010000
00000000
00001000
00000000
00000000
00000000
,
00000110
00000000
00000000
00000000
00000000
00000000
00000000
00000000
00000000
00000000
00000000
00000000
00000000
00000000
00000000
00000000
00000101
00000000
00000000
00000000
00000000
00000000
00000000
00000000
00000000
00000000
00000000
00000000
00000000
00000000
00000000
00000000
00000000
00000000
00001100
00000000
00000000
00000000
00000000
00000000
00000000
00000000
00000000
00000000
00000000
00000000
00000000
00000000
00000000
00000000
00000000
00000000
00000000
00000000
00000000
00000000
00000000
00000000
00000000
00011000
00000000
00000000
00000000
00000000
,
00000000
00000000
00000000
00000000
00000000
00000000
00000000
00000000
00000000
00000000
00000000
00000000
00000000
00000000
00000000
00000000
00000000
00000000
00000000
00000000
00000000
00000000
00000000
00000000
00000000
00000000
00022000
00000000
00000000
00000000
00000000
00000000
00000000
00000000
00000000
00000000
00000000
00000000
00000000
00000000
00000000
00000000
00000000
00000000
00000000
00000000
00000000
00000000
00000000
00000000
00000000
00000000
00000000
00033000
00000000
00000000
00000000
00000000
00000000
00000000
00000000
00000000
00000000
00000000
,
00001000
00010000
01000000
00010000
00001000
00010000
00100000
01000000
,
00010000
00000000
10000000
00000000
01000000
00000000
00010000
00000000
00001000
00000000
00000010
00000000
00000001
00001000
00000001
00000000
,
00000100
00000010
00001000
00010000
01000000
00100000
10000000
00010000
,
10000000
00000000
01000000
00000000
00100000
00000000
00001000
00010000
00001000
00000000
00100000
00000000
01000000
00000000
00000000
00000000
,
01100000
00000000
00000000
01000000
10000000
00000000
00010000
00000000
01000000
00001000
00000000
00001000
00010000
00000000
00000100
00000000
,
00001000
00000000
00000000
00001000
00000010
00000000
00000100
00000000
00000001
00000010
00000000
00000010
00000100
00000000
00001000
00000000
,
00000001
00000100
00000001
00000000
00001000
00000000
00000100
00000000
00010000
00001000
00010000
00000000
00100000
00000000
01000000
00000000
,
00010000
00000000
00000000
00010000
10000000
00000000
01000000
00000000
01100000
00000000
00000000
00010000
00100000
00010000
00100000
00000000
,
00022000
00033000
00000000
00000000
;

//--------------- dance-double - forcednature ----------------
#NOTEDATA:;
#STEPSTYPE:dance-double;
#DESCRIPTION:forcednature;
#DIFFICULTY:Hard;
#METER:16;
#RADARVALUES:0,0,0,0,0;
#CREDIT:forcednature;
#NOTES:
00000000
00000000
00000000
00000000
,
00000000
00000000
00000000
00000000
,
00000000
00000000
00000000
00000000
,
00000000
00000000
00000000
00000000
,
00000000
00000000
00000000
00000000
,
00011000
00000000
00000000
00000000
00010000
00000000
00000000
01000000
00000000
00000000
10000000
00000000
00000000
00000000
00010000
00000000
,
01000000
00000000
00000000
00000000
00100000
00000000
00000000
10000000
00000000
00000000
00010000
00000000
10000000
01000000
00100000
00010000
,
01000000
00000000
00000000
00000000
00001000
00000000
00000000
00010000
00000000
00000000
00000100
00000000
00000001
00000000
00000100
00000000
,
00000010
00000001
00000000
00000000
00000100
00000000
00001000
00010000
00001000
01000000
00010000
01000000
00100000
10000000
00010000
10000000
,
01000000
00000000
00000000
00000000
00100000
00000000
00000000
00100000
00001000
00000000
00010000
00000000
00000100
00000000
00000010
00000000
,
00000001
00001000
00000000
00000000
00000001
00000000
00000000
00000100
00000010
00000000
00001000
00000000
00000100
00010000
00001000
00010000
,
00000010
00000000
00000000
00000000
00001000
00000000
00000000
00001000
00000100
00000000
00010000
00001000
01000000
00000000
00100000
00000000
,
10000000
01000000
00000000
00000000
00100000
00000000
00000000
00100000
00001000
00000000
00010000
00000000
00100000
01000000
00010000
01000000
,
00100000
00000000
00000000
00000000
10000000
00000000
00000000
10000000
01000000
00000000
00100000
00000000
00010000
00000000
00001000
00000000
,
00000100
00000010
00000000
00000000
00000100
00000000
00000000
00001000
00000001
00000000
00000100
00000000
00000010
00001000
00000010
00010000
,
00001000
00010000
00000000
00000000
00100000
10000000
00010000
00100000
00000000
00000000
01000000
10000000
00100000
00000000
01000000
00000000
,
01001000
00000000
00000000
00001000
00010000
00000000
00010000
00000000
00000100
00000000
00001000
00000001
00000100
00000001
00000010
00000100
,
00002000
00000000
00000100
00000100
00000100
00000000
01000000
01000000
,
01000000
00000000
00000000
00000000
00000100
00000000
00000000
00000100
00003000
00000000
00000100
00000000
00010000
00000000
00000000
00000000
,
00120000
00000000
01000000
01000000
01000000
00000000
00000100
00000100
,
00000100
00000000
00000000
00000000
01000000
00000000
00000000
01000000
00030000
00000000
01000000
00000000
00001000
00000000
00000000
00000000
,
00011000
00000000
00010000
01000000
10000000
00010000
01000000
00100000
,
01100000
00000000
10000000
01000000
00010000
00001000
00000020
00000030
,
00000220
00000000
00000000
00000000
00000330
00000000
00000001
00000100
00000010
00000000
00000000
00010010
00000000
00000000
01001000
00000000
,
02020000
00000000
00000000
00000000
00000000
00000000
03030000
00000000
00010000
10000000
01000000
00000000
00100000
00010000
00100000
00010000
,
00100000
00101000
00101000
00011000
,
00010100
00000000
00000100
00001000
00000010
00000000
00000110
00000000
,
00002001
00000000
00003100
00000100
00000100
00000100
00010000
00000000
,
01002000
00000000
00000000
00000000
00013000
00001000
00010000
00001000
01000000
00010000
10000000
00010000
00100000
00000000
01000000
00000000
,
11000000
00010000
00011000
00000100
,
00000110
00000000
00000000
00000000
00000001
00000000
00000100
00000000
00001000
00000000
00000000
00000000
00010000
00001000
00010000
00001000
,
01000000
00000000
00000000
00000000
00100000
00000000
10000000
00010000
00000000
00000000
10000000
00000000
01000000
00000000
00100000
00001000
,
00010000
00000000
00100000
00000000
00010000
00000000
00001000
00010000
00000100
00010000
00000100
00000000
00000010
00000000
00000001
00000000
,
00000101
00000001
00000010
00000010
00000010
00000010
00000010
00000000
,
00011000
00000000
00000000
00000000
01000000
00001000
00100000
00010000
01000000
00001000
00100000
00010000
01000000
00000000
00010000
00000000
,
10010000
00000000
00001000
00001000
00101000
00000000
00010100
00000000
,
00101000
00000000
00010100
00000000
00000001
00000100
00001000
01000000
,
00200000
00000000
10300000
00000000
11000000
00000000
00110000
00001000
,
00010000
00000000
00000100
00001000
00000010
00000001
00000010
00000000
,
00000110
00000000
00000000
00000000
00000001
00000000
00001000
00000000
00000100
00010000
00000000
00000000
00011000
00000000
00011000
00000000
,
00001000
00000000
01000000
00000000
00010000
10000000
01000000
00100000
00010000
00100000
01000000
10000000
00100000
00000000
10000000
00010000
,
01000000
00001000
00000100
00001000
,
01000000
00001000
00000100
00001000
,
00100000
00000000
00010000
00000000
00000010
00000000
00000001
00001000
,
00000001
00000000
00000100
00000000
00001000
00000000
00010000
00001000
00100000
00010000
10000000
00010000
01000000
00000000
00100000
10000000
,
01000000
00000000
00100000
00000000
00001000
00000000
00000010
00000000
00000100
00000000
00001000
00000000
00000001
00000000
00000100
00000010
,
00001000
00000000
00010000
00000000
01000000
00000000
00100000
00000000
10000000
00000000
01000000
00000000
00010000
00000000
00001000
00010000
,
00000100
00001000
00000100
00000000
00010000
00001000
00010000
00000000
00100000
10000000
00010000
10000000
01000000
00100000
00010000
00100000
,
00002000
00000000
00023000
00000000
00030100
00001000
00000010
00000100
,
00000101
00001000
11000000
00010000
,
00011000
00000000
00010000
00001000
00010000
00100000
01000000
00100000
,
01100000
10000000
00110000
00001000
,
00000110
00000000
00000001
00000100
00001000
00000000
00010000
00000100
,
00002000
00000000
00000000
00000000
00003001
00000100
00000010
00001000
00000010
00010000
00001000
01000000
00010000
01000000
00100000
10000000
,
00020000
00000000
00000000
00000000
10030000
01000000
00100000
00010000
00100000
00001000
00010000
00000100
00001000
00000100
00000010
00000001
,
00002000
00000000
00000000
00000000
00003001
00000000
00000100
00000000
00001000
00010000
00001000
00100000
00001000
00000000
00010000
00001000
,
00010000
00000010
00010000
00000000
00001000
00010000
00001000
01000000
00020000
00000000
10030000
00010000
02000000
00000000
03010000
10000000
,
01000000
00000000
00000000
00000000
00100000
00000000
00001000
00000000
00000010
00000001
00000000
00000001
00000100
00000000
00000010
00000000
,
00000110
00000000
00000000
00000110
00000000
00000000
00000110
00000000
00000010
00010000
00001000
00010000
00000100
00001000
00000100
00000010
,
00000001
00000000
00000000
00000000
00000100
00000000
00001000
00000000
00010000
00000010
00001000
00000000
00000100
00000000
00010000
00000000
,
00001000
01000000
00010000
00000000
00100000
00001000
00010000
00001000
01000000
00010000
00100000
00000000
01000000
00000000
10000000
00000000
,
00010000
00000000
01000000
00000000
00100000
10000000
01000000
00000000
00100000
00001000
00010000
00000000
00000100
00001000
00000100
00000010
,
00000001
00000100
00000010
00000000
00010000
00001000
00000000
00001000
01000000
00100000
10000000
00000000
02000000
00000000
03000000
00000000
,
00011000
00000000
00000100
00010000
00100000
00010000
00000010
00010000
,
01000000
00010000
00000100
00010000
00100000
00010000
00001000
00000010
,
00000011
00000000
00000000
00000000
00000001
00000100
00000001
00000100
00000010
00010000
00000010
00010000
00001000
00100000
00001000
00100000
,
01000000
00000000
01000000
00000000
10000000
00000000
00010000
01000000
00001000
00010000
00000100
00010000
00001000
00000000
00000000
00000000
,
00010100
00000000
00000000
00000000
00000000
00000000
00000000
00000000
00000000
00000000
00000000
00000000
00000000
00000000
00000000
00000000
01001000
00000000
00000000
00000000
00000000
00000000
00000000
00000000
00000000
00000000
00000000
00000000
00000000
00000000
00000000
00000000
00000000
00000000
00010010
00000000
00000000
00000000
00000000
00000000
00000000
00000000
00000000
00000000
00000000
00000000
00000000
00000000
00000000
00000000
00000000
00000000
00000000
00000000
00000000
00000000
00000000
00000000
00000000
00101000
00000000
00000000
00000000
00000000
,
00000000
00000000
00000000
00000000
00000000
00000000
00000000
00000000
00000000
00000000
00000000
00000000
00000000
00000000
00000000
00000000
00000000
00000000
00000000
00000000
00000000
00000000
00000000
00000000
00000000
00000000
00022000
00000000
00000000
00000000
00000000
00000000
00000000
00000000
00000000
00000000
00000000
00000000
00000000
00000000
00000000
00000000
00000000
00000000
00000000
00000000
00000000
00000000
00000000
00000000
00000000
00000000
00000000
00033000
00000000
00000000
00000000
00000000
00000000
00000000
00000000
00000000
00000000
00000000
,
00011000
00000000
00000000
00000000
00000100
00001000
00000001
00000000
00000100
00000010
00001000
00000000
00010000
01000000
00100000
00000000
,
10000000
01000000
00100000
00000000
01000000
10000000
00010000
00000000
01000000
00001000
00010000
00000000
00000100
00001000
00000100
00000010
,
00000001
00000000
00000100
00000000
00001000
00010000
00001000
01000000
00000000
00100000
10000000
00010000
00100000
01000000
00100000
00001000
,
00010000
00000000
00100000
00000000
10000000
00000000
01000000
00100000
01000000
00010000
00001000
00010000
00000020
00000000
00000030
00000000
,
00001001
00000000
00000000
00000001
00000100
00000000
00001000
00000000
00010000
00000100
00010000
00001000
00100000
00000000
00010000
10000000
,
00100000
00000000
00000000
01000000
00010000
01000000
00001000
00000000
00010000
00000100
00000000
00001000
00000001
00000000
00000100
00000000
,
00001000
00010000
00001000
00010000
00100000
01000000
00100000
01000000
00010000
10000000
01000000
00100000
00010000
00100000
00001000
00010000
,
00000100
00000000
00000000
00000100
00000000
00000000
00000100
00000000
00000010
00000001
00001000
00000001
00000100
00000010
00000100
00001000
,
00020000
00030000
00000000
00000000
;
