#VERSION:0.83;
#TITLE:FORCE Interval Build;
#SUBTITLE:;
#ARTIST:96;
#TITLETRANSLIT:;
#SUBTITLETRANSLIT:;
#ARTISTTRANSLIT:;
#GENRE:;
#CREDIT:;
#MUSIC:FORCE Interval Build.ogg;
#BANNER:FORCE Interval Build.png;
#BACKGROUND:FORCE Interval Build-bg.png;
#CDTITLE:./CDTitles/GuitarFreaks V5 & DrumMania V5.png;
#SAMPLESTART:0.620;
#SAMPLELENGTH:15.000;
#SELECTABLE:YES;
#OFFSET:2.789;
#BPMS:0.000=132.000;
#STOPS:;
#TIMESIGNATURES:0.000=4=4,
68.000=7=4,
82.000=15=4,
97.000=7=4,
139.000=8=4,
147.000=4=4,
171.000=11=4,
182.000=6=4,
188.000=4=4
;
#BGCHANGES:0.000=../BGAs/17te.mp4=1.000=0=0=0=StretchNoLoop====,
99999.000=-nosongbg-=1.000=0=0=0=StretchNoLoop====
;
#FGCHANGES:;

//--------------- dance-single - forcednature ----------------
#NOTEDATA:;
#STEPSTYPE:dance-single;
#DESCRIPTION:forcednature;
#DIFFICULTY:Beginner;
#METER:3;
#RADARVALUES:0,0,0,0,0;
#CREDIT:forcednature;
#NOTES:
0000
0000
0000
0000
,
0000
0000
0000
0000
,
0000
0000
0000
0000
,
0000
0000
0000
0000
,
0000
0000
0000
0000
,
0000
0000
0000
0000
,
1000
0000
0000
0000
,
0001
0000
0000
0000
,
0100
0000
0000
0000
,
0010
0000
0000
0000
,
1000
0000
0000
0000
,
0100
0000
0000
0000
,
0010
0000
0000
0000
,
0001
0000
0000
0000
,
1000
0000
0000
0000
,
0010
0000
0000
0000
,
0100
0000
0000
0000
,
0001
0000
0000
0000
0000
0000
0000
0010
,
0000
0000
0000
0100
,
0000
0000
0000
0000
0000
1000
0000
0000
,
0000
0000
0010
0000
,
0000
0000
0000
0010
0000
0000
0000
0000
,
0000
0000
0000
0010
0000
0000
0000
0000
,
0000
0010
0000
0000
,
0000
0100
0000
0100
,
0000
0000
0000
0000
0000
0100
0000
0000
,
0001
0000
0000
0001
,
0000
0000
0000
0000
0000
1000
0000
0000
,
0000
0000
1000
0000
,
0000
0000
0000
0010
0000
0000
0000
0010
,
0000
0000
0000
0010
0000
0000
0000
0000
,
0000
0100
0000
0000
0000
0100
0000
0000
,
0000
0100
0000
0000
0000
0000
0000
0001
,
0000
0000
0000
0001
0000
0000
0000
0001
,
0000
0000
0000
0000
0000
0000
0000
1000
,
0000
0000
0000
1000
0000
0000
0000
1000
,
0000
0000
0000
0000
0000
0000
0000
0100
,
0000
0000
0000
0000
0000
0100
0000
0010
,
0000
0000
0000
0000
0000
0010
0000
0001
,
0000
0000
0000
0000
0000
0001
0000
1000
,
0000
0000
0000
0000
0000
1000
0000
0010
,
0000
0000
0000
0000
0000
0010
0000
0100
,
0000
0000
0000
0000
0000
0100
0000
0001
,
0000
0000
0000
1000
0000
0000
0000
0100
,
0000
0000
0000
0010
0000
0000
0000
0001
,
0000
0000
1001
0000
,
1001
0000
1001
0000
,
0010
0000
0100
0000
,
2002
0000
0000
0000
0000
0000
0000
0000
0000
0000
0000
3003
0000
0000
0000
0000
;

//--------------- dance-single - forcednature ----------------
#NOTEDATA:;
#STEPSTYPE:dance-single;
#DESCRIPTION:forcednature;
#DIFFICULTY:Easy;
#METER:7;
#RADARVALUES:0,0,0,0,0;
#CREDIT:forcednature;
#NOTES:
0000
0000
0000
0000
,
0000
0000
0000
0000
,
0000
0000
0000
0000
,
0000
0000
0000
0000
,
0000
0000
0000
0000
,
0000
0000
0000
0000
,
1001
1000
0000
1000
,
1001
0001
0000
0001
,
0110
1000
0000
1000
,
0100
0000
0010
0000
0001
1000
0001
0000
,
0100
0010
1000
0010
,
0100
0010
1000
0001
,
0010
0100
0010
0001
,
0010
0000
0010
0000
0100
1000
0001
0000
,
0100
0010
1000
0010
,
0100
0000
0010
0000
1000
0001
1000
0000
,
0000
0100
0000
0100
0000
0100
0000
0000
,
0010
0000
0001
0000
1000
0000
0000
0010
,
0000
1000
0000
0001
0000
0000
0100
0000
,
0001
0000
1000
0000
0000
0100
0000
1000
,
0000
0000
0001
0000
0000
0000
0000
0000
0100
0000
0000
0000
0000
0100
0000
0000
,
0000
0000
0010
0000
0000
0000
1000
0000
0000
0000
0000
1000
0000
0000
0000
0000
,
0000
0000
0001
0000
0000
0000
0010
0000
0000
0000
0000
0010
0000
0000
0000
0000
,
0100
0000
0000
0000
1000
0000
0000
0000
0000
1000
0000
0000
0000
0000
0000
0000
,
0001
0100
0000
0010
,
0000
1000
0000
0000
0000
0001
0000
0010
,
0000
0010
0000
0010
0000
0000
0100
0000
,
0100
0000
0100
0000
0000
1000
0000
1000
,
0000
1000
0000
0000
0001
0000
0001
0000
,
0001
0000
0000
1001
0000
1000
0000
0100
,
0000
1000
0000
0010
0000
1000
0000
0001
,
0000
0001
0000
0100
0000
0001
0000
0010
,
0000
0001
0000
1000
0000
0001
0000
0000
,
0000
1000
0000
1000
0000
0100
0000
0100
,
0000
0010
0000
0001
0000
1000
0000
0000
,
0000
0001
0000
0001
0000
0100
0000
0100
,
0000
0010
0000
1000
0000
0001
0000
1001
,
0000
1000
0000
0100
0000
0010
0000
1001
,
0000
0001
0000
0100
0000
0010
0000
1001
,
0000
1000
0000
0010
0000
0100
0000
1001
,
0000
0001
0000
0010
0000
0100
0000
1000
,
0000
1000
0000
1000
0000
1000
0000
0001
,
0000
0001
0000
0001
0000
0001
0000
0100
,
0000
0010
0000
1000
0000
0001
0000
0010
,
0000
0100
0000
1000
0000
0001
0000
0100
,
0000
0010
0000
0000
2002
0000
3003
0000
,
2002
3003
2002
3003
,
0100
0010
0100
0000
,
2002
0000
0000
0000
0000
0000
0000
0000
0000
0000
0000
3003
0000
0000
0000
0000
;

//--------------- dance-single - forcednature ----------------
#NOTEDATA:;
#STEPSTYPE:dance-single;
#DESCRIPTION:forcednature;
#DIFFICULTY:Medium;
#METER:11;
#RADARVALUES:0,0,0,0,0;
#CREDIT:forcednature;
#NOTES:
0000
0000
0000
0000
,
0000
0000
0000
0000
,
0000
0000
0000
0000
,
0000
0000
0000
0000
,
0000
0000
0000
0000
,
0000
0000
0000
0000
,
1001
0000
0001
0100
0010
1000
0001
0000
,
0010
0100
1000
0100
0010
0100
1000
0000
,
1001
0000
1000
0010
0100
0001
1000
0000
,
0100
0010
0001
0010
0000
0100
0100
1000
,
0001
0000
0100
0010
0100
0001
0010
0000
,
0100
1000
0010
1000
0001
0010
0001
0000
,
1001
0000
1000
0010
0100
0001
0010
0000
,
0100
0000
0000
1000
0000
0000
0100
0000
0010
0000
0001
0000
0000
0001
0000
0000
,
0100
0000
0010
1000
0001
0100
0010
1000
,
0001
0000
0000
0000
0010
0000
0100
0000
1000
0000
0001
0000
0000
0100
0000
0000
,
0010
0000
1000
0000
0000
0010
0000
1000
0000
0010
0000
0000
1000
0000
0000
0000
,
0001
0000
0000
0010
0000
0000
0100
0000
1000
0000
1000
0000
0010
0000
0100
0000
,
0000
0001
0000
0000
1000
0000
0100
0000
0100
0000
0010
0000
0001
0000
0000
1000
,
0000
0000
0010
0000
0100
0000
0100
0000
0001
0000
1000
0000
0000
0001
0000
0000
,
0010
0000
0100
0000
1000
0000
0001
0000
0100
0000
0100
0000
0000
0100
0000
0100
,
0000
0000
0110
0000
0000
0000
0001
0000
0001
0000
0000
0001
0000
0001
0000
0001
,
0000
0000
1001
0000
0000
0000
0010
0000
0010
0000
0000
0010
0000
0010
0000
0000
,
0110
0000
0000
0000
1000
0000
1000
0000
0000
1000
0000
1000
0000
1000
0000
0000
,
1001
0000
0000
0000
1000
0000
0000
0000
0000
0000
0001
1000
0001
0000
0000
0000
,
0000
0000
0001
0000
0000
0000
0000
0000
1000
0001
1000
0000
0000
0000
1000
0000
,
0100
0010
0001
0010
0100
1000
0001
0100
,
0010
1000
0010
0100
0001
1000
0100
0010
,
0001
0010
0100
1000
0001
0100
0010
1000
,
0010
0100
0000
0100
0001
0010
0001
0100
,
0001
0010
0001
0100
0001
0010
0100
0000
,
0000
1000
0100
1000
0010
1000
0100
1000
,
0010
1000
0100
1000
0010
0100
0000
1001
,
0000
0001
0010
0100
1000
0001
0010
0100
,
1000
0001
0100
0010
1000
0001
0010
1001
,
0000
1000
0010
1000
0001
1000
0100
1000
,
0001
1000
0010
0100
0001
0010
0000
1001
,
0001
0000
0010
0000
0000
0100
0000
1000
0000
0000
0001
0000
0010
0000
1001
0000
,
1000
0000
0010
0000
0000
0100
0000
0001
0000
0000
1000
0000
0010
0000
1001
0000
,
0001
0000
0100
0000
0000
0010
0000
1000
0000
0000
0001
0000
0100
0000
1001
0000
,
1000
0000
0100
0000
0000
0010
0000
0001
0000
0000
1000
0000
0100
0000
1001
0000
,
0000
0001
0100
0000
0001
0100
0000
0010
0000
0000
1000
0000
0001
0000
1001
0000
,
0000
1000
0100
0000
1000
0100
0000
0010
0000
0000
0001
0000
1000
0000
0010
0100
,
0010
0000
1000
0000
0001
0000
0010
0100
0000
0010
0000
0001
0000
1000
0001
0000
,
0100
0000
0010
1000
0000
0001
0000
0010
0000
0100
1000
0000
0001
0000
0100
0010
,
0000
1000
0000
0001
0000
0010
0100
0000
1001
0000
0000
0100
0000
0000
0100
0000
,
1001
0000
0000
0100
0000
0000
0100
0000
1001
0000
0000
0100
0000
0000
0100
0000
,
0010
0000
0010
1000
0000
1000
0001
0000
0010
0100
0010
0100
0000
0000
0000
0000
,
2002
0000
0000
0000
0000
0000
0000
0000
0000
0000
0000
3003
0000
0000
0000
0000
;

//--------------- dance-single - forcednature ----------------
#NOTEDATA:;
#STEPSTYPE:dance-single;
#DESCRIPTION:forcednature;
#DIFFICULTY:Hard;
#METER:15;
#RADARVALUES:0,0,0,0,0;
#CREDIT:forcednature;
#NOTES:
0000
0000
0000
0000
,
0000
0000
0000
0000
,
0000
0000
0000
0000
,
0000
0000
0000
0000
,
0000
0000
0000
0000
,
0000
0000
0000
0000
,
1000
0000
0100
0000
1000
0001
0000
0010
0000
0001
1000
0000
0100
0010
0000
0000
,
0001
0000
0100
0000
0001
1000
0000
0010
0000
1000
0001
0000
0100
0010
0000
0000
,
1000
0000
0100
0000
0010
0100
0000
1000
0000
0001
0100
0000
0010
0100
0000
0000
,
0001
0010
0001
0010
0100
0000
1100
0000
1000
0000
0010
0100
0010
0100
0001
0000
,
0010
0000
0100
0000
0001
0100
0000
0010
0000
0001
0100
0000
0010
0000
0100
0000
,
0001
0010
0000
0100
0000
0001
0000
0100
0000
0010
0001
0000
0100
0010
0000
0000
,
1000
0000
0010
0000
0100
1000
0000
0100
0000
0010
1000
0000
0100
0000
0010
0000
,
1000
0010
0000
0100
0000
0010
0001
0000
1000
0010
0000
0100
0000
0010
0001
0000
,
0010
0000
1000
0000
0100
1000
0000
0001
0000
0100
0001
0000
0010
0000
0100
0000
,
0010
0001
0000
0100
0000
0001
1000
0100
0000
1000
0010
0000
0100
0001
0000
0000
,
0010
0000
0110
0000
0000
1100
0000
0000
0000
0011
0000
0000
0110
0000
0000
0000
,
0100
1000
0001
1000
0000
1000
0010
0000
0100
0010
0100
0000
0110
0000
0100
0001
,
1000
0001
0000
0001
0010
0000
0100
0010
0100
0000
0110
0000
0010
0001
1000
0001
,
0000
0001
0100
0000
0010
0100
0010
0000
0110
0000
0010
1000
0001
1000
0000
1000
,
0100
0000
0010
0100
0010
0100
0010
0000
0001
0100
0001
0000
0001
0100
0001
0100
,
1000
0000
1000
0100
0001
0000
0001
0010
0001
0000
0001
0010
0001
0010
1000
0000
,
1000
0010
0001
0000
1000
0001
1000
0100
1000
0000
1000
0100
1000
0100
0001
0000
,
0001
0100
1000
0000
1000
0010
1000
0000
1000
0010
1000
0010
0001
0000
0001
0010
,
1000
0000
0001
1000
0001
0000
0000
0000
0000
0000
0010
0100
1000
0000
0000
0000
,
0000
0000
1010
0000
0000
0000
0000
0000
0010
0100
0001
0000
0000
0000
0010
0100
,
1000
0100
0000
0010
0100
1000
0100
0000
0010
0001
1000
0000
0010
0100
0001
0100
,
0000
0010
0100
0001
0100
0000
0010
1000
0001
0000
0010
0100
1000
0100
0000
0010
,
0100
1000
0100
0000
0010
0001
1000
0000
0010
0100
0001
0100
0000
0010
0100
0001
,
0100
0000
0010
1000
0010
1000
0001
0000
0010
0000
0100
0010
0100
0000
1000
0000
,
0010
0000
0100
0010
0100
0000
0001
0000
0010
0000
0100
0010
0100
0000
1000
0001
,
1000
0001
1000
0000
0010
0000
0100
0010
0100
0000
0001
0000
0010
0000
0100
0010
,
0100
0000
1000
0000
0010
0000
0100
0010
0100
0000
0001
1000
0001
1000
0100
0000
,
0000
0010
0001
0010
0000
0100
0010
0100
0000
1000
0100
1000
0000
0100
0010
0100
,
0000
0010
0001
0010
0100
1000
0000
0001
0100
0010
1000
0001
0010
0000
0100
1000
,
0000
0010
1000
0010
0000
0100
0010
0100
0000
0001
0100
0001
0000
0100
0010
0100
,
0000
0010
1000
0001
0000
0010
0000
0100
1000
0001
1000
0010
0100
0000
0110
0000
,
0010
0000
1000
0100
0000
0001
0000
0100
1000
0000
0001
0010
0001
0000
0110
0000
,
0100
0000
1000
0010
0000
0001
0000
0010
1000
0000
0100
0010
0100
0000
0110
0000
,
0010
0000
0001
0100
0000
1000
0000
0100
0001
0000
0010
0100
0010
0000
0110
0000
,
0100
0000
1000
0010
0000
0001
0000
0010
1000
0000
0100
0010
0100
0000
0010
0001
,
0010
0001
0010
0100
1000
0000
0010
0100
0010
0100
0001
0000
1000
0000
0010
1000
,
0010
1000
0010
0100
0001
0000
0010
0100
0010
0100
1000
0000
0001
0000
0100
0001
,
1000
0000
0010
1000
0001
0000
0010
0100
0000
1000
0100
0010
0001
1000
0010
0000
,
0100
0001
1000
0000
0100
0010
0000
0001
0100
0010
1000
0010
0100
0001
0000
1000
,
0100
0010
0001
0100
0010
1000
0001
0010
0200
0000
0000
0001
0000
0000
1300
0000
,
0200
0000
0000
0001
0000
0000
1300
0000
0200
0000
0000
0001
0000
0000
1300
0000
,
0100
0010
0100
0010
0000
0001
0100
0010
1000
0100
0010
0001
0000
0000
0000
0000
,
2002
0000
0000
0000
0000
0000
0000
0000
0000
0000
0000
3003
0000
0000
0000
0000
;

//--------------- dance-single - forcednature ----------------
#NOTEDATA:;
#STEPSTYPE:dance-single;
#DESCRIPTION:forcednature;
#DIFFICULTY:Challenge;
#METER:17;
#RADARVALUES:0,0,0,0,0;
#CREDIT:forcednature;
#NOTES:
0000
0000
0000
0000
,
0000
0000
0000
0000
,
0000
0000
0000
0000
,
0000
0000
0000
0000
,
0000
0000
0000
0000
,
0000
0000
0000
0000
,
1001
0000
0001
0000
0100
0010
0000
1000
0000
0001
0100
0000
0010
1000
0000
0000
,
1001
0000
1000
0000
0100
0010
0000
0001
0000
1000
0100
0000
0010
0001
0000
0000
,
0110
0000
0001
0000
0100
0010
0000
1000
0000
0001
0010
0000
0100
1000
0000
0000
,
0001
0100
0001
0100
0010
1000
0001
0000
1000
0100
0010
0100
0010
0001
1000
0000
,
1001
0000
0001
0000
0100
0010
0000
1000
0000
0010
0100
0000
1000
0000
0100
0000
,
0001
0010
0000
0001
0000
1000
0010
1000
0000
0001
0010
0100
1000
0010
0000
0000
,
1100
0000
0001
0000
1000
0010
0000
0100
0000
0001
0010
0000
0100
0000
0001
0000
,
0100
1000
0100
0010
0000
0001
0100
0010
0001
0010
0100
0001
0000
0001
0010
0100
,
1000
0000
0010
0000
1000
0100
0000
0001
0000
0100
0010
0001
1000
0000
0001
0000
,
0100
0010
0100
1000
0100
0000
0001
0010
0000
0001
1000
0010
1000
0100
0000
0000
,
0110
0000
0011
0000
0100
0010
0000
0001
0000
0010
0100
0000
1010
0000
0001
0000
,
1000
0000
0000
0010
0000
0000
0100
0000
0000
0001
0000
0000
0000
0000
0000
0001
0000
0000
0010
0000
0000
0000
0000
0000
0100
0000
1000
0000
0100
0000
1000
0000
0100
0000
1000
0000
0001
0000
0000
0000
0000
0000
0001
0000
0000
0010
0000
0000
,
0100
0000
0000
1000
0000
0000
0000
0000
0000
1000
0000
0000
0010
0000
0000
0000
0000
0000
0100
0000
0001
0000
0100
0000
0001
0000
0100
0000
0001
0000
1000
0000
0000
0000
0000
0000
1000
0000
0000
0100
0000
0000
0010
0000
0000
0001
0000
0000
,
0000
0000
0000
0001
0000
0000
0100
0000
0000
0000
0000
0000
0010
0000
1000
0000
0010
0000
1000
0000
0010
0000
1000
0000
0001
0000
0000
0000
0000
0000
0001
0000
0000
0100
0000
0000
0010
0000
0000
1000
0000
0000
0000
0000
0000
0001
0000
0000
,
0010
0100
0010
0001
0010
0100
1000
0000
1000
0010
0100
0010
0001
0010
0100
0001
,
1000
0001
0010
0000
0001
0010
0100
0001
0100
1000
0010
1000
0001
0010
0001
0100
,
1000
0100
0010
0000
1000
0001
0010
0001
0100
0010
0001
0010
0100
0001
1000
0100
,
0010
0000
1000
0010
0100
0010
0001
1000
0001
0100
0010
1000
0001
0010
0100
1000
,
0010
0000
0100
0001
0200
0000
0300
0000
0000
0000
0100
0001
0020
0000
0030
0000
,
0000
0000
0220
0000
0330
0000
0000
0000
0100
1000
0002
0000
0003
0000
0100
1000
,
0100
0010
0100
0001
0100
0010
0100
1000
0100
0010
1000
0000
0100
0001
0100
0010
,
0100
1000
0100
0010
0100
0001
0100
0010
0001
0000
0010
1000
0010
0100
0010
0001
,
0010
0100
0010
1000
0010
0100
1000
0000
0010
0001
0010
0100
0010
1000
0010
0100
,
0010
0001
0010
0000
0010
0000
1001
0000
0001
0000
1000
0100
1000
0100
0010
0100
,
0010
0100
0010
0001
0010
0001
1000
0001
1000
0001
1000
0010
1000
0010
0100
0000
,
0100
0000
0001
0010
0001
0010
0100
0010
0100
0010
0100
1000
0100
1000
0001
1000
,
0001
1000
0010
0100
0010
0100
0001
1000
0100
0000
0010
0000
0010
0000
1001
0000
,
0000
0001
0100
0001
0000
0001
0010
0001
0000
0001
1000
0001
0000
0001
0100
0001
,
0000
0001
0010
0001
1000
0100
0010
0001
1000
0010
0100
0001
0010
0000
1001
0000
,
0000
1000
0100
1000
0000
1000
0001
1000
0000
1000
0010
1000
0000
1000
0100
1000
,
0000
1000
0010
0001
0010
0100
0010
1000
0001
1000
0100
0010
0001
0000
0110
0000
,
1000
0000
0000
0000
0000
0000
0001
0000
0000
0010
0000
0000
0100
0000
0000
0010
0000
0000
0000
0000
0000
0010
0000
0000
0001
0000
0000
0010
0000
0000
0100
0000
1000
0000
0100
0000
1000
0000
0100
0000
1000
0000
0001
0000
0000
0000
0000
0000
,
0001
0000
0000
0000
0000
0000
0010
0000
0000
0100
0000
0000
1000
0000
0000
0010
0000
0000
0000
0000
0000
0100
0000
0000
0001
0000
0000
1000
0000
0000
0001
0000
0100
0000
0001
0000
0100
0000
0001
0000
0100
0000
0010
0000
0000
0000
0000
0000
,
1000
0000
0000
0000
0000
0000
0001
0000
0000
0100
0000
0000
0010
0000
0000
0100
0000
0000
0000
0000
0000
0100
0000
0000
0001
0000
0000
0100
0000
0000
0010
0000
1000
0000
0010
0000
1000
0000
0010
0000
1000
0000
0001
0000
0000
0000
0000
0000
,
0001
0000
0000
0000
0000
0000
0100
0000
0000
0010
0000
0000
1000
0000
0000
0100
0000
0000
0000
0000
0000
0010
0000
0000
0001
0000
0000
1000
0000
0000
0001
0000
0010
0000
0001
0000
0010
0000
0001
0000
0010
0000
0100
0000
0000
0000
0000
0000
,
0100
0000
0000
1000
0000
0000
0100
0000
0000
0010
0000
0000
0100
0000
0000
1000
0000
0000
0100
0000
0000
0000
0000
0000
0100
0000
0000
0010
0000
0000
0001
0000
1000
0000
0001
0000
1000
0000
0001
0000
1000
0000
0010
0000
0000
0000
0000
0000
,
0100
0000
0000
0001
0000
0000
0100
0000
0000
0010
0000
0000
0100
0000
0000
0001
0000
0000
0100
0000
0000
0000
0000
0000
0100
0000
0000
0010
0000
0000
1000
0000
0001
0000
1000
0000
0001
0000
1000
0000
0001
0000
1000
0000
0000
0001
0000
0000
,
1000
0010
0100
1000
0001
0010
0100
0001
0010
0100
0001
1000
0010
0100
1000
0001
,
0100
1000
0001
0010
1000
0001
1000
0100
0001
1000
0010
0001
1000
0010
0100
1000
,
0001
0010
1000
0001
0010
0100
0001
1000
0020
0000
0000
0100
0030
0000
0100
0000
,
1020
0000
0000
0100
0030
0000
0100
0000
0021
0000
0000
0100
0030
0000
0100
0000
,
1000
0010
1000
0010
1000
0010
0100
0001
0100
0001
0100
0001
0010
0100
0010
0100
1000
0001
0000
0000
0000
0000
0000
0000
,
2002
0000
0000
0000
0000
0000
0000
0000
0000
0000
0000
3003
0000
0000
0000
0000
;

//--------------- dance-double - forcednature ----------------
#NOTEDATA:;
#STEPSTYPE:dance-double;
#DESCRIPTION:forcednature;
#DIFFICULTY:Easy;
#METER:6;
#RADARVALUES:0,0,0,0,0;
#CREDIT:forcednature;
#NOTES:
00000000
00000000
00000000
00000000
,
00000000
00000000
00000000
00000000
,
00000000
00000000
00000000
00000000
,
00000000
00000000
00000000
00000000
,
00000000
00000000
00000000
00000000
,
00000000
00000000
00000000
00000000
,
00011000
00001000
00000000
00001000
,
00011000
00010000
00000000
00010000
,
00011000
00000010
00000000
00000010
,
00001000
00000000
00000100
00000000
00010000
00001000
00010000
00000000
,
00001000
01000000
00010000
01000000
,
00100000
10000000
00010000
10000000
,
01000000
00010000
00001000
00010000
,
00000100
00000000
00000100
00000000
00001000
00000001
00000010
00000000
,
00000001
00000100
00000010
00000100
,
00000001
00000000
00001000
00000000
00000010
00010000
00000010
00000000
,
00000000
00010000
00000000
00010000
00000000
00010000
00000000
00000000
,
00001000
00000000
00100000
00000000
00001000
00000000
00000000
00010000
,
00000000
00000010
00000000
00010000
00000000
00000000
00001000
00000000
,
01000000
00000000
00001000
00000000
00000000
00010000
00000000
00000100
,
00000000
00000000
00010000
00000000
00000000
00000000
00000000
00000000
00001000
00000000
00000000
00000000
00000000
00001000
00000000
00000000
,
00000000
00000000
00001000
00000000
00000000
00000000
01000000
00000000
00000000
00000000
00000000
01000000
00000000
00000000
00000000
00000000
,
00000000
00000000
01000000
00000000
00000000
00000000
00010000
00000000
00000000
00000000
00000000
00010000
00000000
00000000
00000000
00000000
,
00010000
00000000
00000000
00000000
10000000
00000000
00000000
00000000
00000000
10000000
00000000
00000000
00000000
00000000
00000000
00000000
,
10000000
01000000
00000000
00010000
,
00000000
00001000
00000000
00000000
00000000
00000010
00000000
00000001
,
00000000
00000001
00000000
00000001
00000000
00000000
00000100
00000000
,
00000100
00000000
00000100
00000000
00000000
00001000
00000000
00001000
,
00000000
00001000
00000000
00000000
00010000
00000000
00010000
00000000
,
00010000
00000000
00000000
00011000
00000000
01000000
00000000
00010000
,
00000000
01000000
00000000
00001000
00000000
00010000
00000000
00001000
,
00000000
00011000
00000000
00010000
00000000
00000100
00000000
00001000
,
00000000
00000100
00000000
00010000
00000000
00001000
00000000
00000000
,
00000000
01000000
00000000
01000000
00000000
00010000
00000000
00010000
,
00000000
10000000
00000000
01000000
00000000
00100000
00000000
00000000
,
00000000
00001000
00000000
00001000
00000000
00010000
00000000
00010000
,
00000000
00000100
00000000
00001000
00000000
00000001
00000000
00001001
,
00000000
00001000
00000000
00000100
00000000
00010000
00000000
00011000
,
00000000
00001000
00000000
01000000
00000000
00010000
00000000
10010000
,
00000000
10000000
00000000
01000000
00000000
00100000
00000000
10010000
,
00000000
00010000
00000000
01000000
00000000
00001000
00000000
00010000
,
00000000
00010000
00000000
00010000
00000000
00010000
00000000
00000100
,
00000000
00000100
00000000
00000100
00000000
00000100
00000000
00001000
,
00000000
00000001
00000000
00000100
00000000
00000001
00000000
00000010
,
00000000
00000100
00000000
00010000
00000000
00001000
00000000
00100000
,
00000000
01000000
00000000
00000000
20020000
00000000
30030000
00000000
,
20020000
30030000
20020000
30030000
,
00010000
01000000
00001000
00000000
,
00022000
00000000
00000000
00000000
00000000
00000000
00000000
00000000
00000000
00000000
00000000
00033000
00000000
00000000
00000000
00000000
;

//--------------- dance-double - forcednature ----------------
#NOTEDATA:;
#STEPSTYPE:dance-double;
#DESCRIPTION:forcednature;
#DIFFICULTY:Medium;
#METER:11;
#RADARVALUES:0,0,0,0,0;
#CREDIT:forcednature;
#NOTES:
00000000
00000000
00000000
00000000
,
00000000
00000000
00000000
00000000
,
00000000
00000000
00000000
00000000
,
00000000
00000000
00000000
00000000
,
00000000
00000000
00000000
00000000
,
00000000
00000000
00000000
00000000
,
00011000
00000000
00001000
01000000
00010000
00100000
01000000
00000000
,
01100000
00000000
00100000
00001000
00010000
00000010
00001000
00000000
,
00001001
00000000
00000001
00000010
00001000
00010000
01000000
00000000
,
00100000
00001000
00010000
00100000
00000000
10000000
10000000
10000000
,
00000000
01000000
00010000
00001000
00010000
00001000
00000010
00000000
,
00000100
00001000
00000001
00000100
00001000
00000100
00000001
00000000
,
00001001
00000000
00001000
00000010
00000100
00001000
00010000
00000000
,
00100000
00000000
00000000
00100000
00000000
00000000
01000000
00000000
00010000
00000000
00010000
00000000
00010000
00000000
00000000
00000000
,
10000000
01000000
00010000
00001000
00100000
00010000
00100000
00000000
,
00001000
00000000
00010000
00000000
00000010
00000000
00001000
00000000
00000100
00000000
00000001
00000000
00000000
00000101
00000000
00000000
,
00000000
00000000
00001100
00000000
00000000
00001100
00000000
00000000
00000000
00000011
00000000
00000000
00000011
00000000
00000000
00000000
,
00000001
00000000
00000000
00000100
00000000
00000000
00001000
00000000
00010000
00000000
00010000
00000000
00100000
00000000
10000000
00000000
,
00000000
01000000
00000000
00000000
00010000
00000000
00001000
00000000
00001000
00000000
00000010
00000000
00000001
00000000
00000000
00000100
,
00000000
00000000
00001000
00000000
00010000
00000000
00010000
00000000
00100000
00000000
10000000
00000000
00000000
01000000
00000000
00000000
,
00010000
00000000
00001000
00000000
00100000
00000000
00001000
00000000
00010000
00000000
00010000
00000000
00000000
00010000
00000000
00010000
,
00000000
00000000
00010010
00000000
00000000
00000000
00001000
00000000
00001000
00000000
00000000
00001000
00000000
00001000
00000000
00010000
,
00000000
00000000
00101000
00000000
00000000
00000000
00010000
00000000
00010000
00000000
00000000
00010000
00000000
00010000
00000000
00000000
,
00010100
00000000
00000000
00000000
00001000
00000000
00001000
00000000
00000000
00001000
00000000
00001000
00000000
00010000
00000000
00000000
,
01001000
00000000
00000000
00000000
00011000
00000000
00000000
00000000
00000000
00000000
00010000
00001000
00010000
00000000
00000000
00000000
,
00000000
00000000
00000100
00000000
00000000
00000000
00000000
00000000
00001000
00010001
00001000
00000000
00000000
00000000
00000010
00000000
,
00000100
00001000
00010000
00100000
01000000
00010000
00000000
00100000
,
01000000
00010000
00001000
00000010
00000100
00000000
00001000
00000010
,
00000100
00001000
00010000
00100000
00000000
10000000
01000000
00010000
,
00001000
00000020
00000000
00000030
00000100
00000001
00000100
00010000
,
00001000
00100000
10000000
00100000
00010000
01000000
20000000
00000000
,
30000000
00000000
01000000
10000000
01000000
00001000
00010000
00000010
,
00000001
00000010
00001000
00000100
00000002
00000000
00000003
00000000
,
00000100
00010000
00001000
00000010
00000100
00010000
00001000
00100000
,
00010000
01000000
10000000
01000000
00001000
00010000
00200000
00000000
,
00300000
00000000
01000000
00001000
00010000
00100000
01000000
00001000
,
00010000
00000010
00001000
00000100
00000001
00000100
00020000
00000000
,
00030010
00000000
00001000
00000000
00000010
00000100
00000000
00000001
00000000
00000000
00000100
00000000
00001000
00000000
00010000
00000000
,
00100000
00000000
01000000
00000000
00000000
00010000
00000000
01000000
00000000
00000000
00100000
00000000
10000000
00000000
01000000
00000000
,
00010000
00000000
00001000
00000000
00000000
00100000
00000000
00010000
00000000
00000000
01000000
00000000
00100000
00000000
00010000
00000000
,
00001000
00000000
00010000
00000000
00000000
00000100
00000000
00001000
00000000
00000000
00000001
00000000
00000100
00000000
00001000
00000000
,
00010000
00001000
00010000
00000000
00001000
00010000
00000000
00001000
00000000
00000000
01000000
00000000
00010000
00000000
00100000
00000000
,
00001000
00010000
00001000
00000000
00010000
00001000
00000000
00010000
00000000
00000000
00000100
00000000
00001000
00000000
00000001
00000000
,
00000100
00000000
00001000
00000000
01000000
00000000
00010000
00100000
00000000
01000000
00000000
00100000
00000000
00001000
00010000
00000000
,
00000010
00000000
00001000
00000000
00000001
00000010
00000000
00001000
00000000
00000010
00000100
00000000
00010000
00000000
00001000
00100000
,
00000000
00001000
00000000
00010000
00000000
00100000
10000000
00000000
10010000
00000000
00000000
01000000
00000000
00000000
01000000
00000000
,
00011000
00000000
00000000
00000100
00000000
00000000
00000100
00000000
00001001
00000000
00000000
00000010
00000000
00000000
00000010
00000000
,
00001000
00000000
00001000
00000100
00000000
00000100
00010000
00000000
00001000
00100000
00010000
00100000
00000000
00000000
00000000
00000000
,
20020000
00000000
00000000
00000000
00000000
00000000
00000000
00000000
00000000
00000000
00000000
30030000
00000000
00000000
00000000
00000000
;

//--------------- dance-double - forcednature ----------------
#NOTEDATA:;
#STEPSTYPE:dance-double;
#DESCRIPTION:forcednature;
#DIFFICULTY:Hard;
#METER:15;
#RADARVALUES:0,0,0,0,0;
#CREDIT:forcednature;
#NOTES:
00000000
00000000
00000000
00000000
,
00000000
00000000
00000000
00000000
,
00000000
00000000
00000000
00000000
,
00000000
00000000
00000000
00000000
,
00000000
00000000
00000000
00000000
,
00000000
00000000
00000000
00000000
,
00001000
00000000
00010000
00000000
01000000
00000000
00000000
01100000
00000000
00000000
01000000
00000000
00100000
00001000
00000000
00000000
,
00010000
00000000
00001000
00000000
00000100
00000000
00000000
00000110
00000000
00000000
00000100
00000000
00000010
00010000
00000000
00000000
,
00001000
00000000
00010000
00000000
00100000
00000000
00000000
01100000
00000000
00000000
00100000
00000000
01000000
00001000
00000000
00000000
,
00010000
00000010
00001000
00000010
00010000
00000000
00011000
00000000
00001000
00000000
00100000
00010000
00100000
01000000
10000000
00000000
,
00010000
00000000
01000000
00000000
00001000
00010000
00000000
00000100
00000000
00010000
00001000
00000000
00000010
00000000
00000100
00000000
,
00001000
00000001
00000000
00000100
00000000
00001000
00000000
00010000
00000000
00100000
01000000
00000000
00100000
10000000
00000000
00000000
,
01000000
00000000
00010000
00000000
01000000
10000000
00000000
00100000
00000000
10000000
01000000
00000000
00010000
00000000
00001000
00000000
,
00100000
00010000
00000000
00100000
00000000
00001000
00010000
00000000
00000010
00001000
00000000
00000010
00000000
00010000
00001000
00000000
,
01000000
00000000
00010000
00000000
10000000
01000000
00000000
00010000
00000000
01000000
00010000
00000000
00001000
00000000
00000010
00000000
,
00000001
00000100
00000000
00001000
00000000
00000100
00000001
00001000
00000000
00000010
00001000
00000000
00000010
00010000
00000000
00000000
,
00001000
00000000
00101000
00000000
00000000
00110000
00000000
00000000
00000000
11000000
00000000
00000000
01100000
00000000
00000000
00000000
,
01000000
00010000
00001000
00010000
00000000
00001000
00100000
00000000
00001000
00010000
00001000
00010000
00000010
00000000
00000100
00001000
,
00010000
00001000
00000000
00010000
00000010
00000000
00010000
00001000
00010000
00001000
01000000
00000000
00100000
00010000
00001000
00010000
,
00000000
00001000
01000000
00000000
00001000
00010000
00001000
00010000
00000100
00000000
00000010
00001000
00010000
00001000
00000000
00010000
,
00000100
00000000
00010000
00001000
00010000
00001000
01000000
00000000
00100000
10000000
00100000
00000000
10000000
01000000
10000000
01000000
,
00010000
00000000
00011000
00000000
00001000
00000000
00000010
00000001
00000010
00000000
00000001
00000100
00000001
00000100
00001000
00000000
,
00011000
00000000
00001000
00000000
00010000
00000000
01000000
10000000
01000000
00000000
10000000
00100000
10000000
00100000
00010000
00000000
,
00011000
00000000
00001000
00000000
00000100
00000001
00000100
00000000
00000001
00000010
00000001
00000010
00001000
00000000
00011000
00000000
,
00010000
00000000
00001000
00010000
00000100
00000000
00000000
00000000
00000000
00000000
00010000
00001000
00100000
00000000
00000000
00000000
,
00000000
00000000
01100000
00000000
00000000
00000000
00000000
00000000
01000000
10000000
00010000
00000000
00000000
00000000
01000000
00010000
,
01000000
00001000
00000000
00010000
00001000
00010000
00000010
00000000
00001000
00000001
00000010
00000000
00000100
00001000
00000100
00010000
,
00000000
00001000
00010000
00001000
00100000
00000000
00010000
10000000
00100000
00000000
01000000
00010000
01000000
00001000
00000000
00010000
,
00001000
00010000
00000010
00000000
00001000
00000001
00000010
00000000
00000100
00001000
00000100
00010000
00000000
00001000
00010000
00001000
,
00100000
00000000
00010000
10000000
00100000
00000000
00010000
00000000
00100000
00000000
10000000
00100000
10000000
00000000
01000000
10000000
,
01000000
00000000
00010000
01000000
00010000
00000000
00001000
00010000
00001000
00000000
00000010
00001000
00000010
00000000
00000001
00000010
,
00000001
00000010
00000001
00000000
00000100
00000000
00001000
00000100
00001000
00000000
00010000
00001000
00010000
00000000
00100000
00010000
,
00100000
00000000
10000000
00100000
10000000
00000000
01000000
10000000
01000000
00000000
00010000
00000000
00001000
00000000
00011000
00000000
,
00000000
00001000
00010000
00000100
00000000
00000100
00010000
00001000
00000000
00001000
00010000
00000010
00000000
00000010
00010000
00001000
,
00000000
00001000
00010000
00000100
00001000
00000100
00000000
00010000
00001000
01000000
00010000
01000000
00001000
00000000
00011000
00000000
,
00000000
00010000
00001000
01000000
00000000
01000000
00001000
00010000
00000000
00010000
00001000
00100000
00000000
00100000
00001000
00010000
,
00000000
00010000
00001000
01000000
00010000
01000000
00000000
00001000
00010000
00000100
00001000
00000100
00010000
00000000
00001000
00000000
,
00100000
00000000
01000000
00010000
00000000
00001000
00000000
00010000
01000000
00000000
00100000
00000000
00001000
00000000
00010000
00000000
,
00000010
00000000
00000100
00001000
00000000
00010000
00000000
00001000
00000100
00000000
00000010
00000000
00010000
00000000
00001000
00000000
,
01000000
00000000
00100000
00010000
00000000
00001000
00000000
00010000
00100000
00000000
01000000
00000000
00001000
00000000
00010000
00000000
,
00000100
00000000
00000010
00001000
00000000
00010000
00000000
00001000
00000010
00000000
00000100
00000000
00010000
00000000
00001000
00100000
,
00010000
00100000
00001000
00010000
00001000
00000000
01000000
00010000
10000000
00100000
01000000
00000000
00001000
00000000
00010000
00000010
,
00001000
00000010
00010000
00001000
00010000
00000000
00000100
00001000
00000001
00000010
00000100
00000000
00010000
00000000
00001000
00010000
,
00001000
00000000
00100000
00010000
00100000
00000000
01000000
00100000
00000000
01000000
10000000
00010000
00100000
00010000
10000000
00000000
,
01000000
00010000
00001000
00000000
00000010
00001000
00000000
00000010
00000001
00001000
00000100
00001000
00000001
00000010
00000000
00000001
,
00000100
00000001
00001000
00000010
00010000
00001000
00010000
00000100
00002000
00000000
00000000
00003010
00000000
00000000
00001000
00000000
,
00020000
00000000
00000000
00130000
00000000
00000000
00010000
00000000
00002000
00000000
00000000
00003100
00000000
00000000
00001000
00000000
,
00010000
01000000
00100000
01000000
00000000
00010000
10000000
00100000
10000000
01000000
00010000
00001000
00000000
00000000
00000000
00000000
,
00000220
00000000
00000000
00000000
00000000
00000000
00000000
00000000
00000000
00000000
00000000
00000330
00000000
00000000
00000000
00000000
;

//--------------- dance-double - forcednature ----------------
#NOTEDATA:;
#STEPSTYPE:dance-double;
#DESCRIPTION:forcednature;
#DIFFICULTY:Challenge;
#METER:17;
#RADARVALUES:0,0,0,0,0;
#CREDIT:forcednature;
#NOTES:
00000000
00000000
00000000
00000000
,
00000000
00000000
00000000
00000000
,
00000000
00000000
00000000
00000000
,
00000000
00000000
00000000
00000000
,
00000000
00000000
00000000
00000000
,
00000000
00000000
00000000
00000000
,
00001000
00000000
00010000
00000000
01000000
00010000
00000000
00001000
00000000
00100000
00010000
00000000
00100000
00001000
00000000
00000000
,
00010000
00000000
00001000
00000000
00000100
00001000
00000000
00010000
00000000
00000010
00001000
00000000
00000010
00010000
00000000
00000000
,
00001000
00000000
00010000
00000000
00100000
00010000
00000000
00001000
00000000
01000000
00010000
00000000
01000000
00001000
00000000
00000000
,
00010000
00000100
00001000
00000100
00010000
00001000
00100000
00000000
00001000
00010000
00000010
00001000
00000010
00010000
00001000
00000000
,
00000010
00000000
00000001
00000000
00000100
00000001
00000000
00000010
00000000
00001000
00010000
00000000
01000000
00000000
10000000
00000000
,
00100000
10000000
00000000
00010000
00000000
10000000
01000000
00010000
00000000
00001000
00010000
01000000
00100000
00001000
00000000
00000000
,
00010000
00000000
00000010
00000000
00000100
00001000
00000000
00000100
00000000
00000001
00001000
00000000
00000010
00000000
00010000
00000000
,
00001000
00100000
01000000
00010000
00000000
00001000
00010000
01000000
00100000
00001000
00010000
00000010
00000000
00000100
00001000
00000100
,
00000001
00000000
00000010
00000000
00000100
00010000
00000000
00000010
00000000
00010000
00001000
00100000
00001000
00000000
00010000
00000000
,
00100000
01000000
00100000
10000000
00010000
00000000
00100000
01000000
00000000
00010000
01000000
00010000
00001000
00100000
00000000
00000000
,
00001000
00000000
00010100
00000000
00010000
00001000
00000000
00000010
00000000
00000100
00001000
00000000
00000010
00000000
00000100
00000000
,
00000001
00000000
00000000
00000100
00000000
00000000
00001000
00000000
00000000
00010000
00000000
00000000
00000000
00000000
00000000
00001000
00000000
00000000
00010000
00000000
00000000
00000000
00000000
00000000
00100000
00000000
10000000
00000000
00100000
00000000
10000000
00000000
00100000
00000000
10000000
00000000
00010000
00000000
00000000
00000000
00000000
00000000
10000000
00000000
00000000
01000000
00000000
00000000
,
00010000
00000000
00000000
00001000
00000000
00000000
00000000
00000000
00000000
00010000
00000000
00000000
00001000
00000000
00000000
00000000
00000000
00000000
00000010
00000000
00000001
00000000
00000010
00000000
00000001
00000000
00000010
00000000
00000001
00000000
00001000
00000000
00000000
00000000
00000000
00000000
00000001
00000000
00000000
00000010
00000000
00000000
00001000
00000000
00000000
00010000
00000000
00000000
,
00000000
00000000
00000000
00001000
00000000
00000000
00010000
00000000
00000000
00000000
00000000
00000000
01000000
00000000
10000000
00000000
01000000
00000000
10000000
00000000
01000000
00000000
10000000
00000000
00010000
00000000
00000000
00000000
00000000
00000000
10000000
00000000
00000000
00100000
00000000
00000000
00010000
00000000
00000000
00001000
00000000
00000000
00000000
00000000
00000000
00010000
00000000
00000000
,
00001000
01000000
00010000
01000000
00001000
00010000
00000010
00000000
00001000
00000100
00000010
00000100
00000001
00000100
00001000
00000100
,
00010000
00001000
00100000
00000000
00010000
00100000
01000000
00010000
01000000
10000000
00010000
10000000
00100000
10000000
01000000
00010000
,
00001000
00010000
00000010
00000000
00001000
00000100
00010000
00001000
01000000
00010000
00100000
01000000
00100000
00001000
00010000
00000100
,
00001000
00000000
00000010
00010000
00001000
00000010
00001000
00010000
00000100
00001000
00000100
00010000
00001000
01000000
00010000
00100000
,
01000000
00000000
00010000
01000000
20000000
00000000
30000000
00000000
00000000
00000000
01000000
10000000
00200000
00000000
00300000
00000000
,
00000000
00000000
02200000
00000000
03300000
00000000
00000000
00000000
01000000
00001000
00020000
00000000
00030000
00000000
00000100
00001000
,
00000100
00010000
00001000
00010000
00000010
00000100
00001000
00010000
00100000
01000000
00010000
00000000
01000000
00010000
01000000
00001000
,
00010000
00001000
00100000
01000000
00010000
00001000
00000010
00000100
00001000
00000000
00000010
00001000
00000010
00010000
00001000
00010000
,
00000100
00000010
00001000
00010000
01000000
00100000
00010000
00000000
00100000
00010000
00100000
00001000
00010000
00001000
01000000
00100000
,
00010000
00001000
00000100
00000010
00001000
00000001
00000100
00000000
00001000
00000000
00000100
00000001
00000100
00000001
00000010
00000001
,
00000010
00000001
00000010
00001000
00000010
00001000
00010000
00001000
00010000
00001000
00010000
01000000
00010000
01000000
10000000
00000000
,
00100000
00000000
10000000
01000000
10000000
01000000
00010000
01000000
00010000
01000000
00010000
00001000
00010000
00001000
00000010
00000001
,
00000010
00000001
00000100
00000001
00000100
00000001
00000100
00001000
00010000
00000000
00100000
00000000
00100000
00000000
10010000
00000000
,
00000000
10000000
01000000
00010000
00000000
00010000
00001000
00100000
00000000
00100000
00001000
00010000
00000000
00010000
00001000
00000010
,
00000000
00000010
00000001
00001000
00000100
00001000
00000010
00010000
00001000
01000000
00010000
01000000
00001000
00000000
00011000
00000000
,
00000000
00000001
00000100
00001000
00000000
00001000
00010000
00000010
00000000
00000010
00010000
00001000
00000000
00001000
00010000
00100000
,
00000000
00100000
10000000
00010000
01000000
00010000
00100000
00001000
00010000
00000100
00001000
00000100
00010000
00000000
00011000
00000000
,
00001000
00000000
00000000
00000000
00000000
00000000
00100000
00000000
00000000
01000000
00000000
00000000
00010000
00000000
00000000
01000000
00000000
00000000
00000000
00000000
00000000
01000000
00000000
00000000
00100000
00000000
00000000
00001000
00000000
00000000
00010000
00000000
00000100
00000000
00010000
00000000
00000100
00000000
00010000
00000000
00000100
00000000
00001000
00000000
00000000
00000000
00000000
00000000
,
00001000
00000000
00000000
00000000
00000000
00000000
00000010
00000000
00000000
00000100
00000000
00000000
00001000
00000000
00000000
00000100
00000000
00000000
00000000
00000000
00000000
00000100
00000000
00000000
00000010
00000000
00000000
00010000
00000000
00000000
00001000
00000000
01000000
00000000
00001000
00000000
01000000
00000000
00001000
00000000
01000000
00000000
00010000
00000000
00000000
00000000
00000000
00000000
,
00010000
00000000
00000000
00000000
00000000
00000000
01000000
00000000
00000000
00100000
00000000
00000000
00010000
00000000
00000000
00100000
00000000
00000000
00000000
00000000
00000000
00100000
00000000
00000000
01000000
00000000
00000000
00001000
00000000
00000000
00010000
00000000
00000010
00000000
00010000
00000000
00000010
00000000
00010000
00000000
00000010
00000000
00001000
00000000
00000000
00000000
00000000
00000000
,
00001000
00000000
00000000
00000000
00000000
00000000
00000100
00000000
00000000
00000010
00000000
00000000
00001000
00000000
00000000
00000010
00000000
00000000
00000000
00000000
00000000
00000010
00000000
00000000
00000100
00000000
00000000
00010000
00000000
00000000
00001000
00000000
00100000
00000000
00001000
00000000
00100000
00000000
00001000
00000000
00100000
00000000
00010000
00000000
00000000
00000000
00000000
00000000
,
01000000
00000000
00000000
10000000
00000000
00000000
01000000
00000000
00000000
00100000
00000000
00000000
01000000
00000000
00000000
00010000
00000000
00000000
01000000
00000000
00000000
00000000
00000000
00000000
01000000
00000000
00000000
00001000
00000000
00000000
00010000
00000000
00000010
00000000
00010000
00000000
00000010
00000000
00010000
00000000
00000010
00000000
00001000
00000000
00000000
00000000
00000000
00000000
,
00000100
00000000
00000000
00000001
00000000
00000000
00000100
00000000
00000000
00000010
00000000
00000000
00000100
00000000
00000000
00001000
00000000
00000000
00000100
00000000
00000000
00000000
00000000
00000000
00000100
00000000
00000000
00010000
00000000
00000000
00001000
00000000
00100000
00000000
00001000
00000000
00100000
00000000
00001000
00000000
00100000
00000000
00010000
00000000
00000000
10000000
00000000
00000000
,
00100000
10000000
01000000
00010000
00001000
00010000
00000100
00001000
00000010
00000100
00000001
00000010
00000001
00000100
00001000
00010000
,
00001000
01000000
00010000
00100000
01000000
10000000
01000000
00010000
00001000
00000010
00001000
00010000
00100000
01000000
00010000
00100000
,
01000000
00010000
00001000
00000010
00000100
00010000
00000010
00001000
00000002
00000000
00000000
00000103
00000000
00000000
00001010
00000000
,
00020000
00000000
00000000
01030000
00000000
00000000
10100000
00000000
20000000
00000000
00000000
31000000
00000000
00000000
00110000
00000000
,
00001000
00010000
00001000
00010000
00001000
00010000
00000100
00001000
00000100
00001000
00000100
00001000
00000001
00000100
00000010
00001000
00000100
00010000
00000000
00000000
00000000
00000000
00000000
00000000
,
00022000
00000000
00000000
00000000
00000000
00000000
00000000
00000000
00000000
00000000
00000000
00033000
00000000
00000000
00000000
00000000
;
