#VERSION:0.83;
#TITLE:焔極OVERKILL;
#SUBTITLE:;
#ARTIST:RoughSketch Vs. L.E.D.-G;
#TITLETRANSLIT:Engoku OVERKILL;
#SUBTITLETRANSLIT:;
#ARTISTTRANSLIT:;
#GENRE:HARDCORE;
#CREDIT:;
#MUSIC:Engoku OVERKILL.ogg;
#BANNER:Engoku OVERKILL.png;
#BACKGROUND:Engoku OVERKILL-bg.png;
#CDTITLE:./CDTitles/bm IIDX 24 SINOBUZ.png;
#SAMPLESTART:89.753;
#SAMPLELENGTH:15.000;
#SELECTABLE:YES;
#OFFSET:0.240;
#BPMS:0.000=192.000;
#STOPS:88.000=0.625
,286.000=0.625
;
#TIMESIGNATURES:0.000=4=4,
88.000=2=4,
90.000=4=4
;
#BGCHANGES:-0.500=Engoku OVERKILL.mp4=1.000=0=0=0=StretchNoLoop====,
99999.000=-nosongbg-=1.000=0=0=0=StretchNoLoop====
;
#FGCHANGES:;

//--------------- dance-single - forcednature ----------------
#NOTEDATA:;
#STEPSTYPE:dance-single;
#DESCRIPTION:forcednature;
#CREDIT:forcednature;
#DIFFICULTY:Beginner;
#METER:7;
#RADARVALUES:0,0,0,0,0;
#NOTES:
0000
0000
0000
0000
,
0000
0000
0000
0000
,
0000
0000
0000
0000
,
0000
0000
0000
0000
,
0000
0000
0000
0000
,
1001
0000
0000
0000
,
0001
0000
0000
0000
,
0100
0000
0000
0000
,
0010
0000
0000
0000
,
1000
0000
0000
0000
,
0001
0000
0000
0000
,
0010
0000
0000
0000
,
0100
0000
0000
0000
,
1001
0000
0000
0000
,
1000
0000
0001
0000
,
0100
0000
0000
0000
,
0001
0000
0100
0000
,
0001
0010
0000
0010
,
0000
0100
0000
0100
,
0000
0000
1000
0000
,
0001
0010
0001
0010
,
0200
0000
0000
0000
,
0300
0000
1001
0000
,
1000
0000
0100
0000
,
1000
0000
0001
0000
,
0010
0000
0001
0001
,
0001
0000
0000
1001
,
0000
0000
0010
0010
,
0100
0000
0001
0000
,
1000
0000
0100
0010
,
0100
0000
1000
0000
,
0001
0000
0100
0000
,
0001
0000
0010
0000
,
0100
0000
1000
0000
,
0010
0000
0000
0110
,
0000
0000
1000
0000
,
0001
0000
0010
0000
,
0010
0000
0200
0000
,
0300
0000
1001
0000
,
0001
0000
0100
0000
,
0010
0000
1000
0000
,
0001
0000
0010
0000
,
0000
0000
0110
0000
,
0100
0000
1000
0000
,
0001
0000
1000
0000
,
0010
0000
0100
0000
,
0000
0000
0001
0000
,
0001
0000
0001
0001
,
0001
0000
1000
0000
,
1000
0000
1000
1000
,
1000
0000
0010
0010
,
0010
0000
0100
0100
,
0100
0000
0001
0000
,
1000
0000
0200
0000
,
0000
0300
0010
0000
,
0000
0000
0001
0000
,
0000
0000
1000
0000
,
0000
0000
0010
0000
,
0000
0000
0100
0000
,
0100
0000
0001
0000
,
0001
0000
1000
0000
,
1000
0000
0000
0000
,
0000
0000
0110
0000
,
1000
0000
0001
1000
,
0001
0000
0100
0010
,
0100
0000
0010
0100
,
0010
0000
1000
0000
,
0100
0000
1000
0100
,
1000
0000
0001
0100
,
0001
0000
0100
0001
,
0100
0000
0020
0000
,
0000
0000
0030
0000
,
1001
0000
1000
0100
,
1000
0001
0010
0100
,
1000
0000
0001
0100
,
0001
1000
0010
0100
,
0001
0000
0010
0100
,
1000
0010
0100
0010
,
1000
0000
0001
0010
,
0100
0100
1000
0001
,
0200
0000
0310
1000
,
0001
0010
0001
0000
,
0100
0010
0100
0001
,
0010
0100
1000
0000
,
0001
0010
0001
0100
,
0010
1000
0100
1000
,
0010
0010
0100
0100
,
0002
0003
2000
3000
,
0001
0010
0100
0010
,
0001
0010
0100
0010
,
0100
1000
0100
0010
,
0100
1000
0001
1000
,
0010
0100
0001
0100
,
0010
0100
0001
0100
,
0010
0010
1000
1000
,
0001
0010
0100
1000
,
1001
0000
0000
0000
;

//--------------- dance-single - forcednature ----------------
#NOTEDATA:;
#STEPSTYPE:dance-single;
#DESCRIPTION:forcednature;
#CREDIT:forcednature;
#DIFFICULTY:Easy;
#METER:12;
#RADARVALUES:0,0,0,0,0;
#NOTES:
0000
0000
0000
0000
,
0000
0000
0000
0000
,
0000
0000
0000
0000
,
0000
0000
0000
0000
,
0000
0000
0000
0000
,
1001
0000
0001
0000
0100
0000
0010
1000
,
0000
0010
0000
0000
0000
0000
0000
0000
,
1001
0000
1000
0000
0100
0000
0010
0001
,
0000
0100
0000
0001
0000
0010
0100
0000
,
1001
0000
0001
0000
0100
0000
0010
1000
,
0000
0001
0000
0000
0000
0000
0000
0000
,
1001
0000
1000
0000
0100
0000
1000
0001
,
0000
0100
0000
0010
0000
1000
0001
0000
,
1001
0000
0001
0000
0010
0000
0100
1000
,
0000
0010
0000
1000
0100
0000
1000
0000
,
1001
0000
1000
0000
0010
0100
0001
0000
,
0020
0130
0020
0130
,
1000
0010
1000
0000
0001
0010
0001
0000
,
1000
0100
1000
0000
0001
0100
0001
0000
,
1000
0100
0010
0000
0001
0100
0010
0000
,
1000
0001
0010
0001
1000
0001
0100
0000
,
2002
0000
0000
0000
,
3003
0000
1010
1000
,
0001
0010
0100
0010
0000
0001
0000
1000
,
0010
0100
0001
1000
,
0100
1000
0010
1000
0000
0001
0000
0010
,
0100
1000
0010
1001
,
0001
0100
0000
0010
1000
1000
1000
0000
,
0001
0000
0010
0000
0100
0010
0100
0000
,
1000
0001
1000
0000
0010
0100
0010
0000
,
1000
0001
0011
1100
,
1000
0000
0001
0100
0000
0010
1000
0000
,
0001
0000
0000
0010
0000
0000
0001
0000
0010
0000
0000
0000
0100
0000
0000
0000
,
1000
0000
0001
0100
0000
0020
0030
2000
,
3000
0002
0003
0020
0030
0000
0110
0000
,
0100
1000
0001
1000
0010
0100
0010
0000
,
1000
0000
0001
0000
0100
0001
0100
0001
,
1000
0100
1000
0100
0020
0000
0000
0000
,
0130
0000
0100
0000
1001
0000
1000
0010
,
0000
1000
0100
0000
1000
0010
0000
1000
,
0100
0000
0010
0000
1001
0000
0001
0010
,
0000
0001
0100
0000
2010
0000
3100
0000
,
0001
0010
0001
0100
0001
0000
1000
0010
,
0000
1000
0100
0000
0010
0001
0000
0100
,
0001
0010
0110
0100
,
1000
0001
1000
0001
0200
0000
0010
0000
,
0010
0000
0310
0000
1000
0001
1000
0001
,
1000
0001
1000
0001
0010
0000
0110
0000
,
0100
1000
0010
0000
0110
0000
0100
0001
,
0010
0000
0001
0000
1000
0000
0000
0000
0010
0000
0000
0010
0000
0000
0010
0000
,
0000
0010
0000
0000
0010
0000
0000
0000
0100
0000
0000
0000
1001
0000
0000
0000
,
0001
0010
0100
1000
0001
0000
0100
0000
,
0010
1000
0001
0000
1000
0100
1000
0000
,
0001
0100
0001
0000
0020
0000
0000
0000
,
0000
0030
1001
0000
,
0000
0000
0110
0000
,
0000
0000
1001
0000
,
0000
0000
0110
0000
,
0000
0000
1000
1000
,
0100
1000
0001
0001
,
0100
0001
0010
0010
,
0100
0010
0000
0000
,
0000
0000
1001
0000
0110
0000
0001
0010
,
0001
0000
0100
0000
0010
1000
0010
0100
,
0010
1000
0010
0000
0110
0000
0100
0000
,
0001
1000
0001
0000
1000
0100
1000
0010
,
1000
0100
1000
0000
1001
0000
0001
0000
,
0010
0100
1000
0000
0010
0100
0001
0100
,
0010
0100
0001
0000
0011
0000
0100
0000
,
1000
0000
0010
0000
0000
0000
1000
0000
0100
0000
0000
0100
0000
0000
0100
0000
,
0000
0100
0000
0000
0100
0000
0000
0000
2002
0000
0000
0000
0000
0000
0000
0000
,
0000
0000
0000
0000
3003
0000
0001
0100
,
0001
0000
1000
0010
0000
1000
0100
0010
,
0001
0000
0100
0010
0000
1000
0001
0010
,
0001
0000
0100
0010
0000
1000
0100
0000
,
0110
0000
1000
0000
0001
0100
0010
0000
,
1000
0000
0001
0010
0001
0100
0010
0000
,
1000
0000
0100
0010
0100
1000
0001
0000
,
0101
0000
1100
0000
0001
0010
0100
0000
,
0010
0000
0000
0010
0000
0000
0010
0000
0000
0010
0000
0000
0010
0000
0000
0000
,
2002
0000
3003
0000
0100
0100
0100
0000
,
0001
0010
0100
0010
0001
1000
0010
0000
,
0110
0000
0100
0001
0010
0001
1000
0000
,
0010
0100
0001
1000
0100
0010
0001
0000
,
1001
0000
1000
0100
1000
0010
0100
0000
,
1001
0000
0001
0100
0001
0010
0100
0000
,
0110
0000
0010
0001
1000
0001
0100
0000
,
0020
0030
2000
3000
,
0001
0010
0001
0000
0010
0100
0010
0000
,
0100
1000
0100
0000
1000
0001
1000
0000
,
0001
0100
0001
0000
0100
0010
0100
0000
,
0010
1000
0010
0000
1000
0001
1000
0000
,
0001
0010
0100
0000
1000
0100
0010
0000
,
0001
1000
0010
0000
1000
0001
0100
0000
,
0001
1000
0100
0010
0100
1000
0001
0000
,
0100
0100
0010
0010
1000
0000
0001
0000
,
1001
0000
0000
0000
;

//--------------- dance-single - forcednature ----------------
#NOTEDATA:;
#STEPSTYPE:dance-single;
#DESCRIPTION:forcednature;
#CREDIT:forcednature;
#DIFFICULTY:Medium;
#METER:15;
#RADARVALUES:0,0,0,0,0;
#NOTES:
0000
0000
0000
0000
,
0000
0000
0000
0000
,
0000
0000
0000
0000
,
0000
0000
0000
0000
,
0000
0000
0000
0000
,
1001
0000
0001
0000
0100
0010
1000
0020
,
0030
0200
0300
0000
0000
0000
0000
0000
,
1001
0000
1000
0000
0001
0010
0001
0200
,
0300
0020
0030
2000
3000
0001
0010
0000
,
1001
0000
1000
0000
0100
0010
0001
0020
,
0030
0200
0300
0000
0000
0000
0000
0000
,
1001
0000
0001
0000
1000
0010
1000
0200
,
0300
0020
0030
0002
0003
1000
0010
0000
,
0110
0000
0100
0000
0001
0010
0100
0010
,
0000
0001
0000
0001
0100
0010
1000
0000
,
1001
0000
1000
0000
0100
0010
0001
0000
,
0201
1300
0201
1300
,
0100
0001
0011
0000
0100
1000
1010
0000
,
0100
0001
1001
0000
0100
1000
1001
0000
,
1000
0100
1000
0010
0100
0001
0010
0001
,
0100
0100
0010
0010
1000
1000
0001
0001
,
0020
0000
0000
0000
,
0030
0000
0110
1100
,
1000
0010
0100
0001
0000
0010
0100
0010
,
0001
0000
0000
1000
0000
0000
0010
0000
0100
0000
0000
0000
0101
0000
0000
0000
,
0001
0010
0001
1000
0020
0000
0001
0000
,
1000
0000
0031
0010
0100
0000
0101
0000
,
0001
0010
0100
1000
0010
0100
0110
0000
,
0001
0000
0010
0000
1000
0000
0010
0000
0001
0100
0001
0000
0100
0000
0000
0000
,
0010
1000
0001
0010
0100
0100
1000
0100
,
0010
0000
0001
0000
1000
0000
0010
1000
0010
0000
0000
0000
0110
0000
0000
0000
,
0100
0001
0010
0001
1000
0010
1000
0000
,
0001
0001
0010
0001
0100
0000
0101
0000
,
0001
0000
0010
0000
0100
0000
1000
0000
0010
0000
0000
0010
0100
0000
0000
0100
,
0001
0000
0000
0001
1000
0000
0000
1000
0000
0000
0000
0000
0110
0000
0000
0000
,
0011
0000
0001
1000
0010
0010
0010
0000
,
0100
1000
0100
0001
0010
0010
0100
0100
,
1000
1000
0001
0001
0200
0000
0000
0000
,
0310
0100
0010
0100
0010
0000
0000
0000
1001
0000
0000
0000
1000
0000
0100
0000
,
0010
1000
0010
0100
1000
0010
0100
1000
,
0100
0000
0010
0000
1000
0000
0001
1000
0001
0000
0000
0000
0001
0000
0100
0000
,
0010
1000
1010
0000
0001
0010
0110
0000
,
1000
0100
1000
0100
1000
0001
1000
0001
0010
0000
0000
0000
0001
0000
0100
0000
,
0010
0001
0010
0100
0001
0010
0100
0001
,
0100
0010
0001
1000
0010
0000
0110
0000
,
0100
0100
0001
0001
2000
0000
0100
0000
,
3010
1000
0001
0010
0100
0100
1000
1000
,
0010
0010
0001
0001
1000
0000
0110
0000
,
0001
0000
0010
0100
0010
0000
0000
0000
1100
0000
0000
0000
1100
0000
0000
0000
,
1000
0000
0010
0000
0100
0000
0100
0000
0001
0000
0100
0001
0000
0100
0001
0000
,
1000
0100
0000
1000
0100
0000
0000
0000
0010
0000
0010
0000
0010
0000
0000
0000
,
0001
0100
1000
0100
0001
0000
0010
0100
,
1000
0010
0100
0000
1000
1000
0100
0100
,
0001
0100
0001
0100
0001
0010
0001
0010
0200
0000
0000
0000
0000
0000
0000
0000
,
0000
0300
1010
0000
,
0000
0000
0101
0000
,
0000
0000
0011
0000
,
0000
0000
1100
0000
,
0000
0000
2001
0100
,
0010
3010
1002
0100
,
0010
0013
0210
0001
,
0010
0000
1300
0000
0000
0000
0100
0010
,
0100
0000
1001
0000
0110
0000
0001
0001
,
0100
0100
0001
0000
1000
1000
0100
0100
,
1000
1000
0010
0000
0100
0100
1000
1000
,
0100
0100
0001
0001
0010
0010
0010
0010
,
0100
0010
0001
0000
1001
0000
1000
1000
,
0010
0010
0100
0000
0001
0001
0010
0010
,
0001
0001
0100
0000
0010
0010
2000
0000
,
3100
0000
0020
0000
0000
0000
0031
0000
0100
0000
0000
0101
0000
0000
0011
0000
,
0000
1100
0000
0000
1010
0000
0000
0000
2002
0000
0000
0000
0000
0000
0000
0000
,
0000
0000
0000
0000
3003
0000
0001
0100
,
0010
0000
1000
0010
1000
0000
0100
0000
1000
0010
1000
0000
0100
0000
0010
0000
,
0001
0000
0010
0100
0010
0000
0001
0000
0010
0100
0010
0000
0001
0000
0001
0000
,
1000
0000
0001
0010
0001
0000
0100
0000
0001
0010
0001
0000
0100
0000
0010
1000
,
0010
0000
0000
0000
0110
0000
0000
0000
0100
0001
0100
0000
0010
0000
0000
0000
,
1000
0000
0100
0010
0100
0000
1000
0000
0010
0100
0000
0100
0001
0000
0010
0000
,
0100
0000
1000
0100
1000
0000
0010
0000
1000
0100
1000
0000
0010
0000
0100
0000
,
0001
0000
0000
0001
0010
0000
0100
0000
1000
0000
0010
0000
0001
0000
0010
0000
,
0100
0000
0000
0101
0000
0000
1100
0000
0000
1010
0000
0000
0011
0000
0000
0000
,
2002
0000
0000
0000
3003
0000
0000
0000
1000
0001
1000
0001
1000
0000
0010
0000
,
0100
0000
0100
0001
0100
0000
0010
0000
1000
0100
1000
0000
0001
0000
0010
0000
,
0110
0000
0000
0100
1000
0000
0001
0000
0100
0010
0100
0000
0001
0000
1000
0000
,
0010
0000
1000
0100
1000
0000
0001
0100
0001
0000
2002
0000
0000
0000
3003
0000
,
1000
0000
0010
0100
0010
0000
1000
0000
0001
0000
0010
0000
0110
0000
0000
0000
,
0001
0000
0010
0100
0010
0000
0001
0000
1000
0000
0010
0000
0200
0000
0000
0000
,
0301
0000
0001
0000
1000
0000
1000
0000
0001
0010
0001
0010
0100
1000
0100
1000
,
0020
0000
0000
0130
0001
1000
0200
0000
0000
0320
0000
0000
,
0031
0100
0001
0000
1000
0000
0010
0000
0100
0001
0100
0000
0010
0000
1000
0000
,
0100
1000
0100
0000
0010
0000
0001
0000
1000
0100
1000
0000
0001
0000
0010
0000
,
0100
0000
1000
0000
1010
0000
0000
0110
0000
0000
0101
0000
0000
1001
0000
0000
,
0001
0100
1000
0100
0001
0010
0001
0000
,
0100
0001
0100
0000
0001
0100
0001
0000
0100
0001
0100
0000
0001
0100
0001
0000
,
1000
0100
1000
0000
0100
1000
0100
0000
1000
0100
1000
0000
0100
1000
0100
0000
,
0010
0000
0010
0000
0001
0000
0100
0001
0100
0000
0010
0000
1000
0000
0100
0000
,
0010
0001
0010
0001
1000
0010
1000
0010
0100
0001
0100
0001
1000
0000
0000
0000
,
0110
0000
0000
0000
;

//--------------- dance-single - forcednature ----------------
#NOTEDATA:;
#STEPSTYPE:dance-single;
#DESCRIPTION:forcednature;
#CREDIT:forcednature;
#DIFFICULTY:Hard;
#METER:18;
#RADARVALUES:0,0,0,0,0;
#NOTES:
0000
0000
0000
0000
,
0000
0000
0000
0000
,
0000
0000
0000
0000
,
0000
0000
0000
0000
,
0000
0000
0000
0000
,
1001
0000
1000
0000
0100
1000
0001
0200
,
0300
0020
0030
0000
0000
0000
0000
0000
,
1001
0000
0001
0000
1000
0100
1000
0020
,
0030
0200
0300
0002
0003
0010
0100
0000
,
1001
0000
0001
0000
0100
0001
1000
0200
,
0300
0020
0030
0000
0000
0000
0000
0000
,
1001
0000
1000
0000
0100
1000
0001
0200
,
0300
0020
0030
2000
3000
0001
0010
0000
,
0110
0000
0010
0000
0100
1000
0001
0100
,
0000
0010
1000
0001
0010
0000
0100
0000
,
0110
0000
0010
0000
0001
1000
0010
0100
,
0002
0013
0102
0013
,
1000
1000
0100
1000
0001
0001
0100
0001
,
0010
0010
0001
0100
0010
0010
1000
0100
,
1000
0010
0100
0001
0010
0000
0100
1000
0001
0000
0100
0010
1000
0000
0001
0010
,
0001
0100
0001
0100
0010
1000
0010
1000
0001
0010
0100
1000
0100
0010
0001
0100
,
0020
0000
0000
0000
,
0030
0000
0000
0000
0000
0000
0000
0000
1001
0000
0000
0001
0010
0000
0100
0000
,
0010
0000
0001
0000
0100
0001
0100
0000
0010
0000
1000
0001
0010
0000
0100
0000
,
1000
0001
0000
0001
0100
0000
0010
0000
1001
0000
0000
1000
0100
0000
0010
0000
,
0100
1000
0001
0000
0100
0000
0010
0000
1010
0000
0100
0000
0011
0000
0100
0000
,
1001
0000
0000
0001
0100
0000
0020
0000
0000
0000
1030
0100
0001
0000
0100
1000
,
0100
0000
0010
0000
0001
0000
1000
0000
1010
0000
1010
0000
0010
0100
0001
0000
,
0010
0000
0100
1000
0001
0000
0001
1000
0010
0100
1000
0000
1100
0000
0000
0000
,
0100
0001
0010
0001
0101
0100
0110
0010
,
1000
0100
0000
1000
0010
0100
0001
0010
0001
0000
0010
0100
1000
0000
0001
1000
,
0010
0000
0100
0000
1000
0000
0100
0000
0001
0000
0010
0000
0001
0100
0000
0100
,
0010
0000
2010
0000
0000
0000
3100
0000
0110
0000
0000
0010
0001
0000
0100
0001
,
1000
0000
0010
0000
0001
0010
0100
0010
2000
0000
0100
0000
3001
1000
0010
0000
,
0100
0000
0000
0100
0001
0000
0010
0000
0100
1000
0010
1000
0001
0000
0010
0001
,
0010
0000
0100
0000
1000
0000
1000
0001
0100
0000
0100
0000
0100
0010
1000
0001
,
0010
0100
0000
0010
0001
0000
0100
0000
1010
0000
0010
0000
1100
0000
1000
0000
,
0011
0010
0101
0001
2002
0000
3000
0000
,
1003
0100
0001
0100
0010
0000
0000
0000
0001
0000
0100
0001
0100
0000
0010
0000
,
0001
0010
0001
0000
0010
0000
0100
0001
0100
0000
0010
0000
0001
0010
1000
0000
,
0001
1000
0100
0010
0001
0000
0100
0001
1000
0000
0100
1000
0100
0000
0010
0000
,
1000
0010
1000
0010
0100
0000
1000
0010
1000
0000
0100
0000
1000
0010
0001
0000
,
0010
1000
0100
1000
0010
1000
0100
0010
0001
0000
0100
0001
0100
0000
0010
0000
,
0001
0010
0000
0010
1000
0000
0100
0000
0110
0000
0010
0001
0100
0000
0010
0000
,
1000
0010
0001
0000
0010
1000
0100
0000
0110
0000
0000
0000
0010
0001
0100
0000
,
0101
0000
0101
0000
0001
1000
0010
0000
0100
0000
0001
0000
1000
0100
0010
0000
,
0100
0000
1000
0000
0001
0100
0010
0000
1010
0000
1000
0000
1100
0000
0100
0000
,
0011
0001
0101
0100
0110
0000
1001
0001
,
0100
0000
0010
1000
0001
0000
0000
0000
0010
0000
0100
1000
0010
0000
0100
0000
,
0001
0000
0001
0000
0001
0100
0010
1000
0001
0010
0000
0100
0010
0000
1000
0010
,
0000
0100
1000
0001
0010
0000
0000
0000
0001
0100
0010
1000
0001
0000
0010
0000
,
0100
0000
0010
0001
0100
0000
0010
0000
1010
0000
1000
0000
0001
0010
0100
1000
,
0010
0000
0100
1000
0100
0000
0001
0000
0011
0000
1000
0000
1010
0000
0001
0000
,
1000
0100
0010
0001
0100
0010
1000
0001
0020
0000
0000
0000
1000
0000
0000
0000
,
0100
0031
0202
0303
,
0000
0000
2200
3300
,
0000
0000
0022
0033
,
0000
0000
2020
3030
,
0000
0000
1200
1300
,
0010
0010
0201
0301
,
0010
0010
0120
0130
,
1001
0000
0020
0000
0030
0000
1000
0001
,
0010
0000
0100
1000
0010
0000
0000
0000
0100
0000
1000
0100
0001
0000
1000
0000
,
0100
1000
0100
0010
0200
0000
0000
0000
0310
0001
0100
0001
0010
0001
1000
0000
,
0010
0000
0100
0001
0010
0001
1000
0000
0100
0000
0100
0000
0010
0001
0100
0001
,
0010
0100
1000
0010
0200
0000
0000
0000
1300
0000
0100
0001
0100
0000
0010
0000
,
0100
0001
0010
0001
2000
0000
0000
0000
3100
0000
0010
0001
0010
0000
0001
0100
,
0001
0010
0001
0100
0002
0000
0000
0000
1003
0100
1000
0000
0010
0100
0001
0100
,
0010
0000
1000
0100
0020
0000
0000
0000
0130
1000
0001
1000
0010
0000
0100
0001
,
0010
0000
0200
0000
0000
0000
0301
0000
0100
1000
0000
0001
0010
0000
0001
0100
,
0000
1000
0100
0000
0110
0000
0000
0000
2002
0000
0000
0000
0000
0000
0000
0000
,
0000
0000
0000
0000
0000
0000
0000
0000
3003
0000
0000
0000
1000
0100
0010
0001
,
0100
0000
0010
1000
0001
0000
0010
0000
0100
0010
0001
0000
1000
0010
0100
0001
,
1000
0000
0001
0010
0100
0000
1000
0000
0001
0100
0010
0000
1000
0100
1000
0010
,
1000
0000
0001
0100
0010
0000
1000
0000
0001
0010
0100
0000
0010
0000
0010
0001
,
0100
0000
0010
1000
0001
0000
0010
0000
0100
1000
0010
0000
0220
0000
0330
0000
,
1001
0000
0001
0100
0010
0000
1000
0000
0001
0010
0100
0010
1000
0000
0010
0001
,
1000
0000
0010
0100
1000
0000
0100
0000
0001
0010
0100
0000
0001
0100
1000
0000
,
0010
0000
0000
0010
1000
0000
0001
0000
0010
0000
0100
0000
0010
0000
0000
0000
,
0001
0100
0000
1000
0100
0000
0010
0001
0000
0010
1000
0000
1001
0000
0000
0000
,
0102
0000
0000
0000
0000
0000
0000
0000
1003
0100
0010
0100
0001
0000
0001
0100
,
1000
0000
1010
0000
1001
0000
0001
0000
0010
0100
1000
0000
0001
0100
0010
1000
,
0001
0000
1000
0010
0001
0000
0010
0000
0100
0001
1000
0000
0100
1000
0001
0000
,
0100
0001
0100
0001
1000
0000
0100
0000
0110
0000
1001
0000
0010
0000
0000
0000
,
1001
0000
0001
1000
0100
0000
0001
0000
0100
1000
0010
0000
0200
0000
0300
0000
,
1001
0000
1000
0001
0100
0000
1000
0000
0100
0001
0010
0100
1000
0010
0100
0000
,
0001
0000
0011
0000
0010
0000
0110
0000
0100
1000
0010
1000
0001
0100
0001
0010
,
0200
0000
0000
0000
0300
0000
1000
0010
0100
0001
0100
0010
2000
0000
0000
0000
0000
0000
0001
0000
0000
0000
0000
0000
,
3100
1000
0010
0000
0100
0001
0010
0000
0100
1000
0010
0000
0100
0001
0010
0001
,
1000
0000
0000
0010
0000
0000
1000
0000
0000
0100
0000
0000
1000
0000
0000
0000
0000
0000
0010
0000
0000
0100
0000
0000
0001
0000
0000
0000
0000
0000
1000
0000
0100
0000
0010
0000
0001
0000
0000
0000
0000
0000
0100
0000
0000
0000
0000
0000
,
0010
0000
1000
0001
0010
0000
0000
0110
0000
0000
1100
0000
0000
0101
0000
0000
,
1000
0001
0100
0010
1000
0000
0001
0010
0100
0000
0010
0001
1000
0000
0000
0000
,
0001
0100
0010
1000
0001
0100
0010
1000
0001
0100
0010
1000
0001
0100
0010
1000
,
0001
0010
0100
1000
0001
0010
0100
1000
0001
0010
0100
1000
0100
0010
0001
1000
,
0010
0100
0010
1000
0010
0100
0001
1000
0100
0000
0110
0000
0100
0000
0010
0001
,
1000
0010
1000
0010
0100
0001
0100
0001
1000
0100
0010
0001
0010
0100
1000
0001
,
0100
0000
0000
0000
;

//--------------- dance-double - forcednature ----------------
#NOTEDATA:;
#STEPSTYPE:dance-double;
#DESCRIPTION:forcednature;
#CREDIT:forcednature;
#DIFFICULTY:Easy;
#METER:12;
#RADARVALUES:0,0,0,0,0;
#NOTES:
00000000
00000000
00000000
00000000
,
00000000
00000000
00000000
00000000
,
00000000
00000000
00000000
00000000
,
00000000
00000000
00000000
00000000
,
00000000
00000000
00000000
00000000
,
00011000
00000000
00010000
00000000
00000100
00000000
00001000
00000010
,
00000000
00001000
00000000
00000000
00000000
00000000
00000000
00000000
,
00001100
00000000
00000100
00000000
00000010
00000000
00000001
00000100
,
00000000
00000010
00000000
00000100
00000000
00000001
00001000
00000000
,
00000100
00000000
00010000
00000000
00001000
00000000
01000000
00010000
,
00000000
01000000
00000000
00000000
00000000
00000000
00000000
00000000
,
00100000
00000000
10000000
00000000
01000000
00000000
10000000
00010000
,
00000000
01000000
00000000
00001000
00000000
00010000
00000100
00000000
,
00000010
00000000
00000010
00000000
00000001
00000000
00000100
00000001
,
00000000
00000010
00000000
00000100
00010000
00000000
00001000
00000000
,
00011000
00000000
01000000
00000000
00010000
00100000
01000000
00000000
,
20000000
30010000
20000000
30010000
,
10000000
00010000
01000000
00000000
00001000
00010000
00000100
00000000
,
00001000
00000001
00000100
00000000
00000001
00001000
00000100
00000000
,
00010000
00001000
00100000
00000000
00001000
00010000
00000010
00000000
,
00010000
00001000
01000000
00001000
00010000
00001000
00100000
00000000
,
02200000
00000000
00000000
00000000
,
03300000
00000000
10000000
01000000
,
00100000
00010000
00100000
00001000
00000000
00010000
00000000
00000010
,
00001000
00000100
00000010
00000001
,
00000100
00000001
00000010
00000001
00000000
00001000
00000000
00000010
,
00010000
00001000
00100000
01100000
,
01000000
10000000
00000000
00010000
01000000
01000000
01000000
00000000
,
00001000
00000000
00010000
00000000
00000100
00001000
00000100
00000000
,
00000010
00000001
00000010
00000000
00000001
00000100
00000001
00000000
,
00000010
00000100
00010100
00101000
,
00100000
00000000
00010000
01000000
00000000
00100000
10000000
00000000
,
01000000
00000000
00000000
10000000
00000000
00000000
01000000
00000000
10000000
00000000
00000000
00000000
00010000
00000000
00000000
00000000
,
01000000
00000000
00001000
00010000
00000000
00000200
00000300
00002000
,
00003000
00000002
00000003
00000200
00000300
00000000
00000110
00000000
,
00000010
00010000
00000000
00001000
00100000
00010000
00100000
00000000
,
01000000
00000000
10000000
00000000
00010000
01000000
00010000
01000000
,
00001000
00010000
00001000
00010000
00000200
00000000
00000000
00000000
,
00000320
00000000
00000030
00000000
00001001
00000000
00001000
00000010
,
00000000
00001000
00000100
00000000
00010000
00001000
00000000
01000000
,
00010000
00000000
00100000
00000000
10010000
00000000
00010000
00100000
,
00000000
00010000
01000000
00000000
00012000
00000000
00103000
00000000
,
00001000
00010000
00000010
00010000
00001000
00000000
00000010
00000100
,
00000000
00001000
00000100
00000000
00010000
00001000
00000000
01000000
,
00010000
00100000
01100000
01000000
,
10000000
00010000
10000000
00010000
02000000
00000000
10000000
00000000
,
10000000
00000000
13000000
00000000
01000000
00010000
01000000
00001000
,
01000000
00010000
01000000
00001000
00010000
00000000
00000100
00000000
,
00001000
00000010
00000100
00000000
00000110
00000000
00000010
00001000
,
00000001
00000000
00001000
00000000
00000100
00000000
00000000
00000000
00000010
00000000
00000000
00000010
00000000
00000000
00000010
00000000
,
00000000
00000010
00000000
00000000
00000010
00000000
00000000
00000000
00000001
00000000
00000000
00000000
00001001
00000000
00000000
00000000
,
00001000
00000010
00001000
00000100
00010000
00000000
00001000
00000000
,
01000000
00010000
00100000
00000000
01000000
10000000
01000000
00000000
,
00100000
00010000
00100000
00000000
00002000
00000000
00000000
00000000
,
00000000
00003000
00011000
00000000
,
00000000
00000000
00000010
00000000
,
00000000
00000000
00001000
00000000
,
00000000
00000000
00000001
00000000
,
00000000
00000000
00000010
00000010
,
00000100
00010000
00001000
00001000
,
00100000
01000000
10000000
10000000
,
00100000
01000000
00000000
00000000
,
00000000
00000000
00001000
00000000
00011000
00000000
00010000
00000100
,
00010000
00000000
00000100
00000000
00001000
00000010
00001000
00000001
,
00001000
00000010
00001000
00000000
00001100
00000000
00000100
00000000
,
00000010
00000001
00000010
00000000
00000100
00010000
00001000
00010000
,
00000100
00010000
00001000
00000000
00011000
00000000
00001000
00000000
,
01000000
00010000
01000000
00000000
00100000
10000000
00010000
10000000
,
00100000
10000000
00010000
00000000
11000000
00000000
01000000
00000000
,
00100000
00000000
00001000
00000000
00000000
00000000
00010000
00000000
00000010
00000000
00000000
00000010
00000000
00000000
00000010
00000000
,
00000000
00000010
00000000
00000000
00000010
00000000
00000000
00000000
00002002
00000000
00000000
00000000
00000000
00000000
00000000
00000000
,
00000000
00000000
00000000
00000000
00003003
00000000
00001000
00000100
,
00001000
00000000
00000010
00010000
00000000
00001000
00100000
00010000
,
00100000
00000000
01000000
10000000
00000000
00010000
01000000
00001000
,
01000000
00000000
00010000
00100000
00000000
00001000
00010000
00000000
,
00011000
00000000
00001000
00000000
00010000
00000010
00001000
00000000
,
00000100
00000000
00000010
00000100
00001000
00000010
00001000
00000000
,
00000001
00000000
00000010
00000100
00000010
00000001
00000100
00000000
,
00000110
00000000
00001010
00000000
00010000
00001000
01000000
00000000
,
00100000
00000000
00000000
00100000
00000000
00000000
00100000
00000000
00000000
00100000
00000000
00000000
00100000
00000000
00000000
00000000
,
20020000
00000000
30030000
00000000
10000000
10000000
10000000
00000000
,
01000000
00100000
00010000
00100000
01000000
00000000
00010000
00000000
,
00011000
00000000
00001000
00000000
00010000
00000100
00001000
00000000
,
00000010
00000100
00000001
00000100
00000010
00000000
00001000
00000000
,
00001001
00000000
00000001
00000010
00000100
00000010
00000001
00000000
,
00001001
00000000
00001000
00000010
00010000
00001000
00010000
00000000
,
00011000
00000000
00001000
00100000
00010000
00100000
01000000
00000000
,
20000000
30000000
00020000
00030000
,
01000000
00010000
01000000
00000000
00001000
00010000
00001000
00000000
,
00010000
00000100
00010000
00000000
00000100
00001000
00000100
00000000
,
00000010
00000001
00000010
00000000
00000001
00000100
00000001
00000000
,
00000100
00001000
00000100
00000000
00001000
00010000
00001000
00000000
,
01000000
00010000
00100000
00000000
01000000
10000000
00100000
00000000
,
01000000
00001000
00010000
00000000
00000100
00010000
00001000
00000000
,
00000010
00000100
00001000
00000100
00000010
00000001
00001000
00000000
,
00000010
00000010
00010000
00010000
00001000
00000000
00100000
00000000
,
10010000
00000000
00000000
00000000
;

//--------------- dance-double - forcednature ----------------
#NOTEDATA:;
#STEPSTYPE:dance-double;
#DESCRIPTION:forcednature;
#CREDIT:forcednature;
#DIFFICULTY:Medium;
#METER:15;
#RADARVALUES:0,0,0,0,0;
#NOTES:
00000000
00000000
00000000
00000000
,
00000000
00000000
00000000
00000000
,
00000000
00000000
00000000
00000000
,
00000000
00000000
00000000
00000000
,
00000000
00000000
00000000
00000000
,
00011000
00000000
01000000
00000000
00010000
00100000
01000000
00200000
,
00300000
00002000
00003000
00000000
00000000
00000000
00000000
00000000
,
00011000
00000000
00010000
00000000
00100000
01000000
00100000
20000000
,
30000000
00020000
00030000
00200000
00300000
01000000
00100000
00000000
,
00011000
00000000
00000100
00000000
00001000
00000010
00000100
00000020
,
00000030
00020000
00030000
00000000
00000000
00000000
00000000
00000000
,
00011000
00000000
00001000
00000000
00000010
00000100
00000010
00000002
,
00000003
00002000
00003000
00000020
00000030
00000100
00000010
00000000
,
00001001
00000000
00001000
00000000
00000100
00010000
00000010
00010000
,
00000000
00001000
00000000
00001000
00100000
00010000
01000000
00000000
,
01100000
00000000
00100000
00000000
10000000
01000000
00010000
00000000
,
00012000
00003010
00012000
00003010
,
00001000
00010000
00101000
00000000
00010000
00001000
00010010
00000000
,
00001000
00010000
01001000
00000000
00010000
00001000
00010100
00000000
,
00000100
00001000
00000010
00010000
00001000
00100000
00010000
01000000
,
00100000
00100000
10000000
10000000
01000000
01000000
00010000
00010000
,
00002000
00000000
00000000
00000000
,
00003000
00000000
00000110
00001001
,
00000001
00000010
00000100
00000010
00000000
00000100
00010000
00001000
,
00100000
00000000
00000000
01000000
00000000
00000000
00100000
00000000
00001000
00000000
00000000
00000000
00011000
00000000
00000000
00000000
,
00010000
00100000
01000000
00100000
20000000
00000000
01000000
00000000
,
00010000
00000000
30100000
10000000
01000000
00000000
01100000
00000000
,
00100000
00001000
00010000
00000010
00001000
00000100
00000110
00000000
,
00000010
00000000
00001000
00000000
00000010
00000000
00000001
00000000
00000100
00000001
00000100
00000000
00000010
00000000
00000000
00000000
,
00000100
00001000
00010000
00100000
01000000
01000000
10000000
01000000
,
00010000
00000000
00100000
00000000
01000000
00000000
10000000
01000000
10000000
00000000
00000000
00000000
10010000
00000000
00000000
00000000
,
00010000
00100000
01000000
00100000
00001000
00010000
00000010
00000000
,
00000100
00000100
00001000
00000100
00000001
00000000
00000011
00000000
,
00000010
00000000
00000100
00000000
00010000
00000000
00001000
00000000
01000000
00000000
00000000
01000000
00010000
00000000
00000000
00010000
,
00100000
00000000
00000000
00100000
01000000
00000000
00000000
01000000
00000000
00000000
00000000
00000000
10010000
00000000
00000000
00000000
,
01001000
00000000
00001000
00010000
00000100
00000100
00000100
00000000
,
00001000
00000010
00000001
00000010
00000100
00000100
00000001
00000001
,
00000010
00000010
00000100
00000100
00020000
00000000
00000000
00000000
,
00030010
00001000
00000010
00001000
00000010
00000000
00000000
00000000
00011000
00000000
00000000
00000000
00010000
00000000
00100000
00000000
,
01000000
00100000
10000000
00010000
00100000
01000000
00100000
00001000
,
00010000
00000000
00000010
00000000
00001000
00000000
00000100
00001000
00000100
00000000
00000000
00000000
00000010
00000000
00001000
00000000
,
00000010
00000001
00000101
00000000
00000010
00001000
00001100
00000000
,
00010000
00001000
00010000
00001000
01000000
00010000
01000000
00010000
00100000
00000000
00000000
00000000
01000000
00000000
10000000
00000000
,
01000000
00010000
00001000
00000010
00000100
00010000
00001000
00000100
,
00000001
00000010
00000100
00010000
00001000
00000000
01001000
00000000
,
01000000
01000000
00010000
00010000
20000000
00000000
01000000
00000000
,
30100000
10000000
00010000
00100000
01000000
01000000
00010000
00010000
,
00001000
00001000
00000010
00000010
00000100
00000000
00001001
00000000
,
00000001
00000000
00000010
00000001
00000010
00000000
00000000
00000000
00001100
00000000
00000000
00000000
00010100
00000000
00000000
00000000
,
00010000
00000000
00001000
00000000
01000000
00000000
01000000
00000000
00010000
00000000
00100000
00001000
00000000
00100000
00001000
00000000
,
00010000
00000010
00000000
00010000
00000010
00000000
00000000
00000000
00001000
00000000
00001000
00000000
00001000
00000000
00000000
00000000
,
00000010
00000100
00001000
00000100
00000010
00000000
00010000
00001000
,
00100000
01000000
00100000
00000000
00010000
00010000
01000000
01000000
,
00001000
00010000
00001000
00010000
00000100
00010000
00000100
00010000
00000020
00000000
00000000
00000000
00000000
00000000
00000000
00000000
,
00000000
00000030
00001001
00000000
,
00000000
00000000
00011000
00000000
,
00000000
00000000
10010000
00000000
,
00000000
00000000
00011000
00000000
,
00000000
00000000
00000200
00001000
,
00000010
00001300
02000000
00010000
,
00100000
03010000
00000200
00001000
,
00000010
00000000
00001300
00000000
00000000
00000000
00010000
00001000
,
00010000
00000000
00100000
00000000
01100000
00000000
01000000
01000000
,
00010000
00010000
00100000
00000000
00001000
00001000
00010000
00010000
,
00000100
00000100
00001000
00000000
00000010
00000010
00000001
00000001
,
00000010
00000010
00001000
00001000
00000100
00000100
00000100
00000100
,
00010000
00001000
00100000
00000000
01100000
00000000
01000000
01000000
,
10000000
10000000
00100000
00000000
01000000
01000000
00001000
00001000
,
00010000
00010000
00000010
00000000
00000100
00000100
00002000
00000000
,
00003100
00000000
00000002
00000000
00000000
00000000
00000013
00000000
00000100
00000000
00000000
00010000
00000000
00000000
00001000
00000000
,
00000000
00100000
00000000
00000000
01000000
00000000
00000000
00000000
20020000
00000000
00000000
00000000
00000000
00000000
00000000
00000000
,
00000000
00000000
00000000
00000000
30030000
00000000
10000000
01000000
,
00010000
00000000
00001000
00010000
00001000
00000000
00100000
00000000
00001000
00010000
00001000
00000000
00010000
00000000
00000010
00000000
,
00001000
00000000
00000100
00000010
00000100
00000000
00001000
00000000
00000100
00000010
00000100
00000000
00001000
00000000
00001000
00000000
,
00000001
00000000
00001000
00000010
00001000
00000000
00000100
00000000
00001000
00000010
00001000
00000000
00000100
00000000
00010000
00001000
,
00010000
00000000
00000000
00000000
01001000
00000000
00000000
00000000
01000000
00010000
01000000
00000000
00100000
00000000
00000000
00000000
,
10000000
00000000
01000000
00100000
01000000
00000000
10000000
00000000
00010000
01000000
00000000
01000000
00001000
00000000
00010000
00000000
,
00000100
00000000
00001000
00000100
00001000
00000000
00000010
00000000
00001000
00000100
00001000
00000000
00000001
00000000
00000100
00000000
,
00000010
00000000
00000000
00000010
00010000
00000000
00001000
00000000
00100000
00000000
01000000
00000000
00100000
00000000
00001000
00000000
,
00010000
00000000
00000000
00100000
00000000
00000000
10000000
00000000
00000000
01000000
00000000
00000000
00010000
00000000
00000000
00000000
,
00022000
00000000
00000000
00000000
00033000
00000000
00000000
00000000
00000100
00001000
00000100
00001000
00000100
00000000
00000010
00000000
,
00000001
00000000
00000001
00000100
00000001
00000000
00001000
00000000
00000010
00010000
00000010
00000000
00001000
00000000
00010000
00000000
,
01000000
00000000
00000000
01000000
00100000
00000000
10000000
00000000
01000000
00100000
01000000
00000000
00100000
00000000
00001000
00000000
,
00010000
00000000
00000100
00001000
00000100
00000000
00000010
00000001
00000010
00000000
00000200
00000000
00000000
00000000
00000300
00000000
,
00010000
00000000
00001000
01000000
00001000
00000000
00010000
00000000
00100000
00000000
10000000
00000000
01000000
00000000
00000000
00000000
,
00010000
00000000
00001000
00010000
00001000
00000000
00010000
00000000
00000100
00000000
00001000
00000000
00000020
00000000
00000000
00000000
,
00000130
00000000
00000100
00000000
00000001
00000000
00000001
00000000
00000010
00000100
00000010
00000100
00001000
00000100
00001000
00000100
,
00020000
00000000
00000000
00031000
01000000
00010000
02000000
00000000
00000000
03200000
00000000
00000000
,
10300000
01000000
10000000
00000000
00010000
00000000
01000000
00000000
00001000
00010000
00001000
00000000
00000010
00000000
00000100
00000000
,
00001000
00000100
00001000
00000000
00000001
00000000
00000100
00000000
00000010
00001000
00000010
00000000
00010000
00000000
00001000
00000000
,
00100000
00000000
00010000
00000000
01000000
00000000
00000000
00100000
00000000
00000000
00010000
00000000
00000000
00001000
00000000
00000000
,
00000010
00000100
00000001
00000100
00001000
00000010
00001000
00000000
,
00010000
01000000
00010000
00000000
01000000
00010000
01000000
00000000
00010000
01000000
00010000
00000000
01000000
00010000
01000000
00000000
,
00001000
00010000
00001000
00000000
00010000
00001000
00010000
00000000
00001000
00010000
00001000
00000000
00010000
00001000
00010000
00000000
,
00000100
00000000
00000100
00000000
00001000
00000000
00000010
00001000
00000010
00000000
00000100
00000000
00000001
00000000
00000010
00000000
,
00000100
00001000
00000100
00001000
00000100
00010000
00000100
00010000
00001000
01000000
00001000
01000000
00010000
00000000
00000000
00000000
,
10010000
00000000
00000000
00000000
;

//--------------- dance-double - forcednature ----------------
#NOTEDATA:;
#STEPSTYPE:dance-double;
#DESCRIPTION:forcednature;
#CREDIT:forcednature;
#DIFFICULTY:Hard;
#METER:18;
#RADARVALUES:0,0,0,0,0;
#NOTES:
00000000
00000000
00000000
00000000
,
00000000
00000000
00000000
00000000
,
00000000
00000000
00000000
00000000
,
00000000
00000000
00000000
00000000
,
00000000
00000000
00000000
00000000
,
00011000
00000000
00001000
00000000
01000000
00010000
00100000
00002000
,
00003000
00020000
00030000
00000000
00000000
00000000
00000000
00000000
,
00011000
00000000
00010000
00000000
00000010
00001000
00000010
00000200
,
00000300
00000002
00000003
00000020
00000030
00000100
00010000
00000000
,
00011000
00000000
00001000
00000000
01000000
00010000
10000000
02000000
,
03000000
00200000
00300000
00000000
00000000
00000000
00000000
00000000
,
00011000
00000000
00000100
00000000
00001000
00000001
00000100
00000020
,
00000030
00020000
00030000
00002000
00003000
00100000
01000000
00000000
,
01100000
00000000
00100000
00000000
00001000
00010000
00000010
00010000
,
00000000
00001000
00000010
00000100
00000010
00000000
00000001
00000000
,
00001001
00000000
00001000
00000000
00000010
00010000
00001000
00010000
,
02000000
03100000
12000000
03100000
,
01000000
01000000
00010000
00001000
00000100
00000100
00001000
00010000
,
00100000
00100000
00010000
00001000
00000010
00000010
00001000
00010000
,
00000100
00001000
00000100
00010000
00001000
00000000
01000000
00010000
01000000
00000000
00100000
10000000
00010000
00000000
00100000
01000000
,
00100000
00010000
00100000
00010000
00100000
00001000
00100000
00001000
00010000
00000010
00001000
00000010
00000100
00000001
00000010
00000100
,
00002000
00000000
00000000
00000000
,
00003000
00000000
00000000
00000000
00000000
00000000
00000000
00000000
00010010
00000000
00000000
00000010
00001000
00000000
00010000
00000000
,
01000000
00000000
00010000
00000000
00100000
00010000
00100000
00000000
01000000
00000000
10000000
00010000
01000000
00000000
00001000
00000000
,
00010000
00000100
00000000
00000100
00001000
00000000
00000010
00000000
00000110
00000000
00000000
00000100
00000001
00000000
00000010
00000000
,
00000001
00001000
00000010
00000000
00010000
00000000
00001000
00000000
00000100
00000000
00010000
00000000
01000000
00000000
00001000
00000000
,
00010000
00000000
00000000
00010000
00000100
00000000
00002000
00000000
00003000
00000000
00000010
00000100
00001000
00000000
00010000
00001000
,
00010000
00000000
00100000
00000000
01000000
00000000
10000000
00000000
11000000
00000000
11000000
00000000
01000000
00100000
00001000
00000000
,
00010000
00000000
00000100
00001000
00000010
00000000
00000010
00000100
00000001
00001000
00000100
00000000
00000110
00000000
00000000
00000000
,
00000010
00001000
00010000
00001000
01001000
01000000
01010000
00010000
,
00100000
01000000
00000000
00100000
00010000
01000000
00001000
00010000
00001000
00000000
00010000
00000100
00001000
00000000
00000010
00001000
,
00000001
00000000
00000010
00000000
00000100
00000000
00000010
00000000
00001000
00000000
00010000
00000000
00001000
01000000
00000000
01000000
,
00010000
00000000
00210000
00000000
00000000
00000000
01300000
00000000
11000000
00000000
00000000
10000000
00100000
00000000
01000000
00001000
,
00010000
00000000
00000100
00000000
00010000
00000010
00001000
00000010
00000200
00000000
00001000
00000000
00000310
00000100
00000001
00000000
,
00000010
00000000
00000000
00000010
00000100
00000000
00010000
00000000
00001000
00100000
00001000
01000000
00010000
00000000
00100000
01000000
,
00100000
00000000
00001000
00000000
00010000
00000000
00010000
00000010
00001000
00000000
00001000
00000000
00001000
00000100
00000010
00000001
,
00000100
00000001
00000000
00000010
00000001
00000000
00000100
00000000
00000010
00000000
00010000
00000000
00100000
00000000
10000000
00000000
,
01000000
00010000
00000100
00001000
00002002
00000000
00003000
00000000
,
00000013
00001000
00000010
00000001
00000010
00000000
00000000
00000000
00000100
00000000
00010000
00001000
00010000
00000000
00000010
00000000
,
00010000
00001000
00010000
00000000
00100000
00000000
00010000
00001000
00010000
00000000
01000000
00000000
00010000
00001000
00100000
00000000
,
00010000
01000000
00001000
00100000
00010000
00000000
01000000
00010000
10000000
00000000
01000000
00010000
01000000
00000000
00010000
00000000
,
00001000
00010000
00001000
00010000
00000010
00000000
00001000
00000100
00001000
00000000
00000010
00000000
00000001
00000010
00001000
00000000
,
00000100
00010000
00001000
00010000
00000010
00010000
00001000
00010000
00000100
00000000
00001000
00000010
00001000
00000000
00000100
00000000
,
00010000
00001000
00000000
00001000
01000000
00000000
00100000
00000000
01100000
00000000
01000000
00010000
00100000
00000000
01000000
00000000
,
10000000
00010000
00100000
00000000
01000000
00010000
00001000
00000000
00000010
00000000
00000100
00000000
00000010
00000001
00001000
00000000
,
00001010
00000000
00001010
00000000
00000010
00010000
00001000
00000000
00100000
00000000
01000000
00000000
00100000
00001000
00010000
00000000
,
00100000
00000000
10000000
00000000
01000000
00010000
00001000
00000000
00000010
00000000
00000100
00000000
00010000
00000000
01000000
00000000
,
00100000
00001000
00000010
00000001
00001001
00000000
00001000
00000010
,
00010000
00000000
00001000
00100000
00010000
00000000
00000000
00000000
01000000
00000000
10000000
01000000
00010000
00000000
00100000
00000000
,
00001000
00000000
00001000
00000000
00001000
00010000
00000100
00010000
00000010
00001000
00000000
00000100
00000001
00000000
00000100
00001000
,
00000000
00000010
00010000
00001000
01000000
00000000
00000000
00000000
00100000
00010000
00100000
10000000
00100000
00000000
01000000
00000000
,
00001000
00000000
00010000
00000100
00001000
00000000
00000010
00000000
00000110
00000000
00000100
00000000
00000001
00000010
00000100
00000010
,
00000001
00000000
00000100
00001000
00010000
00000000
00001000
00000000
00100000
00000000
10000000
00000000
00100000
00000000
00001000
00000000
,
00010000
00100000
01000000
00100000
10000000
00010000
10000000
01000000
00020000
00000000
00000000
00000000
00001000
00000000
00000000
00000000
,
00000100
00030010
00020200
00030300
,
00000000
00000000
02002000
03003000
,
00000000
00000000
00020020
00030030
,
00000000
00000000
00202000
00303000
,
00000000
00000000
01002000
00013000
,
00100000
00100000
00020100
00031000
,
00000010
00000010
00012000
00103000
,
00010000
00000000
00020000
00000000
00030000
00000000
00000100
00001000
,
00000100
00000000
00000010
00000001
00001000
00000000
00000000
00000000
00000010
00000000
00000100
00001000
00000100
00000000
00000010
00000000
,
00001000
00000010
00010000
00001000
00020000
00000000
00000000
00000000
00130000
01000000
10000000
01000000
00100000
01000000
00010000
00000000
,
00100000
00000000
00001000
00010000
00000010
00001000
00000010
00000000
00000100
00000000
00000100
00000000
00000001
00000010
00000100
00000010
,
00000001
00000100
00000010
00001000
00000020
00000000
00000000
00000000
00010030
00000000
00001000
00100000
00001000
00000000
00010000
00000000
,
00100000
01000000
00100000
10000000
00020000
00000000
00000000
00000000
00130000
00000000
01000000
10000000
01000000
00000000
00010000
00001000
,
00010000
00000100
00010000
00000010
00020000
00000000
00000000
00000000
00030100
00001000
00000100
00000000
00000010
00000001
00000100
00000001
,
00000010
00000000
00000100
00010000
00002000
00000000
00000000
00000000
01003000
00010000
00100000
00010000
10000000
00000000
01000000
00010000
,
00001000
00000000
00200000
00000000
00000000
00000000
00310000
00000000
00100000
01000000
00000000
00010000
00001000
00000000
00000100
00000010
,
00000000
00010000
00001000
00000000
00000010
00000000
00000000
00000000
00002002
00000000
00000000
00000000
00000000
00000000
00000000
00000000
,
00000000
00000000
00000000
00000000
00000000
00000000
00000000
00000000
00003003
00000000
00000000
00000000
00000001
00000010
00000100
00001000
,
00000010
00000000
00010000
00001000
00100000
00000000
01000000
00000000
00100000
00001000
00010000
00000000
00100000
10000000
00010000
10000000
,
01000000
00000000
00100000
00001000
00010000
00000000
00000100
00000000
00010000
00001000
00000010
00000000
00000100
00001000
00000010
00001000
,
00000001
00000000
00000010
00000100
00010000
00000000
00001000
00000000
00010000
00000100
00000010
00000000
00000001
00000000
00000001
00000100
,
00001000
00000000
00010000
00000010
00001000
00000000
00010000
00000000
01000000
00010000
00100000
00000000
02200000
00000000
03300000
00000000
,
10010000
00000000
10000000
01000000
00100000
00000000
00001000
00000000
00010000
00100000
01000000
00100000
10000000
00000000
10000000
01000000
,
00010000
00000000
01000000
00100000
00001000
00000000
00010000
00000000
00000010
00000100
00001000
00000000
00001000
00000100
00000001
00000000
,
00000010
00000000
00000000
00000010
00000100
00000000
00010000
00000000
00001000
00000000
01000000
00000000
00001000
00000000
00000000
00000000
,
00010000
00100000
00000000
00010000
00001000
00000000
00000010
00001000
00000000
00010000
00001000
00000000
00011000
00000000
00000000
00000000
,
02001000
00000000
00000000
00000000
00000000
00000000
00000000
00000000
13000000
01000000
00100000
01000000
00010000
00000000
00010000
00100000
,
01000000
00000000
00010000
00000000
00000100
00000000
00001000
00000000
00000010
00000100
00001000
00000000
00000100
00000001
00001000
00000001
,
00000010
00000000
00000100
00010000
00001000
00000000
00000010
00000000
00001000
00010000
00000100
00000000
00001000
00000010
00010000
00000000
,
00001000
01000000
00001000
01000000
00100000
00000000
00010000
00000000
00001000
00000000
00000100
00000000
00000020
00000000
00000000
00000000
,
00001030
00000000
00000001
00000100
00001000
00000000
00010000
00000000
00001000
00010000
00100000
00000000
20000000
00000000
30000000
00000000
,
00010000
00000000
10000000
01000000
00010000
00000000
00001000
00000000
00010000
00001000
00000010
00000100
00000010
00000001
00001000
00000000
,
00000010
00000000
00000100
00000000
00001000
00000000
01000000
00000000
00010000
10000000
00010000
00100000
01000000
00100000
00001000
00010000
,
00000020
00000000
00000000
00000000
00000030
00000000
00001000
00000100
00000010
00000001
00000010
00000100
00002000
00000000
00000000
00000000
00000000
00000000
00000010
00000000
00000000
00000000
00000000
00000000
,
00003001
00001000
00000100
00000000
00000010
00000100
00010000
00000000
00001000
01000000
00100000
00000000
00010000
00100000
01000000
00100000
,
10000000
00000000
00000000
00010000
00000000
00000000
10000000
00000000
00000000
01000000
00000000
00000000
00100000
00000000
00000000
00000000
00000000
00000000
00001000
00000000
00000000
00010000
00000000
00000000
00000100
00000000
00000000
00000000
00000000
00000000
00000010
00000000
00000001
00000000
00001000
00000000
00000010
00000000
00000000
00000000
00000000
00000000
00000100
00000000
00000000
00000000
00000000
00000000
,
00001000
00000000
00010000
01000000
00100000
00000000
00000000
00101000
00000000
00000000
00011000
00000000
00000000
00010010
00000000
00000000
,
00000010
00001000
00000001
00001000
00000100
00000000
00000010
00000100
00001000
00000000
00000100
00010000
00001000
00000000
00000000
00000000
,
01000000
00001000
00100000
00010000
01000000
00001000
00100000
00010000
01000000
00001000
00100000
00010000
01000000
00001000
00100000
00010000
,
00001000
00000100
00010000
00000010
00001000
00000100
00010000
00000010
00001000
00000100
00010000
00000010
00010000
00000100
00001000
00000001
,
00000100
00000010
00000100
00000001
00000100
00000010
00001000
00000010
00010000
00000000
00010000
00000000
00100000
00000000
00100000
01000000
,
00010000
00100000
00010000
00100000
00001000
00010000
00001000
00010000
00000010
00001000
00000100
00010000
00001000
01000000
00010000
00100000
,
01000000
00000000
00000000
00000000
;
