#VERSION:0.83;
#TITLE:Empire of Fury;
#SUBTITLE:;
#ARTIST:kors k;
#TITLETRANSLIT:;
#SUBTITLETRANSLIT:;
#ARTISTTRANSLIT:;
#GENRE:JUNGLE TERROR;
#CREDIT:;
#MUSIC:Empire of Fury.ogg;
#BANNER:Empire of Fury.png;
#BACKGROUND:Empire of Fury-bg.png;
#CDTITLE:./CDTitles/bm IIDX 28 BISTROVER.png;
#SAMPLESTART:74.134;
#SAMPLELENGTH:15.000;
#SELECTABLE:YES;
#OFFSET:1.142;
#BPMS:0.000=204.000;
#STOPS:;
#TIMESIGNATURES:0.000=4=4;
#BGCHANGES:0.000=Empire of Fury.mp4=1.000=0=0=0=StretchNoLoop====,
99999.000=-nosongbg-=1.000=0=0=0=StretchNoLoop====
;
#FGCHANGES:;

//--------------- dance-single - forcednature ----------------
#NOTEDATA:;
#STEPSTYPE:dance-single;
#DESCRIPTION:forcednature;
#DIFFICULTY:Beginner;
#METER:5;
#RADARVALUES:0,0,0,0,0;
#CREDIT:forcednature;
#NOTES:
0000
0000
0000
0000
,
0000
0000
0000
0000
,
0000
0000
0000
0000
,
0000
0000
0000
0000
,
0000
0000
0000
0000
,
0000
0000
0000
0000
,
0000
0000
0000
0000
,
0000
0000
0000
0000
,
0000
0000
0000
0000
,
0001
0000
0001
0000
,
1000
0000
1000
0000
,
0001
0000
0001
0000
,
1000
0000
1000
0000
,
0010
0000
0100
0000
,
0010
0000
0100
0000
,
0001
0000
1000
0000
,
0100
0000
0000
0000
,
0110
0000
0000
0000
,
1000
0000
0000
0000
,
0001
0000
0000
0000
,
0100
0000
0010
0000
,
1001
0000
0000
0000
,
0001
0000
0000
0000
,
0010
0000
0000
0000
,
0100
0000
1000
0000
,
1001
0000
0001
0000
,
0000
0000
0001
0000
,
1000
0000
1000
0000
,
0000
0000
1000
0000
,
0010
0000
0010
0000
,
0000
0000
0010
0000
,
0100
0000
0001
0000
,
1000
0000
0100
0000
,
0010
0000
0000
0110
,
0000
1000
0000
0000
,
0000
0001
0000
0001
,
0000
0100
0000
0010
,
0000
1000
0000
1001
,
0000
0001
0000
0000
,
0000
0010
0000
0100
,
0000
1000
0000
0010
,
0010
0000
0100
0001
,
0000
1000
0000
0000
,
0000
0100
0000
0010
,
0000
0001
0000
0100
,
0000
0010
0000
1001
,
0000
0001
0000
0000
,
0010
0000
0010
0000
,
0100
0000
1000
0000
,
0010
0000
0000
0000
,
0100
0000
0000
0000
,
0001
0000
0000
0000
,
1000
0000
0000
0000
,
0100
0000
0000
0000
,
0010
0000
0000
0000
,
0001
0000
0000
0000
,
1000
0000
0000
0000
,
0001
0000
0100
0000
,
0001
0000
0010
0000
,
0100
0000
1000
0000
,
0010
0000
1000
0000
,
0100
0000
0010
0000
,
0001
0000
1000
0000
,
0010
0000
0010
0000
,
0100
0000
0000
0000
,
0001
0000
0001
0000
,
1000
0000
1000
0000
,
0001
0000
1000
0000
,
0001
1000
0001
0000
,
0100
0000
0010
0000
,
0100
0000
0010
0000
,
0010
0000
0100
0000
,
0010
0100
0010
0000
,
1000
0000
0001
0000
,
1000
0000
0001
0000
,
0001
0000
1000
0000
,
0001
1000
0001
0000
,
0010
0000
0100
0000
,
0010
0000
0100
0000
,
1001
0000
0000
0000
,
0100
0000
0000
0000
,
0010
0000
0010
1000
,
0010
0000
0010
1000
,
0010
0000
0010
1000
,
0010
0000
0100
0000
,
0001
0000
0001
0010
,
0001
0000
0001
0010
,
0001
0000
0001
0010
,
0001
0000
0001
0000
,
0100
0000
0100
0001
,
0100
0000
0100
0001
,
0100
0000
0100
0001
,
0100
0000
0010
0000
,
1000
0000
0100
1000
,
0100
0000
0100
1000
,
0100
0000
0100
1000
,
0100
0000
0010
0000
,
1001
0000
0000
0000
;

//--------------- dance-single - forcednature ----------------
#NOTEDATA:;
#STEPSTYPE:dance-single;
#DESCRIPTION:forcednature;
#DIFFICULTY:Easy;
#METER:9;
#RADARVALUES:0,0,0,0,0;
#CREDIT:forcednature;
#NOTES:
0000
0000
0000
0000
,
0000
0000
0000
0000
,
0000
0000
0000
0000
,
0000
0000
0000
0000
,
0000
0000
0000
0000
,
0000
0000
0000
0000
,
0000
0000
0000
0000
,
0000
0000
0000
0000
,
0000
0000
0000
0000
,
1001
0000
0001
0000
,
0100
0000
0100
0000
,
0010
0000
0010
0000
,
1000
0000
1000
0000
,
0001
0010
0001
0100
,
0010
1000
0100
1000
,
0010
0010
0100
0100
,
0001
0000
0000
1000
0000
1000
0000
1000
,
0100
0000
0000
0010
0000
0000
0010
0000
,
0001
0000
0000
0100
0000
0000
0100
0000
,
0010
0000
0000
1000
0000
0000
1000
0000
,
0100
0010
0001
1000
,
0010
0000
0000
0100
0000
0000
0100
0000
,
0001
0000
0000
0010
0000
0000
0010
0000
,
0100
0000
0000
1000
0000
0000
1000
0000
,
0001
0100
0001
0010
,
0110
0000
0000
0100
0000
0000
1000
0000
,
0000
0001
0100
0000
,
0010
0000
0000
0100
0000
0000
0001
0000
,
0000
1000
0100
0010
,
0100
0000
0000
1000
0000
0000
0001
0000
,
0000
0100
0010
0000
,
1001
0000
1000
0000
,
0100
0010
0001
0100
,
0010
0000
1000
1001
,
0000
0001
0010
0100
,
1000
0100
0010
0001
,
1000
0010
0100
0001
,
0010
0100
0000
1000
,
0001
0100
0010
1000
,
0001
0010
0001
0100
,
0010
1000
0001
0010
,
0110
0000
0000
1000
0000
0000
1001
0000
,
0000
0001
0100
0000
0010
0000
1000
0000
,
0001
0010
0001
0100
,
0010
1000
0001
0010
,
0110
0000
0100
1000
,
0001
0100
1000
0100
,
0010
1000
0100
1000
,
0001
0010
0001
0100
,
0010
0000
0000
0010
0000
0000
0010
0000
,
1000
0001
1000
0100
,
0010
0000
0000
0010
0000
0000
0010
0000
,
0001
1000
0001
0100
,
0010
0000
0000
0010
0000
0000
0010
0000
,
1000
0001
1000
0100
,
0010
0000
0000
0010
0000
0000
0010
0000
,
0001
0100
0010
1000
,
0001
0000
0000
0001
0010
0000
0001
0000
,
1000
0000
0000
1000
0010
0000
1000
0000
,
0001
0000
0000
0001
0100
0000
0001
0000
,
1000
0000
0000
1000
0100
0000
1000
0000
,
0010
0010
0100
0100
,
0001
0001
1000
1000
,
0100
0010
0100
0010
,
0001
0000
0000
0001
0000
0001
0000
0001
,
0100
0001
0101
0001
,
1001
0001
0011
0001
,
1100
1000
1001
1000
,
1010
0101
1010
0000
,
1100
1000
1001
1000
,
1010
1000
1001
1000
,
0101
0001
1001
0001
,
0010
0000
0000
0100
0000
0000
0010
0000
0100
0000
0000
0000
0000
0000
0000
0000
,
1001
0001
1001
1000
,
0110
0010
0110
0100
,
0101
0001
1100
1000
,
0110
1001
0110
0000
,
0011
0001
1010
1000
,
0101
0001
1100
1000
,
0010
0100
0001
1000
,
0100
0000
0000
0010
0000
0010
0000
0010
,
0001
0100
0010
0110
,
1000
0100
0010
0110
,
0001
0100
0010
1000
,
2000
0000
3001
1001
,
0001
0100
0010
1010
,
1000
0100
0010
0011
,
0001
0100
0010
1000
,
0002
0000
0013
0110
,
0100
0000
1000
0000
0100
0010
0100
0000
,
1000
0000
0001
0000
0100
0010
0100
0000
,
0001
0000
1000
0000
0100
0010
0100
0000
,
1000
0001
0100
1001
,
0001
0000
0010
0000
0100
1000
0100
0000
,
1000
0000
0010
0000
0100
0001
0100
0000
,
0001
0000
0010
0000
0100
1000
0100
0000
,
0010
0001
1000
0010
,
0220
0000
0000
0000
,
0000
0000
0000
0000
,
0330
0000
0000
0000
;

//--------------- dance-single - forcednature ----------------
#NOTEDATA:;
#STEPSTYPE:dance-single;
#DESCRIPTION:forcednature;
#DIFFICULTY:Medium;
#METER:13;
#RADARVALUES:0,0,0,0,0;
#CREDIT:forcednature;
#NOTES:
0000
0000
0000
0000
,
0000
0000
0000
0000
,
0000
0000
0000
0000
,
0000
0000
0000
0000
,
0000
0000
0000
0000
,
0000
0000
0000
0000
,
0000
0000
0000
0000
,
0000
0000
0000
0000
,
0000
0000
0000
0000
,
1001
0000
1000
0000
,
0001
0000
0001
0000
,
0100
0000
0100
0000
,
0010
0000
0010
0000
,
1000
0100
1000
0010
,
0100
0001
0010
0001
,
1000
0100
1000
0000
0001
0100
0001
0000
,
0010
0100
0000
1000
0000
1000
0000
1000
,
0001
0000
0000
0100
0001
0000
0010
0000
,
1100
0000
0001
0100
0010
0000
1000
0000
,
0011
0000
1000
0100
0010
0000
0001
0000
,
1010
0000
0001
0100
0010
0000
1000
0000
,
0110
0000
0000
0001
0010
0000
0100
0000
,
1100
0000
0001
1000
0010
0000
0100
0000
,
0101
0000
1000
0100
0010
0000
0100
0000
,
1000
1000
0001
0100
0010
0000
0110
0000
,
1001
0000
0000
0001
0010
0000
1100
0000
,
0000
0011
1100
0000
,
1001
0000
0000
1000
0010
0000
0101
0000
,
1000
0010
1000
0000
0101
0000
0010
0000
,
1001
0000
0001
0010
0100
0000
1100
0000
,
0010
0101
1100
0010
,
1001
0000
1000
0100
0000
0010
0001
0000
,
0200
0320
2030
3001
,
0020
0000
0130
0110
,
0000
0100
1000
0000
0001
0010
0001
0000
,
0100
0010
1000
0000
0001
0010
0000
0100
,
1000
0000
0001
0100
1000
0000
0100
0000
,
0110
0000
0001
1000
0010
1000
0100
0000
,
0010
0001
0100
0000
0001
0000
0010
0100
,
1000
0000
0001
0100
0000
1000
0100
0000
,
0010
1000
0001
1000
0100
0000
0110
0000
,
2002
0000
3003
0110
,
0001
0100
1000
0000
0100
0010
1000
0001
,
0010
0000
0100
1000
0000
0100
0001
0000
,
0100
0010
0000
0001
1000
0000
0010
0000
,
0220
0000
0330
1001
,
0001
0010
0100
0000
1000
0001
0100
0001
,
0020
0230
2300
3002
,
0103
0010
1000
0001
0010
0000
0110
0000
,
1002
0000
0100
0000
,
1000
1000
0010
0000
,
2003
0000
0100
0000
,
0001
0001
0010
0000
,
3002
0000
0010
0000
,
1000
1000
0100
0000
,
2003
3200
0320
0032
,
0003
0200
0320
2030
,
3001
0000
1000
0100
0000
0010
0001
0000
,
0100
0010
0000
1000
0000
0001
0010
0000
,
0100
0000
1000
0001
0000
0100
0010
0000
,
1000
0100
0000
1000
0000
0010
0100
0000
,
0001
0001
0010
0010
,
0100
0100
1000
1000
,
0001
0100
0001
0100
0010
1000
0010
1000
,
0100
0000
0010
0001
0000
0001
0000
0001
,
1000
0000
0010
0000
0100
0000
0001
0000
0100
0000
0010
0000
,
1000
0001
1000
0001
1000
0001
1000
0000
0100
0000
0010
0000
,
1000
0000
0010
0000
0001
0000
1000
0000
0010
0000
0001
0000
,
0010
0101
1100
0110
,
1000
0000
0100
0000
0010
0000
0001
0000
0010
0000
0100
0000
,
1000
0001
1000
0001
1000
0001
1000
0000
0001
0000
0100
0000
,
1000
0000
0100
0000
0001
0000
1000
0000
0100
0000
0001
0000
,
0100
0000
0000
0010
0000
0000
0100
0000
0010
0000
0000
0000
0110
0000
0000
0000
,
0001
0000
1000
0000
0100
0000
1000
0000
0001
0000
0100
0000
,
0010
1000
0001
0100
0010
1000
0001
0000
0010
0000
0100
0000
,
1000
0000
0001
0000
0010
0000
0001
0000
1000
0000
0010
0000
,
0100
0101
1100
0110
,
1000
0000
0001
0000
0100
0000
0001
0000
1000
0000
0100
0000
,
0010
0001
1000
0001
0010
0100
1000
0000
0010
0000
0100
0000
,
0002
0023
0230
2300
,
3010
0000
0100
0001
0000
0001
0010
0001
,
0100
0000
0010
1000
0001
1000
0100
0000
,
0010
0000
0010
0001
1000
0001
0100
0000
,
0010
0000
0010
1000
0001
1000
0100
0010
,
0002
0100
1003
1010
,
0101
0000
0001
1000
0001
0010
0100
0000
,
0100
0000
1000
0001
1000
0010
0100
0000
,
0100
0000
0001
1000
0001
0010
0100
0100
,
2000
0010
3001
1010
,
0001
0100
0001
0010
0100
1000
0010
0000
,
0100
0001
1000
0100
0010
0001
0100
0000
,
0010
1000
0001
0010
0100
1000
0010
0100
,
0002
1000
0103
0011
,
0001
1000
0010
0100
0001
1000
0100
0000
,
0010
0001
1000
0010
0100
0001
1000
0000
,
0100
0010
0001
0100
0010
0100
0001
0001
,
2000
0100
3010
1001
,
0220
0000
0000
0000
,
0000
0000
0000
0000
,
0330
0000
0000
0000
;

//--------------- dance-single - forcednature ----------------
#NOTEDATA:;
#STEPSTYPE:dance-single;
#DESCRIPTION:forcednature;
#DIFFICULTY:Hard;
#METER:15;
#RADARVALUES:0,0,0,0,0;
#CREDIT:forcednature;
#NOTES:
0000
0000
0000
0000
,
0000
0000
0000
0000
,
0000
0000
0000
0000
,
0000
0000
0000
0000
,
0000
0000
0000
0000
,
0000
0000
0000
0000
,
0000
0000
0000
0000
,
0000
0000
0000
0000
,
0000
0000
0000
0000
,
1001
0000
1000
0100
0000
0010
0001
0000
,
1001
0000
0001
0100
0000
0010
1000
0000
,
1100
0000
0001
0010
0000
0001
1000
0000
,
0101
0000
1000
0010
0000
1000
0001
0000
,
0010
0000
0010
0100
1000
0000
1000
0010
,
0100
0000
0100
0001
0010
0000
0010
0100
,
1000
0010
1000
0100
0010
0001
0100
0001
,
1000
0100
1000
0000
0010
0000
0100
0000
0000
0000
0100
0000
0000
0000
0100
0000
,
0102
0000
0000
0013
0100
0100
1000
0100
,
0100
0001
0100
0100
1000
0010
0010
0001
,
0010
0010
0100
0001
0001
0010
1000
1000
,
0010
0100
1000
0010
0100
0001
1000
0100
,
0120
0000
0000
0031
0100
0100
1000
0100
,
0100
0010
1000
1000
0100
0001
0001
1000
,
0010
0010
0001
0100
0100
0010
1000
0001
,
1000
0100
0010
0001
1000
0000
0010
0000
0100
0000
0000
0000
0110
0000
0000
0000
,
1001
0000
0001
0100
1100
0000
0101
0000
,
0010
0110
1001
0010
,
1001
0000
1000
0100
0101
0000
1100
0000
,
0001
0010
0001
0000
0100
0000
0000
0000
0101
0000
0000
0000
1010
0000
0000
0000
,
1001
0000
0001
0100
1100
0000
0110
0000
,
0001
1100
0101
0010
,
2001
0000
3200
0320
0000
0032
0203
0000
,
0320
2030
3002
0013
,
1001
0000
0000
1000
0000
0000
0001
0000
0100
0000
1000
0000
0100
0000
0000
0000
,
0010
1000
1000
0100
0010
0100
1000
0001
,
0100
0010
0001
0010
1000
0001
0010
1000
,
0010
0000
0100
1000
0010
0000
0110
0000
,
1001
0000
0000
0000
1000
0000
0100
0000
0010
0000
0001
1000
0001
0000
0000
0000
,
1000
0010
0010
0100
1000
0100
0001
0010
,
0100
0001
1000
0010
0001
1000
0010
0001
,
0010
0100
0001
0010
0100
0000
0110
0000
,
1001
0000
0000
0000
1000
0000
0100
0000
0000
0010
0000
0000
0011
0000
0000
0000
,
0001
0100
0100
1000
0100
0010
1000
0001
,
0010
0100
0001
0100
1000
0001
0100
1000
,
0100
0010
1000
0001
0010
0100
1000
0000
,
0110
0000
0001
0100
1000
0000
0110
0000
,
1000
0001
0001
0100
0010
0100
1000
0001
,
0010
0100
1000
0100
0001
1000
0100
0001
,
0200
0320
0032
1003
,
1001
0000
0001
0100
0000
0001
0010
0000
,
0100
1000
0000
0010
0000
0100
0001
0000
,
1001
0000
1000
0100
0000
1000
0010
0000
,
0100
0001
0000
0010
0000
0100
0010
0001
,
1000
0000
0010
0100
0000
0001
0010
0000
,
0100
1000
0000
0001
0000
0100
0010
0000
,
1000
0001
0010
0001
0000
0100
0010
0000
,
1000
0100
0010
0001
0100
0010
1000
0000
,
0011
0000
0001
0100
1000
0100
0001
0000
,
1000
0010
1000
0100
0001
0100
1000
0000
,
0101
0000
0001
0010
1000
0010
0001
0000
,
1000
0100
1000
0010
0001
0010
1000
0000
,
1100
0000
1000
0010
0100
0000
0001
0010
,
0100
0000
1000
0001
0100
0000
0001
1000
,
0100
0010
0001
1000
0010
0100
0001
1000
,
0001
0010
0001
0000
0100
0000
0010
0000
0000
0000
0010
0000
0000
0000
0010
0000
,
1010
0000
1000
0000
0001
0000
0101
0000
0001
0000
1000
0000
,
0001
0010
0100
1000
0100
0010
0001
0000
1000
0000
0100
0000
,
0011
0000
1000
0000
0100
0000
1010
0000
0001
0000
0100
0000
,
0010
0000
1000
0100
1000
0000
0001
0100
0001
0000
0010
0100
1000
0000
0000
0000
,
0011
0000
0001
0000
1000
0000
1100
0000
1000
0000
0001
0000
,
0100
0010
1000
0001
0010
0100
1000
0000
0010
0000
0100
0000
,
0011
0000
1000
0000
0100
0000
1010
0000
0001
0000
0100
0000
,
0110
0000
0000
0010
0000
0000
0100
0000
0110
0000
0000
0000
1001
0000
0000
0000
,
0101
0000
0001
0000
0010
0000
1100
0000
1000
0000
0010
0000
,
0100
0001
1000
0001
0010
0100
1000
0000
0010
0000
0100
0000
,
0110
0000
0001
0000
1000
0000
0110
0000
1000
0000
0001
0000
,
0100
0000
0001
0010
0001
0000
1000
0010
1000
0000
0001
0010
0100
0000
0000
0000
,
1100
0000
1000
0000
0001
0000
0101
0000
0001
0000
1000
0000
,
0100
0010
0001
0100
0010
0100
0001
0000
1000
0000
0010
0000
,
0210
0302
2003
3200
,
1300
0010
1000
0000
0001
0000
0010
0000
0000
0000
0010
0000
0100
0000
0010
0000
,
0001
1000
0010
0100
0001
1000
1100
0000
,
0001
1000
0100
0010
0001
0100
0101
0000
,
1000
0000
0010
0000
1000
0000
0100
0000
0010
0000
0001
0000
1000
0100
1000
0100
,
2000
0010
3100
1001
,
0001
0100
1000
0100
0010
1000
1010
0000
,
1000
0100
0001
0100
1000
0001
0011
0000
,
0010
0000
0100
0000
1000
0000
0010
0000
0100
0000
0001
0000
1000
0100
1000
0100
,
0020
0000
0032
0000
0103
0010
1010
0000
,
0001
0010
0001
0100
1000
0100
0110
0010
,
1000
0001
0010
0100
1000
0010
0110
0100
,
0001
0000
1000
0000
0100
0000
0010
0000
0001
0000
1000
0000
0001
0100
0001
0100
,
0002
0010
0103
1001
,
1000
0100
0001
0100
0010
0001
0101
0100
,
0010
1000
0001
0010
0100
1000
1010
0010
,
0100
0000
1000
0000
0100
0000
0001
0000
0010
0000
0100
0000
1000
0001
0100
0010
,
2000
0100
3001
1010
,
0202
0000
0000
0000
,
0000
0000
0000
0000
,
0303
0000
0000
0000
;

//--------------- dance-single - ----------------
#NOTEDATA:;
#STEPSTYPE:dance-single;
#DESCRIPTION:forcednature;
#CREDIT:forcednature;
#DIFFICULTY:Challenge;
#METER:17;
#RADARVALUES:0,0,0,0,0;
#NOTES:
0000
0000
0000
0000
,
0000
0000
0000
0000
,
0000
0000
0000
0000
,
0000
0000
0000
0000
,
0000
0000
0000
0000
,
0000
0000
0000
0000
,
0000
0000
0000
0000
,
0000
0000
0000
0000
,
0000
0000
0000
0000
,
1001
0000
1100
0000
,
1001
0000
0101
0000
,
1001
0000
1010
0000
,
1001
0000
0011
0000
,
1001
0000
1000
0100
0001
0000
0001
0100
,
1000
0000
0001
0010
1000
0000
1000
0010
,
0001
0000
0100
0000
0001
0000
0100
0000
0010
1000
0010
1000
0010
1000
0010
1000
,
0001
0010
0100
0000
1000
0000
0020
0000
0030
0000
0020
0000
0030
0000
0010
0000
,
1002
0000
0000
1003
0100
0001
0100
1000
,
0001
0000
0010
0100
1000
0000
0010
0000
1000
0100
0010
0000
0001
0000
0100
0010
,
1000
0000
0100
0000
1000
0010
0100
0000
0001
0000
0010
0100
1000
0000
0010
0000
,
1000
0100
0010
0000
0001
0000
0100
0000
0110
0000
0000
0000
1000
0000
0001
0000
,
2001
0000
0000
3001
0100
1000
0100
0001
,
1000
0000
0010
0100
0001
0000
0010
0000
0001
0100
0010
0000
1000
0000
0100
0010
,
0001
0000
0100
0000
0001
0010
0100
0000
1000
0000
0010
0100
0001
0000
0010
0000
,
0001
0100
0010
1000
0001
0000
0100
0000
0110
0000
0000
0000
1001
0000
0000
0000
,
1100
0000
0000
0011
0011
0000
1100
0000
,
0001
0010
0011
0000
1001
0000
MMMM
0000
,
0101
0000
0000
1010
1010
0000
0101
0000
,
1000
0010
1000
0010
0100
0000
0000
0000
1001
0000
0000
0000
0110
0000
0000
0000
,
1001
0000
0000
0110
1001
0000
0110
0000
,
1000
0001
1001
0000
0110
0000
MMMM
0000
,
1200
0320
0032
0203
,
0320
2030
3002
0013
,
2002
0000
0000
0000
0000
0000
0000
0000
3003
0000
1000
0100
0010
0000
0100
0000
,
1000
0000
0001
0100
0001
0000
1000
0000
0010
0000
0100
0010
0100
0000
0010
0100
,
0001
0000
0010
0000
0001
1000
0100
0000
0010
0000
0100
1000
0001
0000
0100
0000
,
0010
1000
0010
0000
0100
0000
0001
0000
0010
0000
0010
0000
0011
0000
0000
0000
,
0001
1000
0001
0000
0200
0000
0000
0000
0310
0000
0000
0000
1001
0000
1000
0010
,
1000
0000
0100
0000
0100
1000
0100
0000
0010
0000
0001
1000
0001
0000
0100
0001
,
0100
0001
0100
0000
0010
0000
1000
0100
0010
0000
0001
0000
0010
0100
1000
0000
,
0001
0000
0010
0001
0100
0000
0001
0000
1000
0000
0000
0000
1010
0000
0000
0000
,
0102
0000
0000
0000
0023
0000
0000
0230
0000
0000
1300
0000
1100
0000
0001
0010
,
0001
0000
0100
0000
0010
1000
0001
0000
0010
0000
0100
0010
0001
0000
0100
0010
,
1000
0010
1000
0000
0001
0000
0010
0001
0100
0000
0010
0000
1000
0100
0010
0000
,
0100
0000
1000
0001
0100
0000
0001
1000
0020
0000
0000
0000
0130
0000
0000
0000
,
1001
0000
1000
0100
0110
0000
1001
0000
,
0001
0000
0010
0001
0010
0000
0100
0000
0010
0000
0001
1000
0010
0000
1000
0001
,
0100
0000
0010
0000
1000
0100
0010
0000
0100
0000
1000
0001
0100
0000
0010
0000
,
1000
0100
1000
0000
0001
0100
0001
0000
0020
0000
0000
0000
0130
0000
0000
0000
,
2001
0000
0100
0100
0000
0001
0001
0000
,
0010
0100
0010
3000
,
0002
0000
0100
0100
0000
1000
1000
0000
,
0010
0100
0010
0003
,
2000
0000
0010
0010
0000
0001
0001
0000
,
0100
0010
0100
3000
,
0002
0000
0010
0010
0000
1000
1000
0000
,
0103
0110
0010
0110
,
1001
0000
1000
0100
0000
0001
0100
0000
,
1001
0000
0001
0010
1000
0010
0001
0000
,
1001
0000
1000
0010
0000
0001
0010
0000
,
1001
0000
0001
0100
1000
0100
0001
0000
,
1000
0000
1000
0100
0001
0000
0001
0100
,
1000
0000
0001
0010
1000
0000
1000
0010
,
0001
0100
0001
0100
0010
1000
0010
0010
,
1000
0100
0010
0000
0001
0000
0200
0000
0300
0000
0200
0000
0300
0000
0100
0000
,
1001
0000
0011
0000
0110
0000
1100
0000
0110
0000
0011
0000
,
0001
0100
1000
0100
0001
1000
0010
0000
0110
0000
0101
0000
,
2010
0000
3001
0000
0100
0000
0012
0000
1003
0000
0100
0000
,
1000
0010
0100
0010
1000
0001
0100
0001
1000
0100
0010
0001
1000
0000
0000
0000
,
1001
0000
1010
0000
0110
0000
0101
0000
0110
0000
1010
0000
,
1000
0100
0001
0100
1000
0001
0010
0000
0110
0000
1100
0000
,
0012
0000
1003
0000
0100
0000
2010
0000
3001
0000
0100
0000
,
0001
0010
0100
0010
0001
1000
0100
1000
0001
0100
0010
1000
0001
0000
0000
0000
,
1001
0000
1100
0000
1010
0000
0101
0000
0011
0000
0101
0000
,
0100
0010
0001
0010
0100
0001
1000
0000
1100
0000
1001
0000
,
0012
0000
0103
0000
0010
0000
2100
0000
3010
0000
0100
0000
,
0001
0010
0100
1000
0100
0010
0001
1000
0010
0100
0001
1000
0010
0000
0000
0000
,
0101
0000
0011
0000
1100
0000
1010
0000
0101
0000
0011
0000
,
0001
0100
1000
0001
0010
1000
0001
0000
0011
0000
0110
0000
,
2100
3020
0230
0302
,
0013
0100
1000
0000
0010
0000
0200
0000
0300
0000
0100
0000
1001
0000
0000
0000
,
0110
0000
0001
1000
0100
0000
1000
0001
0010
0000
0100
0000
0110
0000
0001
0000
,
1000
0000
0010
0100
0001
0000
0010
0100
1000
0000
0001
0000
0101
0000
1000
0000
,
0001
0000
0010
0100
1000
0000
0010
0100
0001
0000
0010
0000
0100
1000
0100
1000
,
0002
0100
0013
1001
,
1100
0000
1000
0001
0100
0000
0001
1000
0010
0000
0100
0000
0110
0000
1000
0000
,
0001
0000
0010
0100
1000
0000
0010
0100
0001
0000
1000
0000
1100
0000
0001
0000
,
1000
0000
0010
0100
0001
0000
0010
0100
1000
0000
0010
0000
0100
0001
0100
0001
,
2000
0000
0100
0100
3001
0000
0110
0000
,
0001
0010
0100
0010
0001
0000
1000
0010
0100
0000
0001
0000
0010
0100
1000
0000
,
0001
0100
0010
0100
0001
0000
1000
0100
0001
0000
0100
0000
1100
0000
0001
0000
,
1000
0010
0100
0010
1000
0000
0001
0010
0100
0000
1000
0000
0010
0100
0010
0100
,
0002
0000
0010
0010
1003
0000
1100
0000
,
0001
0010
0001
0100
0010
0000
1000
0001
0100
0000
0010
0000
1000
0001
0010
0000
,
0100
1000
0010
0100
0001
0000
0010
0001
0100
0000
0010
0000
0100
0001
0010
0000
,
0100
1000
0001
1000
0100
0000
0010
0001
1000
0000
0010
0000
0100
0001
0100
0001
,
2000
3020
0032
0023
0230
0302
2003
3000
,
0220
0000
0000
0000
,
0000
0000
0000
0000
,
0330
0000
0000
0000
;

//--------------- dance-double - forcednature ----------------
#NOTEDATA:;
#STEPSTYPE:dance-double;
#DESCRIPTION:forcednature;
#DIFFICULTY:Easy;
#METER:9;
#RADARVALUES:0,0,0,0,0;
#CREDIT:forcednature;
#NOTES:
00000000
00000000
00000000
00000000
,
00000000
00000000
00000000
00000000
,
00000000
00000000
00000000
00000000
,
00000000
00000000
00000000
00000000
,
00000000
00000000
00000000
00000000
,
00000000
00000000
00000000
00000000
,
00000000
00000000
00000000
00000000
,
00000000
00000000
00000000
00000000
,
00000000
00000000
00000000
00000000
,
00001000
00000000
00001000
00000000
,
00010000
00000000
00010000
00000000
,
00000100
00000000
00000100
00000000
,
00001000
00000000
00001000
00000000
,
00000001
00000100
00000001
00000100
,
00000010
00001000
00000010
00010000
,
00001000
00001000
00100000
00100000
,
02000000
00000000
00000000
03000000
,
02200000
00000000
03300000
00000000
,
00010000
01000000
00010000
01000000
,
00001000
00010000
00001000
00010000
,
00000100
00001000
00000100
00001000
,
00000020
00000000
00000030
00000000
,
00000100
00000001
00000100
00000001
,
00001000
00000100
00001000
00000100
,
00010000
00010000
00001000
00010000
,
00100000
00000000
00000000
01000000
00000000
00000000
00100000
00000000
,
00000000
10000000
00010000
00000000
,
00100000
00000000
00000000
01000000
00000000
00000000
00100000
00000000
,
00000000
00001000
00010000
00000010
,
00001000
00000000
00000000
00000100
00000000
00000000
00001000
00000000
,
00000000
00000001
00000100
00000000
,
00000020
00002030
00003200
00020300
,
00032000
02003000
03020000
00130000
,
02200000
00000000
03300000
10010000
,
00000000
00010000
00000000
00000000
01000000
00000000
00001000
00000000
,
00010000
00000000
00000100
00000000
00000000
00001000
00000000
00000000
,
00000100
00000000
00000000
00000010
00000000
00000000
00000001
00000000
,
00001001
00000000
00000001
00000100
,
00000010
00001000
00000100
00010000
,
00001000
00000000
01000000
00000000
00000000
00010000
00000000
00000000
,
00100000
01000000
10000000
00100000
,
02200000
00000000
03300000
10010000
,
00000000
00010000
00000000
00000000
01000000
00000000
00001000
00000000
,
00010000
00000000
00000100
00000000
00000000
00001000
00000000
00000000
,
00000010
00000000
00000000
00001000
00000000
00000000
00000001
00000000
,
00001001
00000000
00000100
00000110
,
00000000
00000001
00000010
00000100
,
00002000
00003020
00020030
00032000
,
00203000
00320000
02030000
03000000
,
00200000
00000000
00000000
00000000
,
10300000
00000000
10000000
00000000
,
02000000
00000000
00000000
00000000
,
03100000
00000000
00100000
00000000
,
00002000
00000000
00000000
00000000
,
00013000
00000000
00010000
00000000
,
00000020
00000000
00000000
00000000
,
00001030
00000000
00001000
00000000
,
00000011
00000000
00000001
00000000
,
00000100
00000000
00000100
00000000
,
00001000
00000000
00001000
00000000
,
00010000
00000000
00010000
00000000
,
00100000
01000000
00100000
01000000
,
00010000
10000000
00010000
10000000
,
01000000
00100000
01000000
00100000
,
00002000
00000000
00000000
00003000
,
00011000
00010000
00000100
00001000
,
00000010
00000100
00000001
00000010
,
00000110
00000000
00001001
00000000
,
00000110
00001001
00000110
00000000
,
00000100
00010000
00001000
01000000
,
00010000
00100000
01000000
10000000
,
01100000
00000000
10010000
00000000
,
01100000
10010000
01100000
00000000
,
00010000
01000000
00001000
00010000
,
00000100
00001000
00000010
00000100
,
00000110
00000000
00001001
00000000
,
00000110
00001001
00000110
00000000
,
00001000
00000100
00010000
00001000
,
01000000
00010000
00100000
01000000
,
02200000
00000000
00000000
03300000
,
10000000
00000000
00010000
00000000
01000000
00100000
01000000
00000000
,
00010000
00100000
00001000
00011000
,
00010000
00000010
00001000
00001001
,
00000001
00000010
00000100
00000110
,
00000010
00000000
00000001
00001001
,
00001000
00000010
00010000
00011000
,
00001000
00100000
00010000
10010000
,
10000000
00100000
01000000
00001000
,
00010000
00000000
00000100
00001100
,
00001000
00000000
00000001
00000000
00000100
00000010
00000100
00000000
,
00000001
00000000
00001000
00000000
00000100
00010000
00000100
00000000
,
00001000
00000000
00000010
00000000
00010000
00001000
00010000
00000000
,
00100000
01000000
00010000
10010000
,
10000000
00000000
01000000
00000000
00100000
00010000
00100000
00000000
,
00001000
00000000
00010000
00000000
00000010
00001000
00000010
00000000
,
00000100
00000000
00000001
00000000
00000010
00000100
00000010
00000000
,
00001000
00010000
00100000
01100000
,
20020000
00000000
00000000
00000000
,
00000000
00000000
00000000
00000000
,
30030000
00000000
00000000
00000000
;

//--------------- dance-double - forcednature ----------------
#NOTEDATA:;
#STEPSTYPE:dance-double;
#DESCRIPTION:forcednature;
#DIFFICULTY:Medium;
#METER:13;
#RADARVALUES:0,0,0,0,0;
#CREDIT:forcednature;
#NOTES:
00000000
00000000
00000000
00000000
,
00000000
00000000
00000000
00000000
,
00000000
00000000
00000000
00000000
,
00000000
00000000
00000000
00000000
,
00000000
00000000
00000000
00000000
,
00000000
00000000
00000000
00000000
,
00000000
00000000
00000000
00000000
,
00000000
00000000
00000000
00000000
,
00000000
00000000
00000000
00000000
,
00011000
00000000
00001000
00000000
,
01000000
00000000
01000000
00000000
,
00010000
00000000
00010000
00000000
,
10000000
00000000
10000000
00000000
,
01000000
00100000
00010000
00100000
,
00001000
00010000
00000010
00010000
,
00001000
00001000
00000010
00000010
,
00000100
00001000
00000000
00000001
00000000
00000001
00000000
00000001
,
00000100
00000000
00000000
00001000
00000000
00000000
00010000
00000000
,
00110000
00000000
00000000
00100000
00000000
00000000
01000000
00000000
,
01010000
00000000
00000000
00010000
00000000
00000000
10000000
00000000
,
11000000
00000000
00000000
01000000
00010000
00000000
00001000
00000000
,
00001010
00000000
00000000
00000010
00000000
00000000
00000100
00000000
,
00001100
00000000
00000000
00001000
00000000
00000000
00000001
00000000
,
00000101
00000000
00000000
00000100
00000000
00000000
00000010
00000000
,
00001000
00000100
00001000
00000100
00010000
00000000
00001000
00000000
,
00011000
00000000
00010000
00001000
01000000
00000000
00010000
00000000
,
00100000
00110000
11000000
00000000
,
01010000
00000000
00010000
01000000
00001000
00000000
00010000
00000000
,
00000100
00001000
00000010
00000000
00000110
00000000
00001001
00000000
,
00000011
00000000
00000010
00000100
00001000
00000000
00000010
00000000
,
00010000
00011000
00101000
00000000
,
01000000
00000000
00010000
10000000
00000000
01000000
10000000
00000000
,
00100000
10000000
01000000
00010000
,
00001000
00000000
00000010
00000100
00000010
00000000
00000011
00000000
,
00000001
00000100
00001000
00000000
00010000
00000000
00100000
00000000
,
01000000
00000000
00010000
00100000
00000000
01000000
10000000
00000000
,
00100000
00000000
00010000
00001000
00000010
00000000
00000110
00000000
,
00001100
00000000
00001000
00000001
00000100
00000000
00000110
00000000
,
00000010
00001000
00000100
00000000
00010000
00000000
00001000
00000000
,
01000000
00000000
00010000
00100000
00000000
10000000
00100000
00000000
,
01000000
00000000
10000000
00010000
01000000
10000000
01000000
00000000
,
01100000
00000000
00100000
10000000
00010000
00000000
00110000
00000000
,
00100000
01000000
00010000
00000000
00001000
00000000
00000010
00000000
,
00000100
00000000
00001000
00000001
00000000
00000100
00000001
00000000
,
00000010
00000000
00000100
00001000
00000010
00000000
00000100
00000000
,
00001100
00000000
00001000
00010000
00100000
00000000
01100000
00000000
,
01000000
00010000
10000000
00000000
01000000
00000000
00100000
00000000
,
00020000
00032000
00003200
00000320
,
00000031
00001000
00000001
00000100
00000010
00000000
00001000
00000000
,
00000100
00000000
00000010
00000100
00000000
00001000
00000100
00000000
,
00010000
00001000
01000000
00000000
,
00100000
00000000
01000000
00010000
00000000
01000000
00001000
00000000
,
00010000
00000100
00001000
00000000
,
00000010
00000000
00000100
00001000
00000000
00000100
00000001
00000000
,
00000010
00000100
00000000
00001000
00000000
00000010
00010000
00000000
,
00001000
00100000
00000000
00010000
00000000
01000000
00001000
00000000
,
00010000
01000000
00100000
01000000
10000000
00010000
10000000
00000000
,
10100000
00000000
10000000
01000000
00010000
00000000
00001000
00000000
,
00000110
00000000
00000001
00000100
00001000
00000000
00010000
00000000
,
01100000
00000000
10000000
01000000
00010000
00000000
00001000
00000000
,
00000110
00000000
00000001
00000100
00001000
00000000
00010000
00000000
,
00100000
00000000
01000000
00010000
00100000
00000000
01000000
00010000
,
00001000
00000000
00010000
00000100
00001000
00000000
00000010
00001000
,
00000100
00010000
00001000
00010000
00001000
01000000
00010000
01000000
,
00100000
10000000
00000000
00010000
00000000
00010000
00000000
00010000
,
00100000
00000000
01000000
00000000
00100000
00000000
00010000
00000000
10000000
00000000
00010000
00000000
,
01000000
00000000
00001000
00000000
00010000
00000000
00000100
00000000
00001000
00000000
00000010
00000000
,
00000100
00000000
00001000
00000000
00000100
00000000
00000001
00000000
00000010
00000000
00000001
00000000
,
00000100
00000101
00001010
00000000
,
00000001
00000000
00000010
00000000
00000100
00000000
00001000
00000000
00000010
00000000
00010000
00000000
,
00001000
00000000
00100000
00000000
00010000
00000000
01000000
00000000
00001000
00000000
00010000
00000000
,
01000000
00000000
10000000
00000000
01000000
00000000
00010000
00000000
01000000
00000000
00100000
00000000
,
00010000
00000000
00000000
00010000
00000000
00000000
00010000
00000000
00010000
00000000
00000000
00000000
10100000
00000000
00000000
00000000
,
00010000
00000000
01000000
00000000
00001000
00000000
00010000
00000000
00000100
00000000
00001000
00000000
,
00000010
00000000
00000100
00000000
00001000
00000000
00000100
00000000
00000001
00000000
00000010
00000000
,
00000100
00000000
00000001
00000000
00000100
00000000
00001000
00000000
00000010
00000000
00010000
00000000
,
00001000
00101000
00010100
00000000
,
00010000
00000000
00001000
00000000
01000000
00000000
00010000
00000000
00100000
00000000
00001000
00000000
,
00010000
00000000
00100000
00000000
01000000
00000000
00100000
00000000
10000000
00000000
00010000
00000000
,
20010000
32000000
03020000
00032000
,
00003010
00000000
00000100
00001000
00000000
00001000
00000001
00000000
,
00000100
00000000
00000010
00000000
00000100
00001000
00020000
00000000
,
00130000
00000000
01000000
00000000
00100000
10000000
00020000
00000000
,
00130000
00000000
01000000
00000000
00100000
00001000
00020000
00000000
,
00030020
00001000
00000100
00000031
,
00000010
00000000
00001000
00000000
00000001
00000010
00000200
00000000
,
00001300
00000000
00000010
00000000
00010000
00001000
00200000
00000000
,
00310000
00000000
01000000
00000000
00001000
00010000
02000000
00000000
,
03200000
10000000
01000000
00310000
,
01100000
00000000
01000000
10000000
00000000
00010000
02000000
00000000
,
03001000
00010000
00000000
00000100
00000000
00001000
00000020
00000000
,
00000130
00000000
00000001
00000010
00000000
00000100
00002000
00000000
,
00003010
00000000
00000100
00001000
00010000
00000000
00011000
00000000
,
00001000
00000000
00100000
00010000
00000000
01000000
00002000
00000000
,
00013000
00000000
01000000
10000000
00000000
00100000
20000000
00000000
,
31000000
00000000
00010000
00001000
00000000
00000100
00000020
00000000
,
00001030
00000001
00000010
00000001
00000100
00000001
00000010
00000000
,
00000220
00000000
00000000
00000000
,
00000000
00000000
00000000
00000000
,
00000330
00000000
00000000
00000000
;

//--------------- dance-double - forcednature ----------------
#NOTEDATA:;
#STEPSTYPE:dance-double;
#DESCRIPTION:forcednature;
#DIFFICULTY:Hard;
#METER:16;
#RADARVALUES:0,0,0,0,0;
#CREDIT:forcednature;
#NOTES:
00000000
00000000
00000000
00000000
,
00000000
00000000
00000000
00000000
,
00000000
00000000
00000000
00000000
,
00000000
00000000
00000000
00000000
,
00000000
00000000
00000000
00000000
,
00000000
00000000
00000000
00000000
,
00000000
00000000
00000000
00000000
,
00000000
00000000
00000000
00000000
,
00000000
00000000
00000000
00000000
,
00011000
00000000
00010000
00100000
00000000
01000000
00010000
00000000
,
10010000
00000000
00010000
00100000
00000000
01000000
00010000
00000000
,
00011000
00000000
00001000
00000010
00000000
00000100
00001000
00000000
,
00001001
00000000
00001000
00000010
00000000
00000100
00001000
00000000
,
00010000
00000000
00010000
00100000
10000000
00000000
10000000
01000000
,
00010000
00000000
00010000
00001000
00000010
00000000
00000010
00000100
,
00001000
00000010
00000100
00001000
00010000
01000000
00100000
00010000
,
10000000
00100000
10000000
00000000
01000000
00000000
00010000
00000000
00000000
00000000
00010000
00000000
00000000
00000000
00010000
00000000
,
00012000
00000000
00000000
00003010
00000100
00000100
00000001
00000100
,
00000100
00001000
00000010
00000010
00000001
00000010
00000010
00000100
,
00001000
00001000
00010000
00001000
00001000
00100000
01000000
01000000
,
00010000
01000000
10000000
00010000
01000000
00001000
00010000
00001000
,
00200000
00000000
00000000
00310000
01000000
01000000
10000000
01000000
,
01000000
00100000
10000000
10000000
01000000
00010000
00010000
00001000
,
00000100
00000100
00000001
00000010
00000010
00000100
00010000
00001000
,
01000000
00010000
10000000
00010000
00100000
00000000
01000000
00000000
10000000
00000000
00000000
00000000
10000000
00000000
00000000
00000000
,
10010000
00000000
00010000
01000000
01001000
00000000
00010100
00000000
,
00000100
00000110
00001001
00010000
,
00010100
00000000
00100000
00001000
00010000
00000000
00110000
00000000
,
00100000
01000000
00100000
00000000
10000000
00000000
00000000
00000000
11000000
00000000
00000000
00000000
00010000
00000000
00000000
00000000
,
00101000
00000000
00001000
00010000
00010100
00000000
00001010
00000000
,
00000010
00000110
00011000
00100000
,
20010000
00000000
30200000
02300000
00000000
03002000
00023000
00000000
,
00030200
00002300
00003020
00000130
,
00001001
00000000
00000000
00000001
00000000
00000000
00000010
00000000
00000100
00000000
00010000
00000000
00001000
00000000
00000000
00000000
,
00000100
00001000
00001000
00010000
00100000
01000000
00100000
10000000
,
00010000
00100000
01000000
00010000
00001000
00000100
00001000
00010000
,
00000010
00000000
00001000
00000100
00000010
00000000
00000110
00000000
,
00001001
00000000
00000000
00000000
00001000
00000000
00000010
00000000
00010000
00000000
00001000
01000000
00001000
00000000
00000000
00000000
,
00010000
00100000
00100000
01000000
00010000
10000000
01000000
00010000
,
00001000
00000010
00000100
00001000
00010000
00001000
00000010
00000001
,
00000100
00000010
00000100
00001000
00010000
00000000
00011000
00000000
,
01100000
00000000
00000000
00000000
10000000
00000000
01000000
00000000
00000000
00010000
00000000
00000000
00011000
00000000
00000000
00000000
,
00001000
00000010
00000010
00000001
00001000
00000001
00000100
00000010
,
00000100
00001000
00010000
00100000
01000000
00010000
00100000
01000000
,
10000000
01000000
00010000
00001000
00000100
00000010
00001000
00000000
,
00000110
00000000
00000001
00000010
00001000
00000000
00011000
00000000
,
01000000
00010000
00010000
00100000
01000000
10000000
01000000
00010000
,
00001000
00000100
00000010
00010000
00001000
00000010
00000100
00000010
,
00000002
00000203
00002300
00013000
,
01100000
00000000
10000000
00010000
00000000
00100000
01000000
00000000
,
00010000
00001000
00000000
00000010
00000000
00000100
00001000
00000000
,
00001010
00000000
00000010
00000100
00000000
00001000
00010000
00000000
,
00100000
10000000
00000000
01000000
00000000
00010000
00001000
00010000
,
00000100
00000000
00001000
00000010
00000000
00000001
00000010
00000000
,
00000100
00001000
00000000
00000100
00000000
00000001
00000010
00000000
,
00000100
00010000
00001000
00010000
00000000
00100000
01000000
00000000
,
00100000
10000000
00010000
10000000
01000000
00010000
00001000
00000000
,
00011000
00000000
00001000
00000010
00000001
00000010
00001000
00000000
,
00011000
00000000
00010000
00100000
10000000
00100000
00010000
00000000
,
00011000
00000000
00001000
00000100
00000001
00000100
00001000
00000000
,
00011000
00000000
00010000
01000000
10000000
01000000
00010000
00000000
,
00011000
00000000
01000000
00010000
00100000
00000000
00000100
00001000
,
00000010
00000000
00100000
00010000
01000000
00000000
00000010
00001000
,
00000100
00010000
00001000
01000000
00100000
10000000
00010000
10000000
,
01000000
00100000
01000000
00000000
00010000
00000000
00001000
00000000
00000000
00000000
00001000
00000000
00000000
00000000
00001000
00000000
,
00000100
00000000
00001000
00000000
00010000
00000000
01000000
00000000
00010000
00000000
00001000
00000000
,
00000010
00000100
00001000
00000010
00000100
00000001
00000010
00000000
00000100
00000000
00010000
00000000
,
00011000
00000000
00001000
00000000
01000000
00000000
01100000
00000000
00100000
00000000
10000000
00000000
,
01000000
00000000
00100000
00010000
00100000
00000000
00001000
00010000
00001000
00000000
00010000
00000010
00001000
00000000
00000000
00000000
,
00001100
00000000
00000100
00000000
00000010
00000000
00000011
00000000
00000001
00000000
00000100
00000000
,
00000010
00001000
00000010
00010000
00001000
01000000
00010000
00000000
00100000
00000000
01000000
00000000
,
11000000
00000000
10000000
00000000
00100000
00000000
00110000
00000000
00010000
00000000
00001000
00000000
,
00011000
00000000
00000000
00010100
00000000
00000000
00001000
00000000
00000010
00000000
00000000
00000000
00000110
00000000
00000000
00000000
,
00001001
00000000
00001000
00000000
00000010
00000000
00010010
00000000
00010000
00000000
00001000
00000000
,
01000000
00010000
00100000
01000000
10000000
00100000
01000000
00000000
00001000
00000000
00010000
00000000
,
00011000
00000000
00000100
00000000
00010000
00000000
00011000
00000000
01000000
00000000
00001000
00000000
,
00010000
00000000
00100000
01000000
00100000
00000000
10000000
00010000
10000000
00000000
01000000
00100000
00010000
00000000
00000000
00000000
,
01001000
00000000
01000000
00000000
00001000
00000000
00010100
00000000
00000100
00000000
00010000
00000000
,
00001000
00100000
00010000
01000000
00100000
01000000
00010000
00000000
10000000
00000000
01000000
00000000
,
00020000
00032000
00003020
00000230
,
00001300
00000001
00001000
00000000
00000010
00000000
00000100
00000000
00000000
00000000
00000100
00000000
00001000
00000000
00010000
00000000
,
00100000
10000000
00010000
10000000
01000000
00010000
00011000
00000000
,
00001000
00000010
00000001
00000100
00001000
00010000
00011000
00000000
,
01000000
00000000
00010000
00000000
00100000
00000000
00001000
00000000
00010000
00000000
00000010
00000000
00001000
00000100
00001000
00000100
,
00000020
00000001
00001030
00000110
,
00000100
00010000
00001000
00010000
00100000
01000000
01100000
00000000
,
00100000
10000000
01000000
00010000
00001000
00100000
00110000
00000000
,
00010000
00000000
01000000
00000000
00001000
00000000
00010000
00000000
00000100
00000000
00001000
00000000
00000001
00000100
00000001
00000100
,
00000020
00000000
00020030
00000000
00031000
00100000
00110000
00000000
,
00010000
01000000
10000000
01000000
00100000
10000000
11000000
01000000
,
00010000
00001000
00000010
00000100
00001000
00000010
00000110
00000100
,
00000001
00000000
00000010
00000000
00000100
00000000
00010000
00000000
00001000
00000000
01000000
00000000
00010000
10000000
00010000
10000000
,
02000000
00010000
13000000
01100000
,
00100000
00001000
00010000
00000010
00000100
00001000
00011000
00010000
,
00000100
00000010
00001000
00000010
00000001
00001000
00001010
00000010
,
00000100
00000000
00001000
00000000
00010000
00000000
01000000
00000000
00100000
00000000
00010000
00000000
10000000
01000000
00100000
00010000
,
02000000
10000000
03010000
01001000
,
00020200
00000000
00000000
00000000
,
00000000
00000000
00000000
00000000
,
00030300
00000000
00000000
00000000
;

//--------------- dance-double - ----------------
#NOTEDATA:;
#STEPSTYPE:dance-double;
#DESCRIPTION:forcednature;
#CREDIT:forcednature;
#DIFFICULTY:Challenge;
#METER:17;
#RADARVALUES:0,0,0,0,0;
#NOTES:
00000000
00000000
00000000
00000000
,
00000000
00000000
00000000
00000000
,
00000000
00000000
00000000
00000000
,
00000000
00000000
00000000
00000000
,
00000000
00000000
00000000
00000000
,
00000000
00000000
00000000
00000000
,
00000000
00000000
00000000
00000000
,
00000000
00000000
00000000
00000000
,
00000000
00000000
00000000
00000000
,
00011000
00000000
00101000
00000000
,
00011000
00000000
00010010
00000000
,
00011000
00000000
01100000
00000000
,
00011000
00000000
00000110
00000000
,
00011000
00000000
00001000
00010000
00100000
00000000
00010000
00001000
,
00000010
00000000
00001000
00010000
00100000
00000000
00010000
00001000
,
00000010
00000000
00000100
00000000
00000010
00000000
00000100
00000000
00001000
00000010
00001000
00000010
00001000
00000010
00001000
00000010
,
00000100
00000001
00001000
00000000
00000100
00000000
00020000
00000000
00030000
00000000
00020000
00000000
00030000
00000000
00001000
00000000
,
00201000
00000000
00000000
00310000
01000000
10000000
01000000
00010000
,
00100000
00000000
01000000
10000000
01000000
00000000
00100000
00000000
01000000
10000000
01000000
00000000
00010000
00000000
00001000
00100000
,
00001000
00000000
00010000
00000000
00001000
00100000
00001000
00000000
00010000
00000000
00000010
00001000
00000010
00000000
00000100
00000000
,
00000010
00001000
00000010
00000000
00000100
00000000
00000001
00000000
00000011
00000000
00000000
00000000
00001000
00000000
00000000
00000000
,
00000102
00000000
00000000
00001003
00000100
00000001
00000100
00001000
,
00000010
00000000
00000100
00000001
00000100
00000000
00000010
00000000
00000100
00000001
00000100
00000000
00001000
00000000
00010000
00000010
,
00010000
00000000
00001000
00000000
00010000
00000010
00010000
00000000
00001000
00000000
00100000
00010000
00100000
00000000
01000000
00000000
,
10000000
00010000
00100000
00010000
10000000
00000000
01000000
00000000
00010000
00000000
00000000
00000000
00011000
00000000
00000000
00000000
,
00000110
00000000
00000000
00001000
00011000
00000000
01100000
00000000
,
00100000
10010000
01100000
MMMMMMMM
,
01100000
00000000
00000000
00010000
00011000
00000000
00000110
00000000
,
00000001
00000100
00000001
00000000
00000110
00000000
00000000
00000000
00001001
00000000
00000000
00000000
00000001
00000000
00000100
00000000
,
00001000
00000000
00000000
00010000
00011000
00000000
01100000
00000000
,
10000000
00010000
10010000
00000000
01100000
00000000
MMMMMMMM
00000000
,
20000000
32000000
03200000
00320000
,
00032000
00003200
00000320
00000032
,
00000203
00000000
00000000
00000000
00000000
00000000
00000000
00000000
00000310
00000000
00000100
00000010
00001000
00000000
00000100
00000000
,
00010000
00000000
00001000
00010000
00001000
00000000
01000000
00000000
00010000
00000000
00100000
00010000
00100000
00000000
01000000
00100000
,
00010000
00000000
10000000
00000000
00100000
01000000
00010000
00000000
00100000
00000000
01000000
00100000
00010000
00000000
01000000
00000000
,
00001000
00010000
00001000
00000000
00000010
00000000
00000100
00000000
00001000
00000000
00000010
00000000
00020000
00000000
00000000
00000000
,
00030100
00001000
00000100
00000000
00002000
00000000
00000000
00000000
00003010
00000000
00000000
00000000
00001001
00000000
00000001
00000100
,
00000001
00000000
00000010
00000000
00000010
00000001
00000010
00000000
00000100
00000000
00001000
00000100
00010000
00000000
00001000
00010000
,
00001000
00010000
00001000
00000000
00100000
00000000
01000000
10000000
01000000
00000000
00100000
00000000
01000000
10000000
01000000
00000000
,
00100000
00000000
00001000
00010000
00001000
00000000
01000000
00000000
00010000
00000000
00000000
00000000
10010000
00000000
00000000
00000000
,
01100000
00000000
00000000
00000000
20000000
00000000
00000000
32000000
00000000
00000000
03020000
00000000
00031000
00000000
00100000
00010000
,
00100000
00000000
00001000
00000000
00010000
00000100
00001000
00000000
00000010
00000000
00000100
00000001
00000010
00000000
00000100
00001000
,
00000100
00001000
00000001
00000000
00000100
00000000
00000010
00001000
00000100
00000000
00010000
00000000
00001000
00100000
00001000
00000000
,
00010000
00000000
00001000
01000000
00010000
00000000
10000000
00100000
20000000
00000000
00000000
00000000
31000000
00000000
00000000
00000000
,
10010000
00000000
00010000
00100000
00001000
00000000
00011000
00000000
,
00000010
00000000
00001000
00000010
00001000
00000000
00000001
00000000
00000100
00000000
00000001
00000010
00000100
00000000
00001000
00000010
,
00000100
00000000
00001000
00000000
00010000
00001000
00010000
00000000
00100000
00000000
01000000
00010000
10000000
00000000
00100000
00000000
,
10000000
01000000
10000000
00000000
00010000
01000000
00010000
00000000
00200000
00000000
00000000
00000000
00301000
00000000
00000000
00000000
,
10020000
00000000
01000000
01000000
00000000
10000000
10000000
00000000
,
00130000
00000000
00010000
00001000
00000100
00000000
00000000
00000000
,
00002000
00000000
00000100
00000100
00000000
00000001
00000001
00000000
,
00003010
00000000
00001000
00010000
01000000
00000000
00000000
00000000
,
00020000
00000000
00100000
00100000
00000000
10000000
10000000
00000000
,
01000000
00030000
00010000
00001000
00000100
00000000
00000000
00000000
,
00002000
00000000
00000010
00000010
00000000
00000001
00000001
00000000
,
00003100
00001000
00010000
00000000
00100000
00000000
01100000
00000000
,
10010000
00000000
10000000
01000000
00000000
00010000
00001000
00000000
,
00000010
00000001
00000000
00000100
00000000
00001000
00010000
00000000
,
00011000
00000000
00000010
00001000
00000000
00010000
01000000
00000000
,
00010000
00100000
00000000
01000000
00000000
10000000
01000000
00010000
,
01000000
00000000
01000000
00100000
00001000
00000000
00010000
00000100
,
00000010
00000000
00000100
00010000
00000010
00000000
00000100
00001000
,
00010000
00100000
00010000
00100000
10000000
01000000
10000000
10000000
,
01000000
00010000
00001000
00000000
00100000
00000000
02000000
00000000
03000000
00000000
02000000
00000000
03000000
00000000
02000000
00000000
,
13000000
00000000
00100000
00000000
00010000
00000000
00001000
00000000
00000010
00000000
00000001
00000000
,
00000100
00001000
00010000
00100000
00010000
00001000
00000100
00000000
00000010
00000000
00001000
00000000
,
00002100
00000000
00003010
00000000
00010000
00000000
00012000
00000000
00103000
00000000
00010000
00000000
,
01000000
00010000
01000000
00001000
00010000
00001000
00010000
00000100
00001000
00000100
00000010
00000001
00001000
00000000
00000000
00000000
,
00000001
00000000
00000010
00000000
00001000
00000000
00010000
00000000
00100000
00000000
10000000
00000000
,
01000000
00010000
00001000
00000010
00001000
00010000
01000000
00000000
00100000
00000000
00010000
00000000
,
01020000
00000000
00130000
00000000
00001000
00000000
00021000
00000000
00030010
00000000
00001000
00000000
,
00000100
00001000
00000100
00010000
00001000
00010000
00001000
01000000
00010000
01000000
00100000
10000000
00010000
00000000
00000000
00000000
,
10000000
00000000
00010000
00000000
00001000
00000000
00000001
00000000
00001000
00000000
00010000
00000000
,
10000000
01000000
00010000
00001000
00000010
00000001
00001000
00000000
00000010
00000000
00000100
00000000
,
00002001
00000000
00003100
00000000
00010000
00000000
00012000
00000000
00103000
00000000
00010000
00000000
,
10000000
01000000
00100000
00010000
00100000
00001000
00010000
00000010
00001000
00000001
00000100
00000010
00001000
00000000
00000000
00000000
,
00000001
00000000
00001000
00000000
00010000
00000000
10000000
00000000
00010000
00000000
00001000
00000000
,
00000001
00000100
00001000
00010000
00100000
10000000
00010000
00000000
00100000
00000000
01000000
00000000
,
20010000
30200000
00320000
00032000
,
00003010
00000100
00000010
00000000
00000001
00000000
00000200
00000000
00000300
00000000
00000200
00000000
00000310
00000000
00000200
00000000
,
00001300
00000000
00010000
00000000
00100000
00000000
01000000
00010000
00100000
00000000
01000000
00000000
11000000
00000000
00010000
00000000
,
00100000
00000000
00010000
00000000
00001000
00000000
00000100
00001000
00000010
00000000
00000100
00000000
00000101
00000000
00001000
00000000
,
00000010
00000000
00010000
00000000
00001000
00000000
00000010
00000100
00000010
00000000
00000001
00000000
00000100
00000001
00000100
00000001
,
00002000
00000010
00003100
00011000
,
00110000
00000000
10000000
00000000
01000000
00000000
10000000
00100000
01000000
00000000
00010000
00000000
00110000
00000000
00001000
00000000
,
00010000
00000000
00000010
00000000
00001000
00000000
00000100
00001000
00000001
00000000
00000100
00000000
00001010
00000000
00010000
00000000
,
00001000
00000000
00100000
00000000
00010000
00000000
01000000
00100000
10000000
00000000
01000000
00000000
00100000
00010000
00100000
00010000
,
00002000
00000000
00000100
00000100
00003010
00000000
00001001
00000000
,
00000001
00000000
00000100
00001000
00010000
00000000
00001000
00010000
00100000
00000000
01000000
00000000
10100000
00000000
00010000
00000000
,
10000000
00000000
01000000
10000000
00010000
00000000
00100000
00001000
00010000
00000000
00000100
00000000
00001100
00000000
00000001
00000000
,
00000100
00000000
00000010
00001000
00000100
00000000
00000010
00000001
00000100
00000000
00001000
00000000
00010000
00001000
00010000
00001000
,
00200000
00000000
00010000
00010000
01300000
00000000
10010000
00000000
,
00010000
00000000
00100000
01000000
10000000
00000000
00100000
01000000
00010000
00000000
00100000
00000000
00110000
00000000
00001000
00000000
,
00010000
00000000
00000010
00001000
00000100
00000000
00000010
00001000
00010000
00000000
00000100
00000000
00001100
00000000
00010000
00000000
,
00000010
00000000
00001000
00000001
00000100
00000000
00001000
00010000
00001000
00000000
00100000
00000000
00010000
01000000
00010000
01000000
,
00200000
20300000
32000000
03020000
00032000
00003020
00000031
00000000
,
00000220
00000000
00000000
00000000
,
00000000
00000000
00000000
00000000
,
00000330
00000000
00000000
00000000
;
