#VERSION:0.83;
#TITLE:Ember Lights;
#SUBTITLE:;
#ARTIST:Nhato;
#TITLETRANSLIT:;
#SUBTITLETRANSLIT:;
#ARTISTTRANSLIT:;
#GENRE:FUSION TRANCE;
#CREDIT:;
#MUSIC:Ember Lights.ogg;
#BANNER:Ember Lights.png;
#BACKGROUND:Ember Lights-bg.png;
#CDTITLE:./CDTitles/bm IIDX 26 Rootage.png;
#SAMPLESTART:77.108;
#SAMPLELENGTH:15.000;
#SELECTABLE:YES;
#OFFSET:0.721;
#BPMS:0.000=148.000;
#STOPS:;
#TIMESIGNATURES:0.000=4=4;
#BGCHANGES:0.000=Ember Lights.mp4=1.000=0=0=0=StretchNoLoop====,
99999.000=-nosongbg-=1.000=0=0=0=StretchNoLoop====
;
#FGCHANGES:;

//--------------- dance-single - forcednature ----------------
#NOTEDATA:;
#STEPSTYPE:dance-single;
#DESCRIPTION:forcednature;
#CREDIT:forcednature;
#DIFFICULTY:Beginner;
#METER:4;
#RADARVALUES:0,0,0,0,0;
#NOTES:
0000
0000
0000
0000
,
0000
0000
0000
0000
,
0000
0000
0000
0000
,
0000
0000
0000
0000
,
0000
0000
0000
0000
,
1000
0000
0000
0000
,
0001
0000
0000
0000
,
1000
0000
0000
0000
,
0010
0000
0000
0000
,
0200
0000
0000
0000
,
0000
0000
0000
0000
,
0000
0000
0000
0000
,
0000
0000
0300
0000
,
2002
0000
0000
0000
,
0000
0000
0000
0000
,
0000
0000
0000
0000
,
0000
0000
3003
0000
,
1000
0000
0100
0000
,
1000
0000
0100
0000
,
1000
0000
0100
0000
,
1000
0000
0000
0000
,
0001
0000
0010
0000
,
0001
0000
0010
0000
,
0001
0000
0010
0000
,
0001
0000
0000
0000
,
0110
0000
0000
0000
,
1000
0000
0000
0000
,
0001
0000
0001
0000
,
0001
0000
0000
0000
,
0110
0000
0000
0000
,
0001
0000
0000
0000
,
1000
0000
1000
0000
,
1000
0000
0000
0000
,
0020
0000
0000
0000
,
0000
0000
0000
0000
,
0000
0000
0000
0000
,
0000
0000
0000
0030
,
0200
0000
0000
0000
,
0000
0000
0000
0000
,
0000
0000
0000
0000
,
0000
0000
0000
0300
,
0000
0000
0000
0000
,
0000
0000
0000
0000
,
0000
0000
0000
0110
,
0000
0000
0000
0000
,
2002
0000
0000
0000
,
0000
0000
0000
0000
,
0000
0000
0000
0000
,
3003
0000
0000
0000
,
1000
0000
0001
0000
,
1000
0000
0001
0000
,
0100
0000
0010
0000
,
0100
0000
0000
0000
,
0001
0000
1000
0000
,
0001
0000
1000
0000
,
0100
0000
0010
0000
,
0100
0000
0000
0000
,
1000
0000
0010
0000
,
1000
0000
0010
0000
,
0100
0000
0001
0000
,
0100
0100
0100
0000
,
0001
0000
0010
0000
,
0001
0000
0010
0000
,
0100
0000
1000
0000
,
0100
0100
0100
0000
,
2000
0000
0000
0000
,
0001
0000
0000
0000
,
0001
0000
0001
0000
,
0001
0001
0001
0001
,
3002
0000
0000
0000
,
0000
0000
0000
0000
,
0003
0000
0000
0000
;

//--------------- dance-single - forcednature ----------------
#NOTEDATA:;
#STEPSTYPE:dance-single;
#DESCRIPTION:forcednature;
#CREDIT:forcednature;
#DIFFICULTY:Easy;
#METER:9;
#RADARVALUES:0,0,0,0,0;
#NOTES:
0000
0000
0000
0000
,
0000
0000
0000
0000
,
0000
0000
0000
0000
,
0000
0000
0000
0000
,
0000
0000
0000
0000
,
0001
0100
0101
0000
,
1000
0010
1010
0000
,
0001
0000
0010
0000
0100
0000
0000
2000
,
0000
0000
0000
0002
0000
0000
3003
0000
,
1000
0010
1000
1000
,
0001
0100
0001
0001
,
0010
0100
0010
0010
,
0001
1000
0001
0001
,
0100
0010
1000
0010
,
0100
0001
1000
0001
,
0020
0100
0100
0001
,
0032
0000
2000
3003
,
0001
0100
2000
0000
,
3100
0001
2000
0000
,
3001
0100
2000
0000
,
3100
0001
1000
0010
,
1000
0100
0002
0000
,
0103
1000
0002
0000
,
1003
0100
0002
0000
,
0103
1000
0001
0010
,
0001
1000
0010
1000
,
0001
0100
0020
0000
,
1030
1001
0010
0010
,
0100
0002
0000
0003
,
1000
0100
0010
0100
,
1000
0001
0010
0100
,
0010
1001
0000
0001
,
2000
0000
3010
0100
,
0002
0000
0000
0003
,
0020
0000
0000
0030
,
0200
0000
0300
2000
,
0000
3002
0000
0003
,
0200
0000
0000
0300
,
0020
0000
0000
0030
,
2000
0000
3000
0200
,
0000
0320
0000
0000
,
0030
0000
0000
0000
,
0000
0000
0000
0000
,
0000
0000
0000
0000
0000
0000
0002
2003
,
0000
0000
0000
0020
0000
0000
3000
0000
,
1000
1000
1000
0000
,
0100
0100
0100
0000
,
1030
0000
0001
0000
1000
0001
1000
0000
,
0020
0230
0000
0301
,
0110
1000
0001
0010
,
0100
1000
0100
0000
0010
0000
0001
0000
,
1000
0000
0010
0000
0100
0000
0001
1000
,
0001
0010
0100
0110
,
0001
0000
1000
0000
0010
0000
0100
0001
,
0100
0010
1000
0001
,
0010
0000
0100
0000
1000
0000
0010
1000
,
0020
0100
0100
1030
,
1001
0000
0001
0000
0010
0000
0100
1000
,
0100
0010
0001
1000
,
0010
0000
0100
0000
0001
0000
1000
0200
,
0000
0300
0010
0020
0000
0000
0030
0000
,
0001
0000
1000
0000
0010
0000
0100
0001
,
0100
0010
1000
0001
,
0010
0000
0100
0000
1000
0000
0001
0200
,
0010
0010
0010
0301
,
1001
1000
0100
0010
,
1001
0001
0100
0010
,
1001
0000
1000
0100
0010
0000
0001
0100
,
0010
0000
1000
0001
0010
0100
0010
0000
,
2002
0000
0000
0000
,
0000
0000
0000
0000
,
3003
0000
0000
0000
;

//--------------- dance-single - forcednature ----------------
#NOTEDATA:;
#STEPSTYPE:dance-single;
#DESCRIPTION:forcednature;
#CREDIT:forcednature;
#DIFFICULTY:Medium;
#METER:12;
#RADARVALUES:0,0,0,0,0;
#NOTES:
0000
0000
0000
0000
,
0000
0000
0000
0000
,
0000
0000
0000
0000
,
0000
0000
0000
0000
,
0000
0000
0000
0000
,
0001
0000
0000
0100
0110
0000
2000
0000
,
0001
0000
3001
0000
1010
0000
0001
0010
,
0100
0000
1000
0001
0000
0100
0010
2000
,
0000
0000
0100
0100
0100
0000
3000
0000
,
0011
0000
0000
0000
0011
0000
0000
0000
0001
0000
0000
0001
0000
0000
0100
0000
,
0010
0000
0000
0000
1010
0000
0000
0000
1000
0000
0000
1000
0000
0000
0100
0000
,
0010
0000
0000
0000
0011
0000
0000
0000
0001
0000
0000
0001
0000
0000
0100
0000
,
0010
0000
0000
0000
1010
0000
0000
0000
1000
0000
0000
1000
0000
0000
0100
0000
,
1000
0000
0000
1000
0000
0000
1000
0000
0010
0000
0000
0010
0000
0000
0010
0000
,
0100
0000
0000
0100
0000
0000
0100
0000
0001
0000
0000
0001
0000
0000
0001
0000
,
0010
0100
0010
0100
1000
0001
1000
0001
,
0100
0010
1000
0001
0200
0000
0310
0000
,
1000
0000
0001
0000
0100
0000
0010
0000
1000
0000
0000
1000
0001
0000
0000
0000
,
0010
0000
0100
0000
1000
0000
0001
0000
0010
0000
0000
0010
0100
0000
0000
0000
,
0010
0000
0001
0000
0100
0000
0001
0000
1000
0000
0000
1000
0010
0000
0000
0000
,
0100
0001
1000
0010
1000
0100
0001
0000
,
0100
0000
1000
0000
0001
0000
0010
0000
0001
0000
0000
0001
1000
0000
0000
0000
,
0010
0000
0100
0000
0001
0000
0010
0000
0100
0000
0000
0100
1000
0000
0000
0000
,
0001
0000
0100
0000
0010
0000
1000
0000
0001
0000
0000
0001
0010
0000
0000
0000
,
0100
1000
0100
0001
0200
0000
0310
0000
,
1100
0000
1010
0000
1001
0000
0001
0020
,
0000
0130
1000
0200
0000
0310
0001
1000
,
0010
0000
0000
0000
0110
0000
0000
0000
0001
1000
0000
0001
1000
0000
0001
0000
,
0100
0000
0010
0010
1000
0001
0100
0000
,
1010
0000
1100
0000
0001
0010
0100
2000
,
0000
3010
0100
0002
0000
0013
0001
1000
,
0010
0000
0000
0000
0110
0000
0000
0000
1000
0001
0000
1000
0001
0000
1000
0000
,
0020
0000
0100
0100
0130
0000
0110
0000
,
2000
0000
0000
0000
3200
0000
0000
0320
,
0000
0000
0000
0032
0000
0000
0003
0000
,
0200
0000
0000
0320
0000
0030
2000
3002
,
0000
0000
0023
0230
0000
0000
0300
0000
,
2000
0000
0000
0000
3002
0000
0000
0203
,
0000
0000
0000
0320
0000
0000
2030
0000
,
3002
0000
0000
0023
0000
0030
0200
2300
,
0000
0000
3020
0230
0000
0000
0000
0000
,
0300
0000
0000
0000
,
0000
0000
0000
0000
,
0000
0000
0000
0000
0000
0000
0001
2002
,
0000
3003
0000
0220
0000
0000
0030
0000
,
0001
0001
0010
0010
,
1000
1000
0010
0010
,
0301
1000
0001
1000
0010
0100
0001
0000
,
2000
3200
0320
0032
0000
0103
0110
0000
,
1000
0001
0100
0001
1000
0010
0100
0020
,
0000
1030
0001
0010
0100
1000
0200
0000
,
0310
0001
1000
0010
1000
0001
0010
0200
,
0000
1300
0001
0200
0000
0310
1010
0000
,
0001
0010
0100
0010
0001
1000
0100
0020
,
0000
0031
1000
0010
1000
0001
0200
0000
,
0310
1000
0100
0010
0001
0100
0010
2000
,
0000
0100
0100
0000
0001
0001
3001
0000
,
1000
0010
0100
0001
0010
0100
1000
0020
,
0000
0130
0001
0010
0001
1000
0020
0000
,
0130
0001
1000
0100
0001
0100
1000
1010
,
0000
0001
0100
0101
0000
0001
0020
0000
,
0130
1000
0010
0100
0001
0010
1000
0020
,
0000
0031
0100
2000
0000
3100
0001
1000
,
0010
0000
0110
0000
0100
0001
0010
0200
,
1000
0000
0010
0000
0001
0001
0301
0000
,
0100
1000
0100
1000
0010
0100
0001
0010
,
0001
1000
0001
1000
0010
0100
0001
0010
,
0100
0000
1000
0000
0100
1000
0100
0000
0010
0000
0001
0000
0010
0001
0010
0000
,
0001
0000
1000
0000
0001
1000
0001
0000
0100
0010
0100
0000
0001
1000
0001
0000
,
0020
0000
0000
0000
,
0000
0000
0000
0000
,
0030
0000
0000
0000
;

//--------------- dance-single - forcednature ----------------
#NOTEDATA:;
#STEPSTYPE:dance-single;
#DESCRIPTION:forcednature;
#CREDIT:forcednature;
#DIFFICULTY:Hard;
#METER:16;
#RADARVALUES:0,0,0,0,0;
#NOTES:
0000
0000
0000
0000
,
0000
0000
0000
0000
,
0000
0000
0000
0000
,
0000
0000
0000
0000
,
0000
0000
0000
0000
,
1000
0100
0000
0001
0101
0000
0100
2000
,
0001
0000
0000
0000
0010
0000
0000
0000
3001
0000
0000
0000
1000
0100
0010
0001
,
1000
0100
0001
0200
0000
1300
0001
0021
,
0000
0130
1000
1020
0000
0000
0130
0000
,
0001
0000
1000
0000
0100
0000
1000
0000
0001
0000
0010
0100
0000
0010
0001
0000
,
1000
0000
0001
0000
0100
0000
0001
0000
1000
0000
0010
0100
0000
0010
1000
0000
,
0001
0000
0010
0000
0100
0000
0010
0000
0001
1000
0100
1000
0000
1000
0100
0000
,
1000
0000
0010
0000
0100
0000
0010
0000
1000
0001
0100
0001
0000
0001
0100
0000
,
0010
0000
1000
0001
0000
1000
0100
0000
0010
0001
0010
0001
0000
0100
0001
0000
,
0100
0010
0100
0010
0000
1000
0010
0000
1000
0100
1000
0100
0000
0010
0100
0000
,
0010
0001
0010
0001
1000
0100
1000
0100
1000
0010
1000
0010
0100
0001
0100
0001
,
0010
0100
0010
0100
1000
0001
1000
0001
0100
0010
1000
0001
0200
0000
0000
0000
,
0310
0000
1000
0000
0100
0000
1000
0000
0002
0000
0103
0010
0000
1000
0200
0000
,
0310
0000
0001
0000
0100
0000
0001
0000
2000
0000
3100
0010
0000
0001
0200
0000
,
0310
0000
1000
0000
0100
0000
1000
0000
0002
0000
0013
0100
0000
1000
0020
0000
,
0130
0000
0001
0000
0010
0000
0001
0000
2000
0000
3010
0100
0001
0100
0010
0000
,
1000
0000
0100
0000
0001
0000
0100
0000
2000
0000
3001
0010
0000
0100
2000
0000
,
3001
0000
0100
0000
1000
0000
0100
0000
0002
0000
1003
0010
0000
0100
0002
0000
,
1003
0000
0010
0000
0001
0000
0010
0000
2000
0000
3001
0010
0000
0100
2000
0000
,
3001
0000
0010
0000
1000
0000
0010
0000
0001
1000
0001
1000
0200
0000
0000
0000
,
0310
0000
0100
0010
0001
0000
0100
0000
0001
0000
0100
0010
1000
0000
0001
0010
,
0001
0000
0010
0100
1000
0000
0001
0100
0001
0000
1000
0000
0100
0010
0001
1000
,
0200
0000
0310
0000
0110
0000
0000
0000
0100
1000
0010
0100
0001
0010
0100
0000
,
0010
0000
0001
1000
0001
1000
0010
0200
0000
0000
0301
0000
0001
0100
0010
1000
,
0001
0000
0010
0100
1000
0000
0010
0000
1000
0000
0100
0010
0001
0000
1000
0010
,
1000
0000
0001
0000
0010
0100
1000
0000
0001
0000
0010
0000
0001
1000
0010
0100
,
0002
0000
0003
0000
0110
0000
0000
0000
0100
0001
0010
0100
1000
0010
0100
0000
,
0101
0000
0001
0010
0001
0010
0001
0010
0100
0000
1000
0000
0010
0100
0001
1000
,
0020
0000
0230
0000
0302
0000
1003
0200
,
0000
0000
0310
0000
0001
0000
2000
0000
0000
0000
3010
0000
0100
0001
1000
0010
,
0200
0000
0300
0002
0000
0003
0011
0220
,
0000
0000
0330
0000
1100
0000
2020
0000
0000
0000
3030
0000
0010
0100
0001
1000
,
0020
0000
0230
0000
0302
0000
1003
0200
,
0000
0000
1300
0000
0001
0010
0200
0000
0000
0000
0310
0000
0001
1000
0010
0100
,
0002
0000
0003
2000
0000
3000
1100
0220
,
0000
0330
0011
0202
0000
0000
0000
0000
,
0303
0000
0000
0000
,
0000
0000
0000
0000
,
0000
0000
0000
0000
0000
0000
1100
0022
,
0000
0000
0033
0202
0000
0000
0300
0000
,
1000
0000
1000
0000
0010
0000
0010
0000
1000
0000
0000
0100
0000
0000
1000
0000
,
0010
0000
0000
1000
0000
0000
0010
0000
1000
0000
0000
0100
0000
0000
1003
0000
,
0001
0010
0001
0010
0100
1000
0100
1000
0010
0100
0010
0100
0001
1000
0001
1000
,
0200
0000
0320
0000
0031
1000
0001
1000
0010
0100
0001
1000
0020
0000
0000
0000
,
1030
0100
1000
0100
0010
0100
1000
0100
0010
0001
1000
0001
0020
0000
0230
0000
,
0000
0000
1300
0001
0100
0001
1000
0010
1000
0000
1010
0000
0001
0010
0100
1000
,
0001
0000
0100
0010
1000
0000
0100
0010
0001
0000
1000
0010
0100
0000
0120
0000
,
0000
0000
1030
0001
0010
0000
0110
0000
0100
1000
0001
0010
0001
0000
1000
0000
,
0001
0100
0001
0100
0010
0100
0001
0100
0010
1000
0001
1000
0020
0000
0230
0000
,
0000
0000
0301
1000
0100
1000
0001
0010
0001
0000
0011
0000
1000
0010
0100
0001
,
1000
0000
0100
0010
0001
0000
0100
0010
1000
0000
0001
0010
0100
0000
0120
0000
,
0000
0000
0000
0000
0001
0000
0031
0000
0010
0100
0010
0100
1000
0001
0100
0010
,
1000
0001
1000
0001
0100
0001
1000
0001
0100
0010
1000
0010
0200
0000
0302
0000
,
0000
0000
1003
0100
1000
0001
0010
0001
1000
0000
1100
0000
0001
0010
0100
1000
,
0001
0000
0100
0010
1000
0000
0100
0010
0001
0000
1000
0010
0100
0000
0102
0000
,
0000
0000
1003
0100
0001
0000
0101
0000
0100
1000
0100
1000
0010
0000
0000
0000
,
1000
0001
1000
0001
0010
0100
1000
0001
0100
0010
1000
0001
0020
0000
0230
0000
,
0000
0000
1300
0001
0100
0010
1000
0001
0010
0000
0110
0000
0001
0100
0010
1000
,
0001
0000
0010
0100
1000
0000
0010
0100
0001
0000
1000
0001
0010
0000
0100
1000
,
0002
0000
0000
0000
0100
0000
0103
0000
1000
0010
0100
0001
2000
0000
0000
0000
,
3100
0000
0010
0100
0000
1000
0100
0000
0010
0001
0000
1000
0010
0000
0100
0001
,
0000
0010
0100
0000
1000
0001
0000
0100
0010
0000
1000
0100
0000
0010
0001
0000
,
1000
0010
0100
0010
1000
0001
0100
0001
1000
0100
0010
0100
1000
0001
0100
0001
,
1000
0010
0100
0001
0010
0100
1000
0010
0100
0001
0010
0100
1000
0010
0100
0001
,
0020
0000
0000
0000
,
0000
0000
0000
0000
,
0030
0000
0000
0000
;

//--------------- dance-double - forcednature ----------------
#NOTEDATA:;
#STEPSTYPE:dance-double;
#DESCRIPTION:forcednature;
#CREDIT:forcednature;
#DIFFICULTY:Easy;
#METER:9;
#RADARVALUES:0,0,0,0,0;
#NOTES:
00000000
00000000
00000000
00000000
,
00000000
00000000
00000000
00000000
,
00000000
00000000
00000000
00000000
,
00000000
00000000
00000000
00000000
,
00000000
00000000
00000000
00000000
,
00010000
00001000
00011000
00000000
,
01000000
00000000
10010000
00000000
,
00001000
00000000
00010000
00000000
00011000
00000000
00000000
00000200
,
00000000
00000000
00000000
00000020
00000000
00000000
00000330
00000000
,
00000001
00000001
00000100
00000000
,
00001000
00001000
00010000
00000000
,
00100000
00100000
10000000
00000000
,
01000000
01000000
00010000
00000000
,
00001000
00010000
00001000
00010000
,
00000100
00001000
00000100
00001000
,
00000002
00000100
00000100
00000100
,
00000020
00000003
00000200
00000330
,
00001001
00001000
00000100
00000000
,
00010000
00001000
00100000
00000000
,
00001000
00010000
00001000
00000000
,
01000000
00010000
10000000
10000000
,
00100000
01000000
00020000
00000000
,
00130000
00001000
00020000
00000000
,
00030100
00001000
00000002
00000000
,
00000103
00000010
00002000
00003001
,
00001000
00000100
00010000
00001000
,
00100000
00001000
00020000
00000000
,
00031000
00011000
01000000
01000000
,
00010000
20000000
00000000
30000000
,
00100000
01000000
00010000
01000000
,
00001000
00010000
00000010
00001000
,
00000010
00001001
00000000
00001000
,
00000200
00000000
00000310
00000001
,
00000200
00000000
00000000
00000300
,
00002000
00000000
00000000
00003000
,
00020000
00000000
00030000
00200000
,
00000000
20300000
00000000
30000000
,
02000000
00000000
00000000
03000000
,
00200000
00000000
00000000
00300000
,
00002000
00000000
00003000
00020000
,
00000000
00030200
00000000
00000000
,
00000300
00000000
00000000
00000000
,
00000000
00000000
00000000
00000000
,
00000000
00000000
00000000
00000000
00000000
00000000
00002000
00003002
,
00000000
00000000
00000000
00000200
00000000
00000000
00000003
00000000
,
00000010
00000010
00000010
00000000
,
00000001
00000001
00000001
00000000
,
00000310
00001000
00010000
01000000
,
00200000
20300000
00000000
30010000
,
01100000
10000000
00010000
00100000
,
00001000
00010000
00001000
00000000
00010000
00000000
00000100
00000000
,
00001000
00000000
00000010
00000000
00000100
00000000
00000001
00001000
,
00000001
00000010
00000100
00000110
,
00001000
00000000
00000100
00000000
00010000
00000000
00001000
00010000
,
00001000
00100000
00010000
01000000
,
00100000
00000000
10000000
00000000
01000000
00000000
00100000
00010000
,
00200000
00001000
00001000
00301000
,
00011000
00000000
00000100
00000000
00001000
00000000
00000010
00001000
,
00000010
00000100
00000001
00000010
,
00000100
00000000
00010000
00000000
00001000
00000000
00100000
00020000
,
00000000
00030000
01000000
02000000
00000000
00000000
03000000
00000000
,
00100000
00000000
10000000
00000000
00010000
00000000
00100000
00010000
,
00100000
00001000
00010000
00000010
,
00001000
00000000
00000100
00000000
00000010
00000000
00000001
00002000
,
00000010
00000010
00000010
00003100
,
00001001
00001000
00000100
00010000
,
00011000
01000000
00010000
00010000
,
10010000
00001000
00011000
00000100
,
00001000
00000010
00001000
00000010
00000100
00000001
00000100
00000000
,
00002002
00000000
00000000
00000000
,
00000000
00000000
00000000
00000000
,
00003003
00000000
00000000
00000000
;

//--------------- dance-double - forcednature ----------------
#NOTEDATA:;
#STEPSTYPE:dance-double;
#DESCRIPTION:forcednature;
#CREDIT:forcednature;
#DIFFICULTY:Medium;
#METER:13;
#RADARVALUES:0,0,0,0,0;
#NOTES:
00000000
00000000
00000000
00000000
,
00000000
00000000
00000000
00000000
,
00000000
00000000
00000000
00000000
,
00000000
00000000
00000000
00000000
,
00000000
00000000
00000000
00000000
,
00010000
00000000
00000000
00000100
00001100
00000000
00000002
00000000
,
00000010
00000000
00000013
00000000
00001001
00000000
00001000
00000010
,
00010000
00000000
00001000
00100000
00000000
00010000
01000000
00200000
,
00000000
00000000
10000000
10000000
10000000
00000000
00300000
00000000
,
10010000
00000000
00000000
00000000
10010000
00000000
00000000
00000000
00010000
00000000
00000000
00010000
00000000
00000000
00100000
00000000
,
00001000
00000000
00000000
00000000
00011000
00000000
00000000
00000000
00000100
00000000
00000000
00000100
00000000
00000000
00001000
00000000
,
00000010
00000000
00000000
00000000
00001001
00000000
00000000
00000000
00010000
00000000
00000000
00010000
00000000
00000000
00001000
00000000
,
01000000
00000000
00000000
00000000
10010000
00000000
00000000
00000000
00010000
00000000
00000000
00010000
00000000
00000000
00100000
00000000
,
00001000
00000000
00000000
00001000
00000000
00000000
00001000
00000000
00010000
00000000
00000000
00010000
00000000
00000000
00010000
00000000
,
00000100
00000000
00000000
00000100
00000000
00000000
00000100
00000000
00001000
00000000
00000000
00001000
00000000
00000000
00001000
00000000
,
00000010
00000100
00000010
00000100
00001000
00010000
00001000
00010000
,
00100000
01000000
00010000
20000000
00000000
00100000
30100000
00000000
,
10000000
00000000
01000000
00000000
00010000
00000000
01000000
00000000
10000000
00000000
00000000
10000000
00010000
00000000
00000000
00000000
,
00100000
00000000
00001000
00000000
00010000
00000000
00000100
00000000
00001000
00000000
00000000
00001000
00000010
00000000
00000000
00000000
,
00000100
00000000
00001000
00000000
00000100
00000000
00000001
00000000
00001000
00000000
00000000
00001000
00000010
00000000
00000000
00000000
,
00010000
00001000
01000000
00010000
00200000
00000000
01300000
01000000
,
00100000
00000000
00010000
00000000
01000000
00000000
00010000
00000000
10000000
00000000
00000000
10000000
00100000
00000000
00000000
00000000
,
10000000
00000000
01000000
00000000
00010000
00000000
00001000
00000000
00100000
00000000
00000000
00100000
00010000
00000000
00000000
00000000
,
00001000
00000000
00000100
00000000
00001000
00000000
00000010
00000000
00000100
00000000
00000000
00000100
00000001
00000000
00000000
00000000
,
00000010
00001000
00010000
00002000
00000000
00100000
00103000
00000000
,
00101000
00000000
00011000
00000000
01001000
00000000
01000000
00020000
,
00000000
10030000
00100000
20000000
00000000
31000000
00010000
00001000
,
00000010
00000000
00000000
00000000
00000110
00000000
00000000
00000000
00000001
00000000
00001000
00000001
00000000
00001000
00000001
00000000
,
00000100
00000000
00001000
00002000
00010000
00000000
00103000
00000000
,
00101000
00000000
00011000
00000000
00010100
00000000
00000100
00000020
,
00000000
00000031
00001000
00000020
00000000
00000130
00001000
00010000
,
00100000
00000000
00000000
00000000
01100000
00000000
00000000
00000000
10000000
00000000
00010000
10000000
00000000
00010000
10000000
00000000
,
00200000
00000000
01000000
01000000
01300000
00000000
01100000
00000000
,
00020000
00000000
00000000
00000000
00230000
00000000
00000000
00302000
,
00000000
00000000
00000000
00023000
00000000
00000000
00030000
00000000
,
00000020
00000000
00000000
00002030
00000000
00003000
00000002
00000023
,
00000000
00000000
00000230
00002300
00000000
00000000
00003000
00000000
,
00000002
00000000
00000000
00000000
00000203
00000000
00000000
00002300
,
00000000
00000000
00000000
00023000
00000000
00000000
00230000
00000000
,
20300000
00000000
00000000
32000000
00000000
03000000
00200000
00320000
,
00000000
00000000
00032000
00003200
00000000
00000000
00000000
00000000
,
00000300
00000000
00000000
00000000
,
00000000
00000000
00000000
00000000
,
00000000
00000000
00000000
00000000
00000000
00000000
00000010
00000220
,
00000000
00000330
00000000
00022000
00000000
00000000
00003000
00000000
,
00000010
00000010
00001000
00001000
,
00000100
00000100
00001000
00001000
,
00030010
00010000
00001000
00010000
00100000
01000000
00010000
00000000
,
20000000
32000000
03020000
00032000
00000000
00003010
00000110
00000000
,
00001000
00000001
00000100
00001000
00010000
00001000
00000100
00000002
,
00000000
00000013
00001000
00010000
01000000
00100000
00002000
00000000
,
00013000
00100000
10000000
00100000
10000000
01000000
00010000
00002000
,
00000000
00103000
00010000
02000000
00000000
03001000
00011000
00000000
,
00000010
00000100
00001000
00000100
00000001
00001000
00000010
00002000
,
00000000
00013000
01000000
00010000
10000000
01000000
00020000
00000000
,
00031000
00100000
00010000
00100000
00001000
00000010
00000100
00002000
,
00000000
00000001
00000001
00000000
00000010
00000010
00003010
00000000
,
00001000
00000010
00000100
00000001
00000100
00001000
00010000
00200000
,
00000000
01300000
00010000
10000000
00100000
10000000
02000000
00000000
,
03010000
00001000
00100000
00010000
00100000
00001000
00000010
00000110
,
00000000
00000100
00001000
00001010
00000000
00000001
00000200
00000000
,
00001300
00010000
00100000
01000000
00100000
00010000
00001000
02000000
,
00000000
03010000
10000000
00200000
00000000
10300000
01000000
00010000
,
00001000
00000000
00011000
00000000
00000100
00001000
00000010
00000200
,
00000001
00000000
00000001
00000000
00000010
00000010
00000310
00000000
,
00000100
00001000
00000100
00001000
00010000
00100000
00010000
00100000
,
10000000
01000000
10000000
01000000
00010000
00001000
00010000
00001000
,
00000010
00000000
00000100
00000000
00000010
00000100
00000010
00000000
00000001
00000000
00001000
00000000
00000001
00001000
00000001
00000000
,
00000100
00000000
00000010
00000000
00000100
00000010
00000100
00000000
00001000
00000000
00010000
00000000
00100000
01000000
00100000
00000000
,
02200000
00000000
00000000
00000000
,
00000000
00000000
00000000
00000000
,
03300000
00000000
00000000
00000000
;

//--------------- dance-double - forcednature ----------------
#NOTEDATA:;
#STEPSTYPE:dance-double;
#DESCRIPTION:forcednature;
#CREDIT:forcednature;
#DIFFICULTY:Hard;
#METER:16;
#RADARVALUES:0,0,0,0,0;
#NOTES:
00000000
00000000
00000000
00000000
,
00000000
00000000
00000000
00000000
,
00000000
00000000
00000000
00000000
,
00000000
00000000
00000000
00000000
,
00000000
00000000
00000000
00000000
,
00001000
00010000
00001000
00000010
00000000
00000001
00000100
00002000
,
00000000
00000000
00000000
00000000
00010000
00000000
00000000
00000000
00103000
00000000
00000000
00000000
00001000
00010000
00001000
01000000
,
00010000
10000000
00100000
00020000
00000000
00130000
10000000
12000000
,
00000000
03010000
00001000
00022000
00000000
00000000
00033000
00000000
,
00010000
00000000
00001000
00000000
00000010
00000000
00001000
00000000
00010000
00000000
00000100
00001000
00000000
00000010
00000100
00000000
,
00001000
00000000
00010000
00000000
00100000
00000000
00010000
00000000
00001000
00000000
01000000
00010000
00000000
00100000
01000000
00000000
,
00010000
00000000
00001000
00000000
00000010
00000000
00001000
00000000
00010000
00000000
00000100
00001000
00000000
00000010
00000100
00000000
,
00001000
00000000
00010000
00000000
00100000
00000000
00010000
00000000
00001000
00000000
01000000
00010000
00000000
00100000
01000000
00000000
,
00100000
00000000
00001000
00010000
00000000
00000100
00001000
00000000
00000010
00000000
00010000
00001000
00000000
01000000
00010000
00000000
,
00100000
00000000
00001000
00010000
00000000
00000100
00001000
00000000
00000010
00000000
00010000
00001000
00000000
01000000
00010000
00000000
,
10000000
00100000
10000000
00100000
01000000
00010000
01000000
00000000
00001000
00010000
00001000
00010000
00000010
00001000
00000010
00000000
,
00000100
00000001
00000100
00000001
00000010
00000001
00000010
00000000
00000100
00001000
00000100
00000000
00001001
00000000
00000000
00000000
,
00000001
00000000
00000100
00000000
00001000
00000000
00010000
00000000
01000000
00000000
00100000
00010000
00000000
10000000
00100000
00000000
,
10000000
00000000
01000000
00000000
00010000
00000000
00001000
00000000
00000100
00000000
00000010
00001000
00000000
00000001
00000010
00000000
,
00000001
00000000
00000100
00000000
00001000
00000000
00010000
00000000
01000000
00000000
00100000
00010000
00000000
10000000
00100000
00000000
,
10000000
00000000
01000000
00000000
00010000
00000000
00001000
00000000
00000010
00000000
00000100
00000010
00000000
00000100
00001000
00000000
,
00000010
00000000
00010000
00000000
00100000
00000000
00010000
00000000
00001000
00000000
00100000
00010000
00000000
10000000
01000000
00000000
,
00100000
00000000
00001000
00000000
00000010
00000000
00001000
00000000
00010000
00000000
00000010
00001000
00000000
00000001
00000100
00000000
,
00000010
00000000
00001000
00000000
00100000
00000000
00010000
00000000
00001000
00000000
01000000
00010000
00000000
10000000
00100000
00000000
,
10000000
00000000
01000000
00000000
00010000
00000000
00001000
00000000
00000010
00000100
00000010
00000100
00002000
00000000
00000000
00000000
,
00003001
00000000
00000100
00001000
00010000
00000000
00100000
00000000
00010000
00000000
00001000
01000000
00010000
00000000
01000000
00100000
,
10000000
00000000
01000000
10000000
00010000
00000000
00100000
01000000
00100000
00000000
00001000
00000000
00010000
00000100
00001000
00000100
,
00000020
00000000
00000030
00000000
00001001
00000000
00000000
00000000
00001000
00000100
00010000
00001000
00100000
00010000
01000000
00000000
,
00100000
00000000
10000000
00010000
10000000
00010000
00200000
00000000
00000000
00000000
01300000
00000000
00100000
00010000
00100000
01000000
,
10000000
00000000
00100000
10000000
00100000
00000000
01000000
00000000
00010000
00000000
00100000
01000000
00010000
00000000
00001000
00010000
,
00001000
00000000
00000010
00000000
00000100
00001000
00000001
00000000
00000100
00000000
00001000
00000000
00010000
00001000
01000000
00010000
,
02000000
00000000
03000000
00000000
10010000
00000000
00000000
00000000
00010000
01000000
00001000
00010000
00000010
00001000
00000100
00000000
,
00000010
00000000
00000001
00001000
00000001
00001000
00000001
00001000
00000010
00000000
00000100
00000000
00001000
00000000
00010000
00000000
,
00200000
00000000
20300000
00000000
30020000
00000000
00130000
02000000
,
00000000
00000000
03100000
00000000
00001000
00000000
00020000
00000000
00000000
00000000
00030100
00000000
00010000
00001000
00010000
00000010
,
00002000
00000000
00003000
00000002
00000000
00000003
00000011
00000220
,
00000000
00000000
00000330
00000000
00010100
00000000
00022000
00000000
00000000
00000000
00033000
00000000
00100000
00010000
00100000
01000000
,
20000000
00000000
30200000
00000000
02300000
00000000
03010000
00200000
,
00000000
00000000
01300000
00000000
00100000
00001000
00020000
00000000
00000000
00000000
00030100
00000000
00010000
00001000
00100000
00010000
,
00200000
00000000
00300000
02000000
00000000
03000000
10100000
02200000
,
00000000
03300000
01001000
00022000
00000000
00000000
00000000
00000000
,
00033000
00000000
00000000
00000000
,
00000000
00000000
00000000
00000000
,
00000000
00000000
00000000
00000000
00000000
00000000
00000110
00002002
,
00000000
00000000
00003003
00020200
00000000
00000000
00000300
00000000
,
00100000
00000000
00100000
00000000
00100000
00000000
00000000
00000000
00001000
00000000
00000000
00001000
00000000
00000000
00001000
00000000
,
00000100
00000000
00000000
00000100
00000000
00000000
00000100
00000000
00001000
00000000
00000000
00001000
00000000
00000000
00031000
00000000
,
00010000
00001000
00010000
00001000
01000000
00010000
01000000
00010000
10000000
01000000
10000000
01000000
00100000
00010000
00100000
00010000
,
02000000
00000000
03200000
00000000
00320000
00000000
00032000
00000000
00003020
00000000
00000130
00001000
00000001
00000000
00000000
00000000
,
00001000
00000000
00000010
00000100
00000001
00000000
00000010
00000100
00001000
00000000
00000100
00010000
00002000
00000000
00203000
00000000
,
00000000
00000000
00310000
01000000
00010000
01000000
00100000
10000000
00100000
00000000
10100000
00000000
10000000
01000000
00100000
00010000
,
10000000
00000000
01000000
00010000
00001000
00000000
00100000
00010000
01000000
00000000
00001000
00010000
00000010
00000000
00002010
00000000
,
00000000
00000000
00003100
00000010
00000001
00000000
00000201
00000000
00000000
00000000
00000310
00001000
00000001
00000000
00000000
00000000
,
00001000
00000000
00000010
00000100
00001000
00000000
00010000
00000010
00001000
00000000
00000100
00010000
00002000
00000000
02003000
00000000
,
00000000
00000000
03100000
10000000
00100000
10000000
01000000
10000000
01000000
00000000
01100000
00000000
00100000
00010000
00100000
00001000
,
00010000
00000000
00000010
00001000
00000100
00000000
00010000
00001000
01000000
00000000
00010000
00100000
00001000
00000000
00020000
00000000
,
00000000
00000000
00000100
00000000
00000100
00000000
00000000
00030000
00001000
00010000
00001000
00010000
00000010
00001000
00000001
00000100
,
00000010
00000000
00001000
00000001
00001000
00000001
00000010
00000001
00001000
00000100
00010000
00001000
00020000
00000000
00030020
00000000
,
00000000
00000000
00001030
00000000
00000010
00000100
00000001
00001000
00000010
00000000
00000110
00000000
00000100
00000001
00001000
00000010
,
00000100
00000000
00001000
00010000
00001000
00000000
01000000
00010000
00100000
00000000
01000000
10000000
00010000
00000000
00210000
00000000
,
00000000
00000000
01300000
00010000
00001000
00000000
00011000
00000000
00010000
00000100
00001000
00000010
00010000
00000000
00000000
00000000
,
00100000
01000000
00100000
01000000
00010000
00100000
01000000
10000000
00010000
01000000
00010000
00100000
02000000
00000000
03020000
00000000
,
00000000
00000000
00031000
00010000
00000100
00001000
00000100
00010000
00001000
00000000
00000010
00000000
00000100
00001000
00000001
00000010
,
00000100
00000000
00000010
00000001
00000100
00000000
00001000
00000000
00010000
00000000
00100000
10000000
01000000
00000000
10000000
00010000
,
00200000
00000000
00000000
00000000
01000000
00000000
00000000
00300000
00010000
00100000
00001000
00010000
00000200
00000000
00000000
00000000
,
00001300
00000000
00001000
00000001
00000000
00000001
00000100
00000000
00000100
00001000
00000000
00001000
00010000
00000000
00010000
00100000
,
00000000
00100000
10000000
00000000
10000000
01000000
00000000
01000000
00010000
00000000
00001000
00000010
00000000
00000001
00000100
00000000
,
00001000
00010000
00001000
00010000
00001000
00100000
00010000
00100000
01000000
10000000
01000000
10000000
00010000
00100000
00001000
00010000
,
00000010
00001000
00000010
00001000
00000001
00000100
00000001
00000100
00000010
00001000
00000001
00001000
00000100
00010000
00001000
00100000
,
00020000
00000000
00000000
00000000
,
00000000
00000000
00000000
00000000
,
00030000
00000000
00000000
00000000
;
