#VERSION:0.83;
#TITLE:ΕΛΠΙΣ;
#SUBTITLE:;
#ARTIST:dj TAKA;
#TITLETRANSLIT:Elpis;
#SUBTITLETRANSLIT:;
#ARTISTTRANSLIT:;
#GENRE:ROMANTIC SCHOOL VARIATIONS;
#CREDIT:;
#MUSIC:Elpis.ogg;
#BANNER:Elpis.png;
#BACKGROUND:Elpis-bg.png;
#CDTITLE:./CDTitles/bm IIDX 20 tricoro.png;
#SAMPLESTART:67.522;
#SAMPLELENGTH:15.000;
#SELECTABLE:YES;
#OFFSET:2.407;
#BPMS:0.000=175.000;
#STOPS:;
#TIMESIGNATURES:0.000=4=4;
#BGCHANGES:0.000=Elpis.mp4=1.000=0=0=0=StretchNoLoop====,
99999.000=-nosongbg-=1.000=0=0=0=StretchNoLoop====
;
#FGCHANGES:;

//--------------- dance-single - forcednature ----------------
#NOTEDATA:;
#STEPSTYPE:dance-single;
#DESCRIPTION:forcednature;
#CREDIT:forcednature;
#DIFFICULTY:Beginner;
#METER:6;
#RADARVALUES:0,0,0,0,0;
#NOTES:
0000
0000
0000
0000
,
0000
0000
0000
0000
,
0000
0000
0000
0000
,
0000
0000
0000
0000
,
0000
0000
0000
0000
,
0000
0000
0000
0000
,
0000
1000
0000
1000
,
0000
0001
0000
0001
,
0000
0100
0000
0100
,
0000
0010
0000
0000
,
1001
0000
0000
0000
,
0001
0000
0010
0000
,
0001
0000
0000
0000
,
1000
0000
0010
0000
,
1001
0000
0000
0000
,
1000
0000
0100
0000
,
1000
0000
0001
0000
,
0100
0000
0000
0000
,
0110
0000
0000
0000
,
0010
0000
1000
0000
,
0001
0000
0000
0000
,
0010
0000
0001
0000
,
1001
0000
0000
0000
,
0110
0000
0000
0000
,
1001
0000
1000
0000
,
0001
0000
0100
0000
,
2002
0000
0000
0000
,
0000
0000
0000
0000
,
0000
0000
0000
0000
,
3003
0000
0000
0000
,
0001
0000
0000
0000
,
1000
0000
0000
0000
,
0100
0000
0000
0000
,
1000
0000
0000
0000
,
0001
0000
0000
0000
,
0100
0000
0000
0000
,
0001
0000
0000
0000
,
0010
0000
0000
0000
,
1001
0000
0000
0000
,
0001
0000
0000
0000
,
0100
0000
0000
0000
,
0001
0000
0000
0000
,
1001
0000
0000
0000
,
1000
0000
0000
0000
,
0100
0000
0000
0000
,
1000
0000
0000
0000
,
0110
0000
0000
0000
,
1001
0000
0000
0000
,
0110
0000
1001
0000
,
0010
0010
0100
0100
,
0000
0000
0000
0000
,
1001
0000
1000
0000
,
0100
1000
0100
0000
,
0010
0000
0001
0000
,
0100
0000
0001
0000
,
1000
0000
0010
0000
,
1000
0010
1000
0000
,
0001
0000
0010
0000
,
0100
1000
0100
0000
,
0010
0001
0010
0000
,
0001
0000
0100
0000
,
0010
1000
0010
0000
,
0100
0000
0001
0000
,
1000
1000
1000
0000
,
0001
0001
0001
0000
,
0010
0010
0010
0000
,
0200
0000
0300
0000
,
1001
0000
0001
0100
,
0001
0100
0010
0000
,
1000
1000
0001
0001
,
0010
0010
0100
0000
,
0010
0001
1000
0000
,
0010
0010
0010
0000
,
0100
0001
0100
0001
,
1000
0100
1000
0100
,
0010
0000
0100
1000
,
0001
0000
0100
0000
,
0010
1000
0001
0000
,
0010
0001
1000
0000
,
0010
0000
0100
0001
,
1000
0001
0010
0000
,
0100
1000
0100
0000
,
0010
0001
0100
0100
,
2002
0000
0000
0000
,
0000
0000
0000
0000
,
0000
0000
0000
0000
,
0000
0000
0000
0000
,
0000
0000
0000
0000
,
0000
0000
0000
0000
,
0000
0000
0000
0000
,
0000
0000
0000
0000
,
0000
0000
0000
0000
,
0000
0000
0000
0000
,
0000
0000
0000
0000
,
0000
0000
0000
0000
,
3003
0000
0000
0000
;

//--------------- dance-single - forcednature ----------------
#NOTEDATA:;
#STEPSTYPE:dance-single;
#DESCRIPTION:forcednature;
#CREDIT:forcednature;
#DIFFICULTY:Easy;
#METER:10;
#RADARVALUES:0,0,0,0,0;
#NOTES:
0000
0000
0000
0000
,
0000
0000
0000
0000
,
0000
0000
0000
0000
,
0000
0000
0000
0000
,
0000
0000
0000
0000
,
0000
0000
0000
0000
,
1000
0000
0000
0000
0001
0000
0000
0100
0000
0000
0100
0000
0001
0000
0000
0000
,
0000
0000
0000
0000
1000
0000
0000
0100
0000
0000
0100
0000
1000
0000
0000
0000
,
0000
0000
0000
0000
0001
0000
0000
0010
0000
0000
0010
0000
0001
0000
0000
0000
,
0000
0000
0000
0000
1000
0000
0000
0010
0000
0000
0020
0000
0000
0000
0000
0000
,
0130
0000
0001
0000
0100
0001
0100
0000
,
0010
1000
0001
0010
,
0100
0000
1000
0000
0100
1000
0100
0000
,
0010
0001
1000
0010
,
0110
0000
0100
0001
,
1000
0001
0010
0100
,
2000
0000
3000
0002
0000
0003
0200
0000
,
0300
0020
0000
0030
1000
0000
0001
0000
,
0010
0000
0100
0000
0010
0100
0010
0000
,
0001
1000
0100
1000
,
0010
0000
0100
0000
0010
0100
0010
0000
,
1000
0001
0100
0001
,
1001
1000
0100
0010
,
1001
0001
0100
0010
,
1000
0000
0100
0010
0100
0000
1000
0000
,
0001
0000
0100
0000
0010
0000
1000
1000
,
0002
0000
0000
0000
,
0000
0000
0000
0000
,
0000
0000
0000
0000
,
0003
0000
0000
0000
,
1001
0000
1000
0000
,
0100
0010
0001
0010
,
0100
0000
1000
0000
,
0001
0100
0010
1000
,
0002
0000
0023
0000
,
0230
0000
2300
0000
,
3001
0000
0100
0000
,
0000
0010
1000
0001
,
1001
0000
1000
0000
,
0100
1000
0010
1000
,
0001
0000
0010
0000
,
0100
0000
0010
0000
,
1001
0000
1000
0001
,
0100
0001
0010
0000
,
0100
0000
1000
0000
,
0000
0001
0100
0001
,
1001
1000
0100
1000
,
1001
0001
0010
0001
,
1001
0010
1001
0100
,
0110
1001
0110
1001
,
0020
0000
0000
0030
,
1001
0000
1000
0000
0001
0010
0001
0000
,
0100
0010
1000
0001
,
0010
0100
0010
0000
0100
1000
0100
0000
,
0010
0001
1000
0010
,
0100
0001
0100
0000
0010
0000
1000
0000
,
0100
1000
0100
0000
0010
0000
0001
0000
,
0100
0010
0100
0000
0001
0000
1000
0000
,
0100
0010
0001
1000
,
0001
0100
0001
0000
0100
0001
0100
0000
,
0010
1000
0001
0010
,
0100
1000
0100
0000
1000
0100
1000
0000
,
0001
0100
0010
1000
,
0100
0000
0010
0000
0001
1000
0001
0000
,
0100
0000
0010
0000
1000
0001
1000
0000
,
0002
0100
1000
0013
,
0001
0000
0100
0000
0010
1000
0010
0000
,
1001
0000
0000
0000
1000
0100
1000
0000
,
0100
0010
0100
0000
0010
0001
0010
0000
,
0001
0001
0100
0100
0001
0000
1000
0000
,
0010
1000
0002
0003
,
0010
0100
0010
0000
0100
1000
0100
0000
,
0010
0010
0010
0000
0001
0000
1000
0000
,
0001
0100
0001
0100
0010
1000
0010
0000
,
1000
0100
1000
0100
0010
0001
0010
0000
,
2002
0000
3003
0000
0001
0100
0010
0000
,
1000
0001
0010
0000
0100
1000
0001
0000
,
0200
0320
2030
3002
,
0023
0230
0320
0032
,
0203
0000
0300
0000
0010
1000
0001
0000
,
0010
0100
1000
0000
0001
0100
0010
0000
,
1000
0000
0100
0000
0010
0001
0010
0000
,
0100
0000
0100
0000
1000
0000
0000
0000
0001
0000
0000
0001
0000
0000
0100
0000
,
1001
0000
0000
0000
;

//--------------- dance-single - forcednature ----------------
#NOTEDATA:;
#STEPSTYPE:dance-single;
#DESCRIPTION:forcednature;
#CREDIT:forcednature;
#DIFFICULTY:Medium;
#METER:14;
#RADARVALUES:0,0,0,0,0;
#NOTES:
0000
0000
0000
0000
,
0000
0000
0000
0000
,
0000
0000
0000
0000
,
0000
0000
0000
0000
,
0000
0000
0000
0000
,
0000
0000
0000
0000
,
1000
0000
0000
1000
0100
0000
0000
0010
0000
0000
0001
0000
0101
0000
0000
0000
,
0001
0000
0000
0001
0100
0000
0000
0010
0000
0000
1000
0000
1100
0000
0000
0000
,
1000
0000
0000
1000
0001
0000
0000
0100
0000
0000
0010
0000
1001
0000
0000
0000
,
0001
0000
0000
0001
1000
0000
0000
0100
0000
0000
0220
0000
0000
0330
0000
0000
,
0100
0000
1000
0000
0001
0100
0000
0001
0000
1000
0010
0000
1000
0000
0000
0000
,
0001
0100
0001
0000
1000
0000
0010
0000
1000
0100
1000
0000
0001
0000
0000
0000
,
0010
0000
0100
0000
0010
0001
0000
1000
0000
0100
1000
0000
0001
0000
0000
0000
,
0010
0100
0010
0000
0001
0000
1000
0000
0010
0100
0010
0000
1000
0000
0000
0000
,
0001
0000
0100
0000
1000
0000
0100
0000
0001
1000
0001
0000
1000
0000
0000
0000
,
0001
0000
0010
0000
0100
1000
0100
0000
0010
0000
0001
0000
1000
0000
0000
0000
,
0001
0100
0001
0000
0100
0000
0010
1000
0010
0000
1000
0000
0001
0010
0001
0000
,
0010
0000
0100
1000
0100
0000
1000
0000
0010
0000
0010
0000
0200
0000
0000
0000
,
0301
0010
0000
0001
0010
0000
0001
0010
0000
0001
0010
0000
0100
0000
0000
0000
,
1000
0001
1000
0000
0010
0000
0100
0000
0010
0000
1000
0000
0001
0000
0000
0000
,
1000
0010
0000
1000
0010
0000
1000
0010
0000
1000
0010
0000
0100
0000
0000
0000
,
0001
0010
0001
0000
1000
0000
0010
0000
0100
0000
0001
0000
1000
0000
0000
0000
,
0100
0010
0100
0000
1000
0000
0001
0000
0100
0000
0000
0000
0110
0000
0000
0000
,
0100
0010
0100
0000
0001
0000
1000
0000
0100
0000
0000
0000
0110
0000
0000
0000
,
0100
1000
0100
0000
1000
0000
0001
0010
0001
0000
0010
0000
0001
0100
0001
0000
,
0100
0000
0010
1000
0010
0000
0100
0000
0001
0000
0001
0000
0010
0000
0000
0000
,
0220
0000
0000
0000
,
0000
0000
0000
0000
,
0000
0000
0000
0000
,
0330
0000
0000
0000
,
1001
0000
0001
0100
0000
0010
1000
0000
,
0001
0020
0230
2300
,
3002
0000
0103
0001
1000
0010
1000
0001
,
0020
0032
2003
3002
,
0103
0001
0100
0010
0100
1000
0100
0001
,
1000
0010
1000
0001
0010
0001
0100
0001
,
0010
0000
0100
1000
0000
0001
0000
0100
,
0000
0020
2030
3001
,
1001
0000
1000
0100
0000
0010
0100
0000
,
1000
0002
0203
0302
,
0023
0000
0130
1000
0001
0100
0010
1000
,
0002
0023
0230
1300
,
1001
0000
0001
0100
0010
0100
1000
0100
,
0001
0010
0100
0010
1000
0010
0001
1000
,
0001
0000
0100
0010
0000
1000
0000
0001
,
0000
2000
3020
0130
,
1001
0002
0023
0130
,
1001
2000
3200
0310
,
0011
0000
0001
0100
0000
0100
0010
0000
0010
1000
0000
1000
,
0001
0010
0001
1000
0010
1000
0001
0100
0001
1000
0100
1000
,
0020
0000
0000
0030
,
0100
0000
0000
0000
0001
0000
1000
0000
0001
0010
0001
0000
0100
0000
0000
0000
,
0010
0000
0000
0010
1000
0000
0000
0000
0001
0000
0010
0000
0100
0000
1000
0000
,
0001
0100
0001
0000
0100
0000
0000
0000
0010
0000
1000
0000
0001
0000
1000
0000
,
0100
0010
0100
0000
0010
0001
0010
0000
0001
0000
1000
0000
0001
0000
0000
0000
,
0100
0001
0100
0000
0010
0000
1000
0000
0001
0010
0001
0010
0000
0000
0100
0000
,
1000
0100
1000
0000
0001
0000
0100
0000
0010
1000
0010
0000
0100
0001
0100
0000
,
0010
1000
0001
1000
0100
0001
0100
0010
,
0001
0000
0100
0000
0001
0000
1000
0000
0100
0000
1000
0000
0010
0000
0000
0010
0000
0000
0010
0000
0000
0000
0000
0000
,
1000
0100
0010
0100
0001
0100
0010
0100
,
1000
0010
0100
0010
0001
0010
0100
0010
,
1000
0000
0001
0010
0001
0000
0100
0000
0001
0000
1000
0000
0010
0000
0000
0000
,
1000
0100
1000
0000
0001
0000
0100
0000
0010
0000
1000
0000
0001
0000
0010
0000
,
0001
0000
0000
0001
0100
0000
0010
0000
1000
0000
0001
0000
0010
0000
0000
0000
,
0100
1000
0100
0000
1000
0100
1000
0000
0001
0000
1000
0000
0010
0000
0000
0000
,
0100
0000
0001
0000
0100
0000
0010
0000
1000
0000
0010
0000
0100
0000
0000
0100
0000
0000
0001
0000
0000
0001
0000
0000
,
0010
0000
0001
0000
0010
0000
0100
0000
1000
0000
0100
0000
0010
0000
0000
0001
0000
0000
1000
0000
0000
0010
0000
0000
,
0220
0000
0000
0000
0000
0330
0000
0000
0100
0000
1000
0000
0100
0000
0001
0000
,
0010
0001
0010
0000
0100
0000
1000
0000
0001
0000
0100
0000
0001
0000
0010
0000
,
0100
0000
1000
0000
0001
0000
0100
0000
0001
0000
1000
0000
0010
0000
0000
0010
0000
0000
0100
0000
0000
0010
0000
0000
,
1000
0001
1000
0000
0100
0000
1000
0000
0001
0100
0001
0100
0001
0000
1000
0000
,
0010
0000
0000
0000
0100
0000
1000
0000
0100
0001
0100
0000
0010
0000
1000
0000
,
0001
0010
0001
0000
1000
0100
1000
0000
0001
0000
0100
0000
0010
0000
1000
0000
,
0100
0010
0100
0000
1000
0000
0001
0000
1000
0000
0010
0000
0100
0000
0001
0000
,
0010
0100
0010
0000
0001
0000
1000
0000
0010
0000
0010
0000
0100
0000
0100
0000
,
0220
0000
0000
0000
0330
0000
0000
0000
0100
0000
0001
0010
0001
0000
1000
0000
,
0100
0000
1000
0010
1000
0000
0001
0000
0100
0000
0010
0000
1000
0000
0001
0000
,
0010
0001
0010
0100
0010
0100
1000
0100
1000
0001
1000
0001
,
0100
0000
0000
0000
0001
0000
0000
0000
0100
0000
0000
0000
0010
0000
0000
0000
0000
0000
1000
0000
0000
0001
0000
0000
1000
0000
0000
0000
0000
0000
0100
0000
0000
0000
0000
0000
0010
0000
0000
0000
0000
0000
0001
0000
0000
0000
0000
0000
,
0200
0000
0000
0000
0301
0000
1000
0000
0100
0000
1000
0010
1000
0000
0001
0000
,
0100
0000
0001
0010
0001
0000
1000
0000
0100
0000
0010
0000
0001
0000
0100
0000
,
0001
0000
0010
0001
0010
0000
0001
0100
0001
0000
1000
0100
1000
0000
0010
1000
,
0010
0000
0100
0000
0001
0000
1000
0000
0001
0010
0000
0100
1000
0000
0010
0000
,
1001
0000
0000
0000
;

//--------------- dance-single - forcednature ----------------
#NOTEDATA:;
#STEPSTYPE:dance-single;
#DESCRIPTION:forcednature;
#CREDIT:forcednature;
#DIFFICULTY:Hard;
#METER:18;
#RADARVALUES:0,0,0,0,0;
#NOTES:
0000
0000
0000
0000
,
0000
0000
0000
0000
,
0000
0000
0000
0000
,
0000
0000
0000
0000
,
0000
0000
0000
0000
,
0000
0000
0000
0000
,
1001
0000
0000
0000
0101
0000
0000
0001
0000
0000
0100
0000
0010
0000
0000
0010
,
1000
0000
0000
0000
1100
0000
0000
1000
0000
0000
0100
0000
0010
0000
0000
0010
,
0001
0000
0000
0000
1010
0000
0000
1000
0000
0000
0010
0000
0100
0000
0000
0100
,
0001
0000
0000
0000
0011
0000
0000
0001
0000
0000
0010
0000
0100
1000
0100
1000
,
0001
0000
0100
0000
0010
1000
0000
0001
0000
0010
0100
0010
0100
0000
1000
0000
,
0001
1000
0010
0000
0100
0010
0100
0000
0010
1000
0010
0000
1000
0001
1000
0000
,
0100
1000
0100
0010
0100
0000
0010
0001
0000
1000
0001
0000
0100
0001
0100
0000
,
0001
1000
0010
0000
1000
0001
1000
0000
0001
0010
0001
0010
0100
1000
0001
0000
,
0101
0000
0100
0010
1000
0000
0001
0010
0000
0100
0010
0000
0001
0000
0100
0010
,
1000
0000
0001
0010
0001
0000
1000
0100
0000
0010
0100
0000
1000
0000
0001
0000
,
0100
0001
0100
0010
1000
0000
0100
1000
0100
0010
0001
0000
0100
0010
1000
0001
,
0010
0000
0100
0010
0001
1000
0001
0100
0010
0000
0010
0000
1000
0100
1000
0100
,
0010
0001
0000
0010
0100
0000
0010
1000
0000
0010
0100
0000
0010
0000
0001
0000
,
0100
0001
0100
0010
1000
0000
0100
0000
0010
0001
1000
0000
0010
1000
0001
0000
,
0100
1000
0000
0100
0010
0000
0100
0001
0000
1000
0001
0000
0010
0001
0010
0000
,
0100
1000
0001
1000
0010
0100
0001
0100
0010
0000
1000
0000
1100
0000
0100
0010
,
0001
0010
0100
0010
0001
0000
1000
0001
0000
0100
0010
0000
1000
0000
0100
1000
,
0001
0100
0010
0100
0001
0000
1000
0010
0000
1000
0001
0000
0011
0000
0000
0000
,
0010
0100
1000
0100
0010
0000
0001
0100
0010
0100
0001
0000
1000
0001
0010
0001
,
0100
0000
0010
1000
0001
1000
0100
0001
0100
0000
0100
0000
1000
0010
0100
0001
,
0020
0000
0000
0000
,
0000
0000
0000
0000
,
0000
0000
0000
0000
,
0030
0000
0000
0000
,
1001
0000
0001
0010
0000
0001
0100
0000
,
0010
0000
0000
1000
0000
0000
0002
0010
0000
0000
0000
0000
0023
0000
0000
0000
0000
0000
0230
0000
0000
0000
0000
0000
,
2300
0000
3001
0100
0001
1000
0100
1000
,
0020
0230
0302
2003
,
3100
0010
0001
0010
0100
1000
0001
1000
,
0010
1000
0010
0000
0100
0010
0100
0000
0001
0100
0001
0000
1000
0001
1000
0000
,
0002
0000
0103
0020
0000
2030
0000
3002
,
0000
0000
0000
0003
0000
0000
0020
0100
0000
0000
0000
0000
0032
0000
0000
0000
0000
0000
1003
0000
0000
0000
0000
0000
,
0011
0001
0100
0001
0000
1000
0010
0000
,
1000
0000
0000
0000
0200
0010
0000
0000
0320
0000
0000
0000
0032
0000
0000
0000
,
0203
0000
0310
1000
0001
0010
0001
0100
,
0020
0032
0023
1030
,
1001
0000
0001
0010
0001
0100
0010
1000
,
0100
1000
0100
0000
0010
0100
0010
0000
0001
0010
0001
0000
1000
0000
0001
0000
,
0100
0001
0000
0000
1000
0000
0200
0000
0000
0000
0320
0000
0000
0000
0032
0000
,
0000
0000
0000
0003
0000
0000
0001
0100
0000
0000
0000
0000
0010
0000
0000
0000
0000
0000
1000
0000
0000
0001
0000
0000
,
1001
0000
0000
0000
0000
0000
1000
0100
0000
0000
0000
0000
0010
0000
0000
0000
0000
0000
0001
0000
0000
1000
0000
0000
,
1001
0000
0000
0000
0001
0100
0000
0000
0010
0100
0000
0000
0010
1000
0010
0000
,
1000
0000
1000
0100
0000
0100
0001
0000
0001
0100
0000
0100
,
0010
0001
0100
0010
1000
0100
1000
0010
0001
0010
0100
0001
,
1000
0100
1000
0100
0010
0100
0010
0100
0010
0001
0010
0001
1000
0000
0000
0000
,
0001
0000
1000
0100
1000
0000
0001
0100
0001
0100
0010
1000
0001
1000
0100
0010
,
0001
0000
0100
0001
0100
0000
0010
1000
0010
0100
0001
1000
0001
0010
0100
0000
,
1000
0100
1000
0001
0010
0000
0001
0100
0001
0000
1000
0010
1000
0000
0001
0000
,
0010
0100
1000
0100
0010
0100
1000
0000
0001
0000
0100
0000
0010
0000
1000
0001
,
0010
0000
0001
1000
0010
0100
0001
0100
0010
1000
0010
1000
0001
0000
0010
0000
,
0100
1000
0100
1000
0001
0100
0001
0000
1000
0010
0100
0001
0100
0010
1000
0000
,
0001
0010
0100
1000
0100
0010
0001
1000
0010
1000
0001
0000
0100
0001
1000
0000
,
0001
0100
0010
0100
1000
0100
0010
0100
0001
0000
0011
0000
1000
0000
1010
0000
,
0001
1000
0100
0010
0001
1000
0010
0100
0001
1000
0100
0010
0001
0010
0100
1000
,
0001
0000
0100
0001
0100
0000
0010
1000
0001
1000
0010
0100
0001
1000
0100
0000
,
0010
0000
0001
0100
0001
1000
0010
0000
1000
0100
0010
0001
1000
0000
0001
0000
,
0100
0010
0100
0001
1000
0001
0010
0000
0100
1000
0010
1000
0001
0000
0010
0000
,
0001
0100
0010
0100
0001
1000
0010
1000
0001
0010
0100
1000
0010
0000
0100
0000
,
0001
1000
0010
0000
1000
0001
0010
0100
0010
0000
0001
1000
0010
0000
0100
0000
,
0001
0000
0010
0000
1000
0000
0010
0000
0001
0000
0100
0000
0001
0000
0000
0011
0000
0000
1000
0000
0000
1010
0000
0000
,
0001
0000
0000
0000
0100
0000
0000
0000
0001
0000
0000
0000
1000
0000
0000
0000
0100
0000
0000
0000
1000
0000
0000
0000
0010
0000
0000
0100
0000
0000
0001
0000
0000
1000
0000
0000
0100
0000
0000
0010
0000
0000
0001
0000
0000
0000
0000
0000
,
0201
0000
0000
0000
0000
0000
0301
0100
0010
0100
0001
0100
0010
1000
0001
1000
,
0100
0010
0001
0010
0100
0000
1000
0000
0001
0100
0010
1000
0001
0100
0010
0000
,
1000
0000
0000
0000
0100
0000
0010
0000
0001
0000
0000
0000
1000
0000
0000
0000
0010
0000
0100
0000
0001
0000
0000
0000
1000
0000
0000
0001
0000
0000
0100
0000
0000
0001
0000
0000
0010
0000
0000
0001
0000
0000
0100
0000
0000
0001
0000
0000
,
1000
0010
0100
0010
1000
0100
0010
0100
1000
0000
0001
0010
0001
1000
0001
0100
,
0010
1000
0010
0100
0001
1000
0001
0000
0010
0100
1000
0100
0010
0001
1000
0000
,
0010
1000
0010
0001
0010
1000
0010
0000
1000
0001
0010
0001
0100
0000
0010
0000
,
1000
0100
0010
0001
1000
0010
0100
0001
1000
0010
1000
0100
0010
0001
0100
0001
,
0010
0100
1000
0001
0100
0010
1000
0001
0010
0000
0110
0000
0100
0000
0110
0000
,
1002
0000
0000
0000
0000
0000
0000
0000
0000
0000
0000
0000
1003
0000
0000
0010
0000
0000
0100
0000
0000
0001
0000
0000
0010
0000
0000
0000
0000
0000
0100
0000
1000
0000
0001
0000
0010
0000
0000
0000
0000
0000
0100
0000
0000
0000
0000
0000
,
0010
0000
0000
0001
0100
0010
1000
0000
0000
0100
0000
0000
0010
0000
0000
0100
0000
0000
1000
0000
0000
0001
0000
0000
,
0100
1000
0100
0010
1000
0010
0100
0001
0100
0010
0001
0010
,
1000
0000
0000
0000
0001
0000
0000
0000
1000
0000
0000
0000
0100
0000
0000
0000
0000
0000
0010
0000
0001
0000
1000
0000
0001
0000
0000
0000
0000
0000
0100
0000
0000
0001
0000
0000
0100
0000
0000
0010
0000
0000
1000
0000
0000
0000
0000
0000
,
0002
0000
0000
0000
0000
0000
0000
0000
0000
0000
0000
0000
0013
0000
0000
0100
0000
0000
1000
0000
0000
0001
0000
0000
0100
0000
0000
0000
0000
0000
0010
0000
1000
0000
0001
0000
0100
0000
0000
0000
0000
0000
0010
0000
0000
0000
0000
0000
,
1000
0000
0000
0001
0010
0100
1000
0000
0000
0001
0000
0000
0100
0000
0000
1000
0000
0000
0100
0000
0000
0001
0000
0000
,
0010
0100
1000
0001
0100
0000
0010
1000
0001
0000
0001
0100
1000
0000
1000
0100
,
0001
0000
0011
0000
1000
0000
1010
0000
0001
0010
0000
1000
0010
0000
0110
0000
,
1001
0000
0000
0000
;

//--------------- dance-double - forcednature ----------------
#NOTEDATA:;
#STEPSTYPE:dance-double;
#DESCRIPTION:forcednature;
#CREDIT:forcednature;
#DIFFICULTY:Easy;
#METER:10;
#RADARVALUES:0,0,0,0,0;
#NOTES:
00000000
00000000
00000000
00000000
,
00000000
00000000
00000000
00000000
,
00000000
00000000
00000000
00000000
,
00000000
00000000
00000000
00000000
,
00000000
00000000
00000000
00000000
,
00000000
00000000
00000000
00000000
,
00001000
00000000
00000000
00000000
01000000
00000000
00000000
00001000
00000000
00000000
00001000
00000000
00010000
00000000
00000000
00000000
,
00000000
00000000
00000000
00000000
00000100
00000000
00000000
00010000
00000000
00000000
00010000
00000000
00001000
00000000
00000000
00000000
,
00000000
00000000
00000000
00000000
00100000
00000000
00000000
00001000
00000000
00000000
00001000
00000000
00010000
00000000
00000000
00000000
,
00000000
00000000
00000000
00000000
00000010
00000000
00000000
00010000
00000000
00000000
00020000
00000000
00000000
00000000
00000000
00000000
,
00031000
00000000
01000000
00000000
00010000
01000000
00010000
00000000
,
10000000
01000000
00100000
00001000
,
00010000
00000000
00000100
00000000
00010000
00000100
00010000
00000000
,
00000010
00001000
00000001
00000010
,
00000110
00000000
00000100
00010000
,
00001000
01000000
00010000
01000000
,
00200000
00000000
00300000
20000000
00000000
30000000
02000000
00000000
,
03000000
00020000
00000000
00030000
00001000
00000000
00010000
00000000
,
00000100
00000000
00001000
00000000
00000100
00001000
00000100
00000000
,
00000010
00000001
00001000
00000001
,
00000100
00000000
00000001
00000000
00000100
00000001
00000100
00000000
,
00000010
00010000
00001000
01000000
,
01100000
00000000
00100000
10000000
,
10010000
00000000
00010000
00100000
,
00001000
00010000
00011000
00001000
,
00010000
00000100
00001000
00000002
,
00000203
00000000
00000000
00000000
,
00000000
00000000
00000000
00000000
,
00000000
00000000
00000000
00000000
,
00000300
00000000
00000000
00000000
,
00001001
00000000
00001000
00000000
,
00000100
00010000
00001000
00100000
,
00001000
00000000
01000000
00000000
,
00010000
00000000
10000000
00000000
,
02000000
00000000
03200000
00000000
,
00302000
00000000
00023000
00000000
,
00030100
00000000
00001000
00000000
,
00000000
00000001
00000100
00000001
,
00001001
00000000
00001000
00000000
,
00000100
00010000
00000010
00010000
,
00001000
00000000
01000000
00000000
,
00010000
00000000
00100000
00000000
,
10010000
00000000
10000000
00010000
,
01000000
00001000
00010000
00000000
,
00000100
00000000
00001000
00000000
,
00000000
00000001
00000100
00000001
,
00000000
00001000
00000100
00001000
,
00000000
00000010
00010000
00001000
,
00011000
00000000
01001000
00000000
,
00100000
10010000
01000000
10010000
,
00200000
00000000
00000000
00300000
,
10010000
00000000
00000000
00000000
10000000
01000000
10000000
00000000
,
00010000
01000000
00001000
00010000
,
00000100
00001000
00000100
00000000
00000010
00000100
00000010
00000000
,
00000001
00001000
00000010
00001000
,
00000100
00001000
00000100
00000000
00010000
00000000
00001000
00000000
,
01000000
00010000
01000000
00000000
00001000
00000000
00010000
00000000
,
00000010
00001000
00000010
00000000
00010000
00000000
00001000
00000000
,
00100000
00010000
01000000
00010000
,
10000000
00100000
10000000
00000000
00100000
10000000
00100000
00000000
,
10000000
01000000
00100000
00001000
,
00010000
00000100
00010000
00000000
00000100
00010000
00000100
00000000
,
00001000
00000001
00000100
00000001
,
00000010
00000000
00000100
00000000
00000010
00000100
00000010
00000000
,
00000100
00000000
00001000
00000000
00000100
00001000
00000100
00000000
,
00020000
00000010
00001000
00030100
,
00010000
00000000
00001000
00000000
01000000
00010000
01000000
00000000
,
10010000
00000000
10000000
01000000
,
00100000
00010000
00100000
00000000
00001000
00010000
00001000
00000000
,
00020000
00030020
00001030
00000001
,
00000010
00000001
00000200
00000300
,
00000010
00001000
00000010
00000000
00010000
00001000
00010000
00000000
,
00100000
00100000
01000000
00010000
,
10000000
01000000
10000000
01000000
00100000
00010000
00100000
00000000
,
00001000
00010000
00001000
00010000
00000010
00001000
00000010
00000000
,
00002002
00000000
00003003
00000000
00001000
00000100
00010000
00000000
,
00001000
01000000
00010000
00000000
00100000
01000000
10000000
00000000
,
00020000
02030000
03002000
00023000
,
00030200
00002300
00003002
00000203
,
00000320
00000000
00000030
00000000
00001000
00000010
00010000
00000000
,
00001000
00100000
00010000
00000000
01000000
00100000
10000000
00000000
,
01000000
00010000
00001000
00000010
,
00000001
00000000
00000100
00000000
00000001
00000000
00000000
00000000
00000010
00000000
00000000
00000010
00000000
00000000
00000100
00000000
,
00001001
00000000
00000000
00000000
;

//--------------- dance-double - forcednature ----------------
#NOTEDATA:;
#STEPSTYPE:dance-double;
#DESCRIPTION:forcednature;
#CREDIT:forcednature;
#DIFFICULTY:Medium;
#METER:14;
#RADARVALUES:0,0,0,0,0;
#NOTES:
00000000
00000000
00000000
00000000
,
00000000
00000000
00000000
00000000
,
00000000
00000000
00000000
00000000
,
00000000
00000000
00000000
00000000
,
00000000
00000000
00000000
00000000
,
00000000
00000000
00000000
00000000
,
00001000
00000000
00000000
00000000
01000000
00000000
00000000
00010000
00000000
00000000
00100000
00000000
00101000
00000000
00000000
00000000
,
00010000
00000000
00000000
00000000
00000100
00000000
00000000
00001000
00000000
00000000
00000010
00000000
00010010
00000000
00000000
00000000
,
00001000
00000000
00000000
00000000
00100000
00000000
00000000
00010000
00000000
00000000
01000000
00000000
01001000
00000000
00000000
00000000
,
00001000
00000000
00000000
00000000
00010000
00000000
00000000
00000010
00000000
00000000
00002000
00000000
00003100
00000000
00000100
00000000
,
00000010
00000000
00000001
00000000
00001000
00000100
00000000
00010000
00000000
00001000
00010000
00000000
00001000
00000000
00000000
00000000
,
01000000
00010000
01000000
00000000
00100000
00000000
10000000
00000000
00010000
00000000
00100000
00000000
00010000
00000000
00000000
00000000
,
00100000
00000000
01000000
00000000
00100000
00010000
00000000
00100000
00000000
00001000
00010000
00000000
00001000
00000000
00000000
00000000
,
00010000
00000010
00010000
00000000
00000010
00000000
00001000
00000000
00000100
00000000
00001000
00000000
00000001
00000000
00000000
00000000
,
00000100
00000000
00001000
00000000
00000100
00000000
00000001
00000000
00000010
00000001
00000010
00000000
00000100
00000000
00000000
00000000
,
00010000
00001000
00100000
01000000
00100000
00010000
01000000
00000000
,
00100000
10000000
00100000
00000000
10000000
00000000
01000000
00100000
01000000
00000000
00100000
00000000
00001000
00010000
00001000
00000000
,
00010000
00000000
00000010
00001000
00000010
00000000
00001000
00000000
00000100
00000000
00000100
00000000
00000020
00000000
00000000
00000000
,
00000031
00000100
00000000
00000001
00000100
00000000
00000001
00000100
00000000
00000001
00000100
00000000
00000010
00000000
00000000
00000000
,
00010000
00001000
01000000
00100000
01000000
00001000
00010000
00000000
,
00100000
10000000
00000000
00100000
10000000
00000000
00100000
10000000
00000000
00100000
10000000
00000000
01000000
00000000
00000000
00000000
,
00100000
00010000
00001000
00000100
00010000
00000010
00001000
00000000
,
00000100
00000010
00000100
00000000
00001000
00000000
00000010
00000000
00010000
00000000
00000000
00000000
00001000
00000000
00000000
00000000
,
01000000
00100000
01000000
00000000
00010000
00000000
00100000
00000000
00001000
00000000
00000000
00000000
00010000
00000000
00000000
00000000
,
00000100
00010000
00001000
01000000
00001000
00010000
00000010
00010000
,
00001000
00100000
00001000
00010000
00100000
00100000
10000000
00000000
,
20020000
00000000
00000000
00000000
,
00000000
00000000
00000000
00000000
,
00000000
00000000
00000000
00000000
,
30030000
00000000
00000000
00000000
,
00001000
00000000
00010000
00000100
00000000
00001000
00000001
00000000
,
00000100
00002000
00023000
00230000
,
02300000
00000000
03010000
10000000
00100000
10000000
00010000
10000000
,
02000000
03020000
00032000
00003020
,
00000130
00000010
00000100
00010000
00001000
00010000
00000010
00001000
,
00000001
00000010
00000100
00010000
00001000
00100000
01000000
10000000
,
00010000
00000000
01000000
10000000
00000000
01000000
00000000
00010000
,
00000000
00200000
00302000
00013000
,
00010010
00000000
00000010
00000100
00000000
00001000
00000100
00000000
,
00000001
00000020
00000230
00020300
,
00032000
00000000
01003000
00010000
01000000
10000000
01000000
00100000
,
20000000
32000000
03020000
00031000
,
00011000
00000000
00010000
00000100
00000010
00000100
00001000
00000010
,
00000100
00001000
00000100
00000001
00000010
00000100
00010000
00001000
,
00100000
00000000
01000000
00010000
00000000
01000000
00000000
10000000
,
00000000
00200000
00320000
00031000
,
00011000
00000020
00002030
00013000
,
00011000
02000000
03020000
00031000
,
00011000
00000100
00011000
01000000
,
00001000
00100000
00001000
00010000
00000010
00010000
00001000
01000000
00001000
00010000
00000100
00010000
,
00002000
00000000
00000000
00003000
,
01000000
00000000
00010000
10000000
00010000
00100000
01000000
00100000
,
00001000
00000000
00000000
00001000
00010000
00000000
00000000
00000000
00000010
00000000
00000100
00000000
00001000
00000000
00000100
00000000
,
00000001
00000010
00000001
00000000
00000100
00001000
00010000
00000000
,
00001000
01000000
00001000
00000000
01000000
00000000
00010000
00000000
10000000
00000000
00010000
00000000
00100000
00000000
00000000
00000000
,
01000000
00000000
10000000
00000000
01000000
00000000
00100000
00000000
00010000
00100000
00020000
00000000
00000000
00000000
01030000
00000000
,
00001000
00000000
00010000
00000000
00000100
00000000
00010000
00000000
00000010
00001000
00000010
00000000
00000100
00000000
00000000
00000000
,
00000001
00000010
00000100
00000001
00000100
00001000
00000010
00001000
,
00000100
00000000
00001000
00000000
00000100
00000000
00010000
00000000
00001000
00000000
00010000
00000000
00100000
00000000
00000000
00100000
00000000
00000000
00100000
00000000
00000000
00000000
00000000
00000000
,
10000000
01000000
00100000
00010000
00001000
00000100
00000010
00000001
,
00000100
00000000
00000100
00001000
00000100
00000001
00000010
00000000
,
00000100
00010000
00001000
00100000
01000000
10000000
00100000
00000000
,
01000000
10000000
01000000
00010000
00100000
00001000
00010000
00000010
,
00000100
00000000
00001000
00000100
00000001
00000010
00000100
00000000
,
00001000
00000100
00001000
00000000
00000100
00000000
00010000
00000000
00001000
00000000
01000000
00000000
00010000
00000000
00000000
00000000
,
00100000
00000000
00000000
00000000
01000000
00000000
00000000
00000000
10000000
00000000
00000000
00000000
00010000
00000000
00000000
00010000
00000000
00000000
01000000
00000000
00000000
01000000
00000000
00000000
,
00001000
00000000
00010000
00000000
00001000
00000000
00010000
00000000
00000100
00000000
00010000
00000000
00001000
00000000
00000000
00000010
00000000
00000000
00000100
00000000
00000000
00000010
00000000
00000000
,
00000220
00000000
00000000
00000000
00000000
00000330
00000000
00000000
00000100
00000000
00001000
00000000
00000100
00000000
00010000
00000000
,
00001000
00100000
00001000
00000000
00010000
00000000
00000010
00000000
00010000
00000000
00001000
00000000
01000000
00000000
00010000
00000000
,
01000000
00000000
00100000
00000000
10000000
00000000
00100000
00000000
01000000
00000000
00010000
00000000
00100000
00000000
00000000
00100000
00000000
00000000
00001000
00000000
00000000
00001000
00000000
00000000
,
00010000
00000000
00000010
00000000
00001000
00000000
00000010
00000000
00000100
00000001
00000100
00000000
00000001
00000000
00000000
00000000
,
00000010
00000100
00001000
00000010
00010000
00001000
01000000
00000000
,
00010000
00100000
00010000
00000000
00100000
00010000
00100000
00000000
01000000
00000000
10000000
00000000
00010000
00000000
00000000
00000000
,
01000000
00100000
00010000
00001000
00100000
01000000
00010000
00001000
,
00000010
00000100
00010000
00001000
00000100
00000100
00000010
00000010
,
00002002
00000000
00000000
00000000
00003003
00000000
00000000
00000000
00010000
00000000
00000100
00001000
00000100
00000000
00010000
00000000
,
00001000
00000000
01000000
00010000
01000000
00000000
00001000
00000000
00010000
00000000
00000010
00000000
00001000
00000000
00000010
00000000
,
00000100
00000001
00000100
00000001
00001000
00000001
00000010
00000001
00000010
00000100
00000010
00000100
,
00001000
00000000
00000100
00000000
00001000
00000000
00000001
00000000
00000000
00000100
00000000
00000000
00001000
00000000
00000000
00010000
00000000
00000000
01000000
00000000
00000000
10000000
00000000
00000000
,
00200000
00000000
00000000
00000000
00300000
00000000
01000000
00000000
00010000
00000000
10000000
00100000
10000000
00000000
00010000
00000000
,
00100000
00000000
00001000
00010000
00001000
00000000
00010000
00000000
00000100
00000000
00001000
00000000
00000100
00000000
00000010
00000000
,
00000001
00000100
00000010
00001000
00010000
01000000
00100000
10000000
,
01000000
00000000
00010000
00000000
01000000
00000000
10000000
00000000
00010000
01000000
00000000
01000000
00001000
00000000
00010000
00000000
,
00011000
00000000
00000000
00000000
;

//--------------- dance-double - forcednature ----------------
#NOTEDATA:;
#STEPSTYPE:dance-double;
#DESCRIPTION:forcednature;
#CREDIT:forcednature;
#DIFFICULTY:Hard;
#METER:18;
#RADARVALUES:0,0,0,0,0;
#NOTES:
00000000
00000000
00000000
00000000
,
00000000
00000000
00000000
00000000
,
00000000
00000000
00000000
00000000
,
00000000
00000000
00000000
00000000
,
00000000
00000000
00000000
00000000
,
00000000
00000000
00000000
00000000
,
00011000
00000000
00000000
00000000
01000000
00000000
00000000
00100000
00000000
00000000
00010000
00000000
00001000
00000000
00000000
00000000
,
00011000
00000000
00000000
00000000
00000100
00000000
00000000
00000010
00000000
00000000
00001000
00000000
00010000
00000000
00000000
00000000
,
00011000
00000000
00000000
00000000
00100000
00000000
00000000
01000000
00000000
00000000
00010000
00000000
00001000
00000000
00000000
00000000
,
00011000
00000000
00000000
00000000
00000010
00000000
00000000
00000100
00000000
00000000
00001000
00000000
00010000
00001000
00010000
00001000
,
01000000
00000000
00010000
00000000
10000000
00100000
00000000
10000000
00000000
01000000
00100000
01000000
00100000
00000000
00001000
00000000
,
00010000
00000100
00001000
00000000
00000100
00000010
00000100
00000000
00001000
00000100
00001000
00000000
00000001
00001000
00000001
00000000
,
00000100
00000001
00000100
00000010
00001000
00000000
00000010
00010000
00000000
00001000
00010000
00000000
00001000
00100000
00001000
00000000
,
00100000
00010000
10000000
00000000
00100000
10000000
00100000
00000000
01000000
00010000
01000000
00001000
00010000
00001000
00010000
00000000
,
00000100
00000000
00001000
00000100
00000010
00000000
00000001
00000100
00000000
00000010
00000100
00000000
00000001
00000000
00000010
00000100
,
00001000
00000000
00000100
00010000
00000100
00000000
00001000
00000010
00000000
00010000
00000010
00000000
00001000
00000000
00000100
00000000
,
00010000
00001000
01000000
00010000
01000000
00000000
00100000
10000000
00100000
01000000
00010000
00000000
00100000
01000000
10000000
00010000
,
01000000
00000000
00001000
00010000
00000100
00001000
00000100
00000010
00000001
00000000
00000001
00000000
00000100
00000010
00000100
00000010
,
00001000
00000100
00000000
00000010
00000100
00000000
00010000
00001000
00000000
01000000
00010000
00000000
00100000
00000000
01000000
00000000
,
00100000
00010000
00100000
01000000
10000000
00000000
00010000
00000000
01000000
00001000
00010000
00000000
00001000
00100000
00010000
00000000
,
01000000
00100000
00000000
01000000
00001000
00000000
00010000
00000100
00000000
00001000
00000100
00000000
00000010
00000000
00000001
00000000
,
00000100
00000001
00000100
00000010
00001000
00000010
00010000
00001000
00010000
00000000
01000000
00000000
00100000
00000000
00010000
00100000
,
01000000
10000000
01000000
00100000
00010000
00000000
01000000
00001000
00000000
00010000
00001000
00000000
00000010
00000000
00000100
00001000
,
00000001
00000100
00000001
00001000
00000100
00000000
00010000
00001000
00000000
01000000
00010000
00000000
00100000
00000000
00000000
00000000
,
01000000
10000000
01000000
00100000
00010000
00000000
01000000
00001000
00010000
00000010
00001000
00000000
00000100
00001000
00000001
00001000
,
00000010
00000000
00010000
00001000
00100000
00010000
01000000
00010000
01000000
00000000
01000000
00000000
10000000
01000000
00010000
01000000
,
00200000
00000000
00000000
00000000
,
00000000
00000000
00000000
00000000
,
00000000
00000000
00000000
00000000
,
00300000
00000000
00000000
00000000
,
10010000
00000000
10000000
01000000
00000000
00010000
00000010
00000000
,
00001000
00000000
00000000
00000100
00000000
00000000
00000020
00000001
00000000
00000000
00000000
00000000
00000032
00000000
00000000
00000000
00000000
00000000
00000203
00000000
00000000
00000000
00000000
00000000
,
00002300
00000000
00013000
00100000
01000000
00100000
10000000
00010000
,
00200000
02300000
03020000
00032000
,
00003010
00000100
00010000
00000010
00000100
00010000
01000000
00010000
,
00100000
00010000
00100000
00000000
01000000
00100000
01000000
00000000
10000000
01000000
10000000
00000000
00010000
10000000
00010000
00000000
,
02000000
00000000
03100000
00020000
00000000
00030020
00000000
00002030
,
00000000
00000000
00000000
00003000
00000000
00000000
00000200
00000010
00000000
00000000
00000000
00000000
00020300
00000000
00000000
00000000
00000000
00000000
00030010
00000000
00000000
00000000
00000000
00000000
,
00000110
00000100
00001000
00000100
00000000
00000001
00001000
00000000
,
00010000
00000000
00000000
00000000
02000000
00100000
00000000
00000000
03200000
00000000
00000000
00000000
20300000
00000000
00000000
00000000
,
32000000
00000000
03010000
00001000
00000010
00000100
00001000
00000010
,
00000002
00000023
00020030
00031000
,
00000110
00000000
00000001
00000100
00001000
00010000
01000000
10000000
,
00010000
00100000
00010000
00000000
00100000
00001000
00100000
00000000
00001000
00010000
00001000
00000000
00000010
00000000
00000100
00000000
,
00001000
00000010
00000000
00000000
00000100
00000000
00020000
00000000
00000000
00000000
02030000
00000000
00000000
00000000
03002000
00000000
,
00000000
00000000
00000000
00003000
00000000
00000000
00100000
00010000
00000000
00000000
00000000
00000000
01000000
00000000
00000000
00000000
00000000
00000000
00001000
00000000
00000000
00000000
00000000
00000000
,
00011000
00000000
00000000
00000000
00000000
00000000
00000010
00001000
00000000
00000000
00000000
00000000
00000100
00000000
00000000
00000000
00000000
00000000
00010000
00000000
00000000
00000000
00000000
00000000
,
00011000
00000000
00000000
00000000
00001000
01000000
00000000
00000000
10000000
01000000
00000000
00000000
00100000
01000000
00000000
00000000
,
00010000
00000000
00100000
00010000
00000000
00001000
00000100
00000000
00001000
00000010
00000000
00000010
,
00000100
00001000
00000100
00000001
00000010
00000001
00001000
00000010
00001000
00010000
01000000
00010000
,
00200000
02300000
03020000
00032000
00003020
00000230
00002300
00003000
,
00001001
00000000
00000001
00000100
00000001
00000000
00001000
00000100
00001000
00000100
00010000
00001000
01000000
00010000
01000000
00100000
,
10000000
00000000
01000000
00100000
01000000
00000000
00100000
00010000
00100000
00001000
00010000
00000010
00001000
00000010
00000100
00000000
,
00000001
00000010
00000100
00001000
00000010
00000000
00001000
00000010
00001000
00000000
00000100
00001000
00000100
00000000
00010000
00000000
,
00001000
01000000
00010000
01000000
00100000
01000000
00010000
00000000
10000000
00000000
01000000
00000000
00010000
00000000
00001000
00010000
,
00001000
00000000
00010000
00000100
00001000
00000100
00010000
00000100
00001000
00000010
00010000
00000010
00001000
00000000
00000010
00000000
,
00000100
00000001
00000100
00000001
00001000
00000100
00001000
00000000
00000010
00001000
00000010
00010000
00001000
01000000
00001000
00000000
,
00010000
00100000
01000000
00100000
10000000
00100000
10000000
00010000
10000000
01000000
00100000
00000000
01000000
00100000
00001000
00000000
,
00010000
00000010
00001000
00000010
00000100
00000010
00000001
00000010
00000100
00000000
00000100
00000000
00000100
00000000
00000100
00000000
,
00000001
00000100
00000010
00001000
00000010
00010000
00001000
00100000
00010000
00100000
01000000
10000000
00010000
10000000
00100000
01000000
,
00010000
00000000
00100000
01000000
00100000
00000000
00001000
00010000
00000010
00001000
00000010
00010000
00001000
00000000
00000010
00000000
,
00000100
00000000
00001000
00000001
00001000
00000010
00000100
00000000
00000001
00000010
00000100
00010000
00001000
00000000
00100000
00000000
,
01000000
00100000
01000000
10000000
00100000
01000000
00100000
00000000
01000000
00001000
00010000
00001000
00100000
00000000
00010000
00000000
,
00001000
00000100
00001000
00000010
00000100
00000001
00000010
00000001
00000100
00000010
00001000
00000010
00010000
00000000
00001000
00000000
,
00100000
00010000
01000000
00000000
00100000
10000000
01000000
00100000
00001000
00000000
00010000
00000010
00001000
00000000
00000100
00000000
,
00000010
00000000
00001000
00000000
00010000
00000000
00100000
00000000
00010000
00000000
00001000
00000000
00000100
00000000
00000000
00010000
00000000
00000000
01000000
00000000
00000000
00001000
00000000
00000000
,
00100000
00000000
00000000
00000000
00010000
00000000
00000000
00000000
00001000
00000000
00000000
00000000
00000100
00000000
00000000
00000000
00000010
00000000
00000000
00000000
00000001
00000000
00000000
00000000
00001000
00000000
00000000
00000001
00000000
00000000
00000100
00000000
00000000
00000010
00000000
00000000
00001000
00000000
00000000
00000010
00000000
00000000
00010000
00000000
00000000
00000000
00000000
00000000
,
02001000
00000000
00000000
00000000
00000000
00000000
03010000
01000000
00100000
01000000
10000000
01000000
00100000
01000000
00010000
00100000
,
00001000
00010000
00000010
00001000
00000010
00000000
00000100
00000000
00001000
00000100
00000010
00000100
00000001
00001000
00000001
00000000
,
00000010
00000000
00000000
00000000
00000100
00000000
00001000
00000000
00000100
00000000
00000000
00000000
00010000
00000000
00000000
00000000
00000100
00000000
00001000
00000000
00000100
00000000
00000000
00000000
00000010
00000000
00000000
00000001
00000000
00000000
00000010
00000000
00000000
00000001
00000000
00000000
00000100
00000000
00000000
00000001
00000000
00000000
00000100
00000000
00000000
00000001
00000000
00000000
,
00000010
00000100
00001000
00000100
00010000
00001000
01000000
00010000
01000000
00000000
00100000
00000000
10000000
00010000
10000000
00000000
,
01000000
00100000
00001000
00010000
00001000
00100000
00010000
00000000
01000000
00010000
01000000
00001000
00010000
00000100
00001000
00000000
,
00000010
00010000
00000100
00010000
00000010
00010000
00000100
00000000
00001000
00000001
00000010
00000001
00000100
00000000
00001000
00000000
,
00010000
00100000
01000000
00100000
10000000
00010000
10000000
01000000
00100000
00010000
01000000
00001000
00010000
00000010
00001000
00000100
,
00000010
00000100
00001000
00000001
00000100
00000001
00000010
00000100
00010000
00000000
00000010
00000000
00001000
00000000
00100000
00000000
,
02100000
00000000
00000000
00000000
00000000
00000000
00000000
00000000
00000000
00000000
00000000
00000000
03010000
00000000
00000000
01000000
00000000
00000000
00100000
00000000
00000000
10000000
00000000
00000000
00010000
00000000
00000000
00000000
00000000
00000000
00100000
00000000
00001000
00000000
00010000
00000000
00000100
00000000
00000000
00000000
00000000
00000000
00000100
00000000
00000000
00000000
00000000
00000000
,
00001000
00000000
00000000
00000010
00010000
00001000
01000000
00000000
00000000
00010000
00000000
00000000
00100000
00000000
00000000
00010000
00000000
00000000
10000000
00000000
00000000
00100000
00000000
00000000
,
10000000
01000000
00100000
00010000
00001000
00000100
00000010
00000100
00001000
00010000
00100000
01000000
,
00100000
00000000
00000000
00000000
00010000
00000000
00000000
00000000
00001000
00000000
00000000
00000000
00000010
00000000
00000000
00000000
00000000
00000000
00000100
00000000
00000001
00000000
00001000
00000000
00000010
00000000
00000000
00000000
00000000
00000000
00000100
00000000
00000000
00000000
00000000
00000000
00000001
00000000
00000000
00001000
00000000
00000000
00000100
00000000
00000000
00000000
00000000
00000000
,
00020000
00000000
00000000
00000000
00000000
00000000
00000000
00000000
00000000
00000000
00000000
00000000
00031000
00000000
00000000
01000000
00000000
00000000
00010000
00000000
00000000
00100000
00000000
00000000
00001000
00000000
00000000
00000000
00000000
00000000
01000000
00000000
00001000
00000000
00010000
00000000
00000100
00000000
00000000
00000000
00000000
00000000
00000100
00000000
00000000
00000000
00000000
00000000
,
00001000
00000000
00000000
00000010
00010000
00001000
00100000
00000000
00000000
00010000
00000000
00000000
01000000
00000000
00000000
10000000
00000000
00000000
01000000
00000000
00000000
00010000
00000000
00000000
,
00100000
01000000
00100000
00001000
00010000
00000000
00000010
00001000
00000100
00000000
00000010
00001000
00010000
00000000
00100000
00010000
,
00001000
00000000
01000000
00000000
00010000
00000000
00000100
00000000
00000010
00001000
00000000
00010000
01000000
00000000
01100000
00000000
,
10010000
00000000
00000000
00000000
;
