#VERSION:0.83;
#TITLE:Element of SPADA;
#SUBTITLE:;
#ARTIST:猫叉Master feat.霜月はるか;
#TITLETRANSLIT:;
#SUBTITLETRANSLIT:;
#ARTISTTRANSLIT:Nekomata Master feat. Haruka Shimotsuki;
#GENRE:HEALING POP;
#CREDIT:;
#MUSIC:Element of SPADA.ogg;
#BANNER:Element of SPADA.png;
#BACKGROUND:Element of SPADA-bg.png;
#CDTITLE:./CDTitles/bm IIDX 21 SPADA.png;
#SAMPLESTART:80.219;
#SAMPLELENGTH:15.000;
#SELECTABLE:YES;
#OFFSET:0.913;
#BPMS:0.000=170.000;
#STOPS:;
#BGCHANGES:0.000=../BGAs/21he.mp4=1.000=0=0=0=StretchNoLoop====,
99999.000=-nosongbg-=1.000=0=0=0=StretchNoLoop====
;
#FGCHANGES:;

//--------------- dance-single - forcednature ----------------
#NOTEDATA:;
#STEPSTYPE:dance-single;
#DESCRIPTION:forcednature;
#CREDIT:forcednature;
#DIFFICULTY:Beginner;
#METER:1;
#RADARVALUES:0,0,0,0,0;
#NOTES:
0000
0000
0000
0000
,
0000
0000
0000
0000
,
0000
0000
0000
0000
,
0000
0000
0000
0000
,
1000
0000
0000
0000
,
0000
0000
0000
0000
,
0000
0000
0000
0000
,
0000
0000
0000
0000
,
0000
0000
0000
0000
,
0000
0000
0000
0000
,
0001
0000
0000
0000
,
0000
0000
0000
0000
,
0000
0000
0000
0000
,
0000
0000
0000
0000
,
0000
0000
0000
0000
,
0000
0000
0000
0000
,
0100
0000
0000
0000
,
0000
0000
0000
0000
,
0000
0000
0000
0000
,
0000
0000
0000
0000
,
0000
0000
0000
0000
,
0000
0000
0000
0000
,
0010
0000
0000
0000
,
0000
0000
0000
0000
,
0000
0000
0000
0000
,
0000
0000
0000
0000
,
0000
0000
0000
0000
,
0000
0000
0000
0000
,
1000
0000
0000
0000
,
0000
0000
0000
0000
,
0000
0000
0000
0000
,
0000
0000
0000
0000
,
0000
0000
0000
0000
,
0000
0000
0000
0000
,
0001
0000
0000
0000
,
0000
0000
0000
0000
,
0000
0000
0000
0000
,
0000
0000
0000
0000
,
0000
0000
0000
0000
,
0000
0000
0000
0000
,
0010
0000
0000
0000
,
0000
0000
0000
0000
,
0000
0000
0000
0000
,
0100
0000
0000
0000
,
0000
0000
1000
0000
,
0000
0000
0000
0000
,
0001
0000
0000
0000
,
0000
0000
0000
0000
,
0000
0000
0000
0000
,
0100
0000
0000
0000
,
0000
0000
0010
0000
,
0000
0000
0000
0000
,
1000
0000
0000
0000
,
0000
0000
0001
0000
,
0000
0000
0000
0000
,
0010
0000
0000
0000
,
0000
0000
0000
0000
,
0000
0000
0000
0000
,
1001
0000
0000
0000
,
0000
0000
0100
0000
,
0000
0000
0000
0000
,
0010
0000
0000
0000
,
0000
0000
0100
0000
,
0000
0000
0000
0000
,
0001
0000
0000
0000
,
0000
0000
1000
0000
,
0000
0000
0000
0000
,
0001
0000
0000
0000
,
0000
0000
0010
0000
,
0000
0000
0000
0000
,
1001
0000
0000
0000
,
0000
0000
1000
0000
,
0000
0000
0000
0000
,
0100
0000
0000
0000
,
0000
0000
1000
0000
,
0000
0000
0000
0000
,
0010
0000
0000
0000
,
0000
0000
0100
0000
,
0000
0000
0000
0000
,
0001
0000
0000
0000
,
0000
0000
0010
0000
,
0000
0000
0000
0000
,
1001
0000
0000
0000
,
0000
0000
1000
0000
,
0000
0000
0000
0000
,
0020
0000
0000
0000
,
0000
0000
0000
0030
;

//--------------- dance-single - forcednature ----------------
#NOTEDATA:;
#STEPSTYPE:dance-single;
#DESCRIPTION:forcednature;
#CREDIT:forcednature;
#DIFFICULTY:Easy;
#METER:4;
#RADARVALUES:0,0,0,0,0;
#NOTES:
0000
0000
0000
0000
,
0000
0000
0000
0000
,
0000
0000
0000
0000
,
0000
0000
0000
0000
,
0001
0000
0000
0100
,
0000
0000
0010
0000
,
0000
1000
0000
0000
,
0001
0000
0000
0010
,
0000
0000
0100
0000
,
0000
1000
0000
0000
,
1001
0000
0000
0001
,
0000
0000
0000
0100
,
0000
0010
0000
0000
,
1000
0000
0001
0000
,
0001
0000
0010
0000
,
0000
0100
0000
0000
,
1001
0000
0000
1000
,
0000
0000
0010
0000
,
0000
0100
0000
0000
,
0001
0000
0001
0000
,
0010
0000
0100
0000
,
0000
1001
0000
0000
,
0110
0000
0000
0000
,
0000
0000
0001
0000
,
0000
0100
0000
0000
,
0010
0000
0000
0000
,
0000
0000
1000
0000
,
0000
0100
0000
0000
,
0010
0000
0000
0000
,
0000
0000
0001
0000
,
0000
1000
0000
0000
,
0010
0000
0000
0100
,
0000
0000
0001
0000
,
0000
1000
0000
0000
,
1001
0000
0000
0000
,
0000
0000
1000
0000
,
0000
0100
0000
0000
,
0010
0000
0010
0000
,
0010
0000
0001
0000
,
0000
0100
0000
0000
,
1001
0000
0000
1000
,
0000
0000
0010
0000
,
0010
0000
0000
0000
,
0100
0000
0100
0000
,
0001
0000
1000
0000
,
0000
1001
0000
0000
,
0220
0000
0000
0000
,
0000
0000
0330
0000
,
0001
0000
0001
0000
,
0020
0000
0000
0000
,
0030
0000
0100
0000
,
1000
0000
0001
0000
,
0200
0000
0000
0000
,
0300
0000
0010
0000
,
1000
0000
0001
0000
,
0020
0000
0000
0000
,
0030
0000
0100
0000
,
0000
1001
0000
0000
,
0110
0000
0001
0000
,
1000
0000
0010
0000
,
1000
0000
0001
0000
,
0100
0000
0000
0000
,
0010
0000
1000
0000
,
0000
0000
0001
0000
,
0020
0000
0030
0200
,
0000
0300
1000
0000
,
0001
0000
0100
0000
,
0020
0000
0000
0000
,
0000
0030
1001
0000
,
0000
0000
0001
0000
,
1000
0000
1000
0000
,
0010
0000
0100
0000
,
0100
0000
0001
0000
,
0020
0000
0000
0030
,
0100
0000
2000
0000
,
0000
3000
0001
0000
,
0100
0000
0000
0010
,
0000
0000
1000
0000
,
1000
0000
0001
0000
,
1001
0000
0000
0000
,
1000
0000
0010
0000
,
0100
0000
0001
0000
,
1001
0000
0000
0000
,
0000
0000
1000
0000
,
0000
0001
0000
0000
,
0200
0000
0000
0000
,
0000
0000
0000
0300
;

//--------------- dance-single - forcednature ----------------
#NOTEDATA:;
#STEPSTYPE:dance-single;
#DESCRIPTION:forcednature;
#CREDIT:forcednature;
#DIFFICULTY:Medium;
#METER:10;
#RADARVALUES:0,0,0,0,0;
#NOTES:
0000
0000
0000
0000
,
0000
0000
0000
0000
,
0000
0000
0000
0000
,
0000
0000
0000
0000
,
2000
0000
3000
0200
,
0000
0300
0020
0000
,
0030
0001
1000
0010
,
0200
0000
0300
0002
,
0000
0003
2000
0000
,
3000
0100
0010
0000
,
1001
1000
0100
1000
,
0010
0100
0001
0020
,
0230
2300
3001
0100
,
0020
2030
3002
0203
,
0302
2003
3020
0130
,
0002
0023
0130
1000
,
1001
0001
0100
0001
,
1000
0010
1000
0200
,
0302
0203
2300
3002
,
0023
0130
2000
3020
,
0130
0001
2000
0100
,
0001
3020
0000
0030
,
1001
0000
1000
0100
,
0000
0010
0100
1000
,
0001
0010
0000
0001
,
0100
0000
0010
1000
,
0000
0010
0100
0001
,
1000
0010
0000
0000
,
1001
1000
0100
1000
,
0000
0001
0010
0001
,
0100
0001
0000
0010
,
0100
1000
0010
0110
,
0000
0100
0001
0010
,
0001
1001
0000
0000
,
1100
1000
0001
0010
,
0001
1000
0001
0100
,
0010
1000
0100
0010
,
0101
0001
1000
0010
,
1000
0100
1000
0001
,
0100
0001
0010
0100
,
1001
1000
0010
0100
,
0001
0010
0001
1000
,
0010
0100
0001
0010
,
0110
1000
0001
0100
,
1000
0100
0002
0010
,
1003
0220
0000
0330
,
1001
0000
0001
0100
0001
0000
1000
0000
,
0001
0100
0001
0000
1000
0000
0100
0000
,
0001
0100
1000
0001
,
0010
0000
0100
1000
0100
0000
0010
0000
,
0100
1000
0100
0000
0010
0000
1000
0000
,
0010
0001
1000
0010
,
0100
0001
0100
0000
1000
0000
0100
0001
,
0100
0010
1000
0001
,
0010
0100
1000
0001
,
0100
0010
0100
0000
0001
0000
0010
0100
,
0010
0001
1000
0010
,
0100
2002
0000
3003
,
1000
1100
0001
0011
,
1000
0100
0010
0000
0001
0000
0101
0000
,
1000
0000
1010
0000
0001
0100
0010
0000
,
1000
0001
0020
0000
0100
0000
0031
0000
,
0110
0000
1001
0000
0001
1000
0020
0000
,
0100
0000
1030
0000
0110
0000
1000
0100
,
0002
0000
0103
1000
0001
0000
0200
0000
,
1300
0100
0001
0000
1000
0000
1010
0000
,
0001
0101
0010
0110
,
2001
0000
0100
0000
0001
0000
3010
1000
,
0001
0000
0100
0000
0010
0010
0010
0000
,
1000
0001
1001
0110
,
0001
0101
1000
1010
,
0001
0100
0010
0000
1000
0000
1100
0000
,
0001
0000
0011
0000
1000
0100
0010
0000
,
0001
1000
0020
0000
0100
0000
1030
0000
,
0110
0000
1001
0000
1000
0001
0020
0000
,
0100
0000
0031
0000
0110
0000
0001
0100
,
2000
0000
3100
0001
1000
0000
0200
0000
,
0301
0100
1000
0000
0001
0000
0011
0000
,
1000
1100
0010
0110
,
1002
0000
0100
0000
1000
0000
0013
0001
,
1000
0000
0100
0000
0010
0010
0010
0000
,
0001
1000
1001
0110
,
2001
0000
3100
0020
,
0000
0031
0100
0010
,
1000
0001
0010
0100
,
2000
0002
0000
0000
,
0000
0000
0000
3003
,
0000
0000
0010
0000
,
0000
0000
0000
0000
0000
0000
0000
0000
0000
0000
0000
0000
0000
0000
0000
0000
0000
0000
0000
0200
0000
0000
0000
0000
0000
0000
0000
0000
0000
0000
0000
0000
,
0000
0000
0300
0000
;

//--------------- dance-single - forcednature ----------------
#NOTEDATA:;
#STEPSTYPE:dance-single;
#DESCRIPTION:forcednature;
#CREDIT:forcednature;
#DIFFICULTY:Hard;
#METER:13;
#RADARVALUES:0,0,0,0,0;
#NOTES:
0000
0000
0000
0000
,
0000
0000
0000
0000
,
0000
0000
0000
0000
,
0000
0000
0000
0000
,
0002
0000
0100
0203
,
0000
0010
0320
0000
,
1000
2030
0000
3000
,
0002
0000
0010
0023
,
0230
2300
3002
0000
,
0103
0200
0010
0301
,
1002
0000
1003
0100
0010
0100
2000
0000
,
3001
0100
0010
0100
0001
0000
0021
0000
,
0230
0000
2300
0000
3001
0100
0010
1000
,
0200
0302
0203
2300
,
3001
0010
0001
1000
0020
0000
0130
1000
,
0100
0001
2000
0000
3010
0000
0110
0000
,
1002
0000
1003
0100
1000
0001
0020
0000
,
0031
0100
0001
1000
0010
0000
0210
0000
,
0302
0023
0230
2300
,
3020
0000
0130
0001
0010
0001
2000
0000
,
3100
1000
0010
1000
0002
0000
0013
0100
,
1000
0010
2002
0000
0000
0000
3003
0000
,
1100
0000
0001
0010
0100
0000
0010
0000
,
0001
1000
0010
0000
0100
0000
0001
1000
,
0010
1000
0001
0000
0010
0000
0100
0000
,
1001
0000
1000
0100
1000
0001
0100
0000
,
0010
1000
0001
0000
0011
0000
1000
0100
,
0010
0000
0110
0000
0100
1000
0001
0000
,
0101
0000
0100
0010
1000
0000
1100
0000
,
0100
0010
0001
0000
0011
0000
0010
0001
,
1000
0000
1010
0000
0010
0100
0001
0010
,
0100
0000
0001
0100
1000
0000
1100
0000
,
0001
0010
0001
0000
1000
0010
0100
0001
,
0100
0110
1001
1100
,
0001
0010
0100
0010
0001
1000
0100
1000
,
0001
0010
1000
0000
0010
0001
0100
0001
,
1000
0010
0001
0010
1000
0001
0100
0000
,
0010
1000
0100
0010
0001
0100
0010
1000
,
0100
0010
0001
0000
0100
1000
0100
0001
,
1000
0010
0100
0000
0110
0000
1001
0000
,
0001
0010
0100
0001
0100
0010
0001
1000
,
0100
0001
0100
0000
1000
0010
0100
1000
,
0100
0010
1000
0001
0100
1000
0100
0000
,
0110
0000
1000
0001
0010
0000
0110
0000
,
0001
1000
0010
0000
0100
0001
0001
1000
,
0001
0001
0020
0000
0000
0000
0030
0000
,
0110
0000
0100
1000
0010
1000
0100
0010
,
0001
0100
0010
0000
1000
0100
0001
0000
,
0100
1000
0001
0000
1000
0100
0001
0100
,
1000
0001
0020
0000
0031
0100
1000
0100
,
0001
1000
0010
1000
0200
0000
0320
0000
,
0031
1000
0020
0000
0130
1000
0100
0001
,
1000
0010
1000
0001
0010
0001
0100
0010
,
1000
0100
0020
0000
0032
0000
0103
1000
,
0100
0000
0001
1000
0010
0100
0001
0000
,
2001
0000
0100
0100
0100
0000
0001
0000
,
0010
0010
3010
0000
1000
0001
0010
0100
,
1000
0010
0110
0000
0002
0000
2003
0000
,
3001
0000
0000
0001
0010
0000
0000
0010
0100
0000
0000
0100
1000
0000
0000
1000
,
0100
0000
0010
0100
0010
0000
0000
0000
0001
0000
0000
0001
0100
0000
0000
0100
,
0010
0000
0000
0010
1000
0000
0000
1000
0010
0000
0100
0010
0100
0000
0001
0000
,
1000
0001
0021
0000
0100
0000
0031
0000
,
0011
0000
0100
1000
0001
1000
1020
0000
,
0100
0000
0000
0000
1030
0000
0000
0000
1010
0000
0000
0000
1000
0001
1000
0001
,
0020
0000
0130
1000
0010
1000
1020
0000
,
0130
0000
0001
0000
1000
0000
0001
0010
0001
0000
0000
0001
0100
0000
0000
0100
,
1000
0000
0000
1000
0100
0000
0000
0100
0001
0000
0000
0000
0011
0000
0000
0000
,
2001
0000
0010
0010
3010
1000
0100
0010
,
0001
1000
0010
0100
1002
0000
0010
0010
,
0013
0000
0001
0000
0100
0000
0010
0100
0010
0000
0000
0000
1001
0000
0000
0000
,
1000
0000
0000
1000
0010
0000
0000
0010
0100
0000
0000
0100
1000
0000
0000
1000
,
0100
0000
0001
0100
0001
0000
1000
0000
0001
0000
0000
0001
0010
0000
0000
0010
,
0100
0000
0000
0100
0001
0000
0000
0001
0100
0000
1000
0100
1000
0000
0001
0000
,
1000
0010
0210
0000
1000
0000
0301
0000
,
0110
0000
0100
0001
1000
0001
0021
0000
,
1000
0000
0000
0000
0031
0000
0000
0000
0110
0000
0000
0000
0001
1000
0001
1000
,
0002
0000
0103
1000
0100
0001
0021
0000
,
1030
0000
0010
0000
0001
0000
1000
0000
1100
0000
0000
0100
0010
0000
0000
0010
,
0001
0000
0000
0001
0100
0000
0000
0100
0010
0000
1000
0010
1000
0000
0001
0010
,
0001
0010
0200
0000
0001
0001
0001
0000
,
0010
0000
1300
0100
0010
0001
0100
0010
,
1000
0000
0100
0000
1000
0000
0010
0000
0100
0000
0001
0000
0010
0100
0010
0100
,
0020
0000
0031
0002
,
0000
0000
0103
0010
0200
0000
0320
0000
,
2030
0000
3002
0000
0023
0000
0130
1000
,
0001
0010
0002
0000
1000
0000
1000
0000
,
0100
1000
1000
0003
,
0000
0000
0001
0000
,
0000
0000
0000
0000
0000
0000
0000
0000
0000
0000
0000
0000
0000
0000
0000
0000
0000
0000
0000
0020
0000
0000
0000
0000
0000
0000
0000
0000
0000
0000
0000
0000
,
0000
0000
0030
0000
;

//--------------- dance-double - forcednature ----------------
#NOTEDATA:;
#STEPSTYPE:dance-double;
#DESCRIPTION:forcednature;
#CREDIT:forcednature;
#DIFFICULTY:Easy;
#METER:4;
#RADARVALUES:0,0,0,0,0;
#NOTES:
00000000
00000000
00000000
00000000
,
00000000
00000000
00000000
00000000
,
00000000
00000000
00000000
00000000
,
00000000
00000000
00000000
00000000
,
00001000
00000000
00000000
00010000
,
00000000
00000000
00001000
00000000
,
00000000
00100000
00000000
00000000
,
00010000
00000000
00000000
10000000
,
00000000
00000000
00100000
00000000
,
00000000
10000000
00000000
00000000
,
00010000
00000000
00000000
00100000
,
00000000
00000000
00000000
00001000
,
00000000
00010000
00000000
00000000
,
00000100
00000000
00001000
00000000
,
00001000
00000000
00000001
00000000
,
00000000
00000100
00000000
00000000
,
00001001
00000000
00000000
00001000
,
00000000
00000000
00000100
00000000
,
00000000
00010000
00000000
00000000
,
00001000
00000000
00001000
00000000
,
00100000
00000000
00010000
00000000
,
00000000
10010000
00000000
00000000
,
00010000
00000000
00000000
00000000
,
00000000
00000000
01000000
00000000
,
00000000
00001000
00000000
00000000
,
00010000
00000000
00000000
00000000
,
00000000
00000000
00000100
00000000
,
00000000
00001000
00000000
00000000
,
00000001
00000000
00000000
00000000
,
00000000
00000000
00000010
00000000
,
00000000
00000001
00000000
00000000
,
00001000
00000000
00000000
00000010
,
00000000
00000000
00010000
00000000
,
00000000
00001000
00000000
00000000
,
00011000
00000000
00000000
00000000
,
00000000
00000000
01000000
00000000
,
00000000
00010000
00000000
00000000
,
10000000
00000000
00000000
00000000
,
00100000
00000000
01000000
00000000
,
00000000
00001000
00000000
00000000
,
00011000
00000000
00000000
00010000
,
00000000
00000000
00000100
00000000
,
00001000
00000000
00000000
00000000
,
00000001
00000000
00000010
00000000
,
00000001
00000000
00000100
00000000
,
00000000
00001001
00000000
00000000
,
00000220
00000000
00000000
00000000
,
00000000
00000000
00000330
00000000
,
00001000
00000000
00000100
00000000
,
00020000
00000000
00000000
00000000
,
00030000
00000000
00001000
00000000
,
01000000
00000000
00010000
00000000
,
20000000
00000000
00000000
00000000
,
30000000
00000000
01000000
00000000
,
00100000
00000000
00010000
00000000
,
00200000
00000000
00000000
00000000
,
00300000
00000000
00001000
00000000
,
00000000
00011000
00000000
00000000
,
00010000
00000000
00001000
00000000
,
00010000
00000000
00000100
00000000
,
00001000
00000000
00000100
00000000
,
00000010
00000000
00000000
00000000
,
00000001
00000000
00000100
00000000
,
00000000
00000000
00000010
00000000
,
00002000
00000000
00003000
00000200
,
00000000
00000300
00010000
00000000
,
00001000
00000000
00010000
00000000
,
00022000
00000000
00000000
00000000
,
00033000
00000000
00011000
00000000
,
00000000
00000000
01000000
00000000
,
00010000
00000000
00010000
00000000
,
00100000
00000000
01000000
00000000
,
01000000
00000000
10000000
00000000
,
00200000
00000000
00000000
00300000
,
01000000
00000000
00020000
00000000
,
00000000
00030000
00100000
00000000
,
00001000
00000000
00000000
00010000
,
00000000
00000000
00000100
00000000
,
00000100
00000000
00001000
00000000
,
00001001
00000000
00000000
00000000
,
00000001
00000000
00000010
00000000
,
00000100
00000000
00001000
00000000
,
00001001
00000000
00000000
00000000
,
00000000
00000000
00000001
00000000
,
00000000
00000100
00000000
00000000
,
00000020
00000000
00000000
00000000
,
00000000
00000000
00000000
00000030
;

//--------------- dance-double - forcednature ----------------
#NOTEDATA:;
#STEPSTYPE:dance-double;
#DESCRIPTION:forcednature;
#CREDIT:forcednature;
#DIFFICULTY:Medium;
#METER:9;
#RADARVALUES:0,0,0,0,0;
#NOTES:
00000000
00000000
00000000
00000000
,
00000000
00000000
00000000
00000000
,
00000000
00000000
00000000
00000000
,
00000000
00000000
00000000
00000000
,
00002000
00000000
00003000
00020000
,
00000000
00030000
00000200
00000000
,
00000300
00001000
00000001
00001000
,
00000020
00000000
00000030
00020000
,
00000000
00030000
00002000
00000000
,
00003000
01000000
00010000
00000000
,
10010000
00000000
10000000
00000000
,
01000000
00000000
00100000
00020000
,
00230000
00302000
00013000
00000000
,
00000020
00002030
00003002
00000203
,
00000302
00002003
00003020
00000030
,
00020000
00032000
00003000
00100000
,
10010000
00000000
00010000
01000000
,
00000000
00001000
00010000
00000200
,
00002300
00003200
00020300
00032000
,
00203000
00310000
20000000
30200000
,
01300000
00010000
20000000
01000000
,
00010000
30200000
00000000
00300000
,
10010000
00000000
00010000
01000000
,
00000000
00001000
00010000
00000010
,
00001000
00000010
00000000
00000100
,
00000001
00000000
00001000
00000100
,
00000000
00010000
00001000
00100000
,
00001000
00010000
00000000
00000000
,
00011000
00001000
01000000
00010000
,
00000000
10000000
00100000
10000000
,
01000000
00100000
00000000
00010000
,
00100000
00001000
00010000
00011000
,
00000000
00001000
00010000
00000100
,
00001000
00001001
00000000
00000000
,
00000110
00000000
00000001
00000010
,
00000100
00000010
00000100
00010000
,
00001000
00100000
00010000
00100000
,
00011000
00000000
00001000
01000000
,
00010000
10000000
00100000
10000000
,
00010000
01000000
00001000
00010000
,
00011000
00000000
00000100
00001000
,
00000100
00000010
00000001
00000010
,
00000100
00010000
00001000
00100000
,
00011000
00000000
00001000
01000000
,
00010000
10000000
00200000
00000000
,
00300000
02200000
00000000
03300000
,
10010000
00000000
10000000
01000000
10000000
00000000
00010000
00000000
,
10000000
01000000
10000000
00000000
00010000
00000000
00100000
00000000
,
00001000
00010000
00000100
00001000
,
00000001
00000000
00001000
00000010
00001000
00000000
00000001
00000000
,
00001000
00000010
00001000
00000000
00000001
00000000
00000010
00000000
,
00000100
00010000
00001000
00100000
,
00010000
00000000
01000000
00100000
01000000
00000000
00010000
00000000
,
01000000
00100000
01000000
00000000
00010000
00000000
10000000
00000000
,
01000000
00010000
00001000
00100000
,
00001000
00010000
00001000
00000000
01000000
00000000
00001000
00010000
,
00001000
00100000
00001000
00010000
,
00000010
00000220
00000000
00000330
,
00000001
00000101
00001000
00001010
,
00010000
00001000
00100000
00110000
,
01000000
11000000
00010000
00100000
,
00001000
00010000
00002000
00000000
00010000
00000000
01003000
00000000
,
00001000
00000000
00011000
00000000
00010000
00001000
00020000
00000000
,
00001000
00030100
00001000
00011000
,
00000020
00000000
00001030
00000010
00001000
00000000
00000002
00000000
,
00000103
00000001
00000100
00000000
00001000
00000000
00011000
00000000
,
00100000
00110000
00001000
00011000
,
02000000
00010000
00010000
03100000
,
10000000
00000000
00010000
00000000
00100000
00100000
00100000
00000000
,
01000000
00010000
00001000
00011000
,
00000100
00011000
00100000
00011000
,
00000010
00001000
00000100
00011000
,
01000000
00000000
00011000
00000000
00100000
00010000
00100000
00000000
,
00010000
10000000
00200000
00000000
01000000
00000000
10300000
00000000
,
01100000
00000000
00010000
00000000
01000000
00001000
00020000
00000000
,
00000100
00000000
00031000
00000000
00011000
00000000
00001000
00010000
,
00000020
00000000
00001030
00000001
00000100
00000000
00000020
00000000
,
00000130
00000001
00001000
00000000
00000100
00000000
00010100
00000000
,
00001000
00101000
01000000
01010000
,
20000000
00000000
01000000
00000000
00010000
00000000
30100000
10000000
,
00010000
00000000
00100000
00000000
00001000
00001000
00001000
00000000
,
00010000
00000100
00000110
00001001
,
00002000
00000000
00003100
00020000
,
00000000
00031000
00100000
00010000
,
10000000
00010000
01000000
00100000
,
20000000
00020000
00000000
00000000
,
00000000
00000000
00000000
30030000
,
00000000
00000000
00100000
00000000
,
00000000
00000000
00000000
00000000
00000000
00000000
00000000
00000000
00000000
00000000
00000000
00000000
00000000
00000000
00000000
00000000
00000000
00000000
00000000
00020000
00000000
00000000
00000000
00000000
00000000
00000000
00000000
00000000
00000000
00000000
00000000
00000000
,
00000000
00000000
00030000
00000000
;

//--------------- dance-double - forcednature ----------------
#NOTEDATA:;
#STEPSTYPE:dance-double;
#DESCRIPTION:forcednature;
#CREDIT:forcednature;
#DIFFICULTY:Hard;
#METER:13;
#RADARVALUES:0,0,0,0,0;
#NOTES:
00000000
00000000
00000000
00000000
,
00000000
00000000
00000000
00000000
,
00000000
00000000
00000000
00000000
,
00000000
00000000
00000000
00000000
,
00020000
00000000
00001000
00032000
,
00000000
00100000
00203000
00000000
,
00010000
00320000
00000000
00030000
,
20000000
00000000
00100000
30200000
,
02300000
03020000
00230000
00000000
,
00301000
00002000
01000000
00013000
,
00021000
00000000
00030100
00001000
00000010
00001000
00000200
00000000
,
00000310
00000001
00001000
00000001
00000010
00000000
00000200
00000000
,
00020300
00000000
00032000
00000000
00103000
00010000
10000000
00010000
,
02000000
03002000
00023000
00030020
,
00001030
00000100
00001000
00000001
00000020
00000000
00000031
00000100
,
00001000
00010000
00002000
00000000
00103000
00000000
00110000
00000000
,
12000000
00000000
13000000
00100000
10000000
00010000
02000000
00000000
,
03010000
00100000
00001000
00010000
00000100
00000000
00000020
00000000
,
00000032
00000203
00002300
00023000
,
00230000
00000000
10300000
00010000
01000000
00100000
20000000
00000000
,
31000000
00010000
00001000
00100000
00020000
00000000
01030000
00001000
,
00010000
00000010
00002000
00000000
00000000
00000000
00003000
00000000
,
00001001
00000000
00000001
00000010
00000100
00000000
00000010
00000000
,
00000100
00010000
00001000
00000000
01000000
00000000
00010000
10000000
,
00100000
10000000
00010000
00000000
00100000
00000000
00001000
00000000
,
00011000
00000000
00010000
00000100
00001000
00000010
00000100
00000000
,
00000001
00001000
00000010
00000000
00000110
00000000
00000100
00000001
,
00000010
00000000
00000110
00000000
00000100
00010000
00001000
00000000
,
00011000
00000000
00010000
00001000
00100000
00000000
00110000
00000000
,
00010000
00000000
01010000
00000000
10100000
00000000
10000000
00010000
,
00100000
00000000
00101000
00000000
00001000
00010000
00001000
00000010
,
00000001
00000000
00000100
00000001
00001000
00000000
00001010
00000000
,
00000010
00010000
00001000
00000000
00100000
00010000
01000000
00100000
,
10000000
11000000
10010000
00110000
,
00100000
00001000
00010000
00000100
00010000
00001000
00000010
00000001
,
00000100
00000001
00000010
00000000
00000001
00000100
00001000
00010000
,
00000010
00001000
00000010
00000100
00001000
00010000
00100000
00000000
,
01000000
00010000
10000000
00100000
00010000
00001000
01000000
00010000
,
00100000
01000000
00010000
00000000
00001000
00000010
00000100
00010000
,
00001000
00000010
00000001
00000000
00000101
00000000
00001010
00000000
,
00000001
00000010
00001000
00010000
00000100
00001000
00000100
00000010
,
00001000
00010000
01000000
00000000
00100000
00001000
00010000
01000000
,
10000000
00010000
00100000
00010000
10000000
01000000
00010000
00000000
,
00011000
00000000
00001000
00000010
00000001
00000000
00000101
00000000
,
00000100
00000010
00001000
00000000
00000100
00010000
00010000
00001000
,
00010000
00010000
00000020
00000000
00000000
00000000
00000030
00000000
,
00001001
00000000
00000001
00000100
00000001
00000010
00001000
00010000
,
00001000
00100000
00010000
00000000
10000000
00100000
00010000
00000000
,
00100000
10000000
01000000
00000000
10000000
00100000
00010000
00001000
,
01000000
00010000
00200000
00000000
01300000
10000000
01000000
00010000
,
00001000
00100000
00010000
00100000
00002000
00000000
00003020
00000000
,
00000130
00010000
00002000
00000000
00003010
00000001
00000100
00000001
,
00000010
00001000
00010000
01000000
00010000
00001000
00100000
00010000
,
00100000
00001000
00020000
00000000
00230000
00000000
10300000
00010000
,
01000000
00000000
00100000
10000000
01000000
00010000
00001000
00000000
,
00210000
00000000
00001000
00001000
00001000
00000000
00010000
00000000
,
01000000
01000000
01300000
00000000
00100000
00010000
00100000
00001000
,
00000010
00000100
00001000
00000000
00000002
00000000
00000023
00000000
,
00000031
00000000
00000000
00000001
00000100
00000000
00000000
00000100
00001000
00000000
00000000
00001000
00010000
00000000
00000000
00010000
,
00100000
00000000
00000000
00100000
10000000
00000000
00000000
10000000
01000000
00000000
00000000
01000000
00010000
00000000
00000000
00010000
,
00001000
00000000
00000000
00001000
00000010
00000000
00000000
00000010
00000001
00000000
00000000
00000001
00000100
00000000
00001000
00000000
,
00010000
00100000
20000000
00000000
00010000
00000000
31000000
00000000
,
01100000
00000000
00100000
00010000
00100000
00001000
00020000
00000000
,
00000100
00000000
00000000
00000000
00031000
00000000
00000000
00000000
00010010
00000000
00000000
00000000
00000010
00001000
00000010
00001000
,
00000002
00000000
00000103
00001000
00010000
00001000
00020000
00000000
,
00130000
00000000
10000000
00000000
00100000
00000000
10000000
00010000
10000000
00000000
00000000
10000000
01000000
00000000
00000000
01000000
,
00010000
00000000
00000000
00010000
00001000
00000000
00000000
00001000
00000010
00000000
00000000
00000010
00000001
00000000
00000000
00000000
,
00000102
00000000
00001000
00001000
00001003
00000001
00000010
00001000
,
00010000
01000000
00100000
00001000
00020000
00000000
00000100
00000100
,
00000100
00000000
00031000
00000010
00000001
00000000
00001001
00000000
,
00001000
00000000
00000000
00001000
00000010
00000000
00000000
00000010
00000100
00000000
00000000
00000100
00001000
00000000
00000000
00001000
,
00010000
00000000
00000000
00010000
00100000
00000000
00000000
00100000
10000000
00000000
00000000
10000000
01000000
00000000
00000000
01000000
,
00010000
00000000
00000000
00010000
00001000
00000000
00000000
00001000
00000010
00000000
00000001
00000010
00000001
00000000
00001000
00000000
,
00000100
00010000
00002000
00000000
00100000
00000000
00013000
00000000
,
00011000
00000000
00001000
01000000
00010000
10000000
00200000
00000000
,
01000000
00000000
00000000
00000000
00310000
00000000
00000000
00000000
01100000
00000000
00000000
00000000
10000000
00010000
10000000
00010000
,
20000000
00000000
31000000
00010000
00001000
00100000
00020000
00000000
,
00130000
00000000
00001000
00000000
00000010
00000000
00000100
00000000
00001000
00000000
00000000
00001000
00000001
00000000
00000000
00000001
,
00000100
00000000
00000000
00000100
00001000
00000000
00000000
00001000
00010000
00000000
00001000
00010000
00001000
00000000
01000000
00010000
,
01000000
00100000
20000000
00000000
00010000
00010000
00010000
00000000
,
31000000
00000000
10000000
00100000
00010000
00001000
00000100
00000001
,
00001000
00000000
00000010
00000000
00001000
00000000
00000001
00000000
00000010
00000000
00001000
00000000
00010000
00000000
00001000
00010000
,
00002000
00000000
00103000
00200000
,
00000000
00000000
00310000
10000000
02000000
00000000
03020000
00000000
,
00032000
00000000
00003020
00000000
00000032
00000000
00000103
00001000
,
00000100
00000001
00002000
00000000
00000010
00000000
00000010
00000000
,
00000001
00000100
00000100
00003000
,
00000000
00000000
00000100
00000000
,
00000000
00000000
00000000
00000000
00000000
00000000
00000000
00000000
00000000
00000000
00000000
00000000
00000000
00000000
00000000
00000000
00000000
00000000
00000000
00020000
00000000
00000000
00000000
00000000
00000000
00000000
00000000
00000000
00000000
00000000
00000000
00000000
,
00000000
00000000
00030000
00000000
;
