#VERSION:0.83;
#TITLE:栄冠のカンパネラ;
#SUBTITLE:;
#ARTIST:OSTER project;
#TITLETRANSLIT:Eikan no campanella;
#SUBTITLETRANSLIT:;
#ARTISTTRANSLIT:;
#GENRE:TRIUMPHAL MARCH;
#CREDIT:;
#MUSIC:Eikan no campanella.ogg;
#BANNER:Eikan no campanella.png;
#BACKGROUND:Eikan no campanella-bg.png;
#CDTITLE:./CDTitles/bm IIDX 30 RESIDENT.png;
#SAMPLESTART:64.902;
#SAMPLELENGTH:15.000;
#SELECTABLE:YES;
#OFFSET:-0.051;
#BPMS:0.000=185.000;
#STOPS:;
#TIMESIGNATURES:0.000=4=4;
#BGCHANGES:0.000=Eikan no campanella.mp4=1.000=0=0=0=StretchNoLoop====,
99999.000=-nosongbg-=1.000=0=0=0=StretchNoLoop====
;
#FGCHANGES:;

//--------------- dance-single - forcednature ----------------
#NOTEDATA:;
#STEPSTYPE:dance-single;
#DESCRIPTION:forcednature;
#DIFFICULTY:Beginner;
#METER:8;
#RADARVALUES:0,0,0,0,0;
#CREDIT:forcednature;
#NOTES:
0000
0000
0000
0000
,
0000
0000
0000
0000
,
0000
0000
0000
0000
,
0000
0000
0000
0000
,
0000
0000
0000
0000
,
1001
0000
1000
0010
,
0010
0000
1000
1000
,
0001
0000
0010
0001
,
0100
0000
0010
0010
,
1000
0001
1000
0001
,
0200
0000
0000
0310
,
1001
0000
1000
0000
,
0000
0000
0100
1000
,
0100
0000
0010
0000
,
0000
0000
0001
0001
,
0100
0000
0010
0000
,
0000
0000
1000
0001
,
1000
0000
0100
0000
,
1000
1000
0010
0000
,
1001
0000
0002
0000
,
0003
0000
0100
0001
,
0010
0000
0200
0000
,
0310
0010
0001
1000
,
0100
0000
2000
0000
,
3010
0010
1000
0001
,
0100
0000
0002
0000
,
0013
0100
0010
0001
,
2000
0000
3020
0000
,
0230
0000
0301
0000
,
1001
0000
0110
0000
,
0001
1000
0001
0000
,
1000
0100
2000
0000
,
3001
0100
0002
0000
,
0013
0100
2000
0000
,
3001
0001
0010
0000
,
2001
0000
3200
0000
,
0310
0000
0010
0000
,
1001
0000
0110
0000
,
0001
0001
0100
0001
,
0020
0000
0000
0030
,
1000
1000
0100
1000
,
0020
0000
1030
0001
,
1000
1000
0100
0010
,
0200
0000
1000
0300
,
0001
0100
0001
0000
,
1000
0010
1000
0000
,
0001
0010
0001
0010
,
0100
1000
0100
1000
,
0010
0000
0000
0000
,
0000
0000
0000
0000
,
1001
0100
1001
0010
,
0110
0000
1001
0000
,
0110
1000
0110
0001
,
1001
0110
1001
0000
,
2000
3200
0320
0000
,
0032
0203
0320
0000
,
2030
3002
0023
0032
,
0203
0320
0230
0300
,
1001
0100
1001
0010
,
0110
1000
0110
0001
,
1001
0100
1001
0010
,
0110
1001
0110
0000
,
0002
0023
0230
0000
,
2300
3020
0230
0000
,
0302
2003
3200
0320
,
0032
0000
0000
0203
0000
0000
0000
0000
,
0000
0300
0010
1000
,
2001
0000
0000
3200
0000
0000
0000
0000
,
0000
0300
0010
0001
,
1001
0000
0000
0220
0000
0000
0000
0000
,
0000
0330
1000
0001
,
2002
0000
0000
3003
,
0010
1001
0100
1001
,
0110
0000
0000
0000
0000
1000
0000
1000
,
0000
1000
0001
0000
0000
0010
0100
0000
,
0000
0000
0010
0000
0000
0001
0000
0001
,
0000
0100
0010
0010
,
1001
1000
0100
0010
,
0100
0000
1000
0001
1000
0000
0010
0000
,
0220
0000
0000
0000
,
0000
0000
0330
0000
,
0001
0001
1000
1000
,
0100
1000
0010
0100
,
0001
0010
0100
1000
,
0010
0000
0100
0010
0100
0000
0001
0000
,
0020
0000
0100
0100
,
0030
0000
2002
0000
,
0000
0000
0000
0000
,
0000
0000
0000
0000
,
0000
0000
0000
0000
,
3003
0000
0000
0000
;

//--------------- dance-single - forcednature ----------------
#NOTEDATA:;
#STEPSTYPE:dance-single;
#DESCRIPTION:forcednature;
#DIFFICULTY:Easy;
#METER:11;
#RADARVALUES:0,0,0,0,0;
#CREDIT:forcednature;
#NOTES:
0000
0000
0000
0000
,
0000
0000
0000
0000
,
0000
0000
0000
0000
,
0000
0000
0000
0000
,
0000
0000
0000
0000
,
1001
0000
1000
0000
0100
0000
1000
0010
,
0010
0000
0000
0000
0000
0000
0000
0000
0100
0000
0000
0100
0000
0000
0100
0000
,
0001
0000
0000
0010
0010
0000
0001
0000
,
1001
0000
0010
0000
0110
0000
1000
0001
,
1000
0000
0001
0000
0100
0010
0100
0010
,
0200
0000
0000
0300
,
1001
0000
0001
0010
,
0001
0100
0010
0010
,
1000
0000
0001
1000
,
0100
0100
1000
0010
,
0100
0000
0001
1000
,
0100
1000
0001
0010
,
0100
0000
0010
0001
,
1000
1000
0010
0110
,
2001
3100
1002
0013
,
0001
0100
0010
1000
,
2001
3010
1002
0103
,
0001
0001
1000
0100
,
0120
0031
0210
1300
,
0001
0000
0000
0000
0010
0000
0000
0000
0001
0000
0000
0001
0000
0000
0001
0000
,
0100
0010
1000
0001
,
1000
0000
0100
0000
1000
0000
0000
0000
0010
0000
0000
0010
0000
0000
0100
0000
,
0002
0000
0023
0000
,
0230
0000
2300
3000
,
1001
0000
0110
0000
,
1000
0000
0000
0000
0001
0000
0000
0000
0100
0000
0000
0100
0000
0000
0100
0000
,
0010
1000
0100
1000
,
0001
0100
0001
0020
,
0130
0000
1000
0000
0100
0000
0010
0000
0001
0000
0010
0000
,
0100
1001
0220
0330
,
1001
0000
0100
0100
,
1000
1000
0010
0000
,
1001
0000
0110
0010
,
0001
0000
0001
1000
0001
0000
0100
0000
,
0010
1000
0100
0000
,
1000
0000
1000
0001
1000
0000
0010
0000
,
0100
0001
0010
0000
,
0110
0000
1000
0001
1000
0000
0010
0000
,
0100
0001
0010
0100
,
0110
0000
0001
1000
0001
0000
0100
0000
,
0010
0000
1000
0001
1000
0000
0100
0000
,
0010
0001
0010
0000
0100
1000
0100
0000
,
1000
1000
0010
0000
0100
0100
0001
0000
,
1001
0000
0000
0000
,
0000
0000
0000
0000
0000
0000
0000
0000
0001
0000
0000
1000
0000
0000
0001
0000
,
0200
0320
2030
3002
,
0023
0000
0130
1000
0002
0000
0103
0001
,
2000
0000
3010
0100
0002
0000
0013
0000
,
0110
1001
0220
0330
,
2000
3200
2300
0000
3002
0203
0302
0000
,
2003
3020
2030
0000
3002
0023
0032
0000
,
0203
0320
2030
0000
3200
0320
0032
0000
,
0103
0100
0200
0000
0310
0000
1001
0000
,
1100
1100
0011
0011
,
1001
0110
1001
1100
,
1010
0101
0011
0110
,
1001
0110
2002
3003
,
0002
0203
0302
0000
2003
3200
2300
0000
,
3020
0230
0302
0000
0023
0230
2300
0000
,
3010
0010
0010
0000
0110
0000
1001
0000
,
2000
0100
3002
0010
,
1000
0000
0000
0000
0010
0000
0000
0000
1003
0000
0000
1000
0000
0000
0100
0000
,
2000
0010
3002
0100
,
1000
0000
0000
0000
0100
0000
0000
0000
0013
0000
0000
0010
0000
0000
0100
0000
,
2000
0010
3200
1000
,
0010
1000
0310
0001
,
0120
0000
0001
0001
0001
0000
0130
0000
,
1001
1100
0011
1001
,
1000
1000
0000
0000
0000
0010
0000
0010
,
0000
0100
0100
0000
0000
1001
0000
0000
,
0000
0000
0110
0000
0000
0001
0000
0001
,
0000
0000
0010
0000
0100
0100
0100
0000
,
2000
3020
0230
0302
,
0023
0000
0130
1000
0002
0000
0103
0001
,
2000
0000
3020
0000
,
0230
0000
0302
0000
,
0013
0100
0010
0000
0001
0000
0100
0000
,
0010
1000
0010
0000
1000
0100
1000
0000
,
0101
0011
1100
1010
,
0110
0000
1000
0001
1000
0000
0100
0000
,
2002
0000
0003
0000
0010
0010
3010
0100
,
0000
0000
2002
0000
,
0000
0000
0000
0000
,
0000
0000
0000
0000
,
0000
0000
0000
0000
,
3003
0000
0000
0000
;

//--------------- dance-single - forcednature ----------------
#NOTEDATA:;
#STEPSTYPE:dance-single;
#DESCRIPTION:forcednature;
#DIFFICULTY:Medium;
#METER:15;
#RADARVALUES:0,0,0,0,0;
#CREDIT:forcednature;
#NOTES:
0000
0000
0000
0000
,
0000
0000
0000
0000
,
0000
0000
0000
0000
,
0000
0000
0000
0000
,
0000
0000
0000
0000
,
1001
0000
0001
0000
0100
0000
0010
1000
,
1010
0000
0000
0000
1000
0000
0001
0000
0010
0000
0000
0110
0000
0000
0001
0000
,
1000
0000
0000
0000
0000
0000
0001
0100
0001
0000
0000
0000
0010
0000
0000
0000
,
0100
0000
1000
0000
0100
0000
0010
0000
0100
0000
1000
0000
0100
0000
0010
0001
,
1000
0000
0010
0000
0100
0000
0010
0000
1000
0001
1000
0001
0100
0000
0000
0000
,
0220
0000
0300
1030
,
1001
0000
0001
0010
0100
0000
0010
0001
,
0100
0000
0000
0000
0001
0000
1000
0000
0010
0000
0000
0010
0000
0000
1000
0000
,
0001
0000
0010
0100
1000
0000
0010
0100
,
0001
0000
0001
0000
0001
0000
0000
0000
0010
0000
0000
0001
0000
0000
1000
0000
,
0010
0000
1000
0100
0001
0000
0100
1000
,
0001
0000
0000
0000
0100
0000
0000
0000
0010
0000
0000
1000
0000
0000
0001
0000
,
0100
0000
0000
0000
0010
0000
1000
0000
0100
0000
0000
0000
1000
0000
0100
1000
,
0001
0000
0001
0000
0010
0000
0001
0000
0010
0100
0010
0100
1000
0000
0000
0000
,
1002
0000
0103
0010
2000
0000
3100
0010
,
0001
0000
1000
0000
0100
0000
1000
0001
1000
0000
0000
0010
0000
0000
0100
0000
,
0002
0000
0013
0100
2000
0000
3010
0100
,
0001
0000
0001
0000
0001
0000
0010
0000
0001
0000
0000
0101
0000
0000
1000
0000
,
0020
0000
0130
0001
0020
0000
0130
1000
,
0001
0000
0000
0000
1000
0000
0100
0000
0001
0000
0000
0100
0000
0000
1000
0000
,
0002
0203
0320
2030
,
3001
0000
0010
0001
0010
0000
0000
0000
0100
0000
0000
0110
0000
0000
0010
0000
,
1002
0000
0203
0000
,
0320
0000
0000
0000
2030
0000
0000
3100
,
2002
3003
0220
0330
,
1001
0000
0000
0000
0110
0000
0000
0000
1001
0000
0000
1001
0000
0000
0001
0000
,
0020
0100
0032
0100
,
2003
0000
0000
3020
0000
0000
0230
0000
0000
0301
1000
0100
,
0020
0000
0001
0000
0001
0000
0230
0000
1000
0000
1000
0000
,
0310
0110
2000
3001
,
2001
0000
0000
0000
0000
0000
3001
0000
0100
0000
0001
0000
0100
0000
0000
0010
0000
0000
0010
0000
0000
1000
0000
0000
,
0002
0000
0000
0000
0000
0000
1003
0000
0100
0000
1000
0000
0100
0000
0000
0010
0000
0000
0010
0000
0000
0001
0000
0000
,
1002
0000
0000
0000
0000
0000
1003
0000
0010
0000
1000
0000
0010
0000
0000
0100
0000
0000
0100
0000
0000
0001
0000
0000
,
0010
0000
0000
0001
0010
0000
0100
0000
1000
0000
0000
0010
0100
0000
0002
0000
,
0010
1000
0100
1003
,
0001
0000
0000
0100
0010
0000
1000
0000
0100
0000
0000
1000
0001
0000
0020
0000
,
0100
0001
0230
2300
,
3010
0000
0000
0100
0001
0000
0010
0000
0001
0000
0000
0100
0010
0000
1000
0010
,
2000
0100
3002
0010
,
0103
0001
0010
1000
0010
0001
0100
0010
,
1000
0100
0001
0100
1000
0010
0100
0001
,
0011
0000
0000
0010
0001
0000
0001
0000
0100
0000
0010
0100
0010
0000
1000
0000
,
0100
1000
0100
0000
1000
0000
0001
0010
0001
0000
0100
0000
0001
1000
0001
1000
,
0010
0000
0000
0000
,
0000
0000
0000
0000
0000
0000
1000
0000
0100
0000
0000
0010
0000
0000
0001
0000
,
0202
0303
2020
3030
2200
3300
0022
0033
,
2002
0000
0000
0000
0000
0000
0000
0000
3003
0000
0000
0000
0000
0000
0000
0000
0200
0000
0000
0000
0000
0000
0000
0000
0320
0000
0000
0000
0000
0000
0000
0030
0220
0000
0000
0000
0000
0000
0000
0000
0330
0000
0000
0000
0000
0000
0000
0000
0002
0000
0000
0000
0000
0000
0000
0000
2003
0000
0000
0000
0000
0000
0000
3000
,
2002
0000
0000
0000
0000
0000
0000
0000
3003
0000
0000
0000
0000
0000
0000
0000
0002
0000
0000
0000
0000
0000
0000
0000
0023
0000
0000
0000
0000
0000
0000
0030
0022
0000
0000
0000
0000
0000
0000
0000
0033
0000
0000
0000
0000
0000
0000
0000
0202
0000
0000
0000
0000
0000
0000
0000
0303
0000
0000
0000
0000
0000
0000
0000
,
2200
3300
2020
3030
0220
0000
0000
0330
,
0202
0000
0000
0000
0000
0000
0000
0000
0300
0000
0000
0000
0000
0000
0000
0000
0020
0000
0000
0000
0000
0000
0000
0000
0000
0000
0000
0000
0000
0000
0000
0033
2200
0000
0000
0000
0000
0000
0000
0000
0300
0000
0000
0000
0000
0000
0000
0000
0010
0000
0000
0000
0000
0000
0000
0000
0020
0000
0000
0000
0000
0000
0000
3030
,
0202
0000
0000
0000
0000
0000
0000
0000
0300
0000
0000
0000
0000
0000
0000
0000
1000
0000
0000
0000
0000
0000
0000
0000
2000
0000
0000
0000
0000
0000
0000
3003
2200
0000
0000
0000
0000
0000
0000
0000
3000
0000
0000
0000
0000
0000
0000
0000
0002
0000
0000
0000
0000
0000
0000
0000
0000
0000
0000
0000
0000
0000
0000
0303
,
0220
0000
0000
0000
0000
0000
0000
0000
0000
0000
0000
0000
0000
0000
0000
0300
0002
0000
0000
0000
0000
0000
0000
0030
0020
0000
0000
0000
0000
0000
0000
0033
0202
0000
0000
0000
0000
0000
0000
0000
0000
0000
0000
0000
0000
0000
0000
0300
2000
0000
0000
0000
0000
0000
0000
0003
0200
0000
0000
0000
0000
0000
0000
3300
,
1200
0000
1000
0000
1000
0000
0010
0000
0310
0001
0010
0001
1000
0000
0000
0000
,
2200
0000
0000
0000
0000
0000
0000
3000
0020
0000
0000
0000
0000
0000
0000
0030
2000
0000
0000
0000
0000
0000
0000
0300
0002
0000
0000
0000
0000
0000
0000
0003
0020
0000
0000
0000
0000
0000
0000
3000
0200
0000
0000
0000
0000
0000
0000
0300
2000
0000
0000
0000
0000
0000
0000
0030
0002
0000
0000
0000
0000
0000
0000
3003
,
0202
0000
0000
0000
0000
0000
0000
0000
0000
0000
0000
0000
0000
0000
0000
0303
0002
0000
0000
0000
0000
0000
0000
0000
0023
0000
0000
0000
0000
0000
0000
0030
2200
0000
0000
0000
0000
0000
0000
0000
0000
0000
0000
0000
0000
0000
0000
3300
2000
0000
0000
0000
0000
0000
0000
0000
3020
0000
0000
0000
0000
0000
0000
0030
,
2002
0000
0000
0000
0000
0000
0000
0000
0003
0000
0000
0000
0000
0000
0000
0000
3200
0000
0000
0000
0000
0000
0000
0000
0320
0000
0000
0000
0000
0000
0000
0030
0022
0000
0000
0000
0000
0000
0000
0000
0033
0000
0000
0000
0000
0000
0000
0000
0202
0000
0000
0000
0000
0000
0000
0000
0303
0000
0000
0000
0000
0000
0000
0000
,
2200
0000
0000
0000
0000
0000
0000
0000
0000
0000
0000
0000
0000
0000
0000
3300
2020
0000
0000
0000
0000
0000
0000
0000
0000
0000
0000
0000
0000
0000
0000
3030
0220
0000
0000
0000
0000
0000
0000
0000
0000
0000
0000
0000
0000
0000
0000
0000
0000
0000
0000
0000
0000
0000
0000
0000
0330
0000
0000
0000
0000
0000
0000
0000
,
2002
0000
0000
0000
0000
0000
0000
0000
3000
0000
0000
0000
0000
0000
0000
0000
0010
0000
0000
0000
0000
0000
0000
0000
0020
0000
0000
0000
0000
0000
0000
0003
0032
0000
0000
0000
0203
0000
0000
0000
0302
0000
0000
0000
0203
0000
0000
0000
0302
0000
0000
0000
0000
0000
0000
0000
2000
0000
0000
0000
0000
0000
0000
3003
,
2002
0000
0000
0000
0000
0000
0000
0000
0003
0000
0000
0000
0000
0000
0000
0000
0010
0000
0000
0000
0000
0000
0000
0000
0020
0000
0000
0000
0000
0000
0000
3000
2030
0000
0000
0000
3200
0000
0000
0000
2300
0000
0000
0000
3200
0000
0000
0000
2300
0000
0000
0000
0000
0000
0000
0000
0001
0000
0000
0000
0000
0000
0000
3000
,
2200
0000
0000
0000
0000
0000
0000
3000
0010
0000
0000
0000
0000
0000
0000
0300
0022
0000
0000
0000
0000
0000
0000
0003
0100
0000
0000
0000
0000
0000
0000
0030
0020
0000
0000
0000
0032
0000
0000
0000
2003
0000
0000
0000
3002
0000
0000
0000
0023
0000
0000
0000
0000
0000
0000
0000
0130
0000
0000
0000
1000
0000
0000
0000
,
0002
0100
0000
0203
1000
0000
0010
0000
,
0001
0000
0000
0000
0310
0000
0000
0000
1010
0000
0000
0101
0000
0000
0011
0000
,
2000
0100
0000
3200
0001
0000
0010
0000
,
1000
0000
1000
0000
1300
0100
1000
0100
0010
0000
0000
0011
0000
0000
0001
0100
,
0002
0010
0000
0023
1000
0000
0100
0000
,
0001
0000
0000
0000
0130
0000
0000
0000
0010
0000
0001
0010
0001
0000
0100
0000
,
0120
0000
0000
0000
1000
0000
1000
0000
1030
0000
0010
0000
0100
0000
0001
0010
,
0002
0100
2003
0100
3002
0010
1003
0000
,
0010
1010
0000
0000
0000
0101
0000
0101
,
0000
0001
0011
0000
0000
1100
0000
0000
,
0000
0000
1010
0000
0000
0101
0000
0011
,
0000
0000
0000
0000
1100
0000
0000
0000
0001
0000
1000
0001
1000
0000
0000
0000
,
0001
0010
0001
0000
0010
0000
0100
1000
0100
0000
1000
0000
0010
0100
0010
0000
,
1000
0000
0100
1000
0001
0000
0010
0001
1000
0000
0100
0000
1100
0000
0001
0000
,
0020
0000
0130
1000
0020
0000
1030
0100
,
0002
0000
0103
1000
0020
0000
0000
0030
,
0110
0000
0000
0000
0100
0000
0001
0000
0010
0000
0001
0000
1000
0000
0001
1000
,
0001
0000
0100
0000
0010
0000
1000
0000
0100
0000
1000
0001
0010
0000
0000
0000
,
0100
0000
0010
0100
0010
0000
0001
0010
0001
0000
0100
0001
0200
0000
0000
0000
,
0310
0000
1000
0010
1000
0000
0001
0000
0100
0010
0100
0000
0010
0000
0000
0000
,
2002
0000
0000
0000
0000
0000
3003
0000
0001
0010
0001
0010
0100
1000
0100
1000
,
0000
0000
2002
0000
,
0000
0000
0000
0000
,
0000
0000
0000
0000
,
0000
0000
0000
0000
,
3003
0000
0000
0000
;

//--------------- dance-single - forcednature ----------------
#NOTEDATA:;
#STEPSTYPE:dance-single;
#DESCRIPTION:forcednature;
#DIFFICULTY:Hard;
#METER:17;
#RADARVALUES:0,0,0,0,0;
#CREDIT:forcednature;
#NOTES:
0000
0000
0000
0000
,
0000
0000
0000
0000
,
0000
0000
0000
0000
,
0000
0000
0000
0000
,
0000
0000
0000
0000
,
1001
0000
1000
0100
0010
0000
0001
0100
,
0101
0000
0000
0000
0001
0000
1000
0000
0010
0000
0000
0110
0000
0000
1000
0000
,
2001
0000
0000
0000
0000
0000
3001
0010
0200
0000
0000
0000
1000
0000
1300
0010
,
0100
0000
0001
0100
0010
0000
1000
0100
0010
0000
0001
0100
0010
1000
0010
1000
,
0001
0000
0010
0001
0100
0000
0010
1000
0100
1000
0100
1000
0001
0010
0100
1000
,
0020
0000
0000
0130
,
1001
0000
1000
0100
1000
0010
1000
0100
,
0001
0000
0100
0000
1000
0000
0001
0000
0010
0000
0000
0010
0001
0000
0100
0000
,
0010
0000
1000
0001
0100
0001
0010
0001
,
0100
0000
0100
0000
0100
0000
0000
0000
0010
0000
0000
0110
0000
0000
1000
0000
,
0001
0000
0010
0001
0100
0001
0010
1000
,
0010
0000
0001
0000
0010
0000
0000
0000
0100
0000
0000
0100
1000
0000
0010
0000
,
0100
0000
0000
0000
0001
0000
0010
0000
0001
0000
0100
0000
1000
0000
0100
0001
,
1000
0000
1000
0000
1000
0000
0010
0000
1000
0100
0010
0001
0100
0000
0001
1000
,
0010
0000
0100
0000
0001
0000
0010
0001
0010
0000
0100
0000
1000
0000
0001
0000
,
0100
0000
0010
0000
1000
0000
0001
1000
0001
0000
0000
0011
0000
0000
1000
0000
,
0100
0000
1000
0000
0010
0000
1000
0001
1000
0000
0010
0000
0100
0000
0001
0000
,
0010
0000
0010
0000
0010
0000
0001
0000
0100
0000
0000
0110
0000
0000
0001
0000
,
1000
0000
0010
0000
1000
0000
0100
1000
0001
0000
0010
0000
0001
0000
1000
0000
,
0010
0000
1000
0000
0100
0000
0001
0000
0100
0000
0000
0110
0000
0000
0001
0000
,
1000
0000
0000
1000
0010
0000
0000
0100
0001
0000
0000
0010
0100
0000
0000
1000
,
0010
0100
0010
1000
0001
0100
0010
0100
0001
0010
0000
0011
0000
0001
0100
0010
,
2000
0000
3200
0000
,
0320
0000
0000
0000
0032
0000
0000
0103
,
2002
3003
0220
0330
,
0011
0000
0010
0000
0110
0000
0100
0000
1100
0000
0000
1100
0000
0000
0010
0000
,
2001
0100
3020
0001
,
2030
0000
0000
3200
0000
0000
0302
0000
0000
0103
1000
0001
,
0020
0000
0100
0000
1000
0000
0032
0000
0100
0000
1003
0000
,
0011
0000
0001
0000
1100
0000
0000
0001
0100
0000
0010
0100
0010
1000
0001
0100
,
0020
0000
0000
0000
0000
0000
1030
0000
1000
0000
1000
0000
0001
0000
0000
0010
0000
0000
0100
0000
0000
1000
0000
0000
,
0002
0000
0000
0000
0000
0000
0000
0000
0000
0000
0000
0000
0103
0000
0000
0000
0100
0000
0000
0000
0100
0000
0000
0000
0010
0000
0000
0000
0000
0000
1000
0000
0000
0000
0000
0000
0001
0000
0000
0000
0000
0000
0010
0000
0000
0100
0000
0000
,
0020
0000
0000
0000
0000
0000
0000
0000
0000
0000
0000
0000
0031
0000
0000
0000
0001
0000
0000
0000
0001
0000
0000
0000
1000
0000
0000
0000
0000
0000
0010
0000
0000
0000
0000
0000
0110
0000
0000
0000
0000
0000
0001
0000
0000
1000
0000
0000
,
0001
0000
0010
0001
0000
0010
0100
0000
1000
0000
0010
0100
0000
0001
0020
0000
,
0100
0100
0100
0001
0100
0100
0031
0000
,
0010
0000
0100
1000
0000
0001
0100
0000
0010
0000
1000
0100
0000
0010
0002
0000
,
0100
0000
0100
0000
0100
0000
1000
0000
0023
0000
0100
0000
0031
1000
0001
1000
,
0010
0000
0100
1000
0000
0100
0001
0000
1000
0000
0010
0100
0000
0001
0010
0001
,
2000
0000
0100
0000
0100
0000
0001
0000
3020
0000
0100
0000
0130
0000
0010
1000
,
0001
0000
0010
0100
1000
0000
0010
0100
0001
0100
0010
0000
1000
0000
1000
0001
,
0010
0000
0100
1000
0010
0000
0100
0001
1000
0010
1000
0010
0100
0000
0001
1000
,
0100
0000
0100
0010
0001
0000
0001
0100
0010
0000
0010
1000
0001
0100
0001
0000
,
0010
0001
0100
0010
1000
0000
0100
0010
0001
0000
0011
0000
0001
0100
1000
0100
,
0010
0000
0000
0000
,
0000
0000
0000
0000
0000
0000
1000
1000
0100
0000
0000
0010
0000
0000
0001
0000
,
0102
0000
0013
0100
2000
0000
3010
0100
0002
0000
0013
0001
0200
0000
1000
0000
,
0302
0000
0010
0000
1003
0010
0100
0001
0020
0000
0100
0000
0031
0010
0100
1000
,
0020
0000
1030
0100
0002
0000
0103
0010
0002
0000
0100
0000
1003
0010
0100
0001
,
2000
0000
3100
0010
0002
0000
0103
0010
1000
0100
1000
0001
0020
0000
0030
0000
,
0201
0000
0000
0000
0000
0000
0000
0000
0310
0000
0000
0000
1000
0000
0000
0000
0001
0000
0000
0000
1000
0000
0000
0000
0020
0000
0000
0000
0000
0000
0000
0030
2001
0000
0000
0000
0000
0000
0000
0000
3100
0000
0000
0000
0010
0000
0000
0000
0002
0000
0000
0000
0000
0000
0000
0000
0103
0000
0000
0000
0010
0000
0000
0000
,
2000
0000
0000
0000
0000
0000
0000
0000
3100
0000
0000
0000
0001
0000
0000
0000
0100
0000
0000
0000
1000
0000
0000
0000
0002
0000
0000
0000
0000
0000
0000
0003
2010
0000
0000
0000
0000
0000
0000
0000
3100
0000
0000
0000
0010
0000
0000
0000
0002
0000
0000
0000
0000
0000
0000
0000
0103
0000
0000
0000
1000
0000
0000
0000
,
0200
0000
0301
1000
0010
0100
0001
0010
0100
1000
0100
0010
0001
0100
0010
1000
,
0200
0000
0010
0000
1000
0000
0010
0000
1300
0010
0100
0001
1001
0000
0000
0000
,
2010
0000
0000
0000
0000
0000
0000
0000
3001
0000
0000
0000
0100
0000
0000
0000
2000
0000
0000
0000
0000
0000
0000
0000
3100
0000
0000
0000
0001
0000
0000
0000
2000
0000
0000
0000
0000
0000
0000
0000
3010
0000
0000
0000
0100
0000
0000
0000
0002
0000
0000
0000
0000
0000
0000
0000
0010
0000
0000
0000
0000
0000
0000
0003
,
2001
0000
0100
0000
3010
1000
0001
0100
0020
0000
1000
0000
0130
0001
1000
0001
,
0020
0000
0130
1000
0020
0000
1030
0100
0002
0000
0103
0010
0001
1000
0010
0100
,
0001
0010
0001
0010
0100
1000
0001
0010
0200
0000
1300
0001
0100
0010
0100
0000
,
2001
0000
3100
0010
0001
0010
0100
1000
0020
0000
0130
0001
0020
0000
0130
1000
,
1002
0000
0103
0010
1000
0100
0001
0100
1000
0001
0010
0001
1000
0010
0100
0001
,
0020
0000
0130
1000
0100
1000
0001
0010
0100
1000
0001
0100
1000
0000
1000
0100
,
0002
0010
0000
2003
0100
0001
0100
0001
,
0100
0000
0001
0000
0100
0000
3001
0000
2020
0000
3030
0220
0000
0330
0001
1000
,
0002
0010
0000
0203
1000
0010
1000
0010
,
1000
0000
1300
0100
0001
0100
0001
0000
0020
0001
0000
0230
0010
0000
1300
0100
,
0020
0001
0000
0230
0001
0010
0001
0010
,
0001
0000
0010
0000
0001
0000
0010
0000
2300
0000
3100
0010
0002
0000
0103
0010
,
2000
0000
3100
1000
0100
1000
0001
0010
0100
0000
0010
0001
1000
0000
0020
0000
,
0100
0000
2030
0000
0001
0000
3100
0010
0001
0100
0010
1000
0100
0000
0000
0000
,
1001
1001
0001
0000
1000
1100
0000
0011
,
0000
0101
0101
0000
1000
1010
0000
0001
,
0010
0000
1100
0000
0010
0110
0000
1001
,
0000
0000
0001
0000
0011
0000
0000
0000
0001
1000
0100
1000
0001
0000
0000
0000
,
0010
0001
0100
0001
0010
0000
0100
1000
0010
1000
0100
0000
0010
0001
1000
0000
,
0010
0100
1000
0100
0001
0000
1000
0010
0100
0010
1000
0001
0010
0100
1000
0010
,
0200
0000
0320
2030
3200
0000
0320
0032
,
0203
0000
2300
3200
0302
0000
0000
0003
,
1001
0000
1000
0100
0010
0000
0100
1000
0010
0000
0100
0001
0010
0000
0001
0100
,
0010
1000
0010
1000
0001
0000
0010
0001
0200
0000
0010
0000
0310
0000
1000
0000
,
0002
0000
0013
0100
2000
0000
3010
0100
0002
0000
0013
0001
0200
0000
0310
1000
,
0100
0010
0100
0010
0001
1000
0001
1000
0010
0100
0001
0100
0010
1000
0001
0010
,
0100
1000
0100
1000
0100
1000
0100
0010
0002
0203
0320
2030
3200
0320
0032
0203
,
0300
0000
2002
0000
,
0000
0000
0000
0000
,
0000
0000
0000
0000
,
0000
0000
0000
0000
,
3003
0000
0000
0000
;

//--------------- dance-double - forcednature ----------------
#NOTEDATA:;
#STEPSTYPE:dance-double;
#DESCRIPTION:forcednature;
#DIFFICULTY:Easy;
#METER:11;
#RADARVALUES:0,0,0,0,0;
#CREDIT:forcednature;
#NOTES:
00000000
00000000
00000000
00000000
,
00000000
00000000
00000000
00000000
,
00000000
00000000
00000000
00000000
,
00000000
00000000
00000000
00000000
,
00000000
00000000
00000000
00000000
,
00011000
00000000
00000100
00000000
00001000
00000000
00000010
00000100
,
00000100
00000000
00000000
00000000
00000000
00000000
00000000
00000000
00000001
00000000
00000000
00000001
00000000
00000000
00000001
00000000
,
00000010
00000000
00000000
00001000
00010000
00000000
00001000
00000000
,
00011000
00000000
00100000
00000000
00010000
00000000
01000000
00010000
,
01000000
00000000
00100000
00000000
10000000
00010000
10000000
00000000
,
20020000
00000000
00000000
30030000
,
01100000
00000000
00010000
00100000
,
00001000
00010000
00000100
00001000
,
00000010
00000000
00010000
00001000
,
01000000
01000000
00010000
10000000
,
00100000
00000000
10000000
01000000
,
00100000
00010000
00100000
00001000
,
00010000
00000000
00000010
00001000
,
00000001
00000001
00000100
00000110
,
00002002
00003003
00000220
00000330
,
00001000
00000100
00010000
00001000
,
00022000
00033000
02200000
03300000
,
00010000
10000000
00100000
01000000
,
20020000
30030000
02200000
03300000
,
00010000
00000000
00000000
00000000
00100000
00000000
00000000
00000000
00001000
00000000
00000000
00001000
00000000
00000000
00001000
00000000
,
00010000
00000100
00001000
00000010
,
00000100
00000000
00000001
00000000
00000100
00000000
00000000
00000000
00000010
00000000
00000000
00000010
00000000
00000000
00001000
00000000
,
00000002
00000000
00000023
00000000
,
00000230
00000000
00020300
00030000
,
00011000
00000000
01100000
00000000
,
10000000
00000000
00000000
00000000
00010000
00000000
00000000
00000000
01000000
00000000
00000000
01000000
00000000
00000000
01000000
00000000
,
00100000
10000000
01000000
00010000
,
00001000
00000100
00000001
00000020
,
00000130
00000000
00000100
00000000
00001000
00000000
00000100
00000000
00010000
00000000
00001000
00000000
,
00100000
01100000
20020000
30030000
,
01100000
00000000
00010000
00010000
,
00100000
00000000
00001000
00000000
,
00011000
00000000
00000110
00000000
,
00001000
00000000
00000001
00001000
00000001
00000000
00000100
00000000
,
00001000
00010000
00100000
00000000
,
10000000
00000000
10000000
00010000
10000000
00000000
01000000
00000000
,
00010000
00001000
00000010
00000000
,
00000110
00000000
00001000
00000001
00001000
00000000
00000010
00000000
,
00000100
00001000
00010000
00000000
,
00011000
00000000
00100000
00010000
00100000
00000000
01000000
00000000
,
10000000
00000000
00010000
01000000
00010000
00000000
00100000
00000000
,
00001000
00010000
00001000
00000000
00010000
00000000
00001000
00000000
,
00000010
00000010
00000100
00000000
00000110
00000000
00000010
00000000
,
00001001
00000000
00000000
00000000
,
00000000
00000000
00000000
00000000
00000000
00000000
00000000
00000000
00001000
00000000
00000000
00001000
00000000
00000000
00000001
00000000
,
00000200
00002300
00023000
00230000
,
20300000
00000000
31000000
10000000
02000000
00000000
03100000
00010000
,
00200000
00000000
00301000
00010000
00002000
00000000
00003010
00000000
,
00000110
00001001
00000220
00000330
,
00002000
00003020
00020030
00001000
,
00030200
00002300
00003020
00000230
,
00002300
00000000
00013000
00100000
02000000
00000000
03020000
00000000
,
10030000
10000000
20000000
00000000
30100000
00000000
10010000
00000000
,
11000000
11000000
00110000
00110000
,
00011000
00000100
00001001
00000010
,
00000110
00000110
00011000
00011000
,
01000000
01100000
20020000
30030000
,
00020000
00230000
00302000
00023000
,
00030200
00000000
00002300
00000000
00003020
00000230
00000302
00000000
,
00000013
00000010
00000010
00000000
00000110
00000000
00001001
00000000
,
00020000
00001000
00032000
00100000
,
00010000
00000000
00000000
00000000
00100000
00000000
00000000
00000000
00013000
00000000
00000000
00010000
00000000
00000000
00001000
00000000
,
02000000
00100000
03020000
10000000
,
01000000
00000000
00000000
00000000
10000000
00000000
00000000
00000000
00130000
00000000
00000000
00100000
00000000
00000000
00001000
00000000
,
00020000
00001000
00030200
00001000
,
00000010
00001300
00000001
00000010
,
00000210
00000000
00001000
00001000
00001000
00000000
00010300
00000000
,
00011000
00011000
00101000
00110000
,
10000000
10000000
00000000
00000000
00000000
00100000
00000000
00100000
,
00000000
01000000
01000000
00000000
00000000
00011000
00000000
00000000
,
00000000
00000000
00000110
00000000
00000000
00000001
00000000
00000001
,
00000000
00000000
00000100
00000000
00000010
00000010
00000010
00000000
,
00002000
00003200
00020300
00032000
,
00203000
00000000
00310000
01000000
00020000
00000000
10030000
00100000
,
20000000
00000000
32000000
00000000
,
03020000
00000000
00032000
00000000
,
00003010
00000100
00000010
00000000
00000001
00000000
00001000
00000000
,
00000010
00001000
00000010
00000000
00010000
00001000
00010000
00000000
,
00011000
00011000
01001000
01010000
,
10010000
00000000
10000000
01000000
10000000
00000000
00100000
00000000
,
20020000
00000000
30000000
00000000
00130000
00100000
00100000
00001000
,
00000000
00000000
00022000
00000000
,
00000000
00000000
00000000
00000000
,
00000000
00000000
00000000
00000000
,
00000000
00000000
00000000
00000000
,
00033000
00000000
00000000
00000000
;

//--------------- dance-double - forcednature ----------------
#NOTEDATA:;
#STEPSTYPE:dance-double;
#DESCRIPTION:forcednature;
#DIFFICULTY:Medium;
#METER:14;
#RADARVALUES:0,0,0,0,0;
#CREDIT:forcednature;
#NOTES:
00000000
00000000
00000000
00000000
,
00000000
00000000
00000000
00000000
,
00000000
00000000
00000000
00000000
,
00000000
00000000
00000000
00000000
,
00000000
00000000
00000000
00000000
,
00011000
00000000
00010000
00000000
01000000
00000000
10000000
00100000
,
10100000
00000000
00000000
00000000
00010000
00000000
01000000
00000000
00001000
00000000
00000000
00001000
00000000
00000000
00010000
00000000
,
00000010
00000000
00000000
00000000
00000000
00000000
00001000
00000001
00001000
00000000
00000000
00000000
00000100
00000000
00000000
00000000
,
00000010
00001000
00010000
00001000
00000010
00001000
00010000
00000000
,
00011000
00000000
00000000
00000000
00100000
00000000
00010000
00000000
01000000
00010000
01000000
00010000
10000000
00000000
00000000
00000000
,
02200000
00000000
03000000
10300000
,
10010000
00000000
00010000
00100000
01000000
00000000
00100000
00001000
,
00010000
00000000
00000000
00000000
00000010
00000000
00001000
00000000
00000001
00000000
00000000
00000001
00000000
00000000
00000100
00000000
,
00001000
00000000
00010000
00100000
00010000
00000000
00001000
00000010
,
00000100
00000000
00000100
00000000
00000100
00000000
00000000
00000000
00001000
00000000
00000000
00000010
00000000
00000000
00001000
00000000
,
00010000
00000000
01000000
10000000
01000000
00000000
00010000
00100000
,
00010000
00000000
00000000
00000000
00001000
00000000
00000000
00000000
00000100
00000000
00000000
00010000
00000000
00000000
00000010
00000000
,
00001000
00000000
00000001
00000010
00001000
00000000
00010000
01000000
,
10000000
00000000
10000000
00000000
00100000
00000000
10000000
00000000
01000000
00100000
01000000
00100000
00010000
00000000
00000000
00000000
,
20010000
00000000
31000000
00010000
00002000
00000000
00013000
01000000
,
10000000
00000000
00010000
00000000
00100000
00000000
00010000
10000000
01000000
00000000
00000000
00010000
00000000
00000000
00001000
00000000
,
00000020
00000000
00000031
00000100
00002000
00000000
00003100
00000001
,
00001000
00000000
00001000
00000000
00001000
00000000
00000010
00000000
00000100
00000000
00000000
00001001
00000000
00000000
00000001
00000000
,
00000020
00000000
00001030
00010000
00200000
00000000
00310000
00001000
,
00000100
00000000
00000000
00000000
00001000
00000000
00010000
00000000
01000000
00000000
00000000
10000000
00000000
00000000
00010000
00000000
,
00200000
02300000
03020000
00032000
,
00003010
00000000
00000100
00000010
00000100
00000000
00000000
00000000
00001000
00000000
00000000
00001000
00000000
00000000
00000010
00000000
,
00000200
00000000
00002300
00000000
,
00023000
00000000
00000000
00000000
00230000
00000000
00000000
01300000
,
20020000
30030000
02200000
03300000
,
00011000
00000000
00000000
00000000
00011000
00000000
00000000
00000000
00000100
00000000
00000000
00000100
00000000
00000000
00001000
00000000
,
00000020
00000100
00002030
00000100
,
00003002
00000000
00000000
00000023
00000000
00000000
00002030
00000000
00000000
00013000
00001000
00100000
,
00020000
00000000
01000000
00000000
01000000
00000000
20030000
00000000
00100000
00000000
00100000
00000000
,
30010000
01010000
00002000
00013000
,
00002010
00000000
00000000
00000000
00000000
00000000
00003001
00000000
00000100
00000000
00000001
00000000
00000100
00000000
00000000
00000010
00000000
00000000
00000010
00000000
00000000
00001000
00000000
00000000
,
00000200
00000000
00000000
00000000
00000000
00000000
00010300
00000000
00001000
00000000
00010000
00000000
00001000
00000000
00000000
00100000
00000000
00000000
00100000
00000000
00000000
00010000
00000000
00000000
,
02000000
00000000
00000000
00000000
00000000
00000000
03100000
00000000
10000000
00000000
00100000
00000000
10000000
00000000
00000000
01000000
00000000
00000000
01000000
00000000
00000000
00010000
00000000
00000000
,
00001000
00000000
00000000
00100000
00010000
00000000
00100000
00000000
00001000
00000000
00000000
00010000
00000100
00000000
00002000
00000000
,
00000010
00000001
00000100
00000001
,
00003010
00000000
00000000
00010000
00001000
00000000
01000000
00000000
00010000
00000000
00000000
01000000
00001000
00000000
00020000
00000000
,
00100000
00001000
00030020
00002030
,
00003001
00000000
00000000
00000100
00000010
00000000
00001000
00000000
00000010
00000000
00000000
00000100
00000001
00000000
00000010
00000001
,
00000020
00000100
00000032
00002003
,
00003010
00000100
00001000
00010000
00100000
01000000
00100000
00010000
,
00001000
00000100
00000010
00000100
00001000
00010000
01000000
10000000
,
00100000
00100000
10000000
01000000
00010000
00010000
00001000
00000010
,
00000001
00000010
00000001
00000000
00000100
00000000
00000001
00000100
00000001
00000000
00001000
00000000
00000010
00000100
00000010
00000100
,
00000001
00000000
00000000
00000000
,
00000000
00000000
00000000
00000000
00000000
00000000
00000010
00000000
00001000
00000000
00000000
00010000
00000000
00000000
01000000
00000000
,
20000000
30200000
00320000
00032000
,
00003200
00000000
00000302
00000023
00002030
00000000
00003020
00000032
,
00000203
00000000
00002300
00023000
00230000
00000000
20300000
00000000
,
32000000
00000000
03020000
00000000
00002000
00000000
00000000
00033000
,
00200000
00000000
00302000
00000000
00003020
00000000
00000130
00001000
,
00000020
00020030
00230000
20300000
,
32000000
00000000
03020000
00032000
00003020
00000000
00000230
00000000
,
00002300
00000000
00000001
00000000
00000001
00000000
00003001
00000000
00001000
00000010
00001000
00000010
00000100
00000000
00000000
00000000
,
00000002
00002003
00023000
20030000
,
30200000
00000000
02300000
03002000
00203000
00000000
00320000
00032000
,
00003200
00000000
00000320
00000032
00002003
00000000
00023000
00000000
,
02030000
03200000
20300000
30000000
,
10020000
00000000
00000000
00000000
00230000
00000000
02300000
00000000
13000000
00010000
10000000
00010000
00200000
00000000
00302000
00000000
,
00023000
00000000
00000000
00000000
00030020
00000000
00002030
00000000
00003001
00000100
00000001
00000100
00000002
00000000
00000023
00000000
,
00002030
00000000
00010000
00000000
00010000
00000000
00013000
00000000
00100000
00010000
00100000
00010000
10000000
00000000
01000000
00100000
,
00020000
00000000
00000000
02030000
10000000
00000000
00010000
00000000
,
00001000
00000000
00000000
00000000
03010000
00000000
00000000
00000000
01000000
00000000
00000000
00100000
00000000
00000000
00010000
00000000
,
00002000
00000000
00000000
00003020
00000001
00000000
00001000
00000000
,
00010000
00000000
00010000
00000000
00010030
00000000
00000000
00000000
00000010
00000000
00000000
00000110
00000000
00000000
00001000
00000001
,
00002000
00000000
00000000
00003200
00000001
00000000
00001000
00000000
,
00010000
00000000
00000000
00000000
00001300
00000000
00000000
00000000
00010000
00000000
00001000
00010000
00001000
00000000
00010000
00000000
,
00200000
00000000
00000000
00000000
10000000
00000000
10000000
00000000
10300000
00000000
00100000
00000000
01000000
00000000
00010000
00100000
,
00010000
00100000
00001000
00010000
00000020
00001000
00000130
00000000
,
00000001
00001001
00000000
00000000
00000000
00011000
00000000
00011000
,
00000000
00100000
00110000
00000000
00000000
11000000
00000000
00000000
,
00000000
00000000
10100000
00000000
00000000
01010000
00000000
01010000
,
00000000
00000000
00000000
00000000
00011000
00000000
00000000
00000000
00000010
00000000
00001000
00000010
00001000
00000000
00000000
00000000
,
00000001
00000010
00000001
00000000
00000010
00000000
00000100
00000010
00000100
00000000
00001000
00000000
00000100
00001000
00000100
00000000
,
00010000
00000000
00001000
00010000
00001000
00000000
00100000
00000000
00010000
00000000
01000000
00000000
01010000
00000000
00000000
00000000
,
20000000
00000000
31000000
00010000
00002000
00000000
00013000
01000000
,
20000000
00000000
30100000
00010000
00002000
00000000
00003000
00000000
,
00011000
00000000
00001000
00000010
00000001
00000100
00000001
00000010
,
00001000
00000000
00010000
00000000
01000000
00000000
10000000
00000000
00100000
00000000
10000000
00010000
01000000
00000000
00000000
00000000
,
00010000
00000000
00100000
00010000
00100000
00000000
00001000
00010000
00001000
00000000
00010000
00000100
00002000
00000000
00000000
00000000
,
00003010
00000000
00000100
00000010
00000100
00000000
00000001
00000000
00000010
00000001
00000010
00000000
00000100
00000000
00000000
00000000
,
00002002
00000000
00000000
00000000
00000000
00000000
00003003
00000000
00010000
00001000
00010000
00001000
00010000
00001000
00010000
00001000
,
00000000
00000000
20020000
00000000
,
00000000
00000000
00000000
00000000
,
00000000
00000000
00000000
00000000
,
00000000
00000000
00000000
00000000
,
30030000
00000000
00000000
00000000
;

//--------------- dance-double - forcednature ----------------
#NOTEDATA:;
#STEPSTYPE:dance-double;
#DESCRIPTION:forcednature;
#DIFFICULTY:Hard;
#METER:17;
#RADARVALUES:0,0,0,0,0;
#CREDIT:forcednature;
#NOTES:
00000000
00000000
00000000
00000000
,
00000000
00000000
00000000
00000000
,
00000000
00000000
00000000
00000000
,
00000000
00000000
00000000
00000000
,
00000000
00000000
00000000
00000000
,
00011000
00000000
00001000
00010000
00100000
00000000
10000000
01000000
,
01100000
00000000
00000000
00000000
00100000
00000000
00001000
00000000
00010000
00000000
00000000
00011000
00000000
00000000
00000010
00000000
,
00002010
00000000
00000000
00000000
00000000
00000000
00003100
00000010
00000002
00000000
00000000
00000000
00000100
00000000
00000103
00000010
,
00001000
00000000
00000100
00000010
00000001
00000000
00001000
00000010
00010000
00000000
00001000
00100000
00010000
01000000
00010000
01000000
,
00100000
00000000
00100000
10000000
01000000
00000000
00100000
00010000
01000000
00100000
01000000
00100000
10000000
00010000
00100000
00001000
,
00020000
00000000
00000000
00030100
,
00011000
00000000
00001000
00000010
00000001
00000100
00000001
00000000
,
00000010
00000000
00001000
00000000
00010000
00000000
01000000
00000000
00100000
00000000
00000000
00100000
00000000
00000000
00010000
00000000
,
10000000
00000000
00100000
10000000
01000000
00010000
00001000
00000000
,
00100000
00000000
00100000
00000000
00100000
00000000
00000000
00000000
00001000
00000000
00000000
00000010
00000000
00000000
00000001
00000000
,
00000100
00000000
00001000
00010000
00100000
01000000
00100000
00000000
,
10000000
00000000
01000000
00000000
00010000
00000000
00000000
00000000
00001000
00000000
00000000
00000010
00000000
00000000
00000001
00000000
,
00000100
00000000
00000000
00000000
00001000
00000000
00000100
00000000
00000001
00000000
00000010
00000000
00001000
00000000
00010000
00001000
,
00100000
00000000
00100000
00000000
00100000
00000000
00000000
00000000
00010000
01000000
00100000
10000000
00010000
00000000
00000000
00000000
,
10010000
00000000
00000000
00000000
10000000
00000000
01000000
10000000
00010000
00000000
00100000
00000000
00010000
00000000
00000000
00000000
,
00001000
00000000
00000100
00000000
00001000
00000000
00000010
00000000
00000100
00000000
00000000
00000110
00000000
00000000
00000001
00000000
,
00000010
00000000
00000001
00000100
00001000
00010000
00100000
00000000
,
10000000
00000000
10000000
00000000
10000000
00000000
00010000
00000000
00100000
00000000
00000000
01100000
00000000
00000000
10000000
00000000
,
00010000
00000000
00000000
00000000
00100000
00000000
00010000
10000000
01000000
00000000
00010000
00000000
00001000
00000000
00000000
00000000
,
00100000
00000000
00010000
00000000
00001000
00000000
00000100
00000000
00001000
00000000
00000000
00001010
00000000
00000000
00000001
00000000
,
00000100
00000000
00000000
00000100
00001000
00000000
00000000
00001000
00010000
00000000
00000000
00010000
00100000
00000000
00000000
00000000
,
10000000
01000000
10000000
01000000
00100000
00010000
00100000
00001000
00010000
00000100
00001000
00000100
00000010
00000001
00001000
00000010
,
00000200
00000000
00002300
00000000
,
00023000
00000000
00000000
00000000
00230000
00000000
00000000
01300000
,
20020000
30030000
02200000
03300000
,
00010000
00000000
00100000
00000000
00001000
00000000
00000010
00000000
00000100
00000000
00000000
00000110
00000000
00000000
00000010
00000000
,
00002001
00000100
00003020
00000001
,
00002030
00000000
00000000
00023000
00000000
00000000
02030000
00000000
00000000
03100000
10000000
01000000
,
00020000
00000000
00032000
00000000
00003020
00000000
00002030
00000000
00023000
00000000
00230000
00000000
,
01300000
00000000
00000000
00000000
10010000
00000000
00000000
00000000
10000000
00000000
01000000
00100000
01000000
00100000
01000000
00100000
,
00020000
00000000
00000000
00000000
00000000
00000000
01030000
00000000
01000000
00000000
01000000
00000000
00001000
00000000
00000000
00010000
00000000
00000000
00000010
00000000
00000000
00001000
00000000
00000000
,
00000200
00000000
00000000
00000000
00000000
00000000
00000000
00000000
00000000
00000000
00000000
00000000
00010300
00000000
00000000
00000000
00010000
00000000
00000000
00000000
00010000
00000000
00000000
00000000
00001000
00000000
00000000
00000000
00000000
00000000
00100000
00000000
00000000
00000000
00000000
00000000
00010000
00000000
00000000
00000000
00000000
00000000
00100000
00000000
00000000
01000000
00000000
00000000
,
20000000
00000000
00000000
00000000
00000000
00000000
00000000
00000000
00000000
00000000
00000000
00000000
30100000
00000000
00000000
00000000
00100000
00000000
00000000
00000000
00100000
00000000
00000000
00000000
10000000
00000000
00000000
00000000
00000000
00000000
01000000
00000000
00000000
00000000
00000000
00000000
00010000
00000000
00000000
00000000
00000000
00000000
00001000
00000000
00000000
00010000
00000000
00000000
,
00001000
00000000
00000000
00000010
00000001
00000000
00000100
00000000
00001000
00000000
00000000
00000100
00000001
00000000
00000010
00000000
,
00001000
00010000
01000000
00010000
00001000
00100000
00010000
00000000
,
01000000
00000000
00000000
10000000
01000000
00000000
00010000
00000000
00100000
00000000
00000000
01000000
10000000
00000000
00100000
00000000
,
00010000
00000000
00001000
00000000
00000100
00000000
00001000
00000000
00010000
00000000
00000010
00000000
00001000
00000001
00001000
00000001
,
00000100
00000000
00000000
00001000
00010000
00000000
00100000
00000000
10000000
00000000
00000000
01000000
00010000
00000000
00001000
00000000
,
00100000
00000000
00010000
00000000
00100000
00000000
00001000
00000000
00000010
00000000
00000100
00000000
00001000
00000000
00000100
00000010
,
00000001
00000000
00000100
00000000
00001000
00000000
00010000
00000000
01000000
00000000
10000000
00000000
00100000
00000000
10000000
00010000
,
10000000
00000000
01000000
00000000
00010000
00000000
00001000
00000000
00000100
00000000
00000001
00000000
00000010
00000000
00000001
00001000
,
00000001
00000000
00000001
00000100
00000010
00000000
00000010
00001000
00000100
00000000
00000100
00010000
00001000
00000000
00010000
00000000
,
00100000
01000000
00100000
01000000
00100000
00000000
10000000
01000000
00010000
00000000
00001000
00000000
00000010
00000100
00001000
00000001
,
00000010
00000000
00000000
00000000
,
00000000
00000000
00000000
00000000
00000000
00000000
00000001
00000100
00001000
00000000
00000000
00010000
00000000
00000000
00100000
00000000
,
20000000
32000000
03020000
00030020
,
00000230
00000000
00020300
00032000
00003020
00000000
00020030
00230000
,
20300000
00000000
32000000
03002000
00023000
00000000
00230000
00000000
,
00302000
00003020
00000032
00000003
,
00001002
00000000
00000203
00020300
02030000
03002000
00203000
00320000
,
00030020
00000000
00000230
00002300
00003020
00000230
00020300
00230000
,
20300000
00000000
30020000
02030000
03002000
00023000
00230000
00302000
,
00003010
00000000
00000010
00000100
00000010
00000000
00000100
00001000
00000001
00000010
00000100
00000010
00000001
00000000
00000000
00000000
,
00000200
00020300
00230000
00302000
,
00003020
00000000
00000032
00002003
00023000
00000000
20030000
30200000
,
00302000
00000000
00023000
02030000
03002000
00000000
00003200
00000000
,
00000302
00000000
00002003
00000000
00023000
00000000
00000000
00030000
,
00100000
00000000
10000000
00000000
01000000
00100000
00010000
00100000
00001000
00000000
00010000
00000010
00001000
00000000
00010000
00001000
,
00000010
00000000
00001000
00000001
00000100
00000001
00001000
00000010
00001000
00000000
00000001
00000010
00001000
00000000
00010000
01000000
,
10000000
00000000
00010000
00100000
00010000
00100000
00010000
10000000
01000000
00010000
00001000
00010000
00001000
00100000
00010000
00100000
,
02000000
00000000
13000000
00020000
00100000
00000000
00001000
00000000
,
00100000
00000000
00000000
00000000
01000000
00000000
00030000
00000000
00101000
00000000
00000000
00010010
00000000
00000000
00000010
00000000
,
00002000
00000000
00003001
00000200
00001000
00000000
00010000
00000000
,
00001300
00000000
00000100
00000010
00000100
00000001
00001000
00000000
00000200
00001000
00000000
00020300
00001000
00000000
00030010
00001000
,
00000002
00000000
00000100
00002003
00000010
00000000
00010000
00000000
,
00000010
00000000
00000000
00000000
00000100
00000000
00003000
00000000
00020000
00000000
00031000
00100000
00020000
00000000
01030000
00100000
,
20000000
00000000
31000000
00010000
01000000
00010000
00001000
00100000
00010000
00000000
01000000
00100000
00010000
00000000
00002000
00000000
,
00100000
00000000
00023000
00000000
00000010
00000000
00031000
00010000
00000100
00001000
00000010
00000100
00000001
00000000
00000000
00000000
,
00001001
00001001
00000000
00000000
00000000
00011000
00000000
10010000
,
00000000
01100000
01100000
00000000
00000000
10010000
00000000
00000000
,
00000000
00000000
00011000
00000000
00000000
00000110
00000000
00001001
,
00000000
00000000
00000000
00000000
00000101
00000000
00000000
00000000
00001000
00000001
00001000
00000001
00001000
00000000
00000000
00000000
,
00000010
00000100
00000001
00000100
00000010
00000000
00001000
00000100
00010000
00001000
00100000
00000000
00010000
01000000
00001000
00000000
,
00010000
00001000
00100000
00010000
00100000
00000000
01000000
10000000
00100000
10000000
01000000
10000000
00010000
00100000
00001000
00010000
,
00000200
00000000
00000320
00000032
00000203
00000000
00002300
00023000
,
00230000
00000000
20300000
32000000
03020000
00000000
00000000
00030000
,
00011000
00000000
00000000
00000000
00001000
00000000
00000010
00000000
00000001
00000000
00000100
00000001
00000010
00000000
00000100
00001000
,
00000010
00000000
00001000
00000000
00010000
00000000
01000000
00010000
00200000
00000000
01000000
00000000
01300000
00000000
00100000
00000000
,
00020000
00000000
10030000
01000000
00020000
00000000
00031000
00000010
00000002
00000000
00000103
00001000
00020000
00000000
00130000
10000000
,
00010000
00100000
00010000
00100000
00001000
00010000
00001000
00010000
00000010
00001000
00000100
00000010
00000001
00000100
00000010
00001000
,
00000100
00010000
00000100
00010000
00000100
00010000
00000100
00010000
00002000
00203000
00320000
02030000
03200000
20300000
32000000
03020000
,
00030000
00000000
00022000
00000000
,
00000000
00000000
00000000
00000000
,
00000000
00000000
00000000
00000000
,
00000000
00000000
00000000
00000000
,
00033000
00000000
00000000
00000000
;
