#VERSION:0.83;
#TITLE:Eclipse Zero;
#SUBTITLE:;
#ARTIST:tūmahaB;
#TITLETRANSLIT:;
#SUBTITLETRANSLIT:;
#ARTISTTRANSLIT:;
#GENRE:;
#CREDIT:;
#MUSIC:Eclipse Zero.ogg;
#BANNER:Eclipse Zero.png;
#BACKGROUND:Eclipse Zero-bg.png;
#CDTITLE:./CDTitles/REFLEC BEAT groovin'!! Upper.png;
#SAMPLESTART:44.965;
#SAMPLELENGTH:15.000;
#SELECTABLE:YES;
#OFFSET:0.852;
#BPMS:0.000=199.000
,72.000=796.000
,84.000=398.000
,86.000=199.000
,90.000=99.500
,106.000=199.000
,138.000=796.000
,150.000=398.000
,152.000=199.000
,284.000=796.000
,292.000=398.000
,294.000=199.000
;
#STOPS:303.000=0.452;
#TIMESIGNATURES:0.000=4=4,
84.000=6=4,
90.000=4=4,
150.000=6=4,
156.000=4=4,
292.000=3=4,
295.000=4=4,
303.000=3=4,
306.000=4=4
;
#DISPLAYBPM:199.000;
#BGCHANGES:0.000=../BGAs/22bk.mp4=1.000=0=0=0=StretchNoLoop====,
99999.000=-nosongbg-=1.000=0=0=0=StretchNoLoop====
;
#FGCHANGES:;

//--------------- dance-single - forcednature ----------------
#NOTEDATA:;
#STEPSTYPE:dance-single;
#DESCRIPTION:forcednature;
#CREDIT:forcednature;
#DIFFICULTY:Beginner;
#METER:4;
#RADARVALUES:0,0,0,0,0;
#NOTES:
0000
0000
0000
0000
,
0000
0000
0000
0000
,
0000
0000
0000
0000
,
0000
0000
0000
0000
,
0000
0000
0000
0000
,
0000
0000
0000
0000
,
1000
0000
0000
0000
,
0000
0000
0000
0000
,
0001
0000
0000
0000
,
0000
0000
0000
0000
,
1001
0000
0000
0000
,
0000
0000
0000
0000
,
0001
0000
0000
0000
,
0000
0000
0000
0000
,
0100
0000
0000
0000
,
0001
0000
0000
0000
,
0100
0000
0000
0000
,
0010
0000
0000
0000
,
1000
0000
0000
0000
,
0000
0000
0000
0000
,
0000
0000
0000
0000
,
0000
0000
0000
0000
,
0000
0000
0001
0000
,
0000
0000
0010
0000
,
0000
0000
0100
0000
,
0000
0000
1000
0000
,
0000
0000
0001
0000
,
0000
0000
0000
0000
,
0000
0000
0100
0000
,
0000
0000
0000
0000
,
0000
0000
0010
0000
,
0000
0000
1000
0000
,
0000
0000
0001
0000
,
0000
0000
0010
0000
,
0000
0000
0100
0000
,
0000
0000
0000
0000
,
0000
0000
0000
0000
,
0000
0000
0000
0000
,
0000
0000
0000
0000
,
1001
0000
0000
0000
,
1000
0000
0000
0000
,
0100
0000
1000
0000
,
0100
0000
1000
0000
,
0100
0000
0000
0000
,
0010
0000
0000
0000
,
0001
0000
0100
0000
,
0001
0000
0100
0000
,
0001
0000
0000
0000
,
1000
0000
0000
0000
,
0010
0000
0100
0000
,
0010
0000
0100
0000
,
0010
0000
0000
0000
,
1000
0000
0000
0000
,
0001
0000
0010
0000
,
0001
0000
0010
0000
,
0001
0000
0000
0001
,
0000
0000
0001
0000
,
1000
0000
0000
1000
,
0000
0000
1000
0000
,
0010
0000
0000
0000
,
0110
0000
0000
0000
,
1000
0000
0001
0000
,
0100
0000
0010
0000
,
1000
0000
0000
0000
,
1000
0000
0000
0000
,
0001
0000
0001
0000
,
0001
0000
1000
0000
,
0010
0000
0000
0000
,
0110
0000
0000
0000
,
0100
0000
0001
0000
,
1000
0000
0100
0000
,
0010
0000
0000
0000
,
0000
0000
0000
0000
,
0000
0000
0000
0100
,
0100
0100
0100
0100
,
0100
0100
0100
0000
,
0000
0000
0000
1001
0000
0000
0000
0000
,
0000
0000
0000
0001
0000
0000
0000
0100
,
0000
0000
0000
0010
0000
0000
0000
1000
,
0000
0000
0000
0010
0000
0000
0000
1000
,
0000
0000
0000
0001
0000
0000
0000
0000
,
0000
0000
0000
1000
0000
0000
0000
0100
,
0000
0000
0000
0010
0000
0000
0000
0001
,
0000
0000
0000
0010
0000
0000
0000
0001
,
0000
0000
0000
0100
0000
0000
0000
0000
,
0000
0000
0000
0010
0000
0000
0000
0000
,
0000
0000
0000
1000
0000
0000
0000
0001
,
0000
0000
0000
1000
0000
0000
0000
0001
,
0000
0000
0000
1000
0000
0000
0000
0000
,
0000
0000
0000
0100
0000
0000
0000
0000
,
0000
0000
0000
0010
0000
0000
0000
0001
,
0000
0000
0000
0010
0000
0000
0000
0001
,
0000
0000
0000
0010
0000
0000
0000
0000
,
0000
0100
0000
0000
0000
1000
0000
0000
,
0000
0000
0000
1001
0000
0000
0000
0001
,
0000
0000
0000
0100
0000
0001
0000
0100
,
0000
0000
0000
0010
0000
0000
0000
0010
,
0000
1000
0000
0001
0000
0000
0000
0010
,
0000
0001
0000
1000
0000
1000
0000
0001
,
0000
0001
0000
0000
0000
0100
0000
0010
,
0000
0000
0000
2002
0000
0000
0000
0000
,
0000
0000
0000
0000
,
0000
0000
0000
3003
0000
0000
0000
0000
;

//--------------- dance-single - forcednature ----------------
#NOTEDATA:;
#STEPSTYPE:dance-single;
#DESCRIPTION:forcednature;
#CREDIT:forcednature;
#DIFFICULTY:Easy;
#METER:11;
#RADARVALUES:0,0,0,0,0;
#NOTES:
0000
0000
0000
0000
,
0000
0000
0000
0000
,
0000
0000
0000
0000
,
0000
0000
0000
0000
,
0000
0000
0000
0000
,
0000
0000
0000
0000
,
1000
0100
1000
0100
,
0010
0001
1000
0000
,
0001
0100
0001
0100
,
0010
1000
0001
0000
,
1000
0100
1000
0010
,
0100
0001
0010
0001
,
0100
0010
1000
0001
,
0010
0100
1000
0001
,
0100
0100
0001
0100
,
0010
0010
1000
0010
,
1000
0000
0100
1000
0000
0001
0010
0000
,
0001
0000
0100
0000
0010
1000
0010
0000
,
0200
0000
0000
0000
,
0000
0000
0000
0000
,
0000
0000
0000
0000
,
0000
0000
0000
0000
,
0300
0110
1000
0000
,
0001
0000
0010
0000
0001
0100
0001
0000
,
1000
0010
1000
0100
,
1000
0000
0001
0000
1000
0100
1000
0000
,
0010
0100
0110
0000
,
0010
1000
0001
1000
,
0100
0000
0010
0010
,
0001
1000
0001
0100
,
0010
0000
0000
0000
1000
0010
1000
0000
,
0010
0000
1000
0000
0001
0010
0001
0000
,
0010
0001
1100
1000
,
0101
0000
0001
0000
0010
0000
0010
0100
,
0000
0100
1000
0000
0020
0000
0000
0000
,
0000
0000
0000
0000
,
0000
0000
0000
0000
,
0000
0000
0000
0000
,
0000
0000
0000
0030
0000
0000
1001
0000
,
1000
0000
0100
0000
1000
0100
1000
0000
,
0001
0100
0001
0000
0010
0000
0100
0000
,
0110
0000
0000
1001
0000
0000
0110
0000
,
1000
0001
0100
0010
,
0100
0000
0001
0000
0100
0001
0100
0000
,
0010
0000
1000
0000
0010
1000
0010
0000
,
1000
0000
1000
0001
0000
0001
0100
0000
,
0010
0000
0010
0000
1000
0001
0010
0000
,
0110
0000
0100
0000
1000
0000
0001
0100
,
0000
0010
1000
0000
0100
0000
0010
0000
,
0011
0000
0000
1100
0000
0000
0011
0000
,
0000
1000
0001
0100
,
0110
0000
0010
1000
,
0001
0010
0100
1000
,
1010
0000
0000
0101
0000
0000
1010
0000
,
0000
0001
1000
0000
0100
0000
0110
0000
,
0011
0000
0000
1100
0000
0000
0011
0000
,
0000
1100
0000
0000
0011
0000
0000
0000
,
1010
0000
0000
0101
0000
0000
1010
0000
,
0000
0101
0000
0000
0001
0000
1000
0000
,
0110
1000
0001
0100
,
0110
0001
1000
0100
,
0010
0001
0010
0000
0100
1000
0100
0000
,
1000
0010
0100
0001
,
1001
1000
1000
1000
,
0100
0100
0010
0001
,
1001
1000
1001
0001
,
0110
0100
0010
0010
,
1000
0100
1000
0000
0100
0000
1000
0000
,
0001
0100
0001
0000
0100
0000
0001
0000
,
0010
0010
0100
0100
,
1000
0000
0000
0001
0000
0000
0100
0000
,
0020
0000
0000
0000
,
0000
0000
0000
0000
,
0000
0000
0000
0000
0030
0000
1000
0001
,
1000
0001
1000
0001
1000
0001
1000
0001
,
1000
0001
1000
0001
1000
0001
0000
0000
,
0000
0110
0000
0001
0000
0100
0000
0001
,
0100
0001
0000
1000
0100
1000
0000
0010
,
0000
0100
0000
0110
0000
0000
1001
0000
,
0000
0110
0000
0001
0000
1000
0000
0100
,
0000
0010
0000
0100
0000
1000
0000
0100
,
1000
0100
0000
0010
0000
0001
0000
0010
,
0001
0010
0000
0001
0000
0001
0100
0001
,
0000
1000
0100
0000
1000
0010
0000
0100
,
0000
0110
0000
1001
0000
1000
0000
0100
,
0000
0010
0001
0000
0100
0001
0000
0010
,
0000
0100
0000
0110
0000
0000
1001
0000
,
0000
0110
0000
0000
0000
0001
0000
1000
,
0000
0010
0000
0110
0000
0100
0000
0001
,
0000
1000
0000
0100
0000
0010
0000
0001
,
0000
0100
0000
0110
0000
0000
1001
0000
,
0000
0110
0000
0000
1000
0001
0000
0100
,
0000
0110
0000
0010
0000
1000
0000
0001
,
0000
0010
0000
0100
1000
0100
0000
0010
,
0001
0010
0000
1001
0000
0001
0000
0100
,
0000
0010
0000
1000
0100
1000
0000
0001
,
0100
0001
0000
1001
0000
1000
0000
0100
,
0000
1000
0000
1001
0000
0001
0000
0100
,
0000
0001
0000
0010
0100
0010
0000
0100
,
0010
0100
0000
0000
1000
0001
0000
0100
,
0000
0110
0000
2002
0000
0000
0000
0000
,
0000
0000
0000
0000
,
0000
0000
0000
3003
0000
0000
0000
0000
;

//--------------- dance-single - forcednature ----------------
#NOTEDATA:;
#STEPSTYPE:dance-single;
#DESCRIPTION:forcednature;
#CREDIT:forcednature;
#DIFFICULTY:Medium;
#METER:15;
#RADARVALUES:0,0,0,0,0;
#NOTES:
0000
0000
0000
0000
,
0000
0000
0000
0000
,
0000
0000
0000
0000
,
0000
0000
0000
0000
,
0000
0000
0000
0000
,
0000
0000
0000
0000
,
1001
0000
0001
0000
0100
0010
0000
1000
,
0100
0000
0010
0001
0100
0001
0010
0000
,
0110
0000
0100
1000
0001
0100
0000
0010
,
1000
0000
0001
0010
0001
1000
0010
0000
,
0110
0100
0001
1000
,
0100
0010
0001
1000
,
0010
0100
0001
0010
,
0100
0000
1000
0000
0010
0100
0010
0100
,
0001
0000
1000
0100
0010
0001
0010
0100
,
1000
0000
0001
0100
0010
1000
0010
0100
,
0001
0001
0010
0100
0100
1000
0010
0010
,
0100
0000
0001
1000
0100
0010
0001
0100
,
0020
0000
0000
0000
,
0000
0000
0000
0000
,
0000
0000
0000
0000
,
0000
0000
0000
0000
,
0030
0100
1001
0000
1000
0000
0001
0100
,
0000
0000
0010
0000
1000
0000
0001
0000
0010
0000
0000
0100
0000
0000
0010
0000
,
0000
0001
1000
0010
0100
0001
0000
1000
,
0100
0000
1000
0000
0010
0000
0000
0000
0100
0000
0000
0001
0000
0000
1000
0000
,
0000
0001
0000
0000
0010
0000
0000
0000
0110
0000
0000
0000
0100
0000
0000
0000
,
1000
1000
0001
0001
,
0100
0000
0100
0010
1000
0000
1000
0000
,
0001
0001
0010
0010
,
0100
1000
0001
0000
0100
0001
0100
0001
,
0010
0001
0010
0001
1000
0100
1000
0100
,
1000
0010
1000
0010
0100
0001
1000
0100
,
0010
0001
1000
0010
0100
1000
0100
0001
,
0100
0000
0010
1000
0200
0000
0000
0000
,
0000
0000
0000
0000
,
0000
0000
0000
0000
,
0000
0000
0000
0000
,
0000
0000
0000
0300
0000
0010
1001
0000
,
0001
0000
0000
0100
0001
0000
1000
0000
0010
1000
0000
0000
0001
0000
0010
0000
,
0100
1000
0000
0000
0100
0000
0010
0000
0001
0000
0000
0001
0100
0000
0010
0000
,
1000
0100
0001
1000
0010
0001
1000
0100
,
0010
0001
0010
0001
1000
0000
0010
0000
1000
0000
0100
0000
0010
0000
0001
0000
,
0100
0000
0000
0010
1000
0000
0010
0000
0100
0001
0000
0000
1000
0000
0100
0000
,
0010
0001
0000
0000
1000
0000
0010
0000
0100
0000
0001
0000
0010
0000
0001
0000
,
1000
0010
0001
1000
0100
0001
1000
0001
,
0010
0100
0110
0000
1000
0001
1001
0000
,
0110
0000
0001
0100
0010
1000
0001
0010
,
0000
0100
1000
0001
0100
0010
1000
0000
,
0001
0100
1000
0001
0010
1000
0001
0100
,
1000
0100
0010
1000
0001
1000
0100
0010
,
0001
0100
0010
1000
0000
0001
0010
0100
,
0010
0001
1000
0000
0010
0100
0001
1000
,
0100
0001
1000
0010
0001
1000
0100
0110
,
0000
0000
0010
0000
1001
0000
0000
0000
1000
0000
0001
0100
0001
0000
0000
0000
,
1000
0010
0001
1000
0100
0001
1000
0010
,
0001
1000
0100
0001
0010
0000
1001
0000
,
0001
0010
1000
0001
0100
1000
0001
0010
,
1000
0000
0001
0000
0100
0000
1000
0000
0010
0100
0010
0100
0010
0000
0000
0000
,
1000
0100
1000
0001
1000
0010
1010
0000
,
0001
0100
0001
1000
0001
0010
0011
0000
,
1000
1000
0100
0100
0010
0010
0001
0001
,
0100
0000
0010
1000
0001
0010
0100
0000
,
0110
0010
0001
1000
,
1001
0000
0001
0000
0100
0000
0010
0010
,
1000
0100
1001
0100
,
1001
0000
0001
0000
0100
0001
0100
0000
,
0010
0000
1000
0000
0001
0000
1000
0000
0010
0000
1000
0000
0100
1000
0100
0000
,
0010
0000
0001
0000
1000
0000
0001
0000
0010
0000
0001
0000
0100
0001
0100
0000
,
0010
0000
0010
0000
1000
0000
1000
0000
0001
0000
0001
0000
0010
0001
0010
0001
,
0010
0100
1000
0100
0010
0000
0002
0000
,
0203
0000
0000
0000
,
0000
0000
0000
0000
,
0000
0000
0000
0000
0300
0000
0010
0010
,
0010
0010
0010
0010
0010
0010
0010
0010
,
0010
0000
0000
0000
0010
0000
0000
0000
0010
0000
0000
0000
0010
0000
0000
0000
0010
0000
0000
0000
0010
0000
0000
0000
0200
0300
0000
0000
0000
0000
0000
0000
,
0000
0000
1001
0000
0000
0000
1000
0000
0000
0100
1000
0000
0001
0000
0010
0001
,
0000
0000
1000
0000
0010
0000
0100
0001
0000
0000
0010
0000
0100
0000
0010
0000
,
0000
0010
0001
0000
1000
0000
0001
0000
0100
0000
1000
0000
0001
0000
0010
0000
,
1000
0000
0001
0000
0100
0000
0001
0010
0001
0010
0100
0000
1000
0000
0100
0000
,
0010
0000
0001
0000
1000
0000
0010
0000
0000
0100
0001
0000
0100
0000
0010
1000
,
0000
0000
0001
0000
0010
0000
0100
0010
0000
0000
0001
0000
1000
0000
0010
0000
,
1000
0100
0010
0001
0100
1000
0001
0010
,
1000
0100
0110
0000
0010
1001
0000
0100
,
0010
0110
0000
1001
0000
1000
0100
1000
,
0010
0100
0001
0000
0010
0100
0010
0001
,
1000
0010
0000
1000
0100
0001
1000
0010
,
0001
1000
0100
0010
1000
0010
0001
1000
,
0010
0100
0001
1000
0100
0010
0001
0000
,
0100
0010
0100
0001
0010
0001
0000
1000
,
0010
1000
0100
1000
0010
0001
1000
0100
,
0001
0010
0110
0000
0100
1001
0000
0001
,
1000
0100
1000
0000
0000
0000
0010
0000
0100
0000
0001
0000
0010
0000
0100
0000
,
0010
0001
1000
0001
0100
2000
0000
3001
,
0010
2000
0000
3100
0010
0001
0100
0010
,
1000
0100
1000
0001
0100
1000
0100
0010
,
1000
0000
0001
0000
0010
0000
0100
1000
0100
0000
1000
0000
0100
0000
0010
0000
,
0001
0000
1000
0000
0001
0000
0100
0001
0100
0000
0001
0000
0100
0000
0010
0000
,
1000
0001
1000
0100
0100
0010
0010
0001
,
0001
1000
1000
0000
0010
0110
0000
1000
,
0001
1001
0000
0220
0000
0000
0000
0000
,
0000
0000
0000
0000
,
0000
0000
0000
0330
0000
0000
0000
0000
;

//--------------- dance-single - forcednature ----------------
#NOTEDATA:;
#STEPSTYPE:dance-single;
#DESCRIPTION:forcednature;
#CREDIT:forcednature;
#DIFFICULTY:Hard;
#METER:17;
#RADARVALUES:0,0,0,0,0;
#NOTES:
0000
0000
0000
0000
,
0000
0000
0000
0000
,
0000
0000
0000
0000
,
0000
0000
0000
0000
,
0000
0000
0000
0000
,
0000
0000
0000
0000
,
1001
0000
1000
0100
0001
0100
1000
0010
,
1000
0000
0001
0100
0010
0001
0010
0100
,
0001
0000
1000
0100
0010
0001
0100
0010
,
1000
0000
0001
0010
0100
1000
1010
0000
,
0101
0001
1000
0010
,
1000
0100
0010
0001
,
2000
0100
3002
0010
,
0203
0000
0001
0301
0100
0010
1000
0001
,
0010
0001
0100
0001
0010
0001
0100
0001
,
1000
0010
1000
0100
0010
0001
0100
0001
,
1000
0100
1000
0100
1000
0000
0001
0100
0001
0100
0001
0000
0010
0100
0010
0100
,
0020
0000
0000
0000
0031
0100
0001
0000
1000
0100
0010
0001
0100
0000
0000
0000
,
0020
0000
0000
0000
,
0000
0000
0000
0000
,
0000
0000
0000
0000
,
0000
0000
0000
0000
,
0030
0000
1000
0001
0020
0000
0000
0000
0130
0000
0000
0000
1000
0000
0001
0100
,
0000
0010
1000
0000
0001
0000
0010
0000
0100
1000
0000
0100
0010
0000
0100
1000
,
0000
0001
0100
0000
0010
1000
0010
0000
0100
0000
0001
0000
0010
0100
0000
0010
,
0001
0000
1000
0000
0010
0100
0010
0000
1000
0001
0000
0010
0100
0000
1000
0001
,
0000
0100
0010
0000
1000
0000
1001
0000
0101
0000
0000
0000
0001
0000
0000
0000
,
1000
0000
0000
0000
1000
0100
0000
1000
0100
0000
0000
0000
0010
0000
0000
0000
,
0001
0000
0000
0100
0010
1000
0010
1000
0001
0000
0000
0000
0001
0000
0000
0000
,
0010
0000
0000
0000
0010
0100
0000
0010
0100
0000
0000
0000
1000
0000
0000
0000
,
0001
0100
0000
0001
0100
0000
0010
1000
0010
0000
0100
0000
0001
0000
0100
0000
,
0010
0000
0100
0000
0001
0000
0100
0000
0010
1000
0010
0000
1000
0000
0001
0000
,
1000
0000
0100
0000
1000
0000
0001
0000
0100
0001
0100
0000
0010
1000
0010
0000
,
1000
0100
1000
0000
0001
0010
0001
0010
0100
1000
0100
1000
0100
0000
0010
0001
,
0020
0000
0000
0000
0031
0100
0010
1000
0002
0000
0000
0000
0000
0000
0000
0000
,
0000
0000
0000
0000
,
0000
0000
0000
0000
,
0000
0000
0000
0000
,
0000
0000
0000
0000
0000
0000
0003
0000
0000
0000
0001
1000
0020
0000
0000
0000
,
1030
0000
0100
0010
0000
0100
1000
0000
0001
0100
0000
0010
0100
0000
0001
0000
,
1000
0010
0000
1000
0100
0000
0010
0000
0001
0000
0100
0010
0100
0000
0001
0000
,
0011
1000
0100
1100
0001
0010
0011
1000
,
0001
0100
0010
1000
0001
0000
0010
0000
0100
0000
0001
0000
0100
0000
1000
0000
,
0010
0000
0100
0001
0000
0010
0001
0000
1000
0010
0000
0100
0010
0000
1000
0000
,
0001
0010
0000
0100
0010
0000
0001
0000
1000
0000
0010
0100
0010
0000
1000
0000
,
1010
0000
0001
0000
0100
0000
0101
0000
1000
0010
1000
0000
0100
0000
0110
0000
,
0010
0000
0100
0000
1001
0000
0000
0000
0001
0000
1000
0100
0002
0000
0000
0000
,
0103
1000
0010
0100
1000
0100
0001
0010
,
0001
1000
0010
1000
0100
0001
0100
0010
,
0011
1000
0100
1010
0001
0100
0011
1000
,
0001
0100
0110
0010
1010
1000
1001
0001
,
0010
0100
0001
0100
0000
0010
0001
1000
,
0010
0100
1000
0001
0010
0100
0001
1000
,
1100
0001
0010
0101
1000
0010
0110
0100
,
0000
0000
1001
0000
1001
0000
0000
0000
1000
0000
0001
0100
1000
0000
0000
0000
,
0100
0000
0001
0010
0100
0000
0110
0000
0010
0001
0100
0000
0110
0000
0100
0001
,
0010
0000
0110
0000
0010
0001
0100
0000
0110
0000
0000
0000
1000
0000
0000
0000
,
0100
0000
1000
0010
0100
0000
0110
0000
0010
1000
0100
0000
0110
0000
0100
1000
,
0010
0000
0110
0000
0010
1000
0100
0000
0010
0001
0010
0001
1000
0000
0000
0000
,
0001
0100
0010
0100
0001
1000
1010
0000
,
1000
0100
0010
0100
1000
0001
0011
0000
,
0100
0001
0100
0000
0001
0010
0001
0000
1000
0100
1000
0000
0010
1000
0010
0000
,
0110
0000
0000
0000
0100
0001
1000
0001
0010
0000
0100
1000
0001
0000
0000
0000
,
1001
0000
0000
0000
1000
0000
0000
0000
0100
0000
0000
0000
0010
0001
0000
0010
,
0001
0000
0000
0000
0100
0000
0000
0000
0010
0000
0000
0010
1000
0001
1000
0001
,
0010
0000
0000
0000
0010
0000
0000
0000
0110
0000
0000
0000
0100
1000
0000
0001
,
0100
0000
0000
0000
0010
0000
0000
0000
1000
0100
0000
0010
0001
0000
0100
0001
,
0100
0000
0010
0000
0001
0000
0010
0000
0100
0000
0010
0000
1000
0001
1000
0001
,
0010
0000
0100
0000
0001
0000
0100
0000
0010
0000
0100
0000
1000
0001
1000
0001
,
0100
0010
0100
0000
0001
1000
0001
0000
1000
0100
1000
0000
0001
0100
0001
0100
,
0010
1000
0001
1000
0100
0000
0010
0001
1000
0000
0000
0000
0002
0000
0000
0000
,
0203
0000
0000
0000
,
0000
0000
0000
0000
,
0000
0000
0000
0000
0000
0000
0000
0000
0300
0000
0000
0000
0001
1000
0001
1000
,
0001
1000
0001
1000
0001
1000
0001
1000
0001
1000
0001
1000
0001
1000
0001
1000
,
0001
0000
1000
0000
0001
0000
1000
0000
0001
0000
1000
0000
0001
0000
1000
0000
0001
0000
1000
0000
0001
0000
1000
0000
0200
0300
0000
0000
0000
0000
0000
0000
,
0010
0001
2000
0000
0000
0000
3010
0000
0100
1000
0000
0100
0010
0000
0100
0001
,
0000
1000
0100
0000
0010
0000
0001
0100
0000
0001
0010
0000
0100
0000
0001
0000
,
0100
1000
0100
0000
0010
0000
0011
0000
1000
0000
0100
0000
1010
0000
0001
0000
,
0100
0000
0011
0000
1000
0000
0001
0010
0100
1000
0001
0000
0100
0000
0010
0000
,
0001
0000
0010
0000
1000
0000
0100
0000
0010
0001
0000
0100
0001
0000
0100
1000
,
0000
0100
0010
0000
1000
0000
0001
0010
0000
0001
0100
0000
1000
0000
0100
0000
,
0001
0010
0001
0000
1000
0000
1010
0000
0001
0000
0100
0000
0011
0000
1000
0100
,
0010
0110
1001
0000
1001
0110
0000
0001
,
1000
0100
0002
0000
0000
0000
0103
0000
0010
0000
0001
0000
0100
0000
1000
0000
,
0100
0010
1000
0100
0001
0100
0010
0001
,
0100
1000
0100
0101
1000
0010
1100
0001
,
0010
0101
1000
0010
0100
0101
0001
0011
,
0010
0110
0100
0001
0100
1000
0010
0000
,
0100
1000
0100
0001
0010
0001
1000
0010
,
1000
0100
0010
0011
0001
0100
0110
0010
,
1000
1100
0110
0000
0011
1001
0000
1000
,
0001
0100
2000
0000
0000
0000
3100
0000
0001
0000
0010
0000
0001
0000
1000
0000
,
0010
0100
0010
1000
0100
0002
0000
1003
,
0010
0001
2000
0000
0000
0000
3010
0000
0100
0000
1000
0000
0001
0000
0010
0000
,
0100
0001
1000
0100
0001
0100
0010
0011
,
0001
0101
0100
0110
0010
1000
0100
1000
,
0001
0000
1000
0100
0010
0001
0100
0000
1000
0000
0100
0000
0001
0000
0010
0000
,
0100
0000
0010
0001
1000
0000
0001
0100
0001
0100
0010
1000
0010
1000
0001
0010
,
0100
1000
0100
0010
0001
1000
0000
0000
1001
0000
0110
0000
0000
0000
0010
0000
,
0100
1001
0000
0220
0000
0000
0000
0000
,
0000
0000
0000
0000
,
0000
0000
0000
0330
0000
0000
0000
0000
;

//--------------- dance-double - forcednature ----------------
#NOTEDATA:;
#STEPSTYPE:dance-double;
#DESCRIPTION:forcednature;
#CREDIT:forcednature;
#DIFFICULTY:Easy;
#METER:11;
#RADARVALUES:0,0,0,0,0;
#NOTES:
00000000
00000000
00000000
00000000
,
00000000
00000000
00000000
00000000
,
00000000
00000000
00000000
00000000
,
00000000
00000000
00000000
00000000
,
00000000
00000000
00000000
00000000
,
00000000
00000000
00000000
00000000
,
00001000
01000000
00001000
01000000
,
00010000
00100000
00001000
00000000
,
00010000
00000100
00010000
00000100
,
00001000
00000010
00010000
00000000
,
00011000
00000000
00001000
01000000
,
00010000
00100000
01000000
10000000
,
00200000
02300000
03002000
00023000
,
00030020
00000230
00000302
00001000
,
00000013
00000010
00000100
00010000
,
00001000
00001000
01000000
00100000
,
10000000
00000000
01000000
00010000
00000000
00001000
00010000
00000000
,
00000010
00000000
00001000
00000000
00000100
00000010
00000001
00000000
,
00000200
00000000
00000000
00000000
,
00000000
00000000
00000000
00000000
,
00000000
00000000
00000000
00000000
,
00000000
00000000
00000000
00000000
,
00000300
00000110
00001000
00000000
,
00000100
00000000
00010000
00000000
00001000
00100000
00001000
00000000
,
00010000
00100000
10000000
01000000
,
00100000
00000000
00001000
00000000
00010000
00000010
00010000
00000000
,
00001000
00000010
00000110
00000000
,
00000100
00001000
00000100
00010000
,
00001000
00000000
01000000
01000000
,
00010000
10000000
00010000
00100000
,
01000000
00000000
00000000
00000000
00100000
00010000
00100000
00000000
,
00001000
00000000
00010000
00000000
00000010
00001000
00000010
00000000
,
00010000
00001000
01001000
00001000
,
00011000
00000000
00001000
00000000
00100000
00000000
00100000
00010000
,
00000000
00010000
01000000
00000000
00200000
00000000
00000000
00000000
,
00000000
00000000
00000000
00000000
,
00000000
00000000
00000000
00000000
,
00000000
00000000
00000000
00000000
,
00000000
00000000
00000000
00300000
00000000
00000000
10010000
00000000
,
10000000
00000000
01000000
00000000
00100000
00010000
00100000
00000000
,
00001000
00010000
00001000
00000000
00000100
00000000
00000001
00000000
,
00000010
00000000
00000000
00000110
00000000
00000000
00000100
00000000
,
00010000
00001000
01000000
00010000
,
10000000
00000000
01000000
00000000
10000000
01000000
10000000
00000000
,
00010000
00000000
01000000
00000000
00001000
00010000
00001000
00000000
,
00100000
00000000
00100000
00001000
00000000
00001000
00010000
00000000
,
00000010
00000000
00000010
00000000
00001000
00000001
00000010
00000000
,
00000110
00000100
00010000
00001000
,
01000000
00010000
10000000
01000000
,
00100000
00000000
00000000
01100000
00000000
00000000
10010000
00000000
,
00000000
00010000
01000000
00001000
,
00011000
00000000
00010000
00000100
,
00001000
00000001
00000100
00000001
,
00000010
00000000
00000000
00000110
00000000
00000000
00001001
00000000
,
00000000
00001000
00000100
00010000
,
00001000
00000000
00000000
01001000
00000000
00000000
00001000
00000000
,
00000000
00101000
00000000
00000000
00011000
00000000
00000000
00000000
,
00010000
00000000
00000000
00010100
00000000
00000000
00010000
00000000
,
00000000
00010010
00000000
00000000
00011000
00000000
00000000
00000000
,
01001000
00000000
00001000
00010000
,
00010100
00000000
00001000
00100000
,
00010000
00100000
00010000
00000000
01000000
00000000
01000000
00000000
,
00001000
00010000
00000100
00000000
,
00000110
00000010
00000010
00000010
,
00000001
00000001
00000100
00001000
,
00011000
01000000
00011000
00100000
,
00011000
00001000
01000000
01000000
,
00010000
00100000
00010000
00000000
00100000
00000000
00001000
00000000
,
00010000
00000010
00010000
00000000
00000010
00000000
00001000
00000000
,
00000100
00000100
00000010
00000010
,
00000001
00000000
00000000
00000100
00000000
00000000
00001000
00000000
,
00020000
00000000
00000000
00000000
,
00000000
00000000
00000000
00000000
,
00000000
00000000
00000000
00000000
00030000
00000000
00001000
00010000
,
00001000
00010000
00001000
00010000
00001000
00010000
00001000
00010000
,
00001000
00010000
00001000
00010000
00001000
00010000
00000000
00000000
,
00000000
00100000
00000000
01100000
00000000
01000000
00000000
00010000
,
01000000
00010000
00000000
10000000
01000000
10000000
00000000
00010000
,
00000000
01000000
00000000
00001000
00000000
00000000
00011000
00000000
,
00000000
00010000
00000000
00000000
00000000
00000100
00000000
00001000
,
00000000
00000010
00000000
00000100
00000000
00000001
00000000
00001000
,
00000010
00001000
00000000
00000100
00000000
00010000
00000000
00001000
,
00100000
00001000
00000000
00010000
00000000
00010000
00000000
00100000
,
00000000
00100000
10000000
00000000
10000000
01000000
00000000
00100000
,
00000000
01100000
00000000
00010000
00000000
01000000
00000000
00001000
,
00000000
00010000
00000000
00000100
00000000
00001000
00000000
00000001
,
00000000
00000100
00000000
00000010
00000000
00000000
00000110
00000000
,
00000000
00001001
00000000
00000000
00000000
00001000
00000000
00000100
,
00000000
00010000
00000000
00011000
00000000
00001000
00000000
01000000
,
00000000
00010000
00000000
00100000
00000000
01000000
00000000
00100000
,
00000000
00010000
00000000
01000000
00000000
00000000
01100000
00000000
,
00000000
10010000
00000000
00000000
00000000
10000000
00000000
00010000
,
00000000
01000000
00000000
01100000
00000000
00000000
00000000
00100000
,
00000000
10000000
00000000
00010000
00100000
00010000
00000000
00100000
,
00001000
00100000
00000000
00001000
00000000
00010000
00000000
00000010
,
00000000
00001000
00000000
00000100
00000010
00000000
00000000
00000001
,
00000000
00001000
00000000
00001001
00000000
00000001
00000000
00000010
,
00000000
00000100
00000000
00000110
00000000
00000100
00000000
00010000
,
00000000
00001000
00000000
01000000
00010000
01000000
00000000
00010000
,
01000000
00010000
00000000
00000000
10000000
01000000
00000000
00100000
,
00000000
01100000
00000000
20020000
00000000
00000000
00000000
00000000
,
00000000
00000000
00000000
00000000
,
00000000
00000000
00000000
30030000
00000000
00000000
00000000
00000000
;

//--------------- dance-double - forcednature ----------------
#NOTEDATA:;
#STEPSTYPE:dance-double;
#DESCRIPTION:forcednature;
#CREDIT:forcednature;
#DIFFICULTY:Medium;
#METER:15;
#RADARVALUES:0,0,0,0,0;
#NOTES:
00000000
00000000
00000000
00000000
,
00000000
00000000
00000000
00000000
,
00000000
00000000
00000000
00000000
,
00000000
00000000
00000000
00000000
,
00000000
00000000
00000000
00000000
,
00000000
00000000
00000000
00000000
,
00011000
00000000
00010000
00000000
00000100
00001000
00000000
00000010
,
00001000
00000000
00000100
00010000
00001000
00100000
00010000
00000000
,
01000000
00000000
10000000
01000000
00100000
01000000
00000000
00010000
,
00100000
00000000
00001000
00010000
00000010
00000000
00000110
00000000
,
00000100
00001000
00010000
00001000
,
01000000
00010000
00100000
00010000
,
20000000
32000000
03020000
00032000
,
00003200
00000000
00000302
00000000
00000013
00000100
00000010
00000100
,
00010000
00000000
00001000
01000000
00100000
01000000
00010000
00100000
,
00001000
00000000
00010000
00000100
00000010
00000100
00001000
00000010
,
00010000
00010000
00001000
00100000
00100000
00001000
00010000
00010000
,
00000000
00000000
00100000
01000000
00010000
10000000
01000000
00100000
,
00002000
00000000
00000000
00000000
,
00000000
00000000
00000000
00000000
,
00000000
00000000
00000000
00000000
,
00000000
00000000
00000000
00000000
,
00003000
00010000
00010100
00000000
00000100
00000000
00001000
00000001
,
00000000
00000000
00000100
00000000
00001000
00000000
00010000
00000000
00001000
00000000
00000000
01000000
00000000
00000000
00010000
00000000
,
00000000
00100000
01000000
00100000
00001000
00010000
00000000
00100000
,
10000000
00000000
00010000
00000000
01000000
00000000
00000000
00000000
00001000
00000000
00000000
00010000
00000000
00000000
00000100
00000000
,
00000000
00010000
00000000
00000000
00000010
00000000
00000000
00000000
00000110
00000000
00000000
00000000
00000100
00000000
00000000
00000000
,
00000001
00000001
00001000
00001000
,
00000100
00000000
00000100
00010000
00001000
00000000
00001000
00000000
,
01000000
01000000
00010000
00010000
,
00100000
01000000
10000000
00000000
00010000
01000000
00001000
00010000
,
00000010
00001000
00000010
00000000
00001000
00000100
00010000
00001000
,
00100000
00010000
00100000
00000000
01000000
10000000
01000000
00010000
,
00001000
00010000
00000010
00001000
00000100
00000001
00000100
00000010
,
00000100
00000000
00001000
00000010
00020000
00000000
00000000
00000000
,
00000000
00000000
00000000
00000000
,
00000000
00000000
00000000
00000000
,
00000000
00000000
00000000
00000000
,
00000000
00000000
00000000
00030000
00000000
00001000
00101000
00000000
,
00100000
00000000
00000000
00100000
00010000
00000000
01000000
00000000
00000000
01000000
00001000
00000000
00010000
00000000
00000100
00000000
,
00001000
00000010
00000000
00000000
00001000
00000000
00000100
00000000
00000010
00000000
00000000
00000010
00000001
00000000
00000100
00000000
,
00001000
00010000
00100000
00010000
00001000
00000010
00001000
00010000
,
00000100
00001000
00000100
00001000
00000010
00000000
00001000
00000000
00000010
00000000
00010000
00000000
00001000
00000000
01000000
00000000
,
00010000
00000000
00000000
00010000
01000000
00000000
00100000
00000000
00000000
00100000
10000000
00000000
01000000
00000000
00100000
00000000
,
00001000
00010000
00000000
00000000
00000010
00000000
00001000
00000000
00000100
00000000
00000001
00000000
00000100
00000000
00000010
00000000
,
00000001
00000100
00001000
00010000
01000000
10000000
00100000
00100000
,
00000000
01000000
01100000
00000000
00001000
00010000
00011000
00000000
,
00010100
00000000
00000100
00001000
00000010
00010000
00001000
00000010
,
00000000
00000100
00001000
00000001
00000100
00001000
00010000
00000000
,
00100000
01000000
00010000
00100000
01000000
00010000
00001000
00000010
,
00000100
00010000
00001000
00000100
00000001
00000100
00000010
00010000
,
00001000
00100000
01000000
00100000
00000000
00001000
00010000
00100000
,
10000000
00010000
00100000
00000000
01000000
10000000
00010000
10000000
,
00100000
00010000
00001000
00000010
00001000
00010000
01000000
01100000
,
00000000
00100000
10010000
00000000
10000000
01000000
00010000
00000000
,
00001000
00000010
00000001
00000100
00001000
00010000
01000000
10000000
,
00100000
00010000
00001000
00000010
00000001
00000000
00001001
00000000
,
00010000
00100000
10000000
01000000
00010000
00001000
00000100
00000001
,
00000010
00001000
00010000
00100000
10000000
10000000
10000000
00000000
,
10000000
01000000
00010000
00001000
00000010
00000001
00000011
00000000
,
00000001
00000100
00001000
00010000
00100000
10000000
10100000
00000000
,
10000000
10000000
01000000
01000000
00100000
00100000
00010000
00010000
,
00000000
00001000
00000100
00000010
00000001
00000100
00000010
00000000
,
00000110
00000100
00001000
00010000
,
00011000
00000000
00001000
00000000
01000000
00000000
00010000
00010000
,
10000000
01000000
10010000
00100000
,
00011000
00000000
00000000
00000000
00001000
00000000
00000000
00000000
00010000
00000000
00000000
00010000
00000000
00000000
00010000
00000000
,
00000010
00001000
00000100
00001000
00000010
00010000
00001000
00001000
,
00100000
00010000
01000000
00010000
00100000
00001000
00010000
00010000
,
00000010
00000010
00000100
00001000
00000100
00000100
00000001
00000001
,
00000001
00000010
00000100
00000010
00001000
00000000
00020000
00000000
,
00230000
00000000
00000000
00000000
,
00000000
00000000
00000000
00000000
,
00000000
00000000
00000000
00000000
00300000
00000000
01000000
01000000
,
01000000
01000000
01000000
01000000
01000000
01000000
01000000
01000000
,
01000000
00000000
00000000
00000000
01000000
00000000
00000000
00000000
01000000
00000000
00000000
00000000
01000000
00000000
00000000
00000000
01000000
00000000
00000000
00000000
01000000
00000000
00000000
00000000
00020000
00030000
00000000
00000000
00000000
00000000
00000000
00000000
,
00000000
00000000
10010000
00000000
00000000
00000000
10000000
00000000
00000000
10000000
01000000
00000000
00100000
00000000
00000000
00100000
,
00010000
00000000
01000000
00000000
00001000
00000000
00010000
00000100
00000000
00000000
00001000
00000000
00000010
00000000
00000100
00000000
,
00000000
00000100
00000001
00000000
00000010
00000000
00001000
00000000
00010000
00000000
01000000
00000000
00010000
00000000
00001000
00000000
,
00010000
00000000
00100000
00000000
10000000
00000000
00010000
00100000
00010000
00100000
01000000
00000000
00100000
00000000
00001000
00000000
,
00010000
00000000
00000010
00000000
00000100
00000000
00000001
00000000
00000000
00000001
00000010
00000000
00000100
00000000
00000000
00000100
,
00001000
00000000
00000010
00000000
00010000
00000000
00001000
00100000
00000000
00000000
01000000
00000000
00100000
00000000
00001000
00000000
,
00010000
00000010
00000100
00001000
00000100
00000001
00000010
00001000
,
00010000
00100000
01100000
00000000
01000000
10010000
00000000
00001000
,
00010000
00011000
00000000
00010100
00000000
00000100
00000010
00000001
,
00000100
00000010
00010000
00000000
00001000
00100000
01000000
00100000
,
00001000
00010000
00000000
00100000
10000000
01000000
00010000
00001000
,
00000100
00000001
00000010
00000100
00010000
00001000
00000100
00001000
,
00010000
01000000
00100000
00001000
00010000
00100000
10000000
00000000
,
01000000
00010000
00001000
00000100
00001000
00010000
00000000
00001000
,
00000010
00000001
00001000
00000010
00000100
00001000
00010000
01000000
,
00100000
00010000
01010000
00000000
10000000
10100000
00000000
00010000
,
00100000
00001000
00100000
00000000
00000000
00000000
01000000
00000000
00010000
00000000
00001000
00000000
00000100
00000000
00000010
00000000
,
00001000
00010000
01000000
00010000
00100000
02000000
00000000
03010000
,
00001000
00000020
00000000
00000130
00010000
00001000
00000100
00000001
,
00000010
00000100
00010000
00001000
01000000
00100000
00010000
00100000
,
10000000
00000000
00010000
00000000
00100000
00000000
01000000
10000000
01000000
00000000
00100000
00000000
00001000
00000000
00010000
00000000
,
00000010
00000000
00001000
00000000
00000010
00000000
00000100
00000001
00000100
00000000
00000010
00000000
00010000
00000000
00001000
00000000
,
00100000
00010000
00100000
01000000
01000000
00010000
00010000
00001000
,
00001000
00000100
00000100
00000000
00000010
00000110
00000000
00010000
,
00001000
00011000
00000000
02200000
00000000
00000000
00000000
00000000
,
00000000
00000000
00000000
00000000
,
00000000
00000000
00000000
03300000
00000000
00000000
00000000
00000000
;

//--------------- dance-double - forcednature ----------------
#NOTEDATA:;
#STEPSTYPE:dance-double;
#DESCRIPTION:forcednature;
#CREDIT:forcednature;
#DIFFICULTY:Hard;
#METER:17;
#RADARVALUES:0,0,0,0,0;
#NOTES:
00000000
00000000
00000000
00000000
,
00000000
00000000
00000000
00000000
,
00000000
00000000
00000000
00000000
,
00000000
00000000
00000000
00000000
,
00000000
00000000
00000000
00000000
,
00000000
00000000
00000000
00000000
,
00011000
00000000
00010000
00100000
00000000
10000000
00100000
00000000
,
01000000
00001000
00010000
00001000
00000010
00000100
00001000
00000010
,
00000100
00000000
00000001
00000010
00000000
00001000
00000010
00000000
,
00000100
00010000
00001000
00010000
00100000
10000000
00010000
10000000
,
01000000
00010000
00001000
00000100
,
00000001
00000010
00001000
00010000
,
00200000
20300000
32000000
03020000
,
00032000
00000000
00003200
00000000
00000301
00000010
00000001
00000100
,
00001000
00010000
01000000
00010000
00001000
00010000
01000000
00010000
,
00001000
00000100
00001000
00010000
00001000
00000100
00001000
00010000
,
00000010
00001000
00000010
00001000
00000010
00000000
00010000
00001000
00010000
00001000
00010000
00000000
00001000
00100000
00001000
00100000
,
00002000
00000000
00000000
00000000
01003000
00010000
01000000
00000000
00100000
10000000
00010000
10000000
01000000
00000000
00010000
00000000
,
00002000
00000000
00000000
00000000
,
00000000
00000000
00000000
00000000
,
00000000
00000000
00000000
00000000
,
00000000
00000000
00000000
00000000
,
00003000
00000000
00010000
00000010
00002000
00000000
00000000
00000000
00003100
00000000
00000000
00000000
00000010
00000000
00000001
00000100
,
00000000
00001000
00000100
00000000
00000010
00000000
00010000
00000000
00001000
00100000
01000000
00100000
00001000
01000000
00001000
00100000
,
01000000
00100000
00001000
00010000
00000010
00001000
00000010
00000100
00000001
00000000
00000010
00000100
00000000
00010000
00001000
00010000
,
00100000
01000000
00100000
00000000
10000000
00010000
10000000
00000000
01000000
00010000
00001000
00000100
00000010
00000100
00001000
00010000
,
01000000
00010000
00001000
00000100
00000010
00000000
00000110
00000000
00001001
00000000
00000000
00000000
00001000
00000000
00000000
00000000
,
00000100
00000000
00000000
00000000
00000100
00010000
00000000
00000100
00010000
00000000
00000000
00000000
00010000
00000000
00000000
00000000
,
00001000
00000000
00000000
00001000
01000000
00010000
01000000
00010000
10000000
00000000
00000000
00000000
10000000
00000000
00000000
00000000
,
01000000
00000000
00000000
00000000
01000000
00100000
00000000
01000000
00100000
00000000
00000000
00000000
00100000
00000000
00000000
00000000
,
00001000
00010000
00000000
00001000
00010000
00000000
00000010
00001000
00000010
00000000
00000100
00000000
00001000
00000000
00000100
00000000
,
00000010
00000100
00001000
00010000
01000000
00100000
00001000
00100000
,
01000000
00000000
00100000
00000000
00001000
00000000
00100000
00000000
00010000
10000000
00010000
00000000
01000000
00010000
01000000
00000000
,
00001000
00010000
00001000
00010000
00000100
00001000
00000100
00001000
00000001
00000100
00000001
00000100
00000001
00000000
00001000
00000010
,
00002000
00000000
00000000
00000000
00003100
00010000
00001000
00100000
00020000
00000000
00000000
00000000
00000000
00000000
00000000
00000000
,
00000000
00000000
00000000
00000000
,
00000000
00000000
00000000
00000000
,
00000000
00000000
00000000
00000000
,
00000000
00000000
00000000
00000000
00000000
00000000
00030000
00000000
00000000
00000000
10000000
00010000
02000000
00000000
00000000
00000000
,
03001000
00000000
01000000
00010000
00000000
00100000
00010000
00000000
01000000
00001000
00000000
00010000
00001000
00000000
00000010
00000000
,
00000100
00001000
00000000
00000001
00001000
00000000
00000010
00000000
00010000
00000000
00001000
00100000
00001000
00000000
00010000
00000000
,
01000000
00010000
00001000
00000100
00001000
00010000
00100000
10000000
,
00010000
10000000
01000000
00100000
00010000
00000000
01000000
00000000
00001000
00000000
00010000
00000000
00000100
00000000
00001000
00000000
,
00000010
00000000
00000100
00000001
00000000
00000010
00000001
00000000
00001000
00000010
00000000
00010000
00001000
00000000
00100000
00000000
,
01000000
00100000
00000000
00010000
01000000
00000000
00100000
00000000
10000000
00000000
01000000
00100000
01000000
00000000
00010000
00000000
,
00001000
00000000
00000100
00000000
00001000
00000000
00010000
00000000
01000000
00100000
01000000
00000000
10000000
00000000
10010000
00000000
,
00000000
00000000
01000000
00000000
01001000
00000000
00000000
00000000
00001000
00000000
00010000
00000100
00000020
00000000
00000000
00000000
,
00000130
00010000
00001000
00000100
00000010
00010000
00000100
00000010
,
00001000
00010000
00100000
01000000
00001000
00100000
01000000
00000000
,
10000000
01000000
00010000
00001000
00000100
00000001
00000010
00001000
,
00010000
00100000
01000000
10000000
01000000
00001000
00010000
00000100
,
00001000
00000010
00000001
00000010
00000000
00000100
00001000
00010000
,
01000000
00100000
00001000
00010000
00100000
10000000
01000000
00000000
,
00010000
00001000
00000010
00001000
00010000
00100000
01000000
01100000
,
00000000
00000000
00010000
00000000
10010000
00000000
00000000
00000000
00001000
00000000
00010000
00000010
00000200
00000000
00000000
00000000
,
00001300
00000000
00010000
00100000
00010000
00000000
00001000
00000000
00010000
01000000
00010000
00000000
00001000
00000000
00010000
00100000
,
00010000
00000000
00001000
00000000
00010000
01000000
00010000
00000000
00001000
00000000
00000000
00000000
00011000
00000000
00000000
00000000
,
00010000
00000000
00001000
00000010
00001000
00000000
00010000
00000000
00001000
00000100
00001000
00000000
00010000
00000000
00001000
00000010
,
00001000
00000000
00010000
00000000
00001000
00000100
00001000
00000000
00010000
00001000
00010000
00001000
00200000
00000000
00000000
00000000
,
01300000
10000000
01000000
00010000
00001000
00000010
00000012
00000000
,
00000103
00000001
00000100
00001000
00010000
00100000
20100000
00000000
,
31000000
10000000
01000000
00000000
00100000
01000000
00100000
00000000
00001000
00100000
00001000
00000000
00010000
00001000
00010000
00000000
,
00000020
00000000
00000000
00000000
00000130
00000001
00000100
00000001
00001000
00000000
00000100
00010000
00001000
00000000
00000000
00000000
,
10010000
00000000
00000000
00000000
10000000
00000000
00000000
00000000
01000000
00000000
00000000
00000000
00100000
00001000
00000000
00100000
,
00001000
00000000
00000000
00000000
00010000
00000000
00000000
00000000
00000010
00000000
00000000
00000010
00001000
00000001
00001000
00000001
,
00000010
00000000
00000000
00000000
00000100
00000000
00000000
00000000
00010000
00000000
00000000
00000000
00001000
01000000
00000000
00010000
,
01000000
00000000
00000000
00000000
00100000
00000000
00000000
00000000
10000000
01000000
00000000
00100000
00010000
00000000
01000000
00010000
,
01000000
00000000
00001000
00000000
00010000
00000000
00001000
00000000
00000010
00000000
00001000
00000000
00010000
00000010
00010000
00000000
,
00000100
00000000
00010000
00000000
00001000
00000000
00010000
00000000
00100000
00000000
00010000
00000000
00001000
00100000
00001000
00000000
,
00010000
00000100
00010000
00000000
00000100
00001000
00000100
00000000
00000010
00000001
00000010
00000000
00000001
00000100
00000001
00000100
,
00000010
00001000
00000010
00010000
00001000
00000000
00100000
00010000
10000000
00000000
00000000
00000000
02000000
00000000
00000000
00000000
,
03020000
00000000
00000000
00000000
,
00000000
00000000
00000000
00000000
,
00000000
00000000
00000000
00000000
00000000
00000000
00000000
00000000
00030000
00000000
00000000
00000000
00001000
00010000
00001000
00010000
,
00001000
00010000
00001000
00010000
00001000
00010000
00001000
00010000
00001000
00010000
00001000
00010000
00001000
00010000
00001000
00010000
,
00001000
00000000
00010000
00000000
00001000
00000000
00010000
00000000
00001000
00000000
00010000
00000000
00001000
00000000
00010000
00000000
00001000
00000000
00010000
00000000
00001000
00000000
00010000
00000000
00000200
00000300
00000000
00000000
00000000
00000000
00000000
00000000
,
00000010
00000001
00000200
00000000
00000000
00000000
00000310
00000000
00010000
00001000
00000000
00100000
00001000
00000000
00010000
00100000
,
00000000
01000000
00100000
00000000
10000000
00000000
00010000
00100000
00000000
01000000
00100000
00000000
00001000
00000000
00010000
00000000
,
00000010
00001000
00000010
00000000
00000100
00000000
00001000
00000000
00010000
00000000
01000000
00000000
00010000
00000000
00001000
00000000
,
00000100
00000000
00001000
00000000
00010000
00000000
00100000
01000000
00100000
10000000
00010000
00000000
00100000
00000000
01000000
00000000
,
00100000
00000000
00001000
00000000
00010000
00000000
00000010
00000000
00001000
00000100
00000000
00000010
00000100
00000000
00001000
00000001
,
00000000
00000010
00000001
00000000
00000100
00000000
00000010
00001000
00000000
00000010
00010000
00000000
00001000
00000000
00100000
00000000
,
01000000
10000000
01000000
00000000
00010000
00000000
00001000
00000000
00000010
00000000
00000100
00000000
00001000
00000000
00000010
00000100
,
00000010
00000001
00000011
00000000
00001000
00001010
00000000
00010000
,
00001000
01000000
00200000
00000000
00000000
00000000
10300000
00000000
01000000
00000000
00010000
00000000
00001000
00000000
00000010
00000000
,
00000100
00010000
00000010
00000000
00000100
00001000
00000100
00000001
,
00000010
00000100
00010000
00001000
00000100
00001000
00010000
01000000
,
00010000
00001000
00000010
00000100
00010000
00001000
01000000
00100000
,
00010000
00100000
10000000
00010000
01000000
00001000
00100000
00000000
,
01000000
00010000
00001000
00000100
00000010
00001000
00000001
00000010
,
00000100
00010000
00001000
00000100
00001000
01000000
00010000
00100000
,
00001000
00000010
00000110
00000000
00010000
00010100
00000000
00010000
,
00001000
00100000
02000000
00000000
00000000
00000000
13000000
00000000
00010000
00000000
01000000
00000000
00001000
00000000
00010000
00000000
,
00000100
00001000
00000001
00000100
00001000
00020000
00000000
00130000
,
01000000
00010000
20000000
00000000
00000000
00000000
31000000
00000000
00010000
00000000
00001000
00000000
00010000
00000000
00100000
00000000
,
01000000
00001000
00010000
00000010
00000100
00001000
00000100
00000001
,
00000010
00001000
00010000
01000000
00100000
00001000
00010000
00100000
,
10000000
00000000
00010000
00100000
01000000
10000000
01000000
00000000
00010000
00000000
00001000
00000000
00000010
00000000
00000100
00000000
,
00001000
00000000
00000001
00000000
00000100
00000000
00001000
00010000
00001000
01000000
00010000
01000000
00100000
00000000
10000000
00010000
,
10000000
01000000
00100000
00010000
01000000
00010000
00000000
00000000
00100000
00000000
01100000
00000000
00000000
00000000
00001000
00000000
,
00010000
00011000
00000000
00000220
00000000
00000000
00000000
00000000
,
00000000
00000000
00000000
00000000
,
00000000
00000000
00000000
00000330
00000000
00000000
00000000
00000000
;
