#VERSION:0.83;
#TITLE:EVANESCENT;
#SUBTITLE:;
#ARTIST:SOUND HOLIC feat. Nana Takahashi;
#TITLETRANSLIT:;
#SUBTITLETRANSLIT:;
#ARTISTTRANSLIT:;
#GENRE:PROGRESSIVE ROCK;
#CREDIT:;
#MUSIC:EVANESCENT.ogg;
#BANNER:EVANESCENT.png;
#BACKGROUND:EVANESCENT-bg.png;
#CDTITLE:./CDTitles/bm IIDX 26 Rootage.png;
#SAMPLESTART:49.794;
#SAMPLELENGTH:15.000;
#SELECTABLE:YES;
#OFFSET:1.616;
#BPMS:0.000=161.000
,120.000=147.000
,132.000=137.000
,134.000=127.000
,136.000=161.000
,200.000=165.000
;
#STOPS:;
#TIMESIGNATURES:0.000=7=4,
56.000=4=4,
200.000=3=4,
203.000=4=4,
207.000=3=4,
210.000=5=4,
215.000=4=4
;
#BGCHANGES:5.750=EVANESCENT.mp4=1.000=0=0=0=StretchNoLoop====,
99999.000=-nosongbg-=1.000=0=0=0=StretchNoLoop====
;
#FGCHANGES:;

//--------------- dance-single - forcednature ----------------
#NOTEDATA:;
#STEPSTYPE:dance-single;
#DESCRIPTION:forcednature;
#CREDIT:forcednature;
#DIFFICULTY:Beginner;
#METER:4;
#RADARVALUES:0,0,0,0,0;
#NOTES:
0000
0000
0000
0000
,
0000
0000
0000
0000
,
0000
0000
0000
0000
,
0000
0000
0000
0000
,
0000
0000
0000
0000
,
0000
0000
1000
0000
,
0000
0000
0000
0100
0000
0000
0000
0000
,
0000
0000
0000
0010
0000
0000
0000
0000
,
0000
0001
0000
0000
,
0000
0001
0000
0000
,
0000
0100
0000
0000
0000
0000
0000
0000
,
0000
0010
0000
0000
0000
0000
0000
0000
,
1000
0000
0000
0000
,
0100
0000
0000
0000
,
0010
0000
0001
0000
,
0010
0000
0000
0000
,
0001
0000
0100
0000
,
0001
0000
0000
0000
,
1000
0000
0100
0000
,
1000
0000
0000
0000
,
0010
0000
1000
0000
,
0010
0000
0000
0000
,
1001
0000
0000
0000
,
0110
0000
0000
0000
,
1000
0000
1000
0000
,
0001
0000
0001
0000
,
1001
0000
0000
0000
,
0110
0000
0000
0000
,
0010
0000
0010
0000
,
0100
0000
0100
0000
,
0001
0000
0000
0000
,
1001
0000
0000
0000
,
0110
0000
0000
0000
,
1000
0000
0001
0000
,
1001
0000
0000
0000
,
1000
0000
0100
0000
,
1000
0000
0000
0000
,
0001
0000
0100
0000
,
0001
0000
0000
0000
,
1000
0000
0010
0000
,
1000
0000
0000
0000
,
0001
0000
0010
0000
,
0001
0000
0001
0000
,
0100
0000
0100
0000
,
0010
0000
0010
0000
,
1000
0000
1000
0000
,
0100
0000
0100
0000
,
1000
0000
1000
0000
,
0001
0000
0001
0000
,
0100
0000
0100
0000
,
0010
0000
0000
0010
,
0000
0000
1000
1000
,
0000
0000
0100
0000
,
0000
0100
0000
0010
,
0000
0001
0000
0010
,
0000
0000
0000
0100
,
0000
1000
0000
0001
,
0000
1000
0000
0010
,
0000
0100
0000
0001
,
0000
0000
0000
1000
,
0000
0001
0000
0010
,
0000
0010
0000
0000
0000
0000
0110
0000
,
0000
0100
0000
1000
,
0000
0001
0000
1001
,
0000
1000
0000
0010
,
0000
0100
0000
0110
,
0000
0010
0000
1000
,
0000
0001
0000
1001
,
0000
1000
0000
0100
,
0000
0010
0000
0001
,
0000
0010
0010
0010
,
0000
0001
0000
1000
,
0000
0010
0010
0010
,
0000
1000
0000
0001
,
0000
0100
0100
0100
,
0000
0001
0000
1000
,
0000
0100
0100
0100
,
0000
1000
0000
0010
,
0000
0010
0000
0000
0000
0000
0100
0000
,
0000
0100
0000
0000
0000
0000
0001
0000
,
0000
0001
0000
0000
0000
0000
1000
0000
,
0000
1001
0000
0000
0000
0000
0000
0000
;

//--------------- dance-single - forcednature ----------------
#NOTEDATA:;
#STEPSTYPE:dance-single;
#DESCRIPTION:forcednature;
#CREDIT:forcednature;
#DIFFICULTY:Easy;
#METER:9;
#RADARVALUES:0,0,0,0,0;
#NOTES:
0000
0000
0000
0000
,
0000
0000
0000
0000
,
0000
0000
0000
0000
,
0000
0000
0000
0000
,
0000
0000
0000
0000
,
0000
0000
0000
0000
1000
0000
0000
0100
,
0000
0010
0000
0001
,
0000
0100
0000
0010
0000
0010
0000
0010
,
0000
1000
1000
1000
,
0000
0000
0001
0000
0000
0010
0000
0000
,
0100
0000
0000
0000
1000
0000
0000
0001
,
0000
0100
0000
0100
0000
0100
0000
0000
,
0010
0010
0010
0000
,
2000
0100
0100
3001
,
1000
0000
0010
0100
,
0001
0010
0001
1000
,
0020
0000
0000
0230
0000
0000
0000
0000
,
0302
0000
0000
2003
0000
0000
0000
0000
,
3100
0010
0001
0010
,
0100
1000
0001
1000
,
0020
0000
0000
0200
0000
0000
0330
0000
,
2002
3003
0220
0330
,
1000
0000
0100
0000
1000
0100
1000
0000
,
0001
0000
0100
0000
0001
0100
0001
0000
,
0010
0000
0100
0000
0010
0100
0010
0000
,
2002
3003
0220
0330
,
0001
0000
0100
0000
0001
0100
0001
0000
,
1000
0000
0100
0000
1000
0100
1000
0000
,
0010
0000
0100
0000
0010
0100
0010
0000
,
1000
0000
0001
0000
1000
0001
1000
0000
,
0002
0100
1000
0013
,
2000
0100
0001
3010
,
0002
0010
1000
0103
,
2000
3020
0230
0302
,
0013
0000
0200
0000
,
2300
0000
0000
0000
0000
0000
3001
0000
0100
0000
0001
0000
,
0200
0000
0320
0000
,
2030
0000
3002
0003
,
1001
0000
2000
0000
,
3200
0000
0000
0000
0000
0000
0310
0000
0001
0000
0010
0000
,
0002
0000
2003
0000
,
3002
0000
0203
0000
,
0310
0000
0000
1000
0000
0000
0100
0000
0100
0000
0100
0000
,
0010
0000
0000
0001
0000
0000
0100
0000
0100
0000
0100
0000
,
0001
0000
0000
1000
0000
0000
0010
0000
0010
0000
0010
0000
,
1000
0000
0000
0001
0000
0000
0010
0000
0010
0000
0010
0000
,
0100
0000
0000
1000
0000
0000
0001
0000
0010
0000
0001
0000
,
0010
0000
0000
0100
0000
0000
1000
0000
0010
0000
1000
0000
,
0010
0000
0000
0100
0000
0000
0001
0000
1000
0000
0001
0000
,
1000
0000
0100
0000
0010
0100
0010
0000
,
0001
0000
0000
1001
0000
0000
1000
0000
,
0000
1001
0000
0000
0001
0000
0100
0000
,
0000
0110
0000
0000
0010
0000
0000
0110
,
0000
0001
1000
0002
,
0000
0013
0100
1000
,
0001
0200
0000
0310
,
1000
0001
0100
0002
,
0000
0000
1003
0010
1000
0000
0100
0000
,
1000
0001
0010
0200
,
0000
0320
0000
0000
0030
0000
0001
1000
,
0001
0100
0010
1001
,
0000
0220
0000
0000
0330
0000
1001
0000
,
0000
2000
0000
3200
,
0000
0000
0000
0310
0000
0001
0000
0010
0000
0002
0000
0000
,
0000
0203
0300
2002
,
3003
0220
0330
1001
,
0000
0002
0000
0203
,
0000
0000
0000
0310
0000
1000
0000
0010
0000
2000
0000
0000
,
0000
3200
0300
2002
,
3003
0220
0330
1000
,
0100
0000
0010
0001
0010
0000
0001
0000
,
0100
0000
0010
1000
0010
0000
1000
0000
,
0001
0000
0010
0100
0010
0000
0001
0000
,
1000
0000
0010
0100
0010
0000
1000
0000
,
0100
0000
0010
0001
0010
0000
0001
0000
,
0100
0000
0010
1000
0010
0000
0100
0000
,
0001
0000
0010
0100
0010
0000
0100
0000
,
1000
0000
0010
0100
0010
0000
1000
0000
,
0000
1000
0000
0000
1001
0000
0001
0000
,
0000
0001
0000
0000
1001
0000
0010
0000
,
0000
0010
0000
0000
1001
0000
0100
0000
,
0000
0110
0000
0000
0000
0000
0000
0000
;

//--------------- dance-single - forcednature ----------------
#NOTEDATA:;
#STEPSTYPE:dance-single;
#DESCRIPTION:forcednature;
#CREDIT:forcednature;
#DIFFICULTY:Medium;
#METER:13;
#RADARVALUES:0,0,0,0,0;
#NOTES:
0000
0000
0000
0000
,
0000
0000
0000
0000
,
0000
0000
0000
0000
,
0000
0000
0000
0000
,
0000
0000
0000
0000
,
0000
0000
0000
0000
0000
0000
0000
0000
1000
0000
0000
0100
0000
0000
1000
0000
,
0000
0001
0000
0000
0010
0000
0001
0000
0000
0100
0000
0000
0010
0000
0000
1000
,
0000
0000
0002
0000
0000
0000
0013
0000
0100
0000
1000
0000
0000
0001
0000
0001
,
0000
0000
0100
0000
0010
0000
1000
0000
0001
0000
0000
0010
0000
0010
0000
0000
,
0100
0000
0000
0000
1000
0000
0000
0010
0000
0000
1000
0000
0000
0001
0000
0000
,
0010
0000
0001
0000
0000
1000
0000
0000
0010
0000
0000
1000
0000
0000
0200
0000
,
0000
0000
0310
0000
0001
0000
0100
0000
0000
0010
0000
0010
0000
0000
1000
0000
,
0001
0000
0010
0000
0100
0000
0000
1000
0000
1000
0000
0000
0010
0000
0000
0000
,
0101
1100
0011
1010
,
1001
0000
0000
0000
1000
0000
0100
0000
0010
0000
0000
0001
0000
0000
1000
0000
,
0010
0000
0000
1000
0000
0000
0001
0000
0100
0000
0000
0001
0000
0000
1000
0000
,
0200
0000
0000
0020
0000
0000
0330
0000
,
0010
0001
1000
0000
0010
1000
0001
0000
,
1001
0000
0000
0000
0000
0000
0001
0000
0100
0000
0000
0010
0000
0000
1000
0000
,
0001
0000
0000
0010
0000
0000
0001
0000
1000
0000
0000
0100
0000
0000
0010
0000
,
0002
0000
0000
2000
0000
0000
3003
0000
,
2010
0000
0100
0000
3001
0010
0001
0010
,
0100
1000
0010
1000
0100
1000
0001
0000
,
0100
0001
0010
0001
0100
0001
1000
0000
,
0010
0100
0001
1000
0001
0010
0100
0000
,
0220
0330
2002
3003
,
1000
0010
0100
0001
1000
0010
0100
0000
,
0001
0010
0100
1000
0001
0010
0100
0000
,
0010
0001
1000
0001
0100
0001
1000
0000
,
0010
1000
0001
1000
0100
1000
0001
0000
,
1000
0000
1000
0010
0000
0010
0100
0000
0100
0001
0000
0001
,
0010
0000
0010
0100
0000
0100
1000
0000
1000
0001
0000
0001
,
0100
0000
0100
0010
0000
0010
1000
0000
1000
0100
0000
0100
,
0010
0001
0010
0001
0100
0001
1000
0100
1000
0010
1000
0010
,
0100
0000
0002
0000
,
2003
0000
0000
0000
0000
0000
3100
0000
0010
0000
0001
0000
,
0020
0030
0220
0330
,
2200
3300
0202
0303
,
2002
3003
2000
0000
,
3002
0000
0000
0000
0000
0000
0103
0000
0010
0000
1000
0000
,
0020
0030
0220
0330
,
2002
3003
2200
3300
,
0001
0000
0001
0010
0000
0010
0100
0000
1100
0000
1010
0000
,
0010
0000
0010
0100
0000
0100
0001
0000
0011
0000
1010
0000
,
1000
0000
1000
0100
0000
0100
0010
0000
0011
0000
0101
0000
,
0001
0000
0001
1000
0000
1000
0010
0000
1010
0000
0011
0000
,
0001
0000
0001
1000
0000
1000
0100
0000
0110
0000
1001
0000
,
1000
0000
1000
0001
0000
0001
0100
0000
1010
0000
0101
0000
,
0001
0000
0001
0010
0000
0010
0100
0000
1100
0000
1010
0000
,
0010
0000
0000
0000
0010
0000
0100
0000
0000
0000
0100
0000
0001
0000
0000
1000
0000
0000
0001
0000
0000
0000
0000
0000
,
1000
0010
1000
0000
0000
0000
0010
0100
0010
0000
0000
0000
0100
0001
0100
0000
,
0000
0000
0001
1000
0001
0000
0000
0000
0011
0000
0000
0000
0100
0010
0100
0000
,
0000
0000
1000
0100
1000
0000
0000
0000
0010
1000
0010
0000
0000
0000
0100
0001
,
0100
0000
0000
0000
0010
0000
0000
0010
0000
0000
0010
0000
0100
0000
0001
0000
,
2000
0000
3100
0010
0001
0010
0100
1000
,
0001
1000
0010
0100
0001
0000
1000
0010
,
0100
0010
0001
0010
0100
0010
2000
0000
,
0000
3001
0010
0100
1000
0000
0001
0100
,
0010
0100
1000
0100
0010
0100
0001
0020
,
0000
0130
2000
0000
0000
0000
3001
0100
,
1000
0000
0100
0000
0001
0000
0010
0000
1000
0000
0010
0000
0100
0000
0000
0110
,
0000
0000
0010
0000
0000
1001
0000
0000
0000
0000
0000
0000
1010
0000
0000
0000
,
0010
0120
0100
0230
,
0001
0000
0000
0301
0000
0011
0000
1100
0000
1020
0000
0000
,
0100
0230
0001
0302
,
0010
0023
0130
2001
,
0010
3020
0100
0230
,
0001
0000
0000
0301
0000
0101
0000
1010
0000
1200
0000
0000
,
0010
0320
0001
0032
,
0000
0000
0000
0000
1003
0001
1000
0001
1000
0000
0000
0000
0001
0000
0100
0000
,
0010
0000
1000
0000
0010
1000
0010
0000
0100
0000
0001
0000
1000
0000
0100
0000
,
0010
0000
0001
0000
0010
0001
0010
0000
0100
0000
1000
0000
0001
0000
0100
0000
,
0010
0000
1000
0000
0100
0010
0100
0000
0010
0000
0001
0000
1000
0000
0100
0000
,
0010
0000
0001
0000
0100
0010
0100
0000
0010
0000
1000
0000
0100
0000
1000
0000
,
0010
0000
1000
0000
0001
0100
0001
0000
0010
0000
0001
0000
0100
0000
0001
0000
,
0010
0000
0001
0000
1000
0010
1000
0000
0100
0000
1000
0000
0001
0000
0100
0000
,
0010
0000
1000
0000
0001
0010
0001
0000
1000
0000
0010
0000
0100
0000
0100
0000
,
0001
0000
0001
0000
1000
0001
1000
0001
1000
0000
0000
0000
0001
0000
0100
0000
,
0000
1000
0100
0000
1001
0000
1000
0100
,
0000
0001
0100
0000
1001
0000
1000
0010
,
0000
0000
0001
0000
0010
0000
0000
0000
1001
0000
0000
0000
0001
0100
0001
0000
,
0000
0000
1000
0100
1000
0000
0000
0000
0000
0000
0000
0000
0000
0000
0000
0000
;

//--------------- dance-single - forcednature ----------------
#NOTEDATA:;
#STEPSTYPE:dance-single;
#DESCRIPTION:forcednature;
#CREDIT:forcednature;
#DIFFICULTY:Hard;
#METER:16;
#RADARVALUES:0,0,0,0,0;
#NOTES:
0000
0000
0000
0000
,
0000
0000
0000
0000
,
0000
0000
0000
0000
,
0000
0000
0000
0000
,
0000
0000
0000
0000
,
0000
0000
0000
0000
0000
0000
0000
0000
0001
0000
0000
1000
0100
0000
0010
0000
,
0000
0001
0100
0000
0010
0000
1000
0000
0000
0100
0010
0000
0001
0000
0000
1000
,
0010
0000
0100
0000
0001
0000
0010
0000
1000
0000
0010
0000
0000
0100
0000
0110
,
0000
0000
1000
0000
0010
0000
0001
0000
0010
0000
0000
0100
0000
0110
0000
0000
,
1001
0000
0000
0000
0001
0000
0000
0100
1000
0000
0100
0000
0000
0010
1000
0000
,
0001
0000
1000
0000
0000
0100
0001
0000
0100
0000
0000
0010
0001
0000
1000
0000
,
0010
0000
0001
0000
0010
0000
0100
0000
0000
0001
0100
0001
0000
0000
0010
0000
,
1000
0000
0010
0000
0100
0000
0000
1000
0100
1000
0001
0000
0100
0000
0010
0000
,
1000
0001
0000
0000
1000
0001
0000
0000
1000
0001
0000
0000
0110
0000
0000
0000
,
1001
0000
0000
0000
0001
0000
0000
1000
0000
0010
0100
0000
0001
0000
1000
0000
,
0100
0000
0000
0000
0010
0000
0000
0100
0000
1000
0010
0000
0100
0000
0010
0000
,
0002
0000
0013
0200
0000
0001
0000
1000
,
0310
0000
0000
0000
1000
0000
0001
0010
0000
0100
1000
0000
0001
0100
0010
1000
,
0001
0000
0000
0000
1000
0000
0000
0100
0000
0010
0100
0000
1000
0000
0010
0000
,
0100
0000
0000
0000
0001
0000
0000
0010
0000
0100
0010
0000
0001
0000
0100
0000
,
2000
0000
3100
0020
0000
0001
0000
1000
,
0230
0000
0000
0000
1000
0000
0000
0000
0301
0100
0010
0000
1000
0100
0010
0001
,
1000
0010
1000
0100
0001
0100
0010
1000
,
0010
0001
1000
0010
0001
1000
0100
1000
,
0001
0010
1000
0100
0010
0001
0100
0000
,
0201
1300
1020
0031
,
1000
0001
0010
1000
0001
0100
0010
0001
,
1000
0010
0001
1000
0001
0010
0100
1000
,
0001
0010
1000
0100
0001
1000
0010
0001
,
1001
0000
0000
0000
0110
0000
0000
0000
0001
0100
0001
0100
0010
1000
0010
0000
,
1000
0100
1000
0010
1000
0100
0010
0001
0100
0010
1000
0100
,
0100
0001
0100
0010
1000
0001
1000
0010
0100
0001
1000
0010
,
0010
0001
0010
0100
1000
0001
1000
0010
0001
0010
1000
0100
,
0100
0010
1000
0001
1000
0010
0010
0001
0100
1000
0100
0010
,
1001
0000
0002
0000
,
0203
0000
0000
0000
0000
0000
0310
0000
1000
0000
0001
0000
,
0020
0000
0230
0000
,
2300
0000
3002
0003
,
1001
0000
0020
0000
,
0230
0000
0000
0000
0000
0000
0301
0000
0010
0000
0100
0000
,
2000
0000
3020
0000
,
0032
0000
0000
0000
0000
0000
0013
0100
0010
1000
0001
0000
,
1000
0100
1000
0010
0100
0001
0010
0001
0100
0010
1000
0000
,
0100
0010
0001
0100
0010
0001
0010
1000
0001
1000
0100
0000
,
0010
0001
0010
1000
0010
0100
1000
0001
1000
0010
0100
0000
,
1000
0100
0001
0100
0010
1000
0001
1000
0100
0010
0001
0000
,
0100
1000
0100
0010
1000
0100
0010
1000
0010
0001
1000
0000
,
0010
0001
0010
0100
1000
0100
0001
1000
0100
0001
0100
0000
,
0010
1000
0010
0100
1000
0010
0001
0010
0100
0001
0010
0000
,
0100
0000
0000
0000
0001
0000
0000
0000
0100
0000
0000
0000
1000
0000
0000
0000
0001
0000
0000
0000
1000
0000
0000
0000
0010
0000
0000
0000
0000
0000
0100
0000
0000
0000
0000
0000
0001
0000
0000
1000
0000
0000
0001
0000
0000
0000
0000
0000
,
1000
0100
1000
0000
0010
0000
0100
0001
0100
0000
0010
0000
1000
0001
1000
0000
,
0010
0000
0100
1000
0100
0000
0010
0000
1000
0100
1000
0000
0001
0100
0001
0000
,
0010
0000
0100
1000
0100
0000
0010
0000
0001
1000
0001
0000
0010
0000
0100
0001
,
0100
0000
0010
0000
0001
0000
0000
0110
0000
0000
1001
0000
1000
0010
0100
0001
,
0200
0000
0000
0000
0310
1000
0001
1000
0100
0010
0001
0000
0100
0001
0010
0000
,
0100
1000
0010
0000
0100
0000
1000
0000
0100
0000
0001
0000
1000
0100
1000
0100
,
0010
0100
0010
0100
0010
0001
0010
0001
1000
0001
1000
0001
2000
0000
0000
0000
,
0000
0000
3010
0000
0100
0001
1000
0010
1000
0001
0010
0000
0100
1000
0100
1000
,
0001
1000
0001
1000
0001
0100
0001
0100
0010
0100
0010
0100
0001
1000
0200
0000
,
0000
0000
1300
0001
0020
0000
0000
0000
0000
0000
0000
0000
0130
1000
0001
0100
,
0001
0010
0100
1000
0001
0100
0010
1000
0001
1000
0100
0010
0001
0000
0000
1001
,
0000
0000
0110
0000
0000
1001
0000
0000
0000
0000
0000
0000
1000
0000
0001
0000
,
0100
0000
0010
1000
0100
0000
0010
0000
0001
0000
1000
0100
0010
0000
0100
0000
,
0001
0000
0100
1000
0010
0000
0100
0000
1000
0000
0100
0001
0010
0000
0100
0000
,
1000
0000
0010
0100
0001
0000
0100
0000
1000
0000
0100
0001
0010
0000
0100
0000
,
0001
0000
0100
1000
0010
0000
0100
0000
0010
0000
1000
0001
0010
0000
0100
0000
,
1000
0000
0001
0100
0010
1000
0010
1000
0001
0100
0001
0100
0010
0000
1000
0000
,
0100
0000
0001
0100
0010
0001
0010
0001
1000
0100
1000
0100
0010
0000
0001
0000
,
1000
0000
0001
0100
1000
0100
1000
0100
0010
1000
0010
1000
0100
0000
0001
0000
,
0100
0000
0010
0001
1000
0001
1000
0001
1000
0001
1000
0001
0100
0000
0010
0000
,
1000
0001
0010
0000
0100
1000
0010
0100
0010
1000
0100
0010
0001
0000
0100
0000
,
0010
1000
0001
0000
1000
0100
0010
0001
0100
0010
1000
0100
1000
0000
0001
0000
,
0100
0010
1000
0000
0001
0100
0010
0100
1000
0100
0010
0100
0001
0000
1000
0000
,
0100
0010
0001
0000
1000
0100
0010
0100
0001
0100
0010
0100
1000
0000
0010
0000
,
0001
0010
0100
0000
0010
1000
0001
1000
0100
0010
0001
1000
0100
0000
0001
0000
,
0100
1000
0010
0000
0100
0001
0100
0010
1000
0001
0010
0100
0010
0000
1000
0000
,
0010
0100
1000
0000
0010
0100
0001
0010
0100
1000
0001
1000
0100
0000
0001
0000
,
0100
0010
0001
0000
0100
1000
0100
0001
1000
0001
0010
0000
0100
1000
0010
1000
,
0000
0000
0001
0100
0001
0010
0000
0000
0001
1000
0000
0000
1000
0010
0100
0001
,
0000
0000
0010
0001
1000
0100
0000
0000
1000
0001
0000
0000
0001
0100
0010
0100
,
0000
0000
1000
0100
0010
0100
0000
0000
0001
1000
0000
0000
1000
0100
0001
0100
,
0000
0000
0010
1000
0010
0001
0000
0000
0000
0000
0000
0000
0000
0000
0000
0000
;

//--------------- dance-double - forcednature ----------------
#NOTEDATA:;
#STEPSTYPE:dance-double;
#DESCRIPTION:forcednature;
#CREDIT:forcednature;
#DIFFICULTY:Easy;
#METER:9;
#RADARVALUES:0,0,0,0,0;
#NOTES:
00000000
00000000
00000000
00000000
,
00000000
00000000
00000000
00000000
,
00000000
00000000
00000000
00000000
,
00000000
00000000
00000000
00000000
,
00000000
00000000
00000000
00000000
,
00000000
00000000
00000000
00000000
00001000
00000000
00000000
01000000
,
00000000
00010000
00000000
01000000
,
00000000
00100000
00000000
10000000
00000000
10000000
00000000
10000000
,
00000000
01000000
01000000
01000000
,
00000000
00000000
00100000
00000000
00000000
00010000
00000000
00000000
,
00100000
00000000
00000000
00000000
00001000
00000000
00000000
00010000
,
00000000
00000010
00000000
00000010
00000000
00000010
00000000
00000000
,
00001000
00001000
00001000
00000000
,
00000200
00000010
00000010
00000310
,
00000100
00000000
00001000
00000001
,
00001000
00000010
00010000
00001000
,
00200000
00000000
00000000
00320000
00000000
00000000
00000000
00000000
,
20030000
00000000
00000000
30200000
00000000
00000000
00000000
00000000
,
01300000
00100000
10000000
00100000
,
01000000
00001000
00010000
00001000
,
00200000
00000000
00000000
00020000
00000000
00000000
00330000
00000000
,
20020000
30030000
02200000
03300000
,
00010000
00000000
01000000
00000000
00010000
01000000
00010000
00000000
,
00100000
00000000
00001000
00000000
00100000
00001000
00100000
00000000
,
00001000
00000000
00010000
00000000
00001000
00010000
00001000
00000000
,
00022000
00033000
00020200
00030300
,
00000100
00000000
00001000
00000000
00000100
00001000
00000100
00000000
,
00000010
00000000
00000001
00000000
00000010
00000001
00000010
00000000
,
00000001
00000000
00000100
00000000
00000001
00000100
00000001
00000000
,
00001000
00000000
00000010
00000000
00001000
00000010
00001000
00000000
,
00000200
00000010
00001000
00010300
,
00002000
01000000
00010000
00103000
,
02000000
00100000
00010000
03001000
,
02000000
03002000
00023000
00030200
,
00001300
00000000
00000002
00000000
,
00000203
00000000
00000000
00000000
00000000
00000000
00000310
00000000
00001000
00000000
00000010
00000000
,
00002000
00000000
00003200
00000000
,
00020300
00000000
00032000
00003000
,
00011000
00000000
02000000
00000000
,
03020000
00000000
00000000
00000000
00000000
00000000
10030000
00000000
00010000
00000000
10000000
00000000
,
00020000
00000000
00230000
00000000
,
02300000
00000000
23000000
00000000
,
30100000
00000000
00000000
10000000
00000000
00000000
00010000
00000000
00010000
00000000
00010000
00000000
,
00100000
00000000
00000000
00001000
00000000
00000000
00010000
00000000
00010000
00000000
00010000
00000000
,
00000010
00000000
00000000
00001000
00000000
00000000
00000100
00000000
00000100
00000000
00000100
00000000
,
00000010
00000000
00000000
00000001
00000000
00000000
00001000
00000000
00001000
00000000
00001000
00000000
,
00000010
00000000
00000000
00010000
00000000
00000000
00001000
00000000
01000000
00000000
00001000
00000000
,
01000000
00000000
00000000
00010000
00000000
00000000
10000000
00000000
01000000
00000000
10000000
00000000
,
01000000
00000000
00000000
00100000
00000000
00000000
00010000
00000000
10000000
00000000
00010000
00000000
,
10000000
00000000
00100000
00000000
01000000
00010000
01000000
00000000
,
00001000
00000000
00000000
00011000
00000000
00000000
00010000
00000000
,
00000000
00011000
00000000
00000000
00000100
00000000
00001000
00000000
,
00000000
00001001
00000000
00000000
00000001
00000000
00000000
00001001
,
00000000
00001000
00001000
00000020
,
00000000
00010030
00001000
01000000
,
00001000
00020000
00000000
00030100
,
00010000
00001000
00010000
00000020
,
00000000
00000000
00001030
00000010
00001000
00000000
00000100
00000000
,
00000010
00000001
00000010
00000200
,
00000000
00002300
00000000
00000000
00003000
00000000
00000100
00010000
,
00000100
00010000
00001000
00011000
,
00000000
00022000
00000000
00000000
00033000
00000000
01001000
00000000
,
00000000
02000000
00000000
03020000
,
00000000
00000000
00000000
10030000
00000000
00100000
00000000
10000000
00000000
00200000
00000000
00000000
,
00000000
02300000
03000000
20020000
,
30030000
02200000
03300000
10010000
,
00000000
00020000
00000000
02030000
,
00000000
00000000
00000000
03001000
00000000
00010000
00000000
00001000
00000000
00020000
00000000
00000000
,
00000000
00030200
00000300
00000220
,
00000330
00002002
00003003
00000001
,
00000100
00000000
00000010
00001000
00000010
00000000
00010000
00000000
,
00001000
00000000
00100000
00010000
00100000
00000000
01000000
00000000
,
10000000
00000000
00010000
10000000
00010000
00000000
01000000
00000000
,
00001000
00000000
00010000
00001000
00010000
00000000
00000100
00000000
,
00001000
00000000
00000100
00000010
00000100
00000000
00000010
00000000
,
00000001
00000000
00001000
00000001
00001000
00000000
00000010
00000000
,
00010000
00000000
00001000
01000000
00001000
00000000
01000000
00000000
,
00010000
00000000
00100000
00010000
00100000
00000000
01000000
00000000
,
00000000
01000000
00000000
00000000
10000000
00000000
00010000
00000000
,
00000000
00010000
00000000
00000000
00010000
00000000
01000000
00000000
,
00000000
01000000
00000000
00000000
01000000
00000000
00001000
00000000
,
00000000
00011000
00000000
00000000
00000000
00000000
00000000
00000000
;

//--------------- dance-double - forcednature ----------------
#NOTEDATA:;
#STEPSTYPE:dance-double;
#DESCRIPTION:forcednature;
#CREDIT:forcednature;
#DIFFICULTY:Medium;
#METER:13;
#RADARVALUES:0,0,0,0,0;
#NOTES:
00000000
00000000
00000000
00000000
,
00000000
00000000
00000000
00000000
,
00000000
00000000
00000000
00000000
,
00000000
00000000
00000000
00000000
,
00000000
00000000
00000000
00000000
,
00000000
00000000
00000000
00000000
00000000
00000000
00000000
00000000
00001000
00000000
00000000
01000000
00000000
00000000
00001000
00000000
,
00000000
00010000
00000000
00000000
00000100
00000000
00001000
00000000
00000000
00000100
00000000
00000000
00000010
00000000
00000000
00000001
,
00000000
00000000
00002000
00000000
00000000
00000000
00003010
00000000
00010000
00000000
00001000
00000000
00000000
01000000
00000000
01000000
,
00000000
00000000
00010000
00000000
10000000
00000000
00010000
00000000
00100000
00000000
00000000
01000000
00000000
01000000
00000000
00000000
,
00100000
00000000
00000000
00000000
00001000
00000000
00000000
00010000
00000000
00000000
00000010
00000000
00000000
00010000
00000000
00000000
,
00001000
00000000
00000010
00000000
00000000
00000100
00000000
00000000
00000010
00000000
00000000
00000001
00000000
00000000
00002000
00000000
,
00000000
00000000
00003010
00000000
00010000
00000000
00001000
00000000
00000000
00100000
00000000
00100000
00000000
00000000
00001000
00000000
,
00010000
00000000
00001000
00000000
01000000
00000000
00000000
00010000
00000000
00010000
00000000
00000000
10000000
00000000
00000000
00000000
,
11000000
01100000
00110000
10010000
,
01010000
00000000
00000000
00000000
01000000
00000000
00001000
00000000
00010000
00000000
00000000
00000010
00000000
00000000
00001000
00000000
,
00000010
00000000
00000000
00000100
00000000
00000000
00000001
00000000
00001000
00000000
00000000
00000001
00000000
00000000
00000010
00000000
,
00000200
00000000
00000000
00002000
00000000
00000000
00003300
00000000
,
00001000
00000100
00010000
00000000
00001000
01000000
00010000
00000000
,
10010000
00000000
00000000
00000000
00000000
00000000
10000000
00000000
01000000
00000000
00000000
00100000
00000000
00000000
00010000
00000000
,
00100000
00000000
00000000
00001000
00000000
00000000
00010000
00000000
00000010
00000000
00000000
00001000
00000000
00000000
00000010
00000000
,
00000200
00000000
00000000
00000002
00000000
00000000
00000303
00000000
,
00000012
00000000
00001000
00000000
00000103
00000001
00000100
00000001
,
00000010
00000100
00001000
00000100
00010000
00001000
01000000
00000000
,
00010000
10000000
00010000
00100000
01000000
00100000
00001000
00000000
,
00010000
00000010
00001000
00000100
00001000
00000010
00010000
00000000
,
00020200
00030300
02002000
03003000
,
01000000
00010000
10000000
00010000
00100000
00001000
00010000
00000000
,
00000010
00001000
00000001
00001000
00000100
00010000
00001000
00000000
,
01000000
00010000
00100000
00010000
01000000
00100000
10000000
00000000
,
01000000
00100000
00001000
00010000
00000100
00000010
00000001
00000000
,
00000100
00000000
00000100
00000010
00000000
00000010
00001000
00000000
00001000
00000100
00000000
00000100
,
00010000
00000000
00010000
00001000
00000000
00001000
01000000
00000000
01000000
00010000
00000000
00010000
,
10000000
00000000
10000000
01000000
00000000
01000000
00100000
00000000
00100000
00001000
00000000
00001000
,
00010000
00000010
00010000
00000010
00001000
00000010
00001000
00000100
00001000
00000100
00000010
00000100
,
00000010
00000000
00000002
00000000
,
00002003
00000000
00000000
00000000
00000000
00000000
00003010
00000000
00010000
00000000
00001000
00000000
,
02000000
03000000
20020000
30030000
,
22000000
33000000
00220000
00330000
,
20020000
30030000
20000000
00000000
,
30020000
00000000
00000000
00000000
00000000
00000000
01030000
00000000
00001000
00000000
00010000
00000000
,
00000020
00000030
00002020
00003030
,
00002200
00003300
00000022
00000033
,
00000001
00000000
00000001
00000100
00000000
00000100
00000010
00000000
00001010
00000000
00001100
00000000
,
00000100
00000000
00000100
00010000
00000000
00010000
00001000
00000000
01001000
00000000
01010000
00000000
,
00010000
00000000
00010000
10000000
00000000
10000000
01000000
00000000
01100000
00000000
00110000
00000000
,
00010000
00000000
00010000
01000000
00000000
01000000
00001000
00000000
00011000
00000000
00010100
00000000
,
00000100
00000000
00000100
00001000
00000000
00001000
00000001
00000000
00000101
00000000
00000110
00000000
,
00000010
00000000
00000010
00010000
00000000
00010000
00001000
00000000
00101000
00000000
00110000
00000000
,
00010000
00000000
00010000
10000000
00000000
10000000
00100000
00000000
01100000
00000000
01010000
00000000
,
00010000
00000000
00000000
00000000
00010000
00000000
00100000
00000000
00000000
00000000
00100000
00000000
00001000
00000000
00000000
00010000
00000000
00000000
00001000
00000000
00000000
00000000
00000000
00000000
,
00010000
00000100
00010000
00000000
00000000
00000000
00001000
01000000
00001000
00000000
00000000
00000000
00010000
00000010
00010000
00000000
,
00000000
00000000
00001000
00100000
00001000
00000000
00000000
00000000
00011000
00000000
00000000
00000000
00010000
00000100
00010000
00000000
,
00000000
00000000
00001000
01000000
00001000
00000000
00000000
00000000
00010000
00000010
00010000
00000000
00000000
00000000
00001000
00100000
,
00001000
00000000
00000000
00000000
00010000
00000000
00000000
00010000
00000000
00000000
00010000
00000000
00000010
00000000
00001000
00000000
,
00000020
00000000
00000130
00001000
00000100
00000001
00001000
00000001
,
00000010
00000100
00010000
00001000
00100000
00000000
00001000
00010000
,
00100000
01000000
00100000
10000000
00010000
10000000
02000000
00000000
,
00000000
03100000
00001000
00010000
00000100
00000000
00001000
00000010
,
00010000
00001000
01000000
00010000
10000000
00010000
00100000
02000000
,
00000000
13000000
02000000
00000000
00000000
00000000
03010000
00001000
,
00010000
00000000
00001000
00000000
00000010
00000000
00000100
00000000
00001000
00000000
00000100
00000000
00000010
00000000
00000000
00000110
,
00000000
00000000
00000100
00000000
00000000
00001001
00000000
00000000
00000000
00000000
00000000
00000000
00001100
00000000
00000000
00000000
,
00000100
00020100
00000100
00032000
,
01000000
00000000
00000000
01003000
00000000
00001000
00000000
00100000
00000000
00020000
00000000
00000000
,
01000000
02030000
00100000
03200000
,
10000000
20300000
31000000
02100000
,
00100000
03200000
00001000
00302000
,
00010000
00000000
00000000
00013000
00000000
00000010
00000000
00001000
00000000
00001002
00000000
00000000
,
00001000
00000023
00000001
00000230
,
00000300
00000000
00000000
00000000
00001000
00000001
00001000
00000001
00001000
00000000
00000000
00000000
00000010
00000000
00010000
00000000
,
00001000
01000000
00010000
10000000
00010000
00100000
01000000
00100000
,
00001000
00010000
00000010
00000100
00000010
00001000
00000001
00000010
,
00000100
00010000
00001000
01000000
00010000
00100000
01000000
00100000
,
00001000
00010000
00100000
01000000
00100000
10000000
01000000
00010000
,
01000000
00100000
00001000
00010000
00000010
00000100
00001000
00000100
,
00000001
00000010
00000100
00010000
00001000
00000100
00000010
00001000
,
00010000
01000000
00100000
10000000
00010000
00100000
01000000
01000000
,
00010000
00000000
00010000
00000000
00001000
00000000
00010000
00001000
00010000
00000000
00000000
00000000
00000100
00000000
00001000
00000000
,
00000000
00000010
00010000
00000000
00011000
00000000
01000000
00010000
,
00000000
00100000
00001000
00000000
00011000
00000000
00000010
00001000
,
00000000
00000000
00000100
00000000
00010000
00000000
00000000
00000000
00011000
00000000
00000000
00000000
00001000
01000000
00001000
00000000
,
00000000
00000000
00010000
00000100
00010000
00000000
00000000
00000000
00000000
00000000
00000000
00000000
00000000
00000000
00000000
00000000
;

//--------------- dance-double - forcednature ----------------
#NOTEDATA:;
#STEPSTYPE:dance-double;
#DESCRIPTION:forcednature;
#CREDIT:forcednature;
#DIFFICULTY:Hard;
#METER:17;
#RADARVALUES:0,0,0,0,0;
#NOTES:
00000000
00000000
00000000
00000000
,
00000000
00000000
00000000
00000000
,
00000000
00000000
00000000
00000000
,
00000000
00000000
00000000
00000000
,
00000000
00000000
00000000
00000000
,
00000000
00000000
00000000
00000000
00000000
00000000
00000000
00000000
00011000
00000000
00000000
01000000
00000000
00000000
00100000
00000000
,
00000000
10000000
00000000
00000000
01000000
00000000
00010000
00000000
00000000
00001000
00000000
00000000
00000010
00000000
00000000
00000001
,
00000000
00000000
00001001
00000000
00000000
00000000
00001000
00000000
00000100
00000000
00010000
00000000
00000000
00001000
00000000
01000000
,
00001000
00000000
00010000
00000000
01000000
00000000
10000000
00000000
00010000
00000000
00000000
01000000
00000000
00100000
10000000
00000000
,
01000000
00000000
00100000
00000000
00010000
00000000
00000000
01000000
00000000
00000000
00001000
00000000
00000000
00010000
00000000
00000000
,
00000100
00000000
00000010
00000000
00000000
00000001
00000000
00000000
00000100
00000000
00000000
00001000
00000000
00000000
00011000
00000000
,
00000000
00000000
00010000
00000000
00100000
00000000
01000000
00000000
00000000
00001000
00000000
00010000
00000000
00000000
00000100
00000000
,
00000001
00000000
00000100
00000000
00000010
00000000
00000001
00000100
00000010
00001000
00000001
00000000
00000100
00000000
00000000
00000000
,
00001000
00010000
00001000
00000000
00010000
00001000
00010000
00000000
00001000
00010000
00001000
00000000
00010000
00001000
00010000
00000000
,
00011000
00000000
00000000
00000000
00010000
00000000
00000000
00100000
00000000
01000000
00010000
00000000
10000000
00000000
01000000
00000000
,
00100000
00000000
00000000
00000000
00001000
00000000
00000000
00010000
00000000
00000100
00001000
00000000
00000001
00000000
00000100
00000000
,
00020020
00000000
00030030
02001000
00000000
10000000
00000000
00100000
,
03100000
00000000
00000000
00000000
01000000
00000000
00001000
00010000
00000000
00000100
00001000
00000000
00000010
00010000
00001000
00010000
,
00000100
00000000
00000000
00000000
00001000
00000000
00000000
00000001
00000000
00000100
00000010
00000000
00000100
00000000
00001000
00000000
,
00010000
00000000
00000000
00000000
01000000
00000000
00000000
00100000
00000000
00010000
10000000
00000000
00100000
00000000
00010000
00000000
,
00022000
00000000
00033000
00010020
00000000
00000001
00000000
00000100
,
00000230
00000000
00000000
00000000
00001000
00000000
00000000
00000000
00000301
00000100
00000010
00001000
00000100
00000010
00000001
00001000
,
00000010
00000100
00001000
01000000
00010000
00100000
10000000
00100000
,
00010000
01000000
00001000
00010000
00000100
00000010
00001000
00000010
,
00000001
00000100
00000010
00000001
00000010
00010000
00001000
00000000
,
02002000
03003000
00020200
00030300
,
00010000
00001000
00000010
00000100
00001000
00000001
00000100
00010000
,
00000100
00001000
00010000
01000000
00100000
10000000
00100000
00010000
,
01000000
00001000
00000010
00001000
00010000
00100000
00010000
00001000
,
00010100
00000000
00000000
00000000
01001000
00000000
00000000
00000000
00000100
00010000
00000100
00010000
00001000
00100000
00001000
00100000
,
00010000
01000000
10000000
01000000
00100000
10000000
01000000
00100000
00001000
00010000
00100000
01000000
,
00001000
00010000
00000100
00000010
00001000
00000010
00000001
00000100
00000010
00000100
00001000
00010000
,
01000000
00100000
01000000
10000000
00010000
10000000
00100000
00010000
00001000
01000000
00001000
00010000
,
00000100
00000010
00001000
00000010
00000001
00000100
00001000
00010000
00100000
10000000
01000000
00010000
,
00011000
00000000
00020000
00000000
,
00030200
00000000
00000000
00000000
00000000
00000000
00000310
00000000
00000001
00000000
00000100
00000000
,
00000020
00000000
00020030
00000000
,
00230000
00000000
20300000
30000000
,
10010000
00000000
00020000
00000000
,
00230000
00000000
00000000
00000000
00000000
00000000
00301000
00000000
00000100
00000000
00000001
00000000
,
00002000
00000000
00003200
00000000
,
00020300
00000000
00000000
00000000
00000000
00000000
00130000
01000000
00010000
10000000
01000000
00000000
,
00100000
00001000
00010000
00000100
00010000
00001000
00000100
00000001
00000010
00000100
00001000
00000000
,
00000010
00000100
00001000
00010000
01000000
00100000
00001000
00010000
00100000
10000000
00010000
00000000
,
00100000
00001000
00010000
00000100
00000010
00001000
00000010
00000001
00001000
00000100
00000010
00000000
,
00001000
00010000
00100000
01000000
00100000
10000000
00010000
10000000
01000000
00010000
00001000
00000000
,
00000100
00000001
00000100
00001000
00010000
00000100
00000010
00001000
00000010
00000001
00001000
00000000
,
00000010
00010000
00001000
01000000
00001000
00010000
00100000
01000000
10000000
01000000
00010000
00000000
,
00100000
10000000
00100000
00010000
01000000
00001000
00010000
00000100
00001000
00000001
00000100
00000000
,
00001000
00000000
00000000
00000000
00010000
00000000
00000000
00000000
00100000
00000000
00000000
00000000
01000000
00000000
00000000
00000000
00001000
00000000
00000000
00000000
00010000
00000000
00000000
00000000
00000100
00000000
00000000
00000000
00000000
00000000
00000010
00000000
00000000
00000000
00000000
00000000
00000001
00000000
00000000
00001000
00000000
00000000
00000001
00000000
00000000
00000000
00000000
00000000
,
00000100
00001000
00010000
00000000
00100000
00000000
00010000
00001000
00000100
00000000
00000001
00000000
00000010
00001000
00010000
00000000
,
01000000
00000000
00010000
00001000
00000010
00000000
00000100
00000000
00010000
00001000
01000000
00000000
00010000
01000000
00001000
00000000
,
00010000
00000000
00100000
10000000
00010000
00000000
00100000
00000000
01000000
10000000
00010000
00000000
00100000
00000000
00001000
00010000
,
00000100
00000000
00000010
00000000
00000110
00000000
00000000
00001001
00000000
00000000
00000110
00000000
00000001
00000100
00001000
00010000
,
00002000
00000000
00000000
00000000
00103000
00010000
00100000
01000000
10000000
00100000
01000000
00000000
00001000
00010000
00000100
00000000
,
00001000
00000010
00000100
00000000
00001000
00000000
00000100
00000000
00000001
00000000
00001000
00000000
00000100
00010000
00000100
00010000
,
00001000
00010000
00001000
00010000
00001000
01000000
00001000
01000000
00001000
00010000
00001000
00010000
02000000
00000000
00000000
00000000
,
00000000
00000000
13000000
00000000
01000000
00100000
00010000
10000000
00100000
01000000
00010000
00000000
00100000
00001000
00100000
00001000
,
00010000
00000100
00010000
00000100
00001000
00000001
00001000
00000001
00000100
00000010
00000100
00000010
00001000
00000001
00000020
00000000
,
00000000
00000000
00000130
00010000
00002000
00000000
00000000
00000000
00000000
00000000
00000000
00000000
01003000
00010000
00100000
01000000
,
00100000
00001000
00010000
00000100
00001000
00000010
00000100
00000010
00010000
00001000
00100000
00001000
00010000
00000000
00000000
00010100
,
00000000
00000000
01001000
00000000
00000000
00011000
00000000
00000000
00000000
00000000
00000000
00000000
00001000
00000000
00000100
00000000
,
00000001
00000000
00001000
00000100
00000010
00000000
00000100
00000000
00010000
00000000
00001000
01000000
00100000
00000000
10000000
00000000
,
00010000
00000000
00000000
00000000
00000000
00000000
00100000
00000000
00000000
00001000
00000000
00000000
00010000
00000000
00000000
00000000
00000000
00000000
00000000
00000000
00001000
00000000
00000000
00000000
00000000
00000000
00000000
00000000
00000100
00000000
00000000
00000000
00000000
00000000
00000000
00000000
00000001
00000000
00000000
00000000
00000000
00000000
00001000
00000000
00000000
00000000
00000000
00000000
,
00000100
00000000
00010000
00000010
00001000
00000000
00010000
00000000
01000000
00000000
00100000
10000000
00010000
00000000
00100000
00000000
,
00001000
00000000
00010000
00000010
00001000
00000000
00000100
00000000
00000010
00000000
00000001
00000100
00000010
00000000
00001000
00000000
,
00010000
00000000
01000000
00100000
10000000
00010000
10000000
00010000
10000000
01000000
10000000
01000000
00010000
00000000
00001000
00000000
,
01000000
00000000
00001000
01000000
00010000
00100000
00010000
00100000
00001000
00010000
00001000
00010000
00000100
00000000
00000010
00000000
,
00000001
00000000
00000100
00001000
00010000
00000100
00010000
00000100
00001000
00000001
00001000
00000001
00000100
00000000
00010000
00000000
,
01000000
00000000
00100000
10000000
00010000
10000000
00010000
10000000
00010000
10000000
00010000
10000000
01000000
00000000
00010000
00000000
,
00001000
00000010
00000100
00000000
00010000
00000010
00000100
00000010
00001000
00000001
00000010
00000100
00001000
00000000
00000010
00000000
,
00010000
00001000
00100000
00000000
01000000
10000000
00100000
01000000
00100000
10000000
01000000
00100000
00010000
00000000
01000000
00000000
,
00001000
00010000
00000100
00000000
00001000
00000010
00000100
00000010
00000001
00000010
00000100
00000010
00001000
00000000
00000100
00000000
,
00010000
00001000
01000000
00000000
00100000
10000000
00100000
01000000
00100000
00010000
00100000
01000000
00100000
00000000
10000000
00000000
,
00010000
00100000
01000000
00000000
00100000
00001000
00010000
00000100
00010000
00001000
00100000
00001000
00010000
00000000
00100000
00000000
,
01000000
00001000
00010000
00000000
00000100
00001000
00000001
00000100
00000001
00001000
00000100
00000010
00000001
00000000
00000100
00000000
,
00001000
00010000
00100000
00000000
00010000
00001000
00100000
00010000
00100000
01000000
10000000
00010000
01000000
00000000
00100000
00000000
,
10000000
01000000
00010000
00000000
00001000
00000010
00001000
00010000
00000100
00001000
00000010
00000000
00001010
00000000
00001000
00000010
,
00000000
00000000
00011000
00000000
00001000
00010000
00000000
00000000
00110000
00000000
00000000
00000000
11000000
00000000
10000000
00010000
,
00000000
00000000
01010000
00000000
00010000
01000000
00000000
00000000
00011000
00000000
00000000
00000000
00010100
00000000
00010000
00000100
,
00000000
00000000
01001000
00000000
00001000
01000000
00000000
00000000
00011000
00000000
00000000
00000000
01100000
00000000
01000000
00001000
,
00000000
00000000
00000110
00000000
00000100
00010000
00000000
00000000
00000000
00000000
00000000
00000000
00000000
00000000
00000000
00000000
;
