#VERSION:0.83;
#TITLE:EMERALDAS;
#SUBTITLE:;
#ARTIST:BEMANI Sound Team "HuΣeR vs dj Hellix";
#TITLETRANSLIT:;
#SUBTITLETRANSLIT:HuΣeR vs dj Hellix;
#ARTISTTRANSLIT:HuΣeR vs dj Hellix;
#GENRE:IRREGULAR DJENT STEP;
#CREDIT:;
#MUSIC:EMERALDAS.ogg;
#BANNER:EMERALDAS.png;
#BACKGROUND:EMERALDAS-bg.png;
#CDTITLE:./CDTitles/bm IIDX 25 CANNON BALLERS.png;
#SAMPLESTART:37.273;
#SAMPLELENGTH:15.000;
#SELECTABLE:YES;
#OFFSET:0.895;
#BPMS:0.000=176.000
,104.000=88.000
,104.250=176.000
,104.500=352.000
,105.000=176.000
,136.000=88.000
,136.250=176.000
,136.500=352.000
,137.000=176.000
,144.000=88.000
,160.000=176.000
,184.000=88.000
,184.250=176.000
,184.500=352.000
,185.000=176.000
,240.000=88.000
,240.250=176.000
,240.500=352.000
,241.000=176.000
,256.000=88.000
,256.250=176.000
,256.500=352.000
,257.000=176.000
,288.000=88.000
,288.250=176.000
,288.500=352.000
,289.000=176.000
;
#STOPS:;
#TIMESIGNATURES:0.000=4=4;
#DISPLAYBPM:88.000:176.000;
#BGCHANGES:4.000=EMERALDAS.mp4=1.000=0=0=0=StretchNoLoop====,
99999.000=-nosongbg-=1.000=0=0=0=StretchNoLoop====
;
#FGCHANGES:;

//--------------- dance-single - forcednature ----------------
#NOTEDATA:;
#STEPSTYPE:dance-single;
#DESCRIPTION:forcednature;
#CREDIT:forcednature;
#DIFFICULTY:Beginner;
#METER:7;
#RADARVALUES:0,0,0,0,0;
#NOTES:
0000
0000
0000
0000
,
0000
0000
0000
0000
,
0000
0000
0000
0000
,
0000
0000
0000
0000
,
0000
0000
0000
0000
,
0000
0000
0000
0000
,
0000
0000
0000
0000
,
0000
0000
0000
0000
,
0000
0000
0000
0000
,
0000
0000
0000
0000
,
0001
0000
0001
0000
,
0001
0000
0100
0000
,
0001
0000
0001
0000
,
0010
0000
0000
0000
,
1000
1000
1000
0000
,
1000
1000
1000
0000
,
0100
1000
0010
0000
,
0100
0100
0100
0000
,
2002
0000
0000
0000
,
0000
0000
3003
0000
,
1000
1000
0100
0000
,
1000
0000
0010
0000
,
0100
0001
0100
0000
,
0001
0000
0010
0000
,
0001
0001
0100
0000
,
0010
0000
1000
0000
,
0002
0013
0010
0010
,
0001
0100
0001
0000
,
1000
0000
1001
0000
,
0001
0010
0001
0000
,
1000
1000
0010
0000
,
0100
0001
1000
0000
,
0100
0000
1001
0000
,
0001
0010
0100
0000
,
0020
0031
1000
0100
,
1000
1000
1000
0000
,
1001
0000
0001
0100
,
0001
0000
0001
0010
,
0100
0000
1000
0100
,
1000
1000
0010
0000
,
1001
0000
0000
0000
,
0001
0000
0001
0000
,
0010
0000
0100
0000
,
0010
0000
0001
0000
,
1000
0000
0000
0000
,
0010
0000
0010
0000
,
0200
0301
0001
0000
,
0010
0001
0010
0000
,
2002
0000
0000
0000
,
0000
0000
3003
0000
,
1000
0000
0100
0000
,
1000
0000
0010
0000
,
0100
0100
0100
0000
,
0001
0001
0001
0000
,
0010
0001
0010
0000
,
0100
0100
0100
0000
,
2002
0000
0000
0000
,
0000
0000
3003
0000
,
0001
0100
0001
1000
,
1000
1000
0010
0000
,
2000
3100
1000
0100
,
0010
0001
1000
0001
,
0100
0000
0010
0010
,
1000
0001
0010
0000
,
0002
0103
0001
0100
,
0010
0010
0010
1000
,
1001
0000
0001
0010
,
0001
0100
0001
0000
,
1000
0010
1000
0100
,
1000
0000
0010
0000
,
0110
0000
0001
1000
,
0100
0000
1000
0001
,
0020
0031
0001
0001
,
0100
0010
1000
0000
,
2002
0000
0000
0000
,
0000
0000
3003
0000
,
0200
0000
0000
0000
,
0020
0000
0000
0000
,
0330
0000
0000
0000
;

//--------------- dance-single - forcednature ----------------
#NOTEDATA:;
#STEPSTYPE:dance-single;
#DESCRIPTION:forcednature;
#CREDIT:forcednature;
#DIFFICULTY:Easy;
#METER:10;
#RADARVALUES:0,0,0,0,0;
#NOTES:
0000
0000
0000
0000
,
0000
0000
0000
0000
,
0000
0000
0000
0000
,
0000
0000
0000
0000
,
0000
0000
0000
0000
,
0000
0000
0000
0000
,
0000
0000
0000
0000
,
0000
0000
0000
0000
,
0000
0000
0000
0000
,
0000
0000
0000
0000
,
0001
0001
0100
0010
,
1000
1000
0100
0010
,
0001
0001
1000
0010
,
0100
0001
1000
1001
,
0000
0001
0001
0010
,
0010
0100
0100
2000
,
3010
0010
0100
0100
,
0002
1000
1003
0001
,
0020
0000
0000
0000
,
0100
0100
0200
0330
,
1000
0001
0011
0000
,
0001
1000
1100
0000
,
1000
0010
0100
0001
,
0100
0010
1000
0000
,
0100
0010
0011
0000
,
0010
0100
1100
0000
,
0002
0103
0010
1000
,
0001
1000
0001
0000
0010
0000
0110
0000
,
1000
0000
0001
0001
0001
0000
0000
0000
,
0100
0001
0101
0000
,
1000
0010
1000
0100
,
1000
0001
0011
0000
,
0001
0000
1000
1000
1000
0000
0000
0000
,
0100
1000
1010
0000
,
0002
0203
0320
2030
,
3001
0000
0011
0000
0010
0100
0010
0000
,
0100
0000
1000
1000
0000
1000
0010
0000
,
0100
0000
0001
0001
0000
0010
0010
0000
,
0001
0000
0100
0100
0000
0010
1000
0000
,
0001
0000
0000
0010
0000
0000
0100
0000
0000
1000
0000
0000
0010
0000
0000
0000
,
1001
0000
1000
0200
,
1000
1000
1300
0000
,
0001
0010
0001
0200
,
0001
0001
0301
0000
,
1000
0010
1000
0002
,
0010
0010
0013
0000
,
2000
3200
0320
0032
,
0103
0000
0110
0000
0010
0100
0010
0000
,
2000
0000
0000
0000
0000
0000
0000
0000
3001
0000
0000
0000
0000
0000
0000
0002
,
0000
0023
0230
0300
,
1000
0010
0100
0001
,
0100
0000
0010
0000
2000
0000
0000
3000
,
0001
0000
0010
0001
0010
0000
0100
0000
,
1000
0000
0010
1000
0010
0000
0100
0000
,
0001
0001
0001
0000
1000
1000
1000
0000
,
0010
0000
0110
0000
0100
0010
0100
0000
,
0002
0000
0000
0000
,
1000
1000
2000
3003
,
1000
0000
0100
1000
0100
0000
0000
0010
,
0001
0010
0001
0000
0100
0000
0110
0000
,
0002
1003
1100
0001
,
0101
0010
0110
1001
,
0001
0000
0010
0001
0010
0000
0100
0000
,
1000
0000
0000
1000
0000
0000
0010
0000
0100
0000
0000
0000
0001
0000
0000
0000
,
0020
0031
0110
1001
,
1000
0010
1000
0000
0001
0000
0101
0000
,
1000
0000
0100
1000
0000
0100
0010
0000
,
0001
0000
0100
0001
0000
0100
0010
0000
,
1000
0000
0001
0010
0000
0100
1000
0000
,
0010
0000
0100
0010
0100
0000
0001
0000
,
0010
0011
1100
0001
,
1000
0000
1010
0000
0101
0000
0001
0010
,
0200
0310
0110
1001
,
1000
0100
1000
0000
0001
0100
0001
0000
,
0020
0000
0000
0000
,
0000
0000
0030
0000
,
0002
0000
0000
0000
,
2000
0000
0000
0000
,
3003
0000
0000
0000
;

//--------------- dance-single - forcednature ----------------
#NOTEDATA:;
#STEPSTYPE:dance-single;
#DESCRIPTION:forcednature;
#CREDIT:forcednature;
#DIFFICULTY:Medium;
#METER:14;
#RADARVALUES:0,0,0,0,0;
#NOTES:
0000
0000
0000
0000
,
0000
0000
0000
0000
,
0000
0000
0000
0000
,
0000
0000
0000
0000
,
0000
0000
0000
0000
,
0000
0000
0000
0000
,
0000
0000
0000
0000
,
0000
0000
0000
0000
,
0000
0000
0000
0000
,
0000
0000
0000
0000
,
0001
0100
0000
0001
0010
0100
1000
0000
,
1000
0010
0000
1000
0100
0010
0001
0000
,
0100
0010
0000
1000
0100
1000
0001
0000
,
0100
0010
0100
0001
1000
0000
1010
0000
,
0001
0001
0010
0100
1000
1000
0010
0100
,
0001
0001
1000
0100
1000
0001
0011
0000
,
0001
0001
0100
0010
1000
1000
0100
0010
,
0002
0000
0100
0000
1003
0001
0011
0000
,
1000
0100
0001
0100
2000
0000
0010
0000
,
3001
0000
0010
0000
0100
0000
1000
0000
0010
0000
0100
0010
0100
0000
0000
0000
,
0001
1000
0100
1000
1100
0010
0001
0000
,
0101
0000
0000
0101
0000
0000
1000
0000
0010
0000
0000
0100
0001
0000
0020
0000
,
0000
0000
1030
0000
0010
0000
0001
0010
0001
0000
1000
0000
0100
0000
0000
0000
,
0110
0000
0000
0110
0000
0000
0010
0000
0002
0000
0000
0000
1003
0000
1000
0000
,
0010
0100
0001
0010
0011
0000
1000
0100
,
1000
0000
0000
0010
0100
0000
0001
0000
0010
0000
0000
0000
0001
0000
1000
0000
,
0020
0000
0130
0100
0001
0001
0010
0100
,
1000
0010
1000
0000
0001
0010
0001
0000
0100
0000
0010
0000
1001
0000
0000
0000
,
0101
0000
0000
0000
1000
0010
1000
0010
1000
0000
0001
0000
0010
0000
0000
0000
,
0110
0000
0000
0110
0000
0000
1000
0000
0001
0000
0000
0001
0100
0000
0000
0000
,
0010
1000
0100
0001
0100
1000
0010
0001
,
1000
0000
0000
0100
0000
0000
0001
0000
0020
0000
0000
0000
0031
0000
0001
0000
,
0001
0000
0100
0000
0010
1000
0010
1000
0010
0000
0100
0000
0001
0000
0000
0000
,
0011
0000
0000
0011
0000
0000
1000
0000
0100
0000
0000
0010
0001
0000
0100
0000
,
0020
0000
1030
1000
0100
0100
0010
0010
,
0001
0100
0001
0000
1000
0100
1000
0000
0010
0000
0100
0000
1001
0000
0000
0000
,
0001
0000
0010
0000
0001
0100
0001
0100
0000
0000
0010
0000
1000
0001
1000
0000
,
0100
0000
1000
0000
0010
0100
0010
0100
0000
0001
0010
0000
1001
0000
0000
0000
,
1000
0100
1000
0000
0001
0100
0010
0100
0000
0001
1000
0000
0010
0000
0100
0000
,
0001
0001
0000
0010
0010
0000
0100
0100
0000
1000
1000
0000
0020
0000
0130
0000
,
1001
0000
1100
0000
0001
0010
0001
0200
,
1000
0010
0001
0010
,
1300
0100
0001
0000
1000
0010
1000
0200
,
0001
0010
1000
0010
,
0301
0100
1000
0000
0001
0010
0100
2000
,
0010
0001
0100
0001
,
3020
0000
0130
0100
0001
0010
0010
0100
,
0000
1000
1100
0000
0001
0010
0011
0000
,
0020
0000
0000
0000
0000
0000
0000
0000
0000
0000
0000
0000
0000
0000
0000
0000
0130
0000
0000
0000
0000
0000
0000
0100
0000
0000
0000
0000
0000
0000
0002
0000
,
0000
0013
0100
0001
0100
2000
0000
3010
,
0100
0000
0001
0010
0001
0000
1000
0000
0010
0000
0100
0000
0001
0000
0010
0000
,
0100
1000
0010
0100
0001
1000
1001
0000
,
1000
1000
0100
0100
0010
0010
0001
0001
,
0100
0100
0010
0010
1000
0001
1001
0000
,
0001
0000
0100
0001
0100
0000
0010
0000
1000
0000
0100
1000
0100
0000
0010
0000
,
0001
0100
0000
0000
0001
0100
0000
0000
0010
1000
0000
0000
1000
0001
0000
0000
,
0020
0000
0000
0000
,
0100
0000
0000
0000
0100
0000
0000
0000
0031
0000
0010
0100
1000
0000
0000
0000
,
0001
0000
0000
0000
1000
0100
1000
0100
1000
0000
0000
0000
0000
0000
0001
1000
,
0001
1000
0001
1000
0001
1000
0001
1000
0001
0000
0100
0000
0010
0000
1000
0000
,
0200
0000
0000
1300
0000
1000
0010
0000
0010
0100
0000
0100
,
0001
0000
0010
0001
0000
0010
0100
0000
1000
0020
0000
0000
,
0130
0000
0000
0000
0001
0010
0001
0010
0001
0000
0000
0000
1000
0000
0000
0000
,
1010
0000
0000
1010
0000
0000
0100
0000
0001
0000
0000
0010
0100
0000
1000
0000
,
0020
0000
0130
0001
0010
0001
1000
0001
,
0100
0000
0000
0000
0110
0000
0000
0000
1000
0001
1000
0001
0010
0000
0000
0000
,
0100
1000
0010
0100
0001
0010
0011
0000
,
0001
1000
0010
1000
0001
0010
0110
0000
,
1000
0100
0001
0100
1000
0010
1010
0000
,
0001
0000
0010
0000
0001
0000
0100
0000
0010
0000
1000
0000
0100
1000
0100
1000
,
0001
0000
0000
0000
0200
0000
0000
0000
0320
0000
0000
2030
0000
0000
3002
0000
,
0023
0000
0000
0000
0230
0000
0000
0000
0310
0000
0000
0001
1000
0000
0010
0000
,
0200
0000
0301
0010
0001
0100
0010
1000
,
0100
1000
0100
0000
0010
0001
0010
0000
0001
1000
0001
0000
1000
0000
0000
0000
,
2002
0000
0000
0000
,
0000
0000
3003
0000
,
0200
0000
0000
0000
,
0020
0000
0000
0000
,
0330
0000
0000
0000
;

//--------------- dance-single - forcednature ----------------
#NOTEDATA:;
#STEPSTYPE:dance-single;
#DESCRIPTION:forcednature;
#CREDIT:forcednature;
#DIFFICULTY:Hard;
#METER:17;
#RADARVALUES:0,0,0,0,0;
#NOTES:
0000
0000
0000
0000
,
0000
0000
0000
0000
,
0000
0000
0000
0000
,
0000
0000
0000
0000
,
0000
0000
0000
0000
,
0000
0000
0000
0000
,
0000
0000
0000
0000
,
0000
0000
0000
0000
,
0000
0000
0000
0000
,
0000
0000
0000
0000
,
1000
0100
1000
0000
1000
0010
1000
0000
,
0001
0100
0001
0000
0001
0010
0001
0000
,
0100
0010
1000
0000
0100
0010
0001
0000
,
0010
0000
0100
0000
1000
0000
0100
0000
0010
0001
0010
0001
1000
0000
0000
0000
,
0010
0000
0100
0010
0100
0000
0001
0000
0010
0000
0100
0010
0100
0000
1000
0000
,
0001
0000
0100
0001
1000
0000
0010
0000
1000
0000
0100
1000
0001
0000
0000
0000
,
0010
0100
0010
0100
1000
0100
1000
0100
0010
0001
0010
0001
1000
0100
0010
0001
,
2000
0000
3000
0000
2000
0000
3000
0000
1000
0010
0100
0001
1000
0000
0000
0000
,
0200
0000
0010
0000
,
2300
0000
0000
0000
0001
0000
0000
0000
3001
0000
1000
0010
0100
0000
0000
0000
,
0001
0000
0010
0000
0100
0010
0100
0010
0001
0000
1000
0000
0020
0000
0000
0000
,
0130
0000
0000
0110
0000
0000
0001
0000
1001
0000
0000
1000
0100
0000
0000
0000
,
0010
0000
1000
0010
0001
0000
0100
0000
0101
0000
0000
0000
2000
0000
0000
0000
,
3010
0000
0100
0001
0010
0000
0100
1000
0010
0000
1000
0100
0010
0100
0010
0001
,
1000
0000
0000
0010
0100
0000
0010
0100
0001
0000
0010
0000
0100
0000
0000
0000
,
0001
0000
0000
0001
0100
0000
1000
0000
0001
0000
0010
0001
0100
0000
0020
0000
,
0000
0000
0030
0000
1001
0000
1000
0100
0010
0000
0100
0010
0001
0000
1000
0010
,
0100
0001
0100
0000
0010
1000
0010
0000
1000
0100
0010
0001
1000
0000
0000
0000
,
0010
0000
0100
0000
0001
1000
0010
0100
0001
0000
0010
0100
2000
0000
0000
0000
,
3001
0000
0000
0011
0000
0000
1000
0000
1100
0000
0000
0001
0100
0000
1000
0000
,
0100
0000
0001
1000
0020
0000
0230
0000
0302
0000
0023
0000
0230
0000
2300
0000
,
3010
0000
0000
0100
0001
0000
0010
0001
0100
0000
0010
1000
0100
0010
0100
0010
,
0001
0000
1000
0000
0010
0100
0001
0100
0010
0000
1000
0000
1100
0000
0000
0000
,
0001
0000
0000
0001
0010
0000
0100
0000
1000
0000
0010
0100
0001
0000
0020
0000
,
0000
0000
0030
0000
1001
0000
1000
0100
0010
0000
0001
0100
0010
0000
1000
0000
,
0001
0010
0001
0010
0100
0010
0100
0010
0001
1000
0100
1000
0001
0000
0000
0000
,
0110
0000
1000
0000
0001
0100
0010
2000
0000
0000
3100
0000
1000
0010
0100
0001
,
0010
0000
0100
0000
0010
0001
1000
0020
0000
0100
0130
0000
0001
0010
0100
0000
,
1000
0000
0010
0000
1000
0100
0001
0200
0000
1300
0010
1000
0001
0010
0001
0000
,
0100
0200
0000
0310
0020
0000
1030
2000
0000
3001
0002
0000
0013
0100
0110
0000
,
1001
0000
1100
0000
0010
0001
1000
0020
,
0100
0001
0100
1030
,
0110
0000
1001
0000
0001
0010
0100
2000
,
0010
0000
0000
0000
0001
0000
0000
0000
3100
0000
0000
0010
0001
0000
0100
0000
,
0110
0000
1001
0000
1000
0001
0010
0200
,
0001
0000
0000
0000
0010
0000
0000
0000
1300
0000
0000
0100
0010
0000
0002
0000
,
0000
0000
0003
0000
0100
0000
0010
0100
0001
0000
0010
0100
1000
0000
0010
0000
,
1010
0000
0000
0000
1100
0000
0000
0000
0001
0010
0100
1000
0001
0000
0000
0000
,
0200
0000
0000
0000
0000
0000
0000
0000
0000
0000
0000
0000
0000
0000
0000
0000
0000
0000
0000
0000
0000
0000
0000
0000
0000
0000
0000
0000
0000
0000
0000
0000
0320
0000
0000
0000
0000
0000
0000
0030
0000
0000
0000
0000
0000
0000
0020
0000
0000
0000
0000
0000
0000
0000
0030
0000
0000
0000
0000
0000
2000
0000
0000
0000
,
0000
0000
3100
1000
0100
0000
0010
0000
0001
0000
0200
0000
0000
0000
0310
0000
,
1000
0000
0001
0010
0100
0000
0010
0000
0001
0000
1000
0010
0100
0000
0002
0000
,
0000
0000
0013
0001
1000
0000
0100
0000
1000
0000
0010
0000
0110
0000
0000
0000
,
0100
0001
0100
0000
0001
0010
0001
0000
1000
0010
1000
0000
0100
1000
0100
0000
,
0010
0001
0100
0000
0010
1000
0100
0000
0010
0001
1000
0100
0010
0000
0000
0000
,
0001
0100
0010
0100
0001
1000
0010
1000
0001
0010
0100
1000
0100
0010
0001
0000
,
1000
0010
1000
0000
0001
0100
0001
0000
1000
0100
1000
0001
0010
0001
0000
0000
,
0200
0000
0000
0000
,
0010
0000
0000
0000
0010
0000
0000
0000
0301
0000
1000
0001
1000
0000
0000
0000
,
0100
0000
1000
0000
0001
0010
0100
0010
0002
0000
0000
0000
0003
0000
1000
0010
,
0100
0010
1000
0010
0100
0010
1000
0010
0100
0000
0001
0000
0100
0000
0102
0000
,
0000
0000
0000
0003
0000
0000
1000
0000
0100
0000
1000
0000
0100
0000
0010
0000
0100
0000
0010
0000
0001
0000
0010
0000
,
0001
0100
0001
1000
0010
1000
0001
0010
0100
1000
0000
0000
,
0001
0000
0100
0000
0010
1000
0001
1000
0010
0000
0100
0000
0001
0000
0000
0000
,
0011
0000
0000
0011
0000
0000
1000
0000
1100
0000
0000
0001
0100
0000
2000
0000
,
0000
0000
3000
0000
0110
0000
0001
1000
0010
0000
1000
0001
0010
0000
0100
1000
,
0001
0100
0001
0000
1000
0100
1000
0000
0010
0100
0001
1000
0010
0000
0000
0000
,
0100
0000
0001
0000
0010
0000
0100
0010
0001
0000
1000
0000
1010
0000
0000
0000
,
0001
0000
0100
0000
0010
0000
0100
0010
1000
0000
0100
0000
0001
0000
0001
0000
,
0100
0000
1000
0000
0001
0000
0010
0001
0100
0000
0000
0000
0110
0000
0000
0000
,
0010
0000
1000
0100
0010
0000
0100
1000
0001
0010
0001
0010
0001
1000
0010
0100
,
0001
0000
0010
0001
0100
0000
0010
0100
0001
0000
0000
0011
0000
0000
1000
0000
,
1100
0000
0000
0010
0100
0000
0001
0010
0001
0010
0100
1000
0001
0000
0200
0000
,
0000
0000
0300
0000
1001
0000
1000
0100
0010
0000
0001
0100
0010
0000
0100
0001
,
0010
0100
1000
0000
0010
0100
0001
0000
1000
0100
1000
0001
0010
0000
0000
0000
,
1001
0000
0002
0203
0302
2003
3020
2030
,
3002
0023
0230
2300
3200
0320
0032
2003
,
3020
0100
2030
0100
3002
0100
0023
0100
,
0032
0100
0203
0010
0320
1000
2030
3002
,
0003
0000
0000
0000
;

//--------------- dance-single - forcednature ----------------
#NOTEDATA:;
#STEPSTYPE:dance-single;
#DESCRIPTION:forcednature;
#CREDIT:forcednature;
#DIFFICULTY:Challenge;
#METER:18;
#RADARVALUES:0,0,0,0,0;
#NOTES:
0000
0000
0000
0000
,
0000
0000
0000
0000
,
0000
0000
0000
0000
,
0000
0000
0000
0000
,
0000
0000
0000
0000
,
0000
0000
0000
0000
,
0000
0000
0000
0000
,
0000
0000
0000
0000
,
0000
0000
0000
0000
,
0000
0000
0000
0000
,
0002
0100
0100
0000
1000
0000
1000
0000
,
0010
0000
0010
0000
1003
0001
1001
0000
,
2000
0100
0100
0000
0001
0000
0001
0000
,
0010
0000
0000
0000
0010
0000
0000
0000
3001
1000
0100
0010
0001
0000
0000
0000
,
1000
0010
1000
0010
0100
0000
0100
0001
0010
0001
0010
0001
1000
0000
0010
0100
,
0001
0010
0001
0010
0100
0000
0100
1000
0010
1000
0010
1000
0001
0000
0000
0000
,
1000
0010
0100
0010
1000
0010
0100
0010
1000
0001
0100
0001
1000
0001
0100
0001
,
0010
0100
1000
0000
0010
0100
0001
0000
0010
1000
0010
0001
0010
0000
0000
0000
,
0200
0000
1000
1000
2300
0000
0010
0000
,
3001
0000
0001
0010
0100
0000
0010
0000
0100
1000
0010
0100
0001
0000
0000
0000
,
0011
0000
1000
0000
0010
0100
0010
0100
0001
0000
0010
0001
2000
0000
0000
0000
,
3100
0000
0000
1100
0000
0000
0001
0000
0011
0000
0000
1000
0010
0100
0002
0000
,
0003
0000
1000
0010
0001
0000
0001
0000
1010
0000
0000
0001
0100
0000
0010
0000
,
1000
0100
0010
0100
0000
0010
0001
1000
0020
0000
0100
0000
1030
0001
1000
0001
,
0010
0000
0100
0000
0010
0001
0010
0001
1000
0000
0010
0100
0001
0000
0000
0000
,
0010
0000
0000
0011
0000
0000
1000
0000
1100
0000
0000
0001
0100
0010
1000
0000
,
0002
0000
0000
0000
1003
0100
0010
0001
1000
0010
0100
0001
1000
0100
0010
0001
,
1000
0010
0100
0010
1000
0001
0100
0001
1000
0100
0001
0100
0010
0000
0000
0000
,
1100
0000
0001
0000
0010
0100
0010
0001
0010
0000
0100
1000
0001
0000
0000
0000
,
0100
0000
0010
1000
0000
0010
0100
0000
1000
0000
0100
0001
1000
0000
0010
0000
,
2000
0100
3002
0010
2003
0010
3002
0100
,
1003
0000
0000
1100
0000
0000
0001
0000
0011
0000
0000
1000
0010
0100
0001
1000
,
0010
0000
0100
0000
0001
0010
0100
0010
0001
0000
1000
0010
0200
0000
0001
0000
,
0310
0000
0000
1010
0000
0000
0001
0000
0101
0000
0000
0001
0010
0100
1000
0100
,
0020
0000
0000
0000
0031
0100
0010
1000
0001
0010
0100
1000
0001
0100
0010
1000
,
0001
0010
0100
0010
0001
1000
0100
1000
0001
0100
1000
0100
0010
0000
0000
0000
,
1001
0000
0000
0000
0110
0000
0000
0000
1000
0000
0010
0000
0100
0000
0002
0000
0000
0000
0103
0000
1000
0000
0100
0000
0001
0000
0010
0001
0010
0000
0000
0000
,
0110
0000
0000
0000
1001
0000
0000
0000
0001
0000
0010
0000
0100
0000
2000
0000
0000
0000
3010
0000
0100
0000
0001
0000
0010
0000
0100
0010
0100
0000
0000
0000
,
1100
0000
0001
0000
0001
0000
0000
0000
0010
0000
0001
0000
1000
0000
0020
0000
0000
0000
0130
0000
1000
0000
0100
0000
0001
0000
1000
0010
1000
0000
0000
0000
,
0002
0000
0010
0000
0013
0000
0001
0000
2000
0000
0010
0000
3010
0000
1000
0000
0000
0000
0011
0000
0011
0000
0000
0000
1100
0000
1000
0001
0010
0000
0000
0000
,
0100
0000
1000
0010
2000
0000
0000
0000
3001
0000
0100
0000
1000
0000
0200
0000
,
0000
0000
0010
0000
0010
0000
1000
0000
1000
0000
0310
0100
0001
0000
0000
0000
,
0011
0000
0001
0100
0001
0000
0000
0000
1000
0000
0100
0000
0001
0000
0200
0000
,
0000
0000
0010
0000
0010
0000
0001
0000
0001
0000
0310
0100
1000
0000
0010
0000
,
1001
0000
1000
0100
2000
0000
0000
0000
3001
0000
0010
0000
1000
0000
0020
0000
,
0000
0000
0100
0000
0100
0000
1000
0000
1000
0000
0130
0010
0001
0000
0000
0000
,
0200
0000
0000
0000
0310
1000
0001
1000
0010
0100
0001
0100
0010
0000
0110
0000
,
0000
0000
0100
0000
1001
0000
0010
0000
1000
0100
0010
0001
0100
0000
0000
0000
,
0220
0000
0000
0000
0000
0000
0000
0000
0000
0000
0000
0000
0000
0000
0000
0000
0300
0000
0000
0000
0000
0000
0000
0000
0000
0000
0000
0000
0000
0000
0000
0000
2030
0000
0000
0000
0000
0000
0000
3000
0000
0000
0000
0000
0000
0000
2000
0000
0000
0000
0000
0000
0000
0000
3000
0000
0000
0000
0000
0000
0002
0000
0000
0000
,
0000
0000
0013
0001
0100
0000
0010
1000
0100
0000
0020
0000
0001
0000
0130
0000
,
1000
0000
0001
0010
0100
0000
0010
0000
0100
0000
1000
0010
0100
0000
0001
0000
,
0010
0001
0010
0001
0010
0000
0100
1000
0001
0000
0100
0000
1001
0000
0000
0000
,
1000
0010
1000
0010
0100
0010
1000
0001
0010
0001
0010
0100
0010
0001
1000
0001
,
0100
0010
0100
0010
1000
0001
0010
0100
1000
0010
0100
0001
0010
0000
0000
0000
,
0001
0100
0010
0100
0001
1000
0010
1000
0001
0010
0100
1000
0100
0010
0001
1000
,
0010
0100
0001
0000
0010
0100
1000
0000
0010
0100
1000
0100
0001
0100
0000
0000
,
2001
0000
0000
0000
0100
0000
0100
0000
0100
0000
0000
0001
0000
0000
3020
0000
,
0130
0000
0001
0010
0100
0000
1000
0010
0100
0000
0010
0100
1001
0000
0000
0000
,
1000
0000
0100
0000
0010
1000
0010
0001
0010
0000
0100
0000
1001
0000
0001
0100
,
1000
0100
0001
0100
1000
0100
0001
0100
1000
0000
0100
0001
1000
0000
0010
0000
,
0200
0000
0000
0301
0010
1000
0001
0100
1000
0010
0001
1000
,
0100
0000
0000
0000
0001
0000
0000
0000
0010
0000
0000
0000
1000
0000
0000
0000
0001
0000
0000
0000
0100
0000
0000
0000
1000
0000
0000
0000
0010
0000
0000
0000
0100
0000
0000
0000
0001
0000
0000
0010
0000
0000
0100
0000
0000
1000
0000
0000
,
0001
0000
0100
0000
0010
1000
0010
0001
0010
0000
1000
0000
2100
0000
0000
0000
,
3001
0000
0010
1000
0000
0010
0001
0000
1000
0010
0100
1000
0100
0000
0001
0000
,
0200
0000
0000
0300
2010
0000
3100
0000
0012
0000
0103
0000
2001
0000
3100
0000
,
0001
0010
0100
0010
0001
1000
0100
1000
0001
0100
1000
0100
0010
0000
0000
0000
,
2100
0000
3100
0010
0001
0000
0102
0000
0103
0010
1000
0000
1002
0000
0013
0000
,
0120
0000
0130
1000
0010
0000
0120
0000
0130
0001
0010
0000
0100
1000
0100
0001
,
0200
0000
1300
0010
0200
0000
0301
0010
0100
0010
0001
0000
1000
0010
0100
0001
,
2000
0000
3100
0010
0002
0000
0103
0010
1000
0001
0100
0001
1000
0010
0001
0010
,
0100
0000
0001
1000
0020
0000
1030
0100
0002
0000
0103
2000
0000
3001
0010
0000
,
0110
0000
0100
1000
0020
0000
0130
0001
0010
0000
0001
0100
0010
0100
1000
0000
,
0200
0000
0000
0000
0301
1000
0010
1000
0001
0000
0100
0010
1000
0000
0100
0000
,
1000
0010
0001
0010
1000
0100
0001
0100
1000
0010
0001
1000
0100
0000
0000
0000
,
1002
2003
3020
0230
0302
0023
0230
2300
,
3020
0230
0302
0023
0230
2300
3020
0230
,
0302
0010
2003
0010
3002
0100
2003
0010
,
3200
1000
0010
0001
0010
1000
0010
0301
;

//--------------- dance-double - forcednature ----------------
#NOTEDATA:;
#STEPSTYPE:dance-double;
#DESCRIPTION:forcednature;
#CREDIT:forcednature;
#DIFFICULTY:Easy;
#METER:10;
#RADARVALUES:0,0,0,0,0;
#NOTES:
00000000
00000000
00000000
00000000
,
00000000
00000000
00000000
00000000
,
00000000
00000000
00000000
00000000
,
00000000
00000000
00000000
00000000
,
00000000
00000000
00000000
00000000
,
00000000
00000000
00000000
00000000
,
00000000
00000000
00000000
00000000
,
00000000
00000000
00000000
00000000
,
00000000
00000000
00000000
00000000
,
00000000
00000000
00000000
00000000
,
00010000
00010000
00001000
00100000
,
00001000
00001000
00010000
00000010
,
00010000
00010000
00001000
01000000
,
00010000
10000000
00010000
10010000
,
00000000
10000000
10000000
01000000
,
01000000
00100000
00100000
10010000
,
00000000
00001000
00001000
00010000
,
00020000
00000010
00030010
00000000
,
00002000
00000000
00000000
00000000
,
00000001
00000001
00000002
00003003
,
00001000
00000100
00001100
00000000
,
00010000
00001000
00011000
00000000
,
00100000
00010000
01000000
00100000
,
10000000
01000000
00100000
00000000
,
00001000
00010000
00011000
00000000
,
00000010
00001000
00001010
00000000
,
00000002
00000103
00000001
00000100
,
00001000
00010000
00001000
00000000
00010000
00000000
00011000
00000000
,
00100000
00000000
00010000
00010000
00010000
00000000
00000000
00000000
,
10000000
01000000
11000000
00000000
,
00010000
00100000
00001000
00010000
,
00000010
00001000
00001010
00000000
,
00000001
00000000
00000100
00000100
00000100
00000000
00000000
00000000
,
00000001
00000010
00000011
00000000
,
00002000
00003200
00020300
00032000
,
00103000
00000000
00110000
00000000
00010000
01000000
00010000
00000000
,
10000000
00000000
00100000
00100000
00000000
01000000
00010000
00000000
,
00100000
00000000
00001000
00001000
00000000
00010000
00000100
00000000
,
00001000
00000000
00000010
00000010
00000000
00000100
00000001
00000000
,
00000010
00000000
00000000
00000100
00000000
00000000
00001000
00000000
00000000
00000010
00000000
00000000
00010000
00000000
00000000
00000000
,
00011000
00000000
00100000
00020000
,
10000000
10000000
10030000
00000000
,
00010000
00100000
00001000
00020000
,
00000100
00000100
00030100
00000000
,
00000010
00001000
00000001
00000200
,
00000010
00000010
00000310
00000000
,
00000002
00002003
00003200
00020300
,
00031000
00000000
00011000
00000000
00010000
00001000
00010000
00000000
,
00200000
00000000
00000000
00000000
00000000
00000000
00000000
00000000
10300000
00000000
00000000
00000000
00000000
00000000
00000000
20000000
,
00000000
32000000
03200000
00300000
,
00010000
00100000
00001000
00010000
,
00000100
00001000
00000002
00000003
,
00000100
00000000
00000001
00000100
00000001
00000000
00000010
00000000
,
00000100
00000000
00001000
00000100
00001000
00000000
00000010
00000000
,
00010000
00010000
00010000
00000000
00001000
00001000
00001000
00000000
,
00100000
00000000
00100000
00000000
00010000
10000000
00010000
00000000
,
02000000
00000000
00000000
00000000
,
00100000
00100000
00200000
03300000
,
10000000
00000000
00010000
10000000
00010000
00000000
00000000
00100000
,
00010000
00100000
00010000
00000000
00001000
00000000
00001100
00000000
,
00000002
00000013
00000011
00001000
,
00001100
00000000
00010000
00000000
00011000
00000000
00001000
00010000
,
00001000
00000000
00100000
00010000
00100000
00000000
00010000
00000000
,
01000000
00000000
00000000
01000000
00000000
00000000
00010000
00000000
10000000
00000000
00000000
00000000
00100000
00000000
00000000
00000000
,
20000000
31000000
01100000
10010000
,
00010000
00100000
00010000
00000000
00100000
00000000
00011000
00000000
,
00000100
00000000
00001000
00000010
00000000
00001000
00000010
00000000
,
00000100
00000000
00000001
00000010
00000000
00000100
00000010
00000000
,
00000100
00000000
00001000
00000100
00000000
00010000
00001000
00000000
,
00100000
00000000
00010000
01000000
00010000
00000000
10000000
00000000
,
00100000
01100000
00010000
00100000
,
00001000
00000000
00011000
00000000
00000100
00000000
00001000
00000001
,
00002000
00003010
00000110
00001001
,
00001000
00000100
00001000
00000000
00000100
00010000
00001000
00000000
,
00200000
00000000
00000000
00000000
,
00000000
00000000
00300000
00000000
,
00020000
00000000
00000000
00000000
,
20000000
00000000
00000000
00000000
,
30030000
00000000
00000000
00000000
;

//--------------- dance-double - forcednature ----------------
#NOTEDATA:;
#STEPSTYPE:dance-double;
#DESCRIPTION:forcednature;
#CREDIT:forcednature;
#DIFFICULTY:Medium;
#METER:14;
#RADARVALUES:0,0,0,0,0;
#NOTES:
00000000
00000000
00000000
00000000
,
00000000
00000000
00000000
00000000
,
00000000
00000000
00000000
00000000
,
00000000
00000000
00000000
00000000
,
00000000
00000000
00000000
00000000
,
00000000
00000000
00000000
00000000
,
00000000
00000000
00000000
00000000
,
00000000
00000000
00000000
00000000
,
00000000
00000000
00000000
00000000
,
00000000
00000000
00000000
00000000
,
00001000
00010000
00000000
00000100
00001000
00000100
00000010
00000000
,
00000001
00000100
00000000
00000001
00001000
00000010
00001000
00000000
,
00010000
01000000
00000000
00010000
10000000
00100000
10000000
00000000
,
01000000
00010000
00001000
00000000
00011000
00000000
00010100
00000000
,
00000100
00000100
00001000
00000010
00000100
00000100
00000001
00000010
,
00000100
00000100
00010000
00001000
00100000
00000000
00011000
00000000
,
01000000
01000000
00010000
10000000
00100000
00100000
10000000
00010000
,
00200000
00000000
01000000
00000000
00301000
00010000
00011000
00000000
,
00000010
00001000
00000100
00000001
00000200
00000000
00001000
00000000
,
00010300
00000000
00001000
00000000
00100000
00000000
00000000
00000000
00010000
00000000
10000000
00100000
10000000
00000000
00000000
00000000
,
01000000
00010000
00001000
00010000
00011000
00000100
00001000
00000000
,
00000010
00000000
00000000
00001010
00000000
00000000
00000001
00000000
00000100
00000000
00000000
00001000
00010000
00000000
00002000
00000000
,
00000000
00103000
00010000
00010000
01010000
10000000
00100000
00000000
,
01000000
00000000
00000000
01100000
00000000
00000000
10000000
00000000
00020000
00000000
00000000
00000000
00130000
00000000
00100000
00000000
,
00001000
00010000
00000100
00001000
00001100
00000001
00000010
00000000
,
00000001
00000000
00000000
00000100
00000010
00000000
00001000
00000000
00000100
00000000
00000000
00000000
00010000
00000000
00001000
00000000
,
00200000
00000000
00310000
01000000
10000000
01000000
00010000
10000000
,
00100000
00010000
00001000
00010000
00000100
00000000
00000110
00000000
,
00001001
00000000
00000000
00000000
00001000
00000100
00001000
00000100
00001000
00000000
00000010
00000000
00010000
00000000
00000000
00000000
,
00100000
00000000
00000000
01100000
00000000
00000000
10000000
00000000
00010000
00000000
00000000
00010000
00100000
00000000
00000000
00000000
,
00001000
00010000
01000000
00010000
00001000
00000100
00001000
00000000
,
00010000
00000000
00000000
00100000
00000000
00000000
10000000
00000000
02000000
00000000
00000000
00000000
13000000
00000000
10000000
00000000
,
10000000
00000000
00010000
00000000
00100000
00010000
00100000
00010000
00100000
00000000
00001000
00000000
00010000
00000000
00000000
00000000
,
00000010
00000000
00000000
00001010
00000000
00000000
00000001
00000000
00000100
00000000
00000000
00000010
00001000
00000000
00000100
00000000
,
00000002
00000000
00000103
00001000
00000100
00010000
00001000
00100000
,
00010000
01000000
00010000
00000000
10000000
01000000
10000000
00000000
00100000
00000000
00000000
00000000
10010000
00000000
00000000
00000000
,
10000000
00000000
01000000
00000000
00010000
00001000
00010000
00001000
00000000
00000000
00000010
00000000
00000001
00000000
00001000
00000000
,
00000010
00000000
00000100
00000000
00001000
00010000
00001000
00010000
00000000
00000000
00100000
00000000
10010000
00000000
00000000
00000000
,
10000000
01000000
10000000
00000000
00010000
00100000
01000000
00100000
00000000
00010000
00100000
00000000
00001000
00000000
00010000
00000000
,
00000010
00000010
00000000
00001000
00001000
00000000
00000001
00000001
00000000
00000100
00000100
00000000
00000020
00000000
00000130
00000000
,
00001001
00000000
00001100
00000000
00000001
00000010
00001000
00000010
,
00000100
00001100
00010000
00011000
,
00100000
00010000
01000000
00000000
00100000
10000000
01000000
00010000
,
00001000
00110000
00001000
01010000
,
00001000
00010000
00000010
00000000
00010000
00001000
00000010
00000001
,
00000100
00001001
00000010
00000110
,
00002000
00000000
00003001
00000001
00000100
00001000
00001000
00010000
,
00000000
00100000
01000000
00000000
00010000
10000000
10010000
00000000
,
00020000
00000000
00000000
00000000
00000000
00000000
00000000
00000000
00000000
00000000
00000000
00000000
00000000
00000000
00000000
00000000
00130000
00000000
00000000
00000000
00000000
00000000
00000000
00100000
00000000
00000000
00000000
00000000
00000000
00000000
00002000
00000000
,
00000000
00013000
00000100
00001000
00000100
00020000
00000000
00031000
,
00000010
00000000
00000001
00000010
00000001
00000000
00001000
00000000
00000100
00000000
00010000
00000000
00001000
00000000
00100000
00000000
,
00010000
01000000
10000000
01000000
00010000
10000000
10100000
00000000
,
00010000
00010000
00100000
00100000
00001000
00001000
00000010
00000010
,
00000001
00000001
00000100
00000100
00001000
00010000
00011000
00000000
,
00100000
00000000
00010000
00100000
00010000
00000000
01000000
00000000
00100000
00000000
10000000
00100000
10000000
00000000
01000000
00000000
,
00010000
00001000
00000000
00000000
00010000
00001000
00000000
00000000
00000010
00000100
00000000
00000000
00001000
00000001
00000000
00000000
,
00000200
00000000
00000000
00000000
,
00001000
00000000
00000000
00000000
00001000
00000000
00000000
00000000
00000301
00000000
00000100
00000010
00001000
00000000
00000000
00000000
,
00010000
00000000
00000000
00000000
01000000
00010000
01000000
00010000
01000000
00000000
00000000
00000000
00000000
00000000
00001000
00010000
,
00001000
00010000
00001000
00010000
00001000
00010000
00001000
00010000
00001000
00000000
00100000
00000000
00010000
00000000
10000000
00000000
,
02000000
00000000
00000000
03010000
00000000
00010000
00001000
00000000
00001000
00000010
00000000
00000010
,
00000001
00000000
00000100
00000001
00000000
00000100
00001000
00000000
00010000
00002000
00000000
00000000
,
00013000
00000000
00000000
00000000
00000010
00001000
00000010
00001000
00000010
00000000
00000000
00000000
00000100
00000000
00000000
00000000
,
00000001
00000000
00000000
00000011
00000000
00000000
00001000
00000000
00000100
00000000
00000000
00010000
00001000
00000000
00100000
00000000
,
00020000
00000000
01030000
00100000
10000000
01000000
00010000
00001000
,
00000010
00000000
00000000
00000000
00000110
00000000
00000000
00000000
00001000
00000001
00001000
00000001
00000100
00000000
00000000
00000000
,
00001000
00010000
00100000
00010000
00001000
01000000
01010000
00000000
,
00010000
10000000
01000000
00010000
00001000
00100000
00110000
00000000
,
00001000
00000010
00000100
00010000
00001000
00000010
00000110
00000000
,
00000100
00000000
00010000
00000000
00000010
00000000
00001000
00000000
00000001
00000000
00000100
00000000
00001000
00010000
00001000
00010000
,
00001000
00000000
00000000
00000000
02000000
00000000
00000000
00000000
03020000
00000000
00000000
20000000
00030000
00000000
30020000
00000000
,
00230000
00000000
00000000
00000000
02300000
00000000
00000000
00000000
03010000
00000000
00000000
00001000
00000010
00000000
00000100
00000000
,
00002000
00000000
00003001
00000100
00001000
00010000
01000000
10000000
,
00010000
00100000
00010000
00000000
00100000
00001000
00010000
00000000
00001000
00010000
00001000
00000000
00010000
00000000
00000000
00000000
,
00022000
00000000
00000000
00000000
,
00000000
00000000
00033000
00000000
,
00000020
00000000
00000000
00000000
,
00000200
00000000
00000000
00000000
,
00000330
00000000
00000000
00000000
;

//--------------- dance-double - forcednature ----------------
#NOTEDATA:;
#STEPSTYPE:dance-double;
#DESCRIPTION:forcednature;
#CREDIT:forcednature;
#DIFFICULTY:Hard;
#METER:17;
#RADARVALUES:0,0,0,0,0;
#NOTES:
00000000
00000000
00000000
00000000
,
00000000
00000000
00000000
00000000
,
00000000
00000000
00000000
00000000
,
00000000
00000000
00000000
00000000
,
00000000
00000000
00000000
00000000
,
00000000
00000000
00000000
00000000
,
00000000
00000000
00000000
00000000
,
00000000
00000000
00000000
00000000
,
00000000
00000000
00000000
00000000
,
00000000
00000000
00000000
00000000
,
00010000
00001000
00100000
00000000
00100000
00001000
00010000
00000000
,
00000010
00010000
00001000
00000000
00001000
00010000
00000100
00000000
,
00001000
00000001
00000010
00000000
00000010
00000001
00000100
00000000
,
00001000
00000000
00010000
00000000
00001000
00000000
00010000
00000000
00100000
00000000
01000000
00010000
10000000
00000000
00000000
00000000
,
01000000
00000000
10000000
01000000
10000000
00000000
00010000
00000000
00100000
00000000
00010000
00100000
00001000
00000000
00010000
00000000
,
00000010
00000000
00001000
00000010
00001000
00000000
00000001
00000000
00000100
00000000
00000010
00001000
00000001
00000000
00000000
00000000
,
00000010
00000100
00000010
00000100
00001000
00000100
00001000
00000100
00010000
00001000
00010000
00001000
00100000
00010000
00100000
01000000
,
20000000
00000000
30000000
00000000
20000000
00000000
30000000
00000000
00100000
01000000
00010000
10000000
00100000
00000000
00000000
00000000
,
02000000
00000000
00010000
00000000
,
03002000
00000000
00000000
00000000
00010000
00000000
00000000
00000000
00013000
00000000
00001000
00010000
00000010
00000000
00000000
00000000
,
00001000
00000000
00000100
00000000
00001000
00000001
00001000
00000001
00000010
00000000
00000100
00000000
00020000
00000000
00000000
00000000
,
00031000
00000000
00000000
00011000
00000000
00000000
00100000
00000000
00110000
00000000
00000000
10000000
01000000
00000000
00000000
00000000
,
00010000
00000000
00001000
00010000
00001000
00000000
00000010
00000000
00000110
00000000
00000000
00000000
00002000
00000000
00000000
00000000
,
00003001
00000000
00000100
00000001
00000100
00000000
00000010
00000100
00000010
00000000
00001000
00000010
00010000
00001000
00010000
00001000
,
00100000
00000000
00000000
00010000
01000000
00000000
01000000
00100000
10000000
00000000
01000000
00000000
00020000
00000000
00000000
00000000
,
00031000
00000000
00000000
00001000
00000010
00000000
00000001
00000000
00001000
00000000
00000010
00000100
00000001
00000000
00000020
00000000
,
00000000
00000000
00000030
00000000
00001001
00000000
00001000
00000100
00010000
00000000
00001000
00100000
00010000
00000000
01000000
00100000
,
10000000
01000000
10000000
00000000
00010000
01000000
00010000
00000000
00100000
00001000
00010000
00000100
00001000
00000000
00000000
00000000
,
00000001
00000000
00000100
00000000
00000001
00001000
00000010
00001000
00000001
00000000
00000010
00000000
00002000
00000000
00000000
00000000
,
00013000
00000000
00000000
00011000
00000000
00000000
00100000
00000000
00110000
00000000
00000000
01000000
10000000
00000000
01000000
00000000
,
00010000
00000000
00001000
00100000
00020000
00000000
00230000
00000000
00302000
00000000
00003020
00000000
00000230
00000000
00002300
00000000
,
00003001
00000000
00000000
00000100
00000001
00000000
00000100
00000010
00001000
00000000
00000100
00000000
00010000
00001000
00010000
00001000
,
00100000
00000000
00010000
00000000
10000000
00100000
01000000
00100000
10000000
00000000
00010000
00000000
01010000
00000000
00000000
00000000
,
00001000
00000000
00000000
00001000
00010000
00000000
00000010
00000000
00001000
00000000
00000001
00000010
00000100
00000000
00000020
00000000
,
00000000
00000000
00000030
00000000
00001001
00000000
00001000
00000100
00010000
00000000
00001000
00100000
00010000
00000000
01000000
00000000
,
00100000
10000000
00100000
10000000
00010000
01000000
00010000
01000000
00001000
00010000
00000010
00010000
00001000
00000000
00000000
00000000
,
00011000
00000000
00000100
00000000
00001000
00000001
00000010
00002000
00000000
00000000
00013000
00000000
00001000
00100000
00010000
01000000
,
00100000
00000000
10000000
00000000
01000000
00010000
00001000
00020000
00000000
00000010
00030010
00000000
00010000
00001000
00000100
00000000
,
00000001
00000000
00001000
00000000
00000010
00000100
00001000
00020000
00000000
00130000
01000000
00100000
10000000
00010000
01000000
00000000
,
00001000
00002000
00000000
00013000
00020000
00000000
00030010
00000020
00000000
00001030
00002000
00000000
00003100
00000010
00000110
00000000
,
00001001
00000000
00001100
00000000
00010000
00001000
00010000
00200000
,
01000000
10000000
01000000
00310000
,
01100000
00000000
10010000
00000000
10000000
01000000
00010000
00002000
,
00100000
00000000
00000000
00000000
00010000
00000000
00000000
00000000
01003000
00000000
00000000
00001000
00010000
00000000
00000010
00000000
,
00001010
00000000
00000101
00000000
00000001
00000010
00001000
00020000
,
00000010
00000000
00000000
00000000
00001000
00000000
00000000
00000000
00030100
00000000
00000000
00010000
00001000
00000000
00200000
00000000
,
00000000
00000000
00300000
00000000
01000000
00000000
10000000
00100000
01000000
00000000
00010000
00100000
01000000
00000000
00010000
00000000
,
00001000
00000000
00000000
00000000
00011000
00000000
00000000
00000000
00000010
00001000
00000001
00000100
00000010
00000000
00000000
00000000
,
00002000
00000000
00000000
00000000
00000000
00000000
00000000
00000000
00000000
00000000
00000000
00000000
00000000
00000000
00000000
00000000
00003200
00000000
00000000
00000300
00000000
00000000
00000000
00000200
00000000
00000000
00000000
00000300
00000000
00000000
00020000
00000000
,
00000000
00000000
00031000
00010000
00001000
00000000
01000000
00000000
00010000
00000000
00200000
00000000
00000000
00000000
01300000
00000000
,
10000000
00000000
01000000
00010000
00001000
00000000
00100000
00000000
00010000
00000000
00100000
00000000
00001000
00000000
00000020
00000000
,
00000000
00000000
00000130
00001000
00000001
00000000
00000000
00000000
00000100
00000000
00001000
00000000
00011000
00000000
00000000
00000000
,
01000000
00010000
01000000
00000000
00010000
00100000
00010000
00000000
10000000
00100000
10000000
00000000
01000000
10000000
01000000
00000000
,
00010000
00001000
00100000
00000000
00001000
00010000
00000010
00000000
00001000
00000100
00000010
00000001
00001000
00000000
00000000
00000000
,
00000010
00001000
00000010
00010000
00001000
00100000
00010000
00100000
00001000
00010000
00000100
00001000
00000100
00010000
00001000
00000000
,
01000000
00010000
01000000
00000000
00100000
10000000
00100000
00000000
10000000
01000000
00100000
00010000
00100000
00001000
00000000
00000000
,
00022000
00000000
00003000
00000000
,
00000100
00000000
00000000
00000000
00000100
00000000
00000000
00000000
00030010
00000000
00010000
00001000
00000010
00000000
00000000
00000000
,
00000100
00000000
00001000
00000000
00000001
00000010
00000100
00000010
00000002
00000000
00000000
00000000
00000003
00000000
00000100
00001000
,
00000100
00001000
00010000
00001000
00010000
00001000
00100000
00001000
00100000
00000000
00010000
00000000
10000000
00000000
02000000
00000000
,
00000000
00000000
00000000
03000000
00000000
00000000
00010000
00000000
00001000
00000000
00010000
00000000
00001000
00000000
00000010
00000000
00001000
00000000
00000010
00000000
00000001
00000000
00000010
00000000
,
00000001
00000100
00000001
00001000
00000100
00001000
00000010
00000100
00001000
00010000
00000000
00000000
,
00100000
00000000
10000000
00000000
00010000
00100000
01000000
00100000
00010000
00000000
00001000
00000000
00000100
00000000
00000000
00000000
,
00000110
00000000
00000000
00000110
00000000
00000000
00000001
00000000
00001001
00000000
00000000
00001000
00000010
00000000
00000200
00000000
,
00000000
00000000
00000300
00000000
00001001
00000000
00001000
00000000
00000100
00000000
00010000
00001000
00010000
00000000
00001000
00100000
,
00010000
01000000
00010000
00000000
10000000
01000000
10000000
00000000
00100000
01000000
00010000
00100000
00001000
00000000
00000000
00000000
,
00010000
00000000
00100000
00000000
00010000
00000000
00001000
00010000
00000010
00000000
00001000
00000000
00001100
00000000
00000000
00000000
,
00000001
00000000
00000010
00000000
00001000
00000000
00010000
00001000
00100000
00000000
00010000
00000000
01000000
00000000
01000000
00000000
,
10000000
00000000
01000000
00000000
00010000
00000000
00100000
00001000
00010000
00000000
00000000
00000000
00011000
00000000
00000000
00000000
,
00000010
00000000
00001000
00000100
00000010
00000000
00000100
00001000
00000001
00000010
00000001
00000010
00000001
00000100
00000010
00001000
,
00000001
00000000
00000010
00000000
00001000
00000000
00010000
00001000
00010000
00000000
00000000
00011000
00000000
00000000
00100000
00000000
,
00110000
00000000
00000000
10000000
01000000
00000000
10000000
00100000
10000000
00100000
01000000
00010000
10000000
00000000
02000000
00000000
,
00000000
00000000
03000000
00000000
10010000
00000000
00010000
00100000
00010000
00000000
00100000
00001000
00010000
00000000
00000010
00001000
,
00000001
00000100
00000001
00000000
00001000
00000100
00001000
00000000
00000010
00010000
00001000
01000000
00010000
00000000
00000000
00000000
,
10010000
00000000
20000000
32000000
23000000
30020000
00230000
00320000
,
00032000
00003200
00002300
00003000
00000002
00000023
00000032
00000203
,
00002300
00100000
00023000
00000010
00032000
01000000
00023000
00000100
,
00032000
00100000
00203000
00010000
00320000
01000000
02030000
23000000
,
30000000
00000000
00000000
00000000
;

//--------------- dance-double - forcednature ----------------
#NOTEDATA:;
#STEPSTYPE:dance-double;
#DESCRIPTION:forcednature;
#CREDIT:forcednature;
#DIFFICULTY:Challenge;
#METER:18;
#RADARVALUES:0,0,0,0,0;
#NOTES:
00000000
00000000
00000000
00000000
,
00000000
00000000
00000000
00000000
,
00000000
00000000
00000000
00000000
,
00000000
00000000
00000000
00000000
,
00000000
00000000
00000000
00000000
,
00000000
00000000
00000000
00000000
,
00000000
00000000
00000000
00000000
,
00000000
00000000
00000000
00000000
,
00000000
00000000
00000000
00000000
,
00000000
00000000
00000000
00000000
,
00001000
00100000
00010000
00001000
00010000
00100000
00001000
00000000
,
00010000
00000010
00001000
00010000
00001000
00000010
00010000
00000000
,
00001000
01000000
00010000
00001000
00000010
00010000
00001000
00000000
,
00010000
00000000
00000100
00000000
00001000
00000000
00010000
00000000
00100000
01000000
10000000
01000000
00100000
00000000
00000000
00000000
,
00010000
00100000
00010000
00100000
00001000
00010000
00001000
00010000
00000010
00001000
00000010
00001000
00000001
00000100
00000001
00000100
,
00001000
00010000
00001000
00010000
00100000
01000000
00100000
01000000
00010000
10000000
00010000
10000000
00100000
00000000
00000000
00000000
,
10000000
01000000
10000000
01000000
00100000
00010000
00100000
00010000
00001000
00000100
00001000
00000100
00000010
00000001
00000010
00000001
,
00000100
00000010
00001000
00000000
00000100
00000010
00000001
00000000
00000100
00001000
00010000
00000000
00011000
00000000
00000000
00000000
,
02000000
00000000
00010000
00010000
03200000
00000000
10000000
00000000
,
01300000
00000000
01000000
00010000
00100000
00000000
00001000
00000000
00010000
00000100
00001000
00000100
00000010
00000000
00000000
00000000
,
00000110
00000000
00001000
00000000
00000001
00000100
00000001
00000100
00000010
00000000
00000001
00000010
00002000
00000000
00000000
00000000
,
00003100
00000000
00000000
00011000
00000000
00000000
00100000
00000000
00110000
00000000
00000000
00010000
00100000
01000000
20000000
00000000
,
30000000
00000000
01000000
00010000
00001000
00000000
00010000
00000000
00011000
00000000
00000000
00000010
00001000
00000000
00000001
00000000
,
00000100
00001000
00000100
00001000
00000000
00010000
00100000
00010000
00200000
00000000
10000000
00000000
01300000
00010000
01000000
00010000
,
10000000
00000000
01000000
00000000
00010000
00001000
00100000
00010000
00100000
00000000
00001000
00000010
00000001
00000000
00000000
00000000
,
00000100
00000000
00000000
00000101
00000000
00000000
00001000
00000000
00001010
00000000
00000000
00010000
00001000
00100000
00010000
00000000
,
02000000
00000000
00000000
00000000
13000000
01000000
10000000
01000000
00010000
00100000
00010000
00100000
00001000
00010000
00001000
00010000
,
00000010
00001000
00000010
00000100
00000001
00001000
00000001
00000100
00000010
00001000
00000010
00010000
00001000
00000000
00000000
00000000
,
00011000
00000000
00100000
00000000
00010000
10000000
01000000
10000000
00010000
00000000
00100000
00001000
00010000
00000000
00000000
00000000
,
00000010
00000000
00001000
00000100
00000000
00000001
00000100
00000000
00010000
00000000
00001000
00100000
00010000
00000000
00100000
00000000
,
00002000
00000100
00023000
01000000
00032000
00000010
00023000
00100000
,
00031000
00000000
00000000
00011000
00000000
00000000
00000010
00000000
00001010
00000000
00000000
00000001
00000100
00000010
00001000
00000010
,
00000100
00000000
00000001
00000000
00000010
00000100
00001000
00000100
00010000
00000000
00001000
00100000
00020000
00000000
01000000
00000000
,
10030000
00000000
00000000
10100000
00000000
00000000
00010000
00000000
01010000
00000000
00000000
00001000
00010000
00000010
00001000
00000010
,
00000200
00000000
00000000
00000000
00000301
00000010
00000100
00000010
00000001
00001000
00000100
00001000
00000010
00010000
00001000
01000000
,
00010000
00100000
01000000
10000000
00010000
00100000
00001000
00010000
00000010
00001000
00000001
00000100
00000010
00000000
00000000
00000000
,
00001001
00000000
00000000
00000000
00000110
00000000
00000000
00000000
00000001
00000000
00000010
00000000
00001000
00000000
00020000
00000000
00000000
00000000
01030000
00000000
10000000
00000000
01000000
00000000
00010000
00000000
00001000
00100000
00001000
00000000
00000000
00000000
,
10010000
00000000
00000000
00000000
01100000
00000000
00000000
00000000
10000000
00000000
00100000
00000000
00010000
00000000
00002000
00000000
00000000
00000000
00003100
00000000
00001000
00000000
00010000
00000000
00100000
00000000
01000000
00010000
10000000
00000000
00000000
00000000
,
11000000
00000000
00010000
00000000
00010000
00000000
00000000
00000000
00100000
00000000
00001000
00000000
00000010
00000000
00000200
00000000
00000000
00000000
00001300
00000000
00000010
00000000
00001000
00000000
00000001
00000000
00000010
00000100
00001000
00000000
00000000
00000000
,
00000020
00000000
00001000
00000000
00001030
00000000
00000010
00000000
00020000
00000000
00001000
00000000
00031000
00000000
00010000
00000000
00000000
00000000
01100000
00000000
01100000
00000000
00000000
00000000
10000000
00000000
01000000
00010000
00001000
00000000
00000000
00000000
,
00110000
00000000
00002100
00000000
00003010
00000100
00001000
00020000
,
00000000
00000000
00100000
00000000
00100000
00000000
00001000
00000000
00000100
00000000
00030100
00001000
00000001
00000000
00000000
00000000
,
00001010
00000000
01020000
00000000
00130000
01000000
00010000
00002000
,
00000000
00000000
00000010
00000000
00000010
00000000
00010000
00000000
01000000
00000000
01003000
00010000
10000000
00000000
00100000
00000000
,
10010000
00000000
00201000
00000000
01300000
00010000
00001000
00000020
,
00000000
00000000
00000001
00000000
00000001
00000000
00000100
00000000
00001030
00000000
00001000
00010000
00000010
00000000
00001000
00000000
,
00000002
00000000
00000000
00000000
00000103
00001000
00000100
00001000
00010000
00100000
00010000
00100000
10000000
00000000
10100000
00000000
,
00000000
00000000
01010000
00000000
01010000
00000000
00000000
00000000
00001000
00010000
00000010
00001000
00000100
00000000
00000000
00000000
,
00000220
00000000
00000000
00000000
00000000
00000000
00000000
00000000
00000000
00000000
00000000
00000000
00000000
00000000
00000000
00000000
00000300
00000000
00000000
00000000
00000000
00000000
00000000
00000000
00000000
00000000
00000000
00000000
00000000
00000000
00000000
00000000
00000032
00000000
00000000
00000000
00000000
00000000
00000000
00000003
00000000
00000000
00000000
00000000
00000000
00000000
00000002
00000000
00000000
00000000
00000000
00000000
00000000
00000000
00000003
00000000
00000000
00000000
00000000
00000000
00002000
00000000
00000000
00000000
,
00000000
00000000
00013000
00000000
01000000
00000000
00100000
10000000
01000000
00000000
00020000
00000000
00000000
00000000
00031000
00000000
,
00000010
00000000
00000001
00000010
00000100
00000000
00001000
00000000
00000010
00000000
00010000
00100000
01000000
00000000
00010000
00000000
,
10000000
00100000
10000000
00100000
10000000
00000000
01000000
00010000
00001000
00010000
00001000
00000000
00011000
00000000
00000000
00000000
,
00000010
00001000
00000010
00001000
00000010
00000100
00000010
00001000
00010000
01000000
00100000
01000000
00010000
01000000
00100000
10000000
,
00010000
00100000
00010000
00100000
00001000
00010000
00000100
00001000
00000010
00000100
00000001
00000010
00000100
00000000
00000000
00000000
,
00010000
00001000
00100000
00010000
01000000
00100000
10000000
01000000
00100000
00010000
00100000
00001000
00010000
00000100
00001000
00000001
,
00000010
00000000
00000100
00000000
00000010
00000001
00000100
00000000
00001000
00010000
00001000
00010000
00100000
01000000
00000000
00000000
,
20010000
00000000
00000000
00000000
01000000
00000000
01000000
00000000
01000000
00000000
00000000
00010000
00000000
00000000
30200000
00000000
,
00310000
00000000
00001000
00010000
00100000
00000000
00010000
00001000
00000010
00000000
00000100
00001000
00000001
00000000
00000000
00000000
,
00000100
00000000
00001000
00000000
00010000
00100000
00010000
00100000
10000000
00000000
01000000
00000000
00010000
00000000
00001000
00010000
,
00000100
00010000
00001000
00010000
00000010
00010000
00001000
00010000
00000100
00000000
00001000
00000001
00000010
00000000
00001000
00000000
,
00020000
00000000
00000000
01030000
10000000
00100000
00010000
00001000
00000100
00000001
00000010
00001000
,
00010000
00000000
00000000
00000000
00100000
00000000
00000000
00000000
10000000
00000000
00000000
00000000
01000000
00000000
00000000
00000000
00010000
00000000
00000000
00000000
00001000
00000000
00000000
00000000
00000010
00000000
00000000
00000000
00000001
00000000
00000000
00000000
00000100
00000000
00000000
00000000
00000010
00000000
00000000
00001000
00000000
00000000
00000010
00000000
00000000
00001000
00000000
00000000
,
00000001
00000000
00000010
00000000
00001000
00010000
01000000
00010000
00001000
00000000
00100000
00000000
00020000
00000000
00000000
00000000
,
10030000
00000000
00100000
00010000
00000000
00100000
10000000
00000000
01000000
00000000
00010000
00001000
00000010
00000000
00000100
00000000
,
00002000
00000000
00000000
00000000
00003001
00000000
00000001
00000100
00001000
00000000
00010000
00100000
10000000
00000000
00010000
00000000
,
00100000
01000000
10000000
01000000
00100000
00010000
00100000
00001000
00010000
00000010
00001000
00000001
00000100
00000000
00000000
00000000
,
00001000
00000000
00010000
00001000
00010000
00000000
00100000
00000000
10000000
00100000
10000000
00000000
01000000
00000000
00010000
00000000
,
00001000
00000000
00000010
00001000
00000010
00000000
00000001
00000000
00000100
00000001
00000100
00000000
00001000
00010000
00001000
00010000
,
00100000
00000000
10000000
01000000
10000000
00000000
00100000
00000000
01000000
00010000
01000000
00000000
10000000
01000000
00010000
00000000
,
00100000
00000000
00001000
00010000
00001000
00000000
00000010
00000100
00001000
00000001
00000100
00000001
00001000
00000010
00000100
00000010
,
00000001
00000000
00000010
00010000
00001000
00000000
01000000
00001000
00010000
00000000
00100000
10000000
00000000
00010000
00100000
00000000
,
01000000
00000000
00010000
00001000
00000010
00000000
00001000
00010000
00100000
00000000
00010000
00001000
00000100
00000000
00000001
00000000
,
00000020
00000000
00000000
00000000
00001030
00010000
00000100
00010000
00001000
00000000
00100000
00001000
00010000
00000000
00100000
00000000
,
10000000
01000000
10000000
00010000
00100000
00001000
00010000
00000100
00001000
00000001
00000010
00001000
00020000
00000000
00000000
00000000
,
00230000
20300000
32000000
23000000
30200000
00320000
00032000
00003020
,
00000032
00000203
00000302
00000023
00002030
00023000
00230000
20300000
,
32000000
03020000
00032000
00023000
00030020
00020030
00032000
00023000
,
00030200
00001000
00000010
00000001
00000010
00001000
00010000
00001300
;
