#VERSION:0.83;
#TITLE:ELECTRIC MASSIVE DIVER;
#SUBTITLE:;
#ARTIST:L.E.D.-G;
#TITLETRANSLIT:;
#SUBTITLETRANSLIT:;
#ARTISTTRANSLIT:;
#GENRE:GABBA;
#CREDIT:;
#MUSIC:ELECTRIC MASSIVE DIVER.ogg;
#BANNER:ELECTRIC MASSIVE DIVER.png;
#BACKGROUND:ELECTRIC MASSIVE DIVER-bg.png;
#CDTITLE:./CDTitles/bm IIDX 18 Resort Anthem.png;
#SAMPLESTART:113.585;
#SAMPLELENGTH:15.000;
#SELECTABLE:YES;
#OFFSET:1.009;
#BPMS:0.000=178.000;
#STOPS:104.000=1.012
,329.000=2.023
;
#TIMESIGNATURES:0.000=4=4,
100.000=5=4,
105.000=4=4,
329.000=2=4,
331.000=4=4
;
#BGCHANGES:3.800=ELECTRIC MASSIVE DIVER.mp4=1.000=0=0=0=StretchNoLoop====,
99999.000=-nosongbg-=1.000=0=0=0=StretchNoLoop====
;
#FGCHANGES:;

//--------------- dance-single - forcednature ----------------
#NOTEDATA:;
#STEPSTYPE:dance-single;
#DESCRIPTION:forcednature;
#DIFFICULTY:Beginner;
#METER:4;
#RADARVALUES:0,0,0,0,0;
#CREDIT:forcednature;
#NOTES:
0000
0000
0000
0000
,
0000
0000
0000
0000
,
0000
0000
0000
0000
,
0000
0000
0000
0000
,
0000
0000
0000
0000
,
0000
0000
0000
0000
,
0000
0000
0000
0000
,
0000
0000
0000
0000
,
0000
0000
0000
0000
,
0000
0000
0000
0000
,
1000
0000
0000
0000
,
0000
0000
0000
0000
,
0001
0000
0000
0000
,
0100
0000
0010
0000
,
1000
0000
0000
0000
,
0001
0000
0000
0000
,
0010
0000
0010
0000
,
0100
0000
1000
0000
,
0001
0000
0000
0000
,
0000
0000
0000
0000
,
0100
0000
0000
0000
,
0000
0000
0000
0000
,
0010
0000
0000
0000
,
0000
0000
0000
0000
,
1000
0000
0000
0000
,
0000
0000
0000
0000
,
0000
0001
0000
0001
,
0000
0001
0000
0000
,
0000
0010
0000
0010
,
0000
0010
0000
0000
,
0000
0100
0000
0100
,
0000
0100
0000
0000
,
0000
1000
0000
1000
,
0000
1000
0000
0000
,
0000
0010
0000
0010
,
0000
0010
0000
0000
,
0000
0100
0000
0100
,
0000
0100
0000
0000
,
0000
0001
0000
0001
,
0000
0001
0000
0000
,
0000
1000
0000
1000
,
0000
1000
0000
0000
,
0000
0100
0000
0000
,
0000
0100
0000
0010
,
0000
0001
0000
0000
,
0000
0001
0000
0100
,
0000
0100
0000
0000
,
0000
0100
0000
0010
,
0000
1000
0000
0000
,
0000
1000
0000
0100
,
0000
0010
0000
0000
,
0000
0010
0000
0001
,
0000
1000
0000
0000
,
0000
1000
0000
0010
,
0000
0100
0000
0000
,
0000
0100
0000
0001
,
0000
1000
0000
0001
,
0000
1000
0000
0000
,
0000
0100
0000
1000
,
0000
0100
0000
1000
,
0000
0010
0000
0000
,
0000
1000
0000
0001
,
0000
0100
0000
0000
,
0000
0001
0000
0010
,
0000
0001
0000
0000
,
0000
0100
0000
0100
,
0000
0100
0000
0000
,
0000
0010
0000
1000
,
0000
0010
0000
0000
,
0000
1000
0000
0100
,
0000
1000
0000
0000
,
0000
0001
0000
0100
,
0000
0001
0000
0001
,
0000
0010
0000
0100
,
0000
2000
0000
0000
,
0000
0000
0000
0000
,
0000
3000
0000
0000
,
0000
0000
0000
0000
,
0000
1001
0000
0000
,
0000
0110
0000
0000
,
0000
1000
0000
0001
,
0000
0100
0000
0010
,
0000
1001
0000
1000
,
0000
0100
0000
1000
,
0000
0010
0000
1000
,
0000
0001
0000
0100
,
0000
0000
0000
0001
,
0000
0100
0000
0001
,
0000
0010
0000
0001
,
0000
1000
0000
0010
,
0000
0000
0000
1000
,
0000
0100
0000
0010
,
0000
0001
0000
0010
,
0000
0100
0000
1000
,
0000
0000
0000
0001
,
0000
0100
0000
0010
,
0000
1000
0000
0010
,
0000
0010
0000
0100
,
0000
0001
0000
1000
;

//--------------- dance-single - forcednature ----------------
#NOTEDATA:;
#STEPSTYPE:dance-single;
#DESCRIPTION:forcednature;
#DIFFICULTY:Easy;
#METER:7;
#RADARVALUES:0,0,0,0,0;
#CREDIT:forcednature;
#NOTES:
0000
0000
0000
0000
,
0000
0000
0000
0000
,
0000
0000
0000
0000
,
0000
0000
0000
0000
,
0000
0000
0000
0000
,
0000
0000
0000
0000
,
0000
0000
0000
0000
,
0000
0000
0000
0000
,
0000
0000
0000
0000
,
0000
0000
0000
0000
,
2002
0000
0000
0000
,
3000
0000
0000
0000
,
0203
0000
0000
0000
,
0320
0000
2030
0000
,
3200
0000
1000
0000
,
0320
0000
0001
0000
,
0032
0000
0100
0000
,
2003
0000
3010
0000
,
1002
0000
0000
0000
,
2003
0000
3200
0000
,
0320
0000
0000
0000
,
0032
0000
2003
0000
,
3020
0000
0000
0000
,
0230
0000
0302
0000
,
2003
0000
0000
0000
,
3200
0000
0320
0000
,
0030
0001
0001
0001
,
0000
0100
0001
0100
,
0000
0010
1000
0010
,
0000
1000
1000
1000
,
0000
0100
0100
0100
,
0000
0010
0001
0010
,
0000
0100
1000
0100
,
0000
0010
0010
0010
,
0000
0001
0100
0001
,
0000
1000
0100
1000
,
0000
0001
0010
0001
,
0000
1000
0010
1000
,
0000
0100
0010
0100
,
0000
1000
0001
1000
,
0000
0010
0100
0010
,
0000
1001
0000
0000
,
0000
0001
0100
0001
,
0000
0100
0010
0100
,
0000
0010
1000
0010
,
0000
1000
0001
1000
,
1000
0100
1000
0100
,
0000
0010
0100
0010
,
0000
0001
0010
0001
,
0000
0001
0001
0001
,
0000
0100
0001
0100
,
0000
0010
0100
0010
,
0000
1000
0010
1000
,
0000
0001
1000
0001
,
0000
0010
0010
0010
,
0000
0100
1000
0100
,
0000
1001
0000
0110
,
0000
1001
0000
0000
,
0000
0001
0000
0001
,
0100
0010
0000
0010
,
1000
0001
0000
0001
,
0010
0100
0000
0100
,
1000
0010
0000
0100
,
0001
0010
0000
0001
,
1000
0010
0000
0100
,
0000
0001
1000
1001
,
0000
1000
0100
0010
,
0000
0010
0001
1000
,
0000
1000
0001
0100
,
0000
0100
0010
1000
,
0000
1001
0000
0010
,
0000
1001
0000
0100
,
0000
0001
0001
1000
,
1000
0100
0010
0100
,
0010
2002
0000
0000
,
0000
0000
0000
0000
,
0000
3003
0000
0000
,
0000
0000
0000
0000
,
0000
1001
0000
0100
,
0000
1001
0000
0010
,
0000
1001
0000
0110
,
0000
1000
0001
1000
,
0001
0020
0030
0100
,
1000
0100
0010
0001
,
1000
0001
0100
0010
,
0010
1000
0001
0010
,
0100
1000
0000
0001
,
0100
0010
1000
0001
,
1000
0100
0010
0001
,
0001
0100
0010
1000
,
0100
0010
0000
0100
,
0100
1000
0001
0100
,
0100
0010
1000
0001
,
0001
0010
0100
1000
,
0001
1001
0000
0100
,
0100
0001
1000
0010
,
0010
1000
0001
0010
,
0100
1000
0100
0010
,
0010
0001
0001
2002
,
0000
0000
0000
3003
;

//--------------- dance-single - forcednature ----------------
#NOTEDATA:;
#STEPSTYPE:dance-single;
#DESCRIPTION:forcednature;
#DIFFICULTY:Medium;
#METER:12;
#RADARVALUES:0,0,0,0,0;
#CREDIT:forcednature;
#NOTES:
0000
0000
0000
0000
,
0000
0000
0000
0000
,
0000
0000
0000
0000
,
0000
0000
0000
0000
,
0000
0000
0000
0000
,
0000
0000
0000
0000
,
0000
0000
0000
0000
,
0000
0000
0000
0000
,
0000
0000
0000
0000
,
0000
0000
0000
0000
,
1200
1000
1000
1000
,
0001
0001
0001
0001
,
0320
1000
1000
1000
,
0032
0000
0000
0000
0100
0000
0000
0000
2003
0000
0010
0000
3010
0000
0000
1000
,
0001
1000
0001
1000
0001
1000
0001
1000
,
0100
0010
0100
0010
0100
0010
0100
0010
,
0001
0100
0010
1000
0001
0010
0100
1000
,
0020
0000
0200
0330
,
2002
0000
0000
0000
0000
0000
0000
0003
,
0000
0200
0000
3000
0000
0020
0000
0300
,
0000
0002
0000
0030
0000
0200
0000
0003
,
0000
0020
0000
0300
0000
2000
0000
0030
,
0000
0002
0000
0000
0000
0000
0000
3000
,
0000
0020
0000
0003
0000
0200
0000
0030
,
0000
2000
0000
0000
0000
0000
0000
0300
,
0000
0020
0000
3000
0000
0200
0000
0030
,
0000
0300
0000
0000
0000
0000
0000
0000
0000
0000
0000
0000
0000
0000
0000
0000
0101
0000
0000
0000
0000
0000
0000
0000
0000
0000
0000
0000
0000
0000
0000
0000
0101
0000
0000
0000
0000
0000
0000
0000
0000
0000
0000
0000
0000
0000
0000
0000
0101
0000
0000
0000
0000
0000
0000
0000
0000
0000
0000
0000
0000
0000
0000
0000
,
0101
0000
0001
0010
0100
0000
0110
0000
,
0010
0001
1000
0001
0100
0000
0110
0000
,
1010
0000
0110
0000
1010
0000
1000
0001
,
0000
0001
0010
0100
1000
0000
1100
0000
,
1000
0001
0100
0000
0110
0000
0101
0000
,
0110
1001
0011
1001
,
0001
0100
0010
1000
0010
0000
1000
1000
,
0001
0010
0100
0000
1100
0000
0011
0000
,
1100
1010
0101
1010
,
0001
0010
0100
1000
0010
0000
0110
0000
,
1001
0000
0110
0000
1001
0000
0100
0100
,
0000
0010
1000
0001
1000
0000
0110
0000
,
0001
0100
0001
0000
1010
0000
1100
0000
,
1010
0101
0011
0101
,
1000
0001
0200
0000
0000
0000
0300
0000
,
0010
0010
0110
0000
1001
0000
0110
0000
,
1001
0000
0000
0000
0001
0000
0100
0000
0010
0000
1000
0000
0001
0000
0000
0001
,
0000
0000
0010
0000
0100
0000
1000
0000
0001
0000
0100
0000
0010
0000
0000
0010
,
0000
0000
1000
0000
0100
0000
0010
0000
0001
0000
0000
0000
1001
0000
0000
1001
,
0000
0010
0101
0000
1100
0000
0101
0000
,
1100
0000
0000
0000
0001
0000
1000
0000
0010
0000
0100
0000
0001
0000
0000
0001
,
0000
0000
1000
0000
0100
0000
1000
0000
0010
0000
0100
0000
0010
0000
0000
0010
,
0000
1000
0001
0010
0100
1000
0020
0000
,
0000
0000
0130
0100
0100
0000
0011
0000
,
1000
0000
0001
0000
0010
0000
0100
0000
1000
0000
0010
0000
0100
0000
0000
0100
,
0000
0000
0001
0000
1000
0000
0100
0000
1000
0000
0010
0000
0100
0000
0000
0100
,
0000
0001
0010
0100
1000
0001
0100
0100
,
0010
0010
1001
0000
0110
0000
1001
0000
,
0110
0000
0000
0000
1000
0000
0100
0000
1000
0000
0001
0000
0100
0000
0000
0100
,
0000
0000
0010
0000
1000
0000
0001
0000
0010
0000
0100
0000
1000
0000
0000
0001
,
0000
0100
0220
0000
0000
0000
0330
0000
,
0010
0000
0010
0000
1001
0000
0000
0001
0000
0000
0100
0000
0001
0000
0000
1000
,
0000
0000
0100
0000
0010
0000
0000
0001
0000
0000
1000
0000
0010
0000
0000
1000
,
0000
0000
0001
0000
0010
0000
0000
0100
0000
0000
1000
0000
0010
0000
0000
0100
,
0000
0000
0001
0000
1000
0000
0000
0100
0000
0000
1000
0000
0001
0000
0000
0100
,
0000
0000
0001
0000
0010
0000
0000
1000
0000
0000
0010
0000
0001
0000
0000
1000
,
0000
0000
0100
0000
0010
0000
0000
0001
0000
0000
0010
0000
1000
0000
0000
0001
,
0000
0000
0100
0000
1000
0000
0000
0001
0000
0000
0100
0000
0010
0000
0000
1000
,
0000
0001
0010
0000
0110
0000
2002
0000
,
3003
0000
0000
0000
0110
0000
0000
0001
0000
0000
1000
0000
0010
0000
0000
1000
,
0000
0000
0100
0000
0010
0000
0000
0001
0000
0000
0100
0000
0010
0000
0000
1000
,
0000
0000
0100
0000
0010
0000
0000
0001
0000
0000
1000
0000
0001
0000
0000
0100
,
0000
0000
1000
0000
0100
0000
0000
0010
0000
0000
1000
0000
0001
0000
0000
1000
,
0000
0000
0100
0000
1001
0000
0000
0001
0000
0000
1000
0000
0010
0000
0000
0100
,
0000
0000
0001
0000
1001
0000
0000
1000
0000
0000
0100
0000
0010
0000
0000
0001
,
0000
1000
0010
0100
0010
0100
0001
1000
,
0001
1000
0100
0010
0001
1000
0010
0010
,
0100
0100
2002
0000
0000
0000
0000
0000
,
0000
0000
0000
0000
,
0000
3003
0000
0000
0000
0000
0000
0000
,
0000
0020
0000
0000
,
0030
1100
1010
1100
,
1010
0101
0011
0101
,
0011
0000
1000
0001
1000
0001
0100
0010
,
0100
0010
1000
0001
0010
0100
0010
0010
,
0100
0000
0100
0000
2002
0000
0000
0000
3003
0000
0000
0000
0001
0000
0000
0100
,
0000
0000
1000
0000
0000
0100
0000
0000
0010
0000
0000
1000
0000
0000
0001
0000
,
0000
1000
0000
0000
0100
0000
0000
0100
0010
0000
0000
0010
0001
0000
0100
0000
,
0001
0000
0010
0000
0000
0100
0000
0000
1000
0000
0000
0001
0000
0000
0100
0000
,
0000
0010
0000
0000
1000
0000
0000
1000
0100
0000
0000
0100
0010
0000
0001
0000
,
0010
0000
0100
0000
0000
1000
0000
0000
0001
0000
0000
0100
0000
0000
0010
0000
,
0000
1000
0000
0000
0001
0000
0000
0001
0010
0000
0000
0000
0100
0000
0000
1000
,
0000
0000
0001
0000
0000
0100
0000
0000
0010
0000
0000
1000
0001
0000
0010
0000
,
0001
0000
0100
0010
1000
0001
0010
0010
,
0010
0000
0100
0000
0000
1000
0000
0000
0001
0000
0000
1000
0000
0000
0010
0000
,
0000
0100
0000
0000
0001
0000
0000
0001
0010
0000
0000
0010
0100
0000
1000
0000
,
0100
0000
0010
0000
0000
0001
0000
0000
1000
0000
0000
0010
0000
0000
0100
0000
,
0000
0001
0000
0000
1000
0000
0000
1000
0100
0000
0000
0100
0010
0000
0001
0000
,
0010
0000
0100
0000
0000
1000
0000
0000
0001
0000
0100
0000
0001
0000
1000
0000
,
0000
0010
0000
0000
0100
0000
0000
0100
0001
0000
0000
0001
1000
0000
0100
0000
,
0010
0001
1000
0010
0100
0001
0010
0010
,
0100
0100
1000
0010
0001
0010
0200
0000
,
0000
0000
0000
0300
;

//--------------- dance-single - forcednature ----------------
#NOTEDATA:;
#STEPSTYPE:dance-single;
#DESCRIPTION:forcednature;
#DIFFICULTY:Hard;
#METER:15;
#RADARVALUES:0,0,0,0,0;
#CREDIT:forcednature;
#NOTES:
0000
0000
0000
0000
,
0000
0000
0000
0000
,
0000
0000
0000
0000
,
0000
0000
0000
0000
,
0000
0000
0000
0000
,
0000
0000
0000
0000
,
0000
0000
0000
0000
,
0000
0000
0000
0000
,
0000
0000
0000
0000
,
0000
0000
0000
0000
,
0002
0100
1000
0010
,
1000
0100
1000
0010
,
2003
0100
0001
0010
,
3002
0000
0000
0000
0100
0000
0000
0000
1003
0000
0001
0000
0010
0000
0000
0010
,
0100
1000
0100
1000
0100
1000
0100
1000
,
0001
0100
0001
0100
0001
0100
0001
0100
,
0001
1000
0001
1000
0001
1000
0001
1000
0001
1000
0001
1000
0001
1000
0001
1000
,
0200
0000
0320
0000
,
0032
1000
0000
1000
0000
1000
0000
1000
,
0000
0100
0000
0100
0000
1000
0000
0013
,
0000
0001
0000
0001
0000
1000
0000
1000
,
0000
0010
0000
0100
0000
0001
0000
0100
,
0000
0010
0000
0010
0000
0010
0000
0010
,
0000
1000
0000
1000
0000
0100
0000
0100
,
0000
0010
0000
0001
0000
0010
0000
0001
,
0000
0100
0000
0010
0000
0100
0000
0002
,
0000
0003
0000
0000
0000
0000
0000
0000
0000
0000
0000
0000
0000
0000
0000
0000
1001
0000
0000
0000
0000
0000
0000
0000
0000
0000
0000
0000
0000
0000
0000
0000
0101
0000
0000
0000
0000
0000
0000
0000
0000
0000
0000
0000
0000
0000
0000
0000
0110
0000
0000
0000
0000
0000
0000
0000
0000
0000
0000
0000
0000
0000
0000
0000
,
1001
0000
1000
0100
0001
0000
0110
0000
,
0100
1000
0001
1000
0010
0000
0110
0000
,
0100
1000
0100
0001
1000
0000
0010
0010
,
0000
0100
0001
0010
0100
0000
1010
0000
,
0001
0100
1000
0100
0010
0000
1010
0000
,
1000
0100
0001
0100
0010
0000
0101
0000
,
0001
0010
1000
0010
0100
0000
1000
1000
,
0001
0100
0110
0000
1010
0000
0101
0000
,
0110
0000
1000
0010
0001
0000
0110
0000
,
0001
0010
1000
0010
0100
0000
1010
0000
,
0001
0010
1000
0010
0100
0000
0001
0001
,
0100
1000
0010
0010
0110
0000
1001
0000
,
1000
0010
0001
0010
0100
0000
0101
0000
,
0001
1000
0100
0001
0100
0010
0001
1000
,
0001
0100
0020
0000
0000
0000
0030
0000
,
1000
0001
1001
0000
0110
0000
1001
0000
,
0110
0000
0000
0000
0001
0000
0100
0000
0010
0000
1000
0000
0001
0000
0010
0100
,
0000
0100
1000
0000
0001
0000
0100
0000
0010
0000
1000
0000
0001
0000
0010
0100
,
0000
0100
0010
0000
0001
0000
1000
0000
0001
0000
0100
0000
0010
0000
0000
0110
,
0000
1001
0100
0000
1010
0000
0011
0000
,
1001
0000
0000
0000
0001
0000
0100
0000
0010
0000
1000
0000
0001
0000
0010
0100
,
0000
0100
1000
0000
0001
0000
1000
0000
0010
0000
0100
0000
0001
0000
1000
0001
,
0000
0001
0010
0000
0100
0000
0001
0000
0100
0000
1000
0000
0020
0000
0000
0000
,
0030
0000
0100
0100
0100
0000
1010
0000
,
0001
0000
0001
0000
0001
0000
0010
0000
0100
0000
1000
0000
0001
0000
0100
0010
,
0000
0010
1000
0000
0001
0000
0010
0000
0100
0000
1000
0000
0010
0000
0100
0001
,
0000
0001
0010
0000
0100
0000
1000
0000
0001
0000
0100
0000
1000
0000
1000
0000
,
0001
0001
0110
0000
1001
0000
0110
0000
,
1001
0000
0000
0000
1000
0000
0010
0000
0001
0000
0010
0000
0100
0000
0001
1000
,
0000
1000
0100
0000
0010
0000
0001
0000
1000
0000
0010
0000
0100
0000
0001
0010
,
0000
0010
0100
0000
2002
0000
0000
0000
0000
0000
0000
0000
3003
0000
0000
0000
,
0100
0000
0010
0000
0110
0000
0000
0001
0000
0000
1000
0000
0010
0000
0000
0100
,
0000
0000
0001
0000
1000
0000
0000
0100
0000
0000
0001
0000
0100
0000
0000
0010
,
0000
0000
0001
0000
0001
0000
0001
0000
0001
0000
0000
0000
1000
0000
0000
0010
,
0000
0000
0100
0000
0001
0000
0000
1000
0000
0000
0100
0000
1000
0000
0000
0010
,
0000
0000
0100
0000
0110
0000
0000
0001
0000
0000
0010
0000
0100
0000
0000
1000
,
0000
0000
0001
0000
0110
0000
0000
1000
0000
0000
0010
0000
0100
0000
0000
0001
,
0000
0000
1000
0000
0110
0000
0000
0001
0000
0000
1000
0000
0001
0000
0000
0100
,
0000
0010
1001
0000
1001
0000
2002
0000
,
3003
0000
0000
0000
0110
0000
0000
0001
1000
0000
0010
0000
1000
0000
0000
0100
,
0010
0000
0001
0000
0010
0000
0000
0100
1000
0000
0001
0000
0100
0000
0000
0010
,
1000
0000
0100
0000
0100
0000
0100
0000
0001
0000
0000
0000
0100
0000
0000
1000
,
0001
0000
0100
0000
0010
0000
0000
1000
0001
0000
1000
0000
0100
0000
0000
0010
,
0001
0000
0010
0000
0110
0000
0000
0100
1000
0000
0001
0000
0100
0000
0000
0010
,
1000
0000
0001
0000
0110
0000
0000
0001
1000
0000
0100
0000
0010
0000
0000
0001
,
1000
0010
1000
0001
0010
0100
1000
0001
,
0100
0000
0010
0000
0100
0001
0100
0001
0100
0001
0100
0001
1000
0100
1000
0100
,
1000
0100
1000
0100
0020
0000
0000
0000
0000
0000
0000
0000
0000
0000
0000
0000
,
0000
0000
0000
0000
,
0000
0030
0000
0000
0000
0000
0000
0000
,
0000
0200
0000
0000
,
0300
1001
1001
1001
,
1001
0110
0110
0110
,
0110
0000
0001
0100
0010
1000
0001
0010
,
0100
0000
1000
0000
0001
1000
0001
1000
0001
1000
0001
1000
0100
1000
0100
1000
,
0001
0100
0001
0100
0020
0000
0000
0000
0030
0000
0000
0000
0110
0000
0000
0001
,
1000
0000
0100
0000
0000
1000
0001
0000
0010
0000
0000
0100
1000
0000
0010
0000
,
0000
0100
0001
0000
1000
0000
0000
0100
0010
0000
0000
0010
0001
0000
0001
0000
,
0001
0000
0100
0000
0000
0010
1000
0000
0100
0000
0000
0010
0001
0000
1000
0000
,
0000
0100
0010
0000
0001
0000
0000
0100
0001
0000
0010
0000
0110
0000
0100
0000
,
0100
0000
1000
0000
0000
0001
0100
0000
1000
0000
0000
0100
0001
0000
1000
0000
,
0000
0100
0001
0000
0100
0000
0000
0010
0001
0000
0000
0000
0100
0000
0000
0010
,
1000
0000
0100
0000
0000
1000
0010
0000
0100
0000
0000
0001
0010
0000
0010
0000
,
0110
0000
0000
0000
1000
0000
0001
0000
1000
0100
0010
0001
0100
0000
0100
0010
,
0100
0000
0001
0000
0000
0001
1000
0000
0100
0000
0000
0100
0001
0000
0100
0000
,
0000
0100
0010
0000
0001
0000
0000
0001
0100
0000
0000
0100
0010
0000
0010
1000
,
0010
0000
0100
0000
0000
0001
0010
0000
0100
0000
0000
1000
0010
0000
0100
0000
,
0000
0001
1000
0000
0100
0000
0000
0010
0001
0000
0001
0000
1001
0000
1000
0010
,
1000
0000
0100
0000
0010
0001
0010
0000
0100
0000
0100
1000
0100
0000
0010
0000
,
0001
0100
0001
0000
1000
0000
0000
1000
0010
0000
0010
0000
0110
0000
0001
0000
,
1000
0000
0010
0000
0110
0000
1000
0000
0001
0000
0010
0000
0100
1000
0100
1000
,
0001
0100
0001
0100
0001
1000
0001
1000
0001
1000
0001
1000
0020
0000
0000
0000
,
0000
0000
0000
0030
;

//--------------- dance-single - forcednature ----------------
#NOTEDATA:;
#STEPSTYPE:dance-single;
#DESCRIPTION:forcednature;
#DIFFICULTY:Challenge;
#METER:16;
#RADARVALUES:0,0,0,0,0;
#CREDIT:forcednature;
#NOTES:
0000
0000
0000
0000
,
0000
0000
0000
0000
,
0000
0000
0000
0000
,
0000
0000
0000
0000
,
0000
0000
0000
0000
,
0000
0000
0000
0000
,
0000
0000
0000
0000
,
0000
0000
0000
0000
,
0000
0000
0000
0000
,
0000
0000
0000
0000
,
1200
1000
0010
0010
,
0001
0001
0010
0310
,
0120
0100
0001
0031
,
1200
0000
0000
0000
1000
0000
0000
0000
0310
0000
0010
0000
0001
0000
0000
0001
,
1000
0100
1000
0010
1000
0100
1000
0010
,
0100
0001
0010
0001
0100
0001
0010
0001
,
1000
0100
0010
0001
1000
0001
1000
0001
1000
0010
0100
0001
1000
0001
1000
0001
,
0020
0000
0200
0330
,
1001
1000
0001
1000
0001
1000
0001
1000
,
0100
1000
0100
1000
0100
0010
0001
0010
,
0001
0100
0001
0100
0010
0100
0010
0100
,
0010
1000
0010
1000
0001
1000
0100
0010
,
0001
0100
0001
0100
0001
0100
0001
0100
,
0010
1000
0010
1000
0001
0010
0001
0010
,
0100
1000
0100
1000
0100
1000
0100
1000
,
0001
0100
0001
0100
0001
0100
0010
2000
,
0000
3000
0000
0000
0000
0000
0000
0000
0000
0000
0000
0000
0000
0000
0000
0000
1001
0000
0000
0000
0000
0000
0000
0000
0000
0000
0000
0000
0000
0000
0000
0000
1100
0000
0000
0000
0000
0000
0000
0000
0000
0000
0000
0000
0000
0000
0000
0000
1001
0000
0000
0000
0000
0000
0000
0000
0000
0000
0000
0000
0000
0000
0000
0000
,
1100
0000
0001
0100
0010
1000
0001
0100
,
0010
1000
0100
0001
0100
1000
0100
0001
,
0100
1000
0010
1000
0001
0010
0100
1100
,
0000
0101
0001
0010
0011
0000
1010
0000
,
1001
0001
1000
0100
0010
0100
1000
0100
,
0010
0100
1000
0010
0001
0010
1000
0010
,
0001
0010
0100
0100
0101
0000
0011
0011
,
0001
1000
1100
0000
0101
0000
1100
0000
,
0101
0000
1000
0010
0001
0010
1000
0010
,
0001
0010
0100
1000
0100
0001
0010
0100
,
0001
0100
0010
0001
1000
0010
1000
1100
,
0000
0001
0100
0100
0101
0000
0110
0000
,
0001
0001
1000
0100
0010
0100
0001
0100
,
0010
0100
1000
0010
0001
0010
0100
0001
,
1000
0100
0220
0000
0330
0000
MMMM
0000
,
1000
0001
1001
0000
0011
0000
1001
0000
,
0011
0000
0000
0000
0001
0000
0100
0000
0010
0000
1000
0000
0100
0000
0010
0001
,
0000
0010
0001
0000
0100
0000
0010
0000
1000
0000
0010
0000
0100
0000
0001
1000
,
0000
0001
1000
0000
0100
0000
0010
0000
0001
0000
0010
0000
0100
0000
0000
0110
,
0000
0000
1000
0001
1000
0000
0000
0000
1010
0000
0000
0000
1001
0000
0000
0000
,
1010
0000
0000
0000
0001
0000
0010
0000
0001
0000
1000
0000
0010
0000
0100
0001
,
0000
0100
0001
0000
0010
0000
0100
0000
0010
0000
0001
0000
0100
0000
0010
1000
,
0000
0010
1000
0000
0100
0000
0010
0000
0100
0000
1000
0000
0010
0000
0000
0000
,
MMMM
0000
1001
0001
0101
0000
1001
0000
,
0101
0000
0001
0000
0010
0000
0100
0000
1000
0000
0100
0000
0010
0000
0001
1000
,
0000
0001
0100
0000
0010
0000
1000
0000
0100
0000
0010
0000
0100
0000
1000
0010
,
0000
0100
0001
0000
0010
0000
0100
0000
1000
0000
0010
0000
0100
0000
0100
0001
,
0100
0000
0100
0010
1000
0000
0000
0000
1100
0000
0000
0000
1001
0000
0000
0000
,
1100
0000
0000
0000
0100
0000
0010
0000
0001
0000
0100
0000
0010
0000
1000
0001
,
0000
0010
0001
0000
1001
0000
1000
0000
0010
0000
0100
0000
1001
0000
0001
0010
,
0000
0100
1000
0000
2002
0000
0000
0000
3003
0000
0000
0000
MMMM
0000
0000
0000
,
0100
0000
0110
0000
1001
0000
0001
0100
0000
0100
0010
0000
1000
0000
0100
0010
,
0000
0010
0001
0000
1000
0000
0010
0100
0000
0100
0001
0000
1000
0000
0100
0010
,
0000
0010
0001
1000
0001
0000
1000
0100
1000
0100
0010
0000
0001
0000
1000
0010
,
0000
0010
0100
0000
0001
0000
1000
0100
0000
0010
0001
0000
0100
0000
0010
1000
,
0001
0000
0001
0000
0011
0000
0000
0100
1000
0000
0100
0000
0010
0000
0000
0100
,
1000
0000
0100
0000
0110
0000
0000
1000
0001
0000
0100
0000
0010
0000
0000
1000
,
0001
0000
0010
0000
0110
0000
0100
1000
0000
0001
0010
0000
0100
0000
1000
0010
,
0000
0100
0001
0000
1001
0000
0000
0000
1001
0000
0000
0000
1001
0000
0000
0000
,
MMMM
0000
0000
0000
1001
0000
0001
0100
0000
0010
1000
0000
0001
0000
0010
0100
,
0000
1000
0100
0000
0010
0000
0001
1000
0000
0010
0100
0000
0001
0000
1000
0100
,
0010
0100
0010
0000
0010
0000
0010
0001
0010
0100
1000
0000
0001
0000
1000
0010
,
0000
0100
0001
0000
1000
0000
0100
0010
0000
0100
1000
0000
1010
0000
0000
0001
,
0100
0000
0001
0000
0011
0000
0001
0100
0000
0010
1000
0000
0001
0000
1000
0100
,
0000
0010
0100
0000
1001
0000
1000
0010
0000
0100
0001
0000
0010
0000
0100
0010
,
0000
0001
0100
0000
0101
0000
0001
0000
0010
0000
0001
0000
1100
0000
1000
0000
,
0010
0000
1000
0000
0100
1000
0001
0100
0010
1000
0001
0010
0100
1000
0001
1000
,
0010
0100
0001
1000
0200
0000
0000
0000
0000
0000
0000
0000
0000
0000
0000
0000
,
0000
0000
0000
0000
,
0000
0300
0000
0000
0000
0000
0000
0000
,
0000
0020
0000
0000
,
0030
0101
0011
0101
,
0011
1100
1010
1100
,
1010
0000
0101
1000
0010
1000
1100
0001
,
0010
0000
0001
0000
1000
0100
0010
0001
0100
0010
1000
0001
0010
0100
0010
0100
,
1000
0010
0100
0001
0020
0000
0000
0000
0030
0000
0000
0000
1100
0000
0001
0100
,
0001
0000
1000
0000
0001
0010
0001
0000
1000
0000
0001
0100
0001
0000
1000
0000
,
0001
0010
0001
0000
1000
0000
0100
0010
0001
0000
1000
0010
0100
0000
0100
0001
,
0100
0000
0010
0000
1000
0100
0010
0000
0001
0000
1000
0010
0100
0000
0001
0000
,
1000
0100
1000
0000
0010
0000
0010
0100
0001
0000
0001
0010
0100
0000
0100
1000
,
0100
0000
0010
0000
0001
0100
0001
0000
0010
0000
0100
1000
0001
0000
0100
0000
,
0010
1000
0001
0000
0010
0000
0100
1000
0010
0000
0100
0001
0100
0000
0010
1000
,
0001
0000
0010
0000
0100
0010
0001
0000
0100
0000
0010
1000
0001
0000
0001
0000
,
0001
0010
0100
0000
1100
0000
1100
0000
0001
0100
0010
1000
0001
0000
0001
0010
,
0001
0100
0010
0000
1000
0100
0010
0100
1000
0000
0001
0100
0010
1000
0001
0000
,
0010
0100
1000
0001
0100
0000
0010
1000
0100
0000
0010
0100
1000
0000
1000
0010
,
1000
0100
0010
0000
0001
0100
0010
1000
0001
0000
0010
0100
1000
0001
0100
0000
,
0010
1000
0001
1000
0100
0000
0100
0010
0100
0000
0010
0001
1000
0000
1000
0010
,
1000
0100
0010
0000
0001
0100
0010
1000
0001
0000
0001
0010
0001
0100
0010
0000
,
1000
0100
0010
0001
0100
0000
0100
0010
1000
0000
1000
0000
0101
0000
1000
0000
,
0001
0000
0010
0000
1100
0000
0001
0000
1000
0000
0010
0000
1000
0100
0010
0001
,
0100
0010
1000
0100
0010
0001
0100
0010
1000
0100
0010
0001
0200
0000
0000
0000
,
0000
0000
0000
0300
;

//--------------- dance-double - forcednature ----------------
#NOTEDATA:;
#STEPSTYPE:dance-double;
#DESCRIPTION:forcednature;
#DIFFICULTY:Easy;
#METER:7;
#RADARVALUES:0,0,0,0,0;
#CREDIT:forcednature;
#NOTES:
00000000
00000000
00000000
00000000
,
00000000
00000000
00000000
00000000
,
00000000
00000000
00000000
00000000
,
00000000
00000000
00000000
00000000
,
00000000
00000000
00000000
00000000
,
00000000
00000000
00000000
00000000
,
00000000
00000000
00000000
00000000
,
00000000
00000000
00000000
00000000
,
00000000
00000000
00000000
00000000
,
00000000
00000000
00000000
00000000
,
00022000
00000000
00000000
00000000
,
00003000
00000000
00000000
00000000
,
00030200
00000000
00000000
00000000
,
00002300
00000000
00003002
00000000
,
00000203
00000000
00000010
00000000
,
00000302
00000000
00001000
00000000
,
00000023
00000000
00000100
00000000
,
00000032
00000000
00001003
00000000
,
00020010
00000000
00000000
00000000
,
00032000
00000000
00203000
00000000
,
00320000
00000000
00000000
00000000
,
20030000
00000000
30200000
00000000
,
02300000
00000000
00000000
00000000
,
03002000
00000000
00023000
00000000
,
00030200
00000000
00000000
00000000
,
00002300
00000000
00003002
00000000
,
00000003
00000100
00000100
00000100
,
00000000
00000010
00001000
00000010
,
00000000
00010000
00001000
00010000
,
00000000
00001000
00001000
00001000
,
00000000
00100000
00100000
00100000
,
00000000
00010000
10000000
00010000
,
00000000
01000000
00010000
01000000
,
00000000
00100000
00100000
00100000
,
00000000
10000000
00010000
10000000
,
00000000
01000000
10000000
01000000
,
00000000
00100000
01000000
00100000
,
00000000
00010000
00100000
00010000
,
00000000
00100000
00001000
00100000
,
00000000
00001000
00010000
00001000
,
00000000
00010000
00000010
00010000
,
00000000
00011000
00000000
00000000
,
00000000
00000100
00001000
00000100
,
00000000
00001000
00000001
00001000
,
00000000
00000010
00001000
00000010
,
00000000
00010000
00001000
00010000
,
00010000
00001000
01000000
00001000
,
00000000
01000000
00010000
01000000
,
00000000
00100000
01000000
00100000
,
00000000
10000000
10000000
10000000
,
00000000
01000000
10000000
01000000
,
00000000
00100000
01000000
00100000
,
00000000
00010000
00100000
00010000
,
00000000
00100000
00001000
00100000
,
00000000
00001000
00001000
00001000
,
00000000
00010000
00000010
00010000
,
00000000
00010100
00000000
01001000
,
00000000
00011000
00000000
00000000
,
00000000
00010000
00000000
00010000
,
00000100
00001000
00000000
00001000
,
00000001
00000100
00000000
00000100
,
00000010
00001000
00000000
00001000
,
00000100
00010000
00000000
00001000
,
01000000
00010000
00000000
10000000
,
00010000
00100000
00000000
01000000
,
00000000
10000000
00010000
10010000
,
00000000
00010000
01000000
00001000
,
00000000
00010000
00000100
00001000
,
00000000
00000010
00010000
00001000
,
00000000
00100000
00001000
00010000
,
00000000
00011000
00000000
00100000
,
00000000
00011000
00000000
00000010
,
00000000
00010000
00010000
00001000
,
00001000
01000000
00010000
01000000
,
00010000
00200000
00000000
00000000
,
00000000
00000000
00000000
00000000
,
00000000
00300000
00000000
00000000
,
00000000
00000000
00000000
00000000
,
00000000
10010000
00000000
01000000
,
00000000
00011000
00000000
00100000
,
00000000
00011000
00000000
00010010
,
00000000
00000010
00001000
00000010
,
00001000
00000002
00000003
00000010
,
00000100
00001000
00000100
00010000
,
00001000
00010000
00001000
01000000
,
01000000
00010000
10000000
00010000
,
00100000
01000000
00000000
10000000
,
01000000
00100000
00010000
00100000
,
00001000
00010000
00000010
00001000
,
00001000
00000001
00001000
00000100
,
00000010
00000001
00000000
00000100
,
00000100
00000010
00001000
00000001
,
00000001
00000010
00000100
00001000
,
00001000
00000010
00010000
00001000
,
00010000
00011000
00000000
00001000
,
00001000
01000000
00010000
10000000
,
10000000
01000000
00100000
00010000
,
00100000
00001000
00010000
00000010
,
00000010
00000100
00000100
00002002
,
00000000
00000000
00000000
00003003
;

//--------------- dance-double - forcednature ----------------
#NOTEDATA:;
#STEPSTYPE:dance-double;
#DESCRIPTION:forcednature;
#DIFFICULTY:Medium;
#METER:12;
#RADARVALUES:0,0,0,0,0;
#CREDIT:forcednature;
#NOTES:
00000000
00000000
00000000
00000000
,
00000000
00000000
00000000
00000000
,
00000000
00000000
00000000
00000000
,
00000000
00000000
00000000
00000000
,
00000000
00000000
00000000
00000000
,
00000000
00000000
00000000
00000000
,
00000000
00000000
00000000
00000000
,
00000000
00000000
00000000
00000000
,
00000000
00000000
00000000
00000000
,
00000000
00000000
00000000
00000000
,
00002000
00010000
01000000
01000000
,
00010000
00010000
00100000
00100000
,
02003000
00010000
00010000
00010000
,
03200000
00000000
00000000
00000000
10000000
00000000
00000000
00000000
20300000
00000000
01000000
00000000
31000000
00000000
00000000
10000000
,
00100000
10000000
00100000
10000000
00100000
10000000
00100000
10000000
,
01000000
00010000
01000000
00010000
01000000
00010000
01000000
00010000
,
00001000
00000100
00000010
00000100
00000001
00000100
00000010
00000100
,
00002000
00000000
00020000
00033000
,
02002000
00000000
00000000
00000000
00000000
00000000
00000000
00003000
,
00000000
00200000
03000000
00000000
00000000
20000000
00000000
00300000
,
00000000
00020000
00000000
30000000
00000000
00200000
00000000
00030000
,
00000000
00002000
00000000
00300000
00000000
00020000
00000000
00003000
,
00000000
00000020
00000000
00000000
00000000
00000000
00000000
00030000
,
00000000
00002000
00000000
00000030
00000000
00000002
00000000
00003000
,
00000000
00000020
00000000
00000000
00000000
00000000
00000000
00000003
,
00000000
00000200
00000000
00000030
00000000
00002000
00000000
00000300
,
00000000
00003000
00000000
00000000
00000000
00000000
00000000
00000000
00000000
00000000
00000000
00000000
00000000
00000000
00000000
00000000
00001001
00000000
00000000
00000000
00000000
00000000
00000000
00000000
00000000
00000000
00000000
00000000
00000000
00000000
00000000
00000000
00001001
00000000
00000000
00000000
00000000
00000000
00000000
00000000
00000000
00000000
00000000
00000000
00000000
00000000
00000000
00000000
00001001
00000000
00000000
00000000
00000000
00000000
00000000
00000000
00000000
00000000
00000000
00000000
00000000
00000000
00000000
00000000
,
00001001
00000000
00001000
00000100
00010000
00000000
00011000
00000000
,
00001000
01000000
00010000
10000000
00010000
00000000
00110000
00000000
,
11000000
00000000
00110000
00000000
11000000
00000000
10000000
00010000
,
00000000
00010000
01000000
00001000
00010000
00000000
00011000
00000000
,
00001000
00010000
00000100
00000000
00000110
00000000
00000011
00000000
,
00000110
00001100
00010100
00011000
,
00010000
00001000
00100000
00010000
00100000
00000000
01000000
01000000
,
10000000
00010000
01000000
00000000
01100000
00000000
10010000
00000000
,
11000000
00110000
11000000
00110000
,
00010000
00100000
00001000
00010000
00001000
00000000
00000110
00000000
,
00001001
00000000
00000110
00000000
00001001
00000000
00000100
00000100
,
00000000
00000001
00001000
00000010
00001000
00000000
00001100
00000000
,
00000100
00010000
00001000
00000000
00011000
00000000
01001000
00000000
,
00011000
01001000
00011000
01001000
,
01000000
00010000
20000000
00000000
00000000
00000000
30000000
00000000
,
01000000
01000000
00100000
00000000
01100000
00000000
10010000
00000000
,
01100000
00000000
00000000
00000000
10000000
00000000
00010000
00000000
01000000
00000000
00010000
00000000
00100000
00000000
00000000
00100000
,
00000000
00000000
00001000
00000000
00010000
00000000
00000010
00000000
00001000
00000000
00000010
00000000
00000100
00000000
00000000
00000100
,
00000000
00000000
00000001
00000000
00000010
00000000
00000100
00000000
00001000
00000000
00000000
00000000
00001001
00000000
00000000
00001001
,
00000000
00000001
00000100
00000000
00001010
00000000
00010100
00000000
,
00001010
00000000
00000000
00000000
00010000
00000000
00000100
00000000
00010000
00000000
00001000
00000000
01000000
00000000
00000000
01000000
,
00000000
00000000
00010000
00000000
10000000
00000000
01000000
00000000
10000000
00000000
00100000
00000000
01000000
00000000
00000000
01000000
,
00000000
00001000
00010000
00000100
00001000
00000100
00000020
00000000
,
00000000
00000000
00000130
00000100
00000100
00000000
00001001
00000000
,
00001000
00000000
00000001
00000000
00000100
00000000
00000010
00000000
00001000
00000000
00000010
00000000
00010000
00000000
00000000
00010000
,
00000000
00000000
00001000
00000000
00100000
00000000
00010000
00000000
00100000
00000000
01000000
00000000
10000000
00000000
00000000
10000000
,
00000000
00100000
01000000
00010000
01000000
00001000
00010000
00010000
,
00000100
00000100
00000010
00000000
00000110
00000000
00001001
00000000
,
00000110
00000000
00000000
00000000
00000001
00000000
00000100
00000000
00000001
00000000
00000010
00000000
00000100
00000000
00000000
00000100
,
00000000
00000000
00010000
00000000
00001000
00000000
01000000
00000000
00010000
00000000
00100000
00000000
01000000
00000000
00000000
10000000
,
00000000
00010000
02000000
00000000
00000000
00000000
03000000
00000000
,
00100000
00000000
00100000
00000000
20000000
00000000
00000000
01000000
00000000
00000000
01000000
00000000
00010000
00000000
00000000
00010000
,
00000000
00000000
00010000
00000000
00100000
00000000
00000000
00100000
00000000
00000000
00100000
00000000
30020000
00000000
00000000
01000000
,
00000000
00000000
01000000
00000000
00230000
00000000
00000000
00001000
00000000
00000000
00001000
00000000
00010000
00000000
00000000
00010000
,
00000000
00000000
00010000
00000000
00302000
00000000
00000000
00010000
00000000
00000000
00010000
00000000
01000000
00000000
00000000
01000000
,
00000000
00000000
01000000
00000000
00023000
00000000
00000000
00000100
00000000
00000000
00000100
00000000
00001000
00000000
00000000
00001000
,
00000000
00000000
00001000
00000000
00000010
00000000
00000000
00000010
00000000
00000000
00000010
00000000
00030200
00000000
00000000
00001000
,
00000000
00000000
00001000
00000000
00000320
00000000
00000000
00000001
00000000
00000000
00000001
00000000
00000100
00000000
00000000
00000100
,
00000000
00000130
00000010
00000000
00000110
00000000
00000220
00000000
,
00000330
00000000
00000000
00000000
00001002
00000000
00000000
00001000
00000000
00000000
00001000
00000000
00000100
00000000
00000000
00000100
,
00000000
00000000
00000100
00000000
00000010
00000000
00000000
00000010
00000000
00000000
00000010
00000000
00002003
00000000
00000000
00000100
,
00000000
00000000
00000100
00000000
00003020
00000000
00000000
00001000
00000000
00000000
00001000
00000000
00000001
00000000
00000000
00000001
,
00000000
00000000
00000001
00000000
00000100
00000000
00000000
00000100
00000000
00000000
00000100
00000000
00001000
00000000
00000000
00001000
,
00000000
00000000
00001000
00000000
00020030
00000000
00000000
00000100
00000000
00000000
00000100
00000000
00001000
00000000
00000000
00001000
,
00000000
00000000
00001000
00000000
02030000
00000000
00000000
10000000
00000000
00000000
10000000
00000000
00100000
00000000
00000000
00100000
,
00000000
00100000
03010000
01000000
00010000
01000000
00010000
00001000
,
00010000
00001000
00000100
00000001
00000100
00000001
00000010
00000010
,
00001000
00001000
00020000
00000000
00000000
00000000
00000000
00000000
,
00000000
00000000
00000000
00000000
,
00000000
00030000
00000000
00000000
00000000
00000000
00000000
00000000
,
00000000
00200000
00000000
00000000
,
00300000
11000000
01100000
00110000
,
00011000
00000101
00000110
00001010
,
00011000
00000000
01000000
00010000
01000000
00001000
00010000
00000100
,
00001000
00000100
00000010
00001000
00010000
00100000
01000000
01000000
,
01000000
00000000
01000000
00000000
20020000
00000000
00000000
00000000
30030000
00000000
00000000
00000000
10000000
00000000
00000000
01000000
,
00000000
00000000
00010000
00000000
00000000
00001000
00000000
00000000
01000000
00000000
00000000
00010000
00000000
00000000
00001000
00000000
,
00000000
00000010
00000000
00000000
00000200
00000000
00000000
00000000
00000302
00000000
00000000
00000000
00000013
00000000
00000000
00000100
,
00000000
00000000
00010000
00000000
00000000
00001000
00000000
00000000
01000000
00000000
00000000
00100000
00000000
00000000
10000000
00000000
,
00000000
00010000
00000000
00000000
00200000
00000000
00000000
00000000
00302000
00000000
00000000
00000000
00013000
00000000
00000000
00100000
,
00000000
00000000
10000000
00000000
00000000
01000000
00000000
00000000
00010000
00000000
00000000
00001000
00000000
00000000
00000100
00000000
,
00000000
00000001
00000000
00000000
00000020
00000000
00000000
00000000
00000230
00000000
00000000
00000000
00010300
00000000
00000000
00001000
,
00000000
00000000
00000100
00000000
00000000
00000001
00000000
00000000
00001000
00000000
00000000
00001000
00000010
00000000
00000010
00000000
,
00000010
00000000
00010000
00001000
00100000
00010000
01000000
01000000
,
01000000
00000000
00100000
00000000
00000000
10000000
00000000
00000000
01000000
00000000
00000000
00010000
00000000
00000000
00001000
00000000
,
00000000
00000010
00000000
00000000
00000100
00000000
00000000
00000100
00001000
00000000
00000000
00001000
00000001
00000000
00000100
00000000
,
00000010
00000000
00001000
00000000
00000000
00010000
00000000
00000000
01000000
00000000
00000000
00100000
00000000
00000000
10000000
00000000
,
00000000
00010000
00000000
00000000
10000000
00000000
00000000
10000000
01000000
00000000
00000000
01000000
00010000
00000000
00001000
00000000
,
00010000
00000000
00000010
00000000
00000000
00001000
00000000
00000000
00000100
00000000
00000010
00000000
00000100
00000000
00001000
00000000
,
00000000
00000001
00000000
00000000
00000100
00000000
00000000
00000100
00000010
00000000
00000000
00000010
00001000
00000000
00000100
00000000
,
00010000
00001000
01000000
00010000
00100000
01000000
10000000
10000000
,
00010000
00010000
01000000
00001000
00010000
00001000
00000020
00000000
,
00000000
00000000
00000000
00000030
;

//--------------- dance-double - forcednature ----------------
#NOTEDATA:;
#STEPSTYPE:dance-double;
#DESCRIPTION:forcednature;
#DIFFICULTY:Hard;
#METER:15;
#RADARVALUES:0,0,0,0,0;
#CREDIT:forcednature;
#NOTES:
00000000
00000000
00000000
00000000
,
00000000
00000000
00000000
00000000
,
00000000
00000000
00000000
00000000
,
00000000
00000000
00000000
00000000
,
00000000
00000000
00000000
00000000
,
00000000
00000000
00000000
00000000
,
00000000
00000000
00000000
00000000
,
00000000
00000000
00000000
00000000
,
00000000
00000000
00000000
00000000
,
00000000
00000000
00000000
00000000
,
00020000
00000100
00001000
00000010
,
00001000
00000100
00001000
00000010
,
00030200
00000001
00000010
00001000
,
00000320
00000000
00000000
00000000
00010000
00000000
00000000
00000000
00001030
00000000
00000010
00000000
00010000
00000000
00000000
00010000
,
00001000
00100000
00001000
00100000
00001000
00100000
00001000
00100000
,
00010000
00000010
00010000
00000010
00010000
00000010
00010000
00000010
,
00000200
00000001
00000010
00001000
,
00020300
00000000
00032000
00000000
,
02003000
00010000
00000000
00010000
00000000
00010000
00000000
00010000
,
00000000
00100000
00000000
00100000
00000000
10000000
00000000
03010000
,
00000000
01000000
00000000
01000000
00000000
00001000
00000000
00001000
,
00000000
00010000
00000000
00000100
00000000
00001000
00000000
00000100
,
00000000
00000010
00000000
00000010
00000000
00000010
00000000
00000010
,
00000000
00000001
00000000
00000001
00000000
00000100
00000000
00000100
,
00000000
00001000
00000000
00010000
00000000
00001000
00000000
00010000
,
00000000
00100000
00000000
01000000
00000000
00100000
00000000
20000000
,
00000000
30000000
00000000
00000000
00000000
00000000
00000000
00000000
00000000
00000000
00000000
00000000
00000000
00000000
00000000
00000000
11000000
00000000
00000000
00000000
00000000
00000000
00000000
00000000
00000000
00000000
00000000
00000000
00000000
00000000
00000000
00000000
00110000
00000000
00000000
00000000
00000000
00000000
00000000
00000000
00000000
00000000
00000000
00000000
00000000
00000000
00000000
00000000
11000000
00000000
00000000
00000000
00000000
00000000
00000000
00000000
00000000
00000000
00000000
00000000
00000000
00000000
00000000
00000000
,
00110000
00000000
00010000
01000000
00001000
00000000
00011000
00000000
,
00010000
00000100
00001000
00000100
00000010
00000000
00000110
00000000
,
00000100
00001000
00000001
00001000
00000010
00000000
00000100
00000100
,
00000000
00001000
00010000
00001000
00010000
00000000
01100000
00000000
,
10000000
01000000
00100000
00010000
01000000
00000000
00011000
00000000
,
00000100
00001000
00000010
00000100
00000001
00000000
00000110
00000000
,
00000001
00001000
00000100
00010000
00001000
00000000
01000000
01000000
,
00010000
00100000
01100000
00000000
11000000
00000000
00110000
00000000
,
01100000
00000000
10000000
00010000
01000000
00000000
00011000
00000000
,
00000100
00001000
00000001
00000100
00001000
00000000
00000110
00000000
,
00000001
00001000
00000010
00010000
00001000
00000000
00100000
00100000
,
00001000
00010000
00100000
00100000
01100000
00000000
10010000
00000000
,
10000000
01000000
00010000
00001000
00000010
00000000
00000110
00000000
,
00000001
00000100
00001000
00010000
00001000
00100000
00001000
00010000
,
00100000
10000000
00020000
00000000
00000000
00000000
00030000
00000000
,
00100000
01000000
01100000
00000000
10010000
00000000
01100000
00000000
,
10010000
00000000
00000000
00000000
00010000
00000000
01000000
00000000
00001000
00000000
00010000
00000000
00000100
00000000
00001000
00000001
,
00000000
00000001
00000100
00000000
00000010
00000000
00001000
00000000
00000010
00000000
00010000
00000000
00001000
00000000
00100000
00010000
,
00000000
00010000
01000000
00000000
00100000
00000000
10000000
00000000
00010000
00000000
10000000
00000000
01000000
00000000
00000000
01100000
,
00000000
10010000
00100000
00000000
00011000
00000000
01001000
00000000
,
00011000
00000000
00000000
00000000
00010000
00000000
00000100
00000000
00001000
00000000
00000100
00000000
00000010
00000000
00000001
00000100
,
00000000
00000100
00000010
00000000
00001000
00000000
00000100
00000000
00010000
00000000
00001000
00000000
01000000
00000000
00010000
10000000
,
00000000
10000000
01000000
00000000
00100000
00000000
00010000
00000000
00100000
00000000
00001000
00000000
00020000
00000000
00000000
00000000
,
00030000
00000000
00000010
00000010
00000010
00000000
00000101
00000000
,
00001000
00000000
00001000
00000000
00001000
00000000
00000100
00000000
00010000
00000000
00001000
00000000
00000010
00000000
00000100
00001000
,
00000000
00001000
00000001
00000000
00000100
00000000
00001000
00000000
00010000
00000000
00100000
00000000
01000000
00000000
00010000
10000000
,
00000000
10000000
01000000
00000000
00100000
00000000
00010000
00000000
00100000
00000000
00001000
00000000
00010000
00000000
00010000
00000000
,
00000010
00000010
00000101
00000000
00001010
00000000
00000101
00000000
,
00001010
00000000
00000000
00000000
00001000
00000000
00000100
00000000
00010000
00000000
00000100
00000000
00001000
00000000
00000010
00010000
,
00000000
00010000
00001000
00000000
00100000
00000000
01000000
00000000
10000000
00000000
00100000
00000000
00010000
00000000
00100000
01000000
,
00000000
01000000
00010000
00000000
20020000
00000000
00000000
00000000
00000000
00000000
00000000
00000000
30030000
00000000
00000000
00000000
,
10000000
00000000
00010000
00000000
10000000
00000000
00000000
01000000
00000000
00000000
00010000
00000000
00001000
00000000
00000000
00000100
,
00000000
00000000
00000001
00000000
00000010
00000000
00000000
00001000
00000000
00000000
00010000
00000000
00100000
00000000
00000000
00010000
,
00000000
00000000
00001000
00000000
00001000
00000000
00001000
00000000
00001000
00000000
00000000
00000000
00000010
00000000
00000000
00000100
,
00000000
00000000
00000010
00000000
00000001
00000000
00000000
00001000
00000000
00000000
00000001
00000000
00000100
00000000
00000000
00001000
,
00000000
00000000
00010000
00000000
00100000
00000000
00000000
00010000
00000000
00000000
00001000
00000000
00000010
00000000
00000000
00001000
,
00000000
00000000
00010000
00000000
01000000
00000000
00000000
00010000
00000000
00000000
00001000
00000000
00000100
00000000
00000000
00001000
,
00000000
00000000
00010000
00000000
00100000
00000000
00000000
10000000
00000000
00000000
01000000
00000000
00100000
00000000
00000000
00010000
,
00000000
01000000
00001000
00000000
00010000
00000000
00022000
00000000
,
00033000
00000000
00000000
00000000
00000100
00000000
00000000
00001000
00000100
00000000
00000010
00000000
00000001
00000000
00000000
00000100
,
00000001
00000000
00001000
00000000
00000010
00000000
00000000
00010000
00000010
00000000
00001000
00000000
00000100
00000000
00000000
00010000
,
00000100
00000000
00001000
00000000
00001000
00000000
00001000
00000000
00000010
00000000
00000000
00000000
00010000
00000000
00000000
00001000
,
00010000
00000000
00001000
00000000
01000000
00000000
00000000
00010000
01000000
00000000
00100000
00000000
10000000
00000000
00000000
01000000
,
10000000
00000000
00100000
00000000
01000000
00000000
00000000
01000000
00001000
00000000
00010000
00000000
00000100
00000000
00000000
00000100
,
00010000
00000000
00001000
00000000
00100000
00000000
00000000
00100000
00001000
00000000
00010000
00000000
00000010
00000000
00000000
00000010
,
00010000
00001000
00100000
00010000
00100000
01000000
10000000
00100000
,
01000000
00000000
00100000
00000000
01000000
00010000
01000000
00010000
01000000
00001000
01000000
00001000
00010000
00000100
00010000
00000100
,
00001000
00000100
00001000
00000100
00000020
00000000
00000000
00000000
00000000
00000000
00000000
00000000
00000000
00000000
00000000
00000000
,
00000000
00000000
00000000
00000000
,
00000000
00000030
00000000
00000000
00000000
00000000
00000000
00000000
,
00000000
00000002
00000000
00000000
,
00000003
00000110
00011000
01100000
,
00011000
00000110
00011000
01100000
,
00011000
00000000
01000000
00010000
00100000
00001000
00010000
00000010
,
00001000
00000000
00000100
00000000
00010000
00001000
00010000
00001000
00010000
00001000
00010000
00001000
01000000
00010000
01000000
00010000
,
10000000
01000000
10000000
01000000
00200000
00000000
00000000
00000000
00300000
00000000
00000000
00000000
01000000
00000000
00000000
10000000
,
00000000
00000000
00100000
00000000
00000000
10000000
00000000
00000000
01000000
00000000
00000000
00010000
00000000
00000000
00000100
00000000
,
00000000
00010000
00000000
00000000
00000010
00000000
00000000
00000010
00001000
00000000
00000000
00001000
00000100
00000000
00000100
00000000
,
00000100
00000000
00000010
00000000
00000000
00000001
00000000
00000000
00000100
00000000
00000000
00000001
00000000
00000000
00000010
00000000
,
00000000
00001000
00000000
00000000
00010000
00000000
00000000
00010000
00100000
00000000
01000000
00000000
00100000
00000000
00100000
00000000
,
00100000
00000000
10000000
00000000
00000000
00010000
00000000
00000000
10000000
00000000
00000000
01000000
00000000
00000000
00010000
00000000
,
00000000
00000010
00000000
00000000
00001000
00000000
00000000
00001000
00000100
00000000
00000000
00000000
00000010
00000000
00000000
00000001
,
00000000
00000000
00000100
00000000
00000000
00001000
00000000
00000000
01000000
00000000
00000000
00010000
00100000
00000000
00100000
00000000
,
00100000
00000000
00000000
00000000
01000000
00000000
10000000
00000000
00010000
01000000
00010000
01000000
00100000
00000000
00100000
00000000
,
00100000
00000000
10000000
00000000
00000000
10000000
01000000
00000000
00100000
00000000
00000000
00100000
00010000
00000000
01000000
00000000
,
00000000
01000000
00001000
00000000
00010000
00000000
00000000
00010000
00000100
00000000
00000000
00000100
00001000
00000000
00001000
00000000
,
00001000
00000000
00000001
00000000
00000000
00000001
00000100
00000000
00001000
00000000
00000000
00001000
00010000
00000000
00100000
00000000
,
00000000
00100000
10000000
00000000
01000000
00000000
00000000
01000000
00100000
00000000
00001000
00000000
00010000
00000000
00010000
00000000
,
00010000
00000000
00001000
00000000
00000000
00001000
00000100
00000000
00000010
00000000
00000000
00000010
00001000
00000000
00000100
00000000
,
00000000
00000100
00000010
00000000
00000001
00000000
00000000
00000001
00001000
00000000
00000010
00000000
00010000
00000000
00001000
00000000
,
00010000
00100000
01000000
10000000
01000000
00010000
00100000
00100000
,
01000000
00000000
01000000
00000000
00010000
00001000
00010000
00001000
00010000
00001000
00010000
00001000
00020000
00000000
00000000
00000000
,
00000000
00000000
00000000
00030000
;

//--------------- dance-double - forcednature ----------------
#NOTEDATA:;
#STEPSTYPE:dance-double;
#DESCRIPTION:forcednature;
#DIFFICULTY:Challenge;
#METER:17;
#RADARVALUES:0,0,0,0,0;
#CREDIT:forcednature;
#NOTES:
00000000
00000000
00000000
00000000
,
00000000
00000000
00000000
00000000
,
00000000
00000000
00000000
00000000
,
00000000
00000000
00000000
00000000
,
00000000
00000000
00000000
00000000
,
00000000
00000000
00000000
00000000
,
00000000
00000000
00000000
00000000
,
00000000
00000000
00000000
00000000
,
00000000
00000000
00000000
00000000
,
00000000
00000000
00000000
00000000
,
00021000
00001000
00100000
00100000
,
00001000
00001000
00000100
00030100
,
00000021
00000001
00000100
00000130
,
00012000
00000000
00000000
00000000
00010000
00000000
00000000
00000000
01003000
00000000
01000000
00000000
00010000
00000000
00000000
00010000
,
10000000
01000000
10000000
00100000
10000000
01000000
10000000
00100000
,
00010000
00001000
00010000
00000100
00010000
00001000
00010000
00000100
,
00001000
00000100
00000010
00000001
00001000
00000001
00000100
00000001
00001000
00000010
00010000
00001000
00100000
00010000
00100000
01000000
,
20000000
00000000
00020000
30030000
,
10000000
01000000
10000000
01000000
10000000
01000000
10000000
01000000
,
00010000
00001000
00010000
00001000
00000100
00000001
00000010
00000001
,
00001000
00000010
00001000
00000010
00010000
00001000
00010000
00001000
,
00100000
00010000
00100000
00010000
01000000
00100000
10000000
00010000
,
00100000
00001000
00100000
00001000
00100000
00001000
00100000
00001000
,
00010000
00000010
00010000
00000010
00001000
00000001
00001000
00000001
,
00000010
00000100
00000010
00000100
00000010
00000100
00000010
00000100
,
00010000
00001000
00010000
00001000
01000000
00010000
10000000
00200000
,
00000000
00300000
00000000
00000000
00000000
00000000
00000000
00000000
00000000
00000000
00000000
00000000
00000000
00000000
00000000
00000000
10010000
00000000
00000000
00000000
00000000
00000000
00000000
00000000
00000000
00000000
00000000
00000000
00000000
00000000
00000000
00000000
01001000
00000000
00000000
00000000
00000000
00000000
00000000
00000000
00000000
00000000
00000000
00000000
00000000
00000000
00000000
00000000
10010000
00000000
00000000
00000000
00000000
00000000
00000000
00000000
00000000
00000000
00000000
00000000
00000000
00000000
00000000
00000000
,
01001000
00000000
00001000
00010000
00000010
00000100
00001000
00010000
,
00000010
00000100
00000001
00000010
00001000
00000010
00000001
00000010
,
00001000
00000010
00000100
00010000
00001000
01000000
00100000
01100000
,
00000000
10010000
10000000
01000000
01100000
00000000
00101000
00000000
,
00010010
00000010
00000100
00001000
00000100
00000001
00000100
00001000
,
00000100
00000001
00000010
00001000
00010000
00001000
00000010
00001000
,
00010000
00001000
01000000
01000000
01010000
00000000
00001000
00001000
,
01000000
00100000
01100000
00000000
01001000
00000000
01100000
00000000
,
01001000
00000000
00001000
00010000
00100000
00010000
00001000
00010000
,
00100000
00010000
00001000
00000010
00000100
00000010
00001000
00000010
,
00000100
00000010
00000001
00000100
00001000
00010000
00001000
00101000
,
00000000
10000000
00100000
00100000
01100000
00000000
10010000
00000000
,
10000000
10000000
01000000
00100000
01000000
00010000
01000000
00100000
,
01000000
00010000
00001000
00000100
00000010
00000100
00001000
00000100
,
00000010
00000100
00000220
00000000
00000000
00000000
MMMM0330
00000000
,
00000001
00001000
00001010
00000000
00010100
00000000
00001010
00000000
,
00010100
00000000
00000000
00000000
00010000
00000000
00001000
00000000
01000000
00000000
00010000
00000000
00100000
00000000
01000000
10000000
,
00000000
01000000
10000000
00000000
00100000
00000000
10000000
00000000
01000000
00000000
00100000
00000000
00010000
00000000
01000000
00001000
,
00000000
01000000
00001000
00000000
00010000
00000000
00000100
00000000
00001000
00000000
00000100
00000000
00000010
00000000
00000000
00000110
,
00000000
00000000
00000001
00001000
00000001
00000000
00000000
00000000
00000101
00000000
00000000
00000000
00000011
00000000
00000000
00000000
,
00000101
00000000
00000000
00000000
00001000
00000000
00000100
00000000
00010000
00000000
00000100
00000000
00001000
00000000
00000010
00010000
,
00000000
00000010
00010000
00000000
00001000
00000000
00100000
00000000
00010000
00000000
00100000
00000000
01000000
00000000
10000000
00010000
,
00000000
10000000
00010000
00000000
01000000
00000000
00001000
00000000
00010000
00000000
00001000
00000000
00000020
00000000
00000000
00000000
,
MMMM0030
00000000
00000100
00000100
00001001
00000000
00000110
00000000
,
00001001
00000000
00001000
00000000
00000010
00000000
00010000
00000000
00001000
00000000
00010000
00000000
01000000
00000000
10000000
00010000
,
00000000
01000000
00010000
00000000
00100000
00000000
00001000
00000000
00010000
00000000
00001000
00000000
00000010
00000000
00000100
00001000
,
00000000
00000001
00001000
00000000
00000010
00000000
00010000
00000000
00001000
00000000
00010000
00000000
00100000
00000000
00100000
10000000
,
00100000
00000000
00100000
01000000
00010000
00000000
00000000
00000000
00110000
00000000
00000000
00000000
11000000
00000000
00000000
00000000
,
00110000
00000000
00000000
00000000
10000000
00000000
00100000
00000000
01000000
00000000
00100000
00000000
00010000
00000000
00001000
00010000
,
00000000
00000100
00001000
00000000
00001001
00000000
00000001
00000000
00000100
00000000
00000010
00000000
00010000
00000000
00001000
00100000
,
00000000
00010000
10000000
00000000
20020000
00000000
00000000
00000000
00000000
00000000
00000000
00000000
3003MMMM
00000000
00000000
00000000
,
10000000
00000000
00010000
00000000
10010000
00000000
10000000
01000000
00000000
01000000
00100000
00000000
00010000
00000000
01000000
00001000
,
00000000
00001000
00010000
00000000
00000100
00000000
00001000
00000010
00000000
00000010
00000100
00000000
00000001
00000000
00000010
00000100
,
00000000
00000100
00001000
00000100
00010000
00000000
00001000
00010000
00001000
00010000
00000010
00000000
00001000
00000000
00000100
00010000
,
00000000
00010000
00001000
00000000
01000000
00000000
00010000
00100000
00000000
01000000
10000000
00000000
00100000
00000000
01000000
00010000
,
00100000
00000000
00100000
00000000
01100000
00000000
00000000
01000000
10000000
00000000
01000000
00000000
00010000
00000000
00000000
01000000
,
10000000
00000000
01000000
00000000
00100000
00000000
00000000
00001000
00010000
00000000
00001000
00000000
00000100
00000000
00000000
00001000
,
00010000
00000000
00001000
00000000
00011000
00000000
00010000
00000100
00000000
00001000
00000100
00000000
00000010
00000000
00000001
00000100
,
00000000
00000010
00000100
00000000
MMMM1000
00000000
00000000
00000000
1000MMMM
00000000
00000000
00000000
MMMM1000
00000000
00000000
00000000
,
MMMMMMMM
00000000
00000000
00000000
00011000
00000000
00010000
00000010
00000000
00001000
00000010
00000000
00000100
00000000
00000001
00000010
,
00000000
00000100
00001000
00000000
00000010
00000000
00010000
00001000
00000000
00100000
00010000
00000000
01000000
00000000
00100000
10000000
,
01000000
00100000
01000000
00000000
01000000
00000000
01000000
00100000
01000000
10000000
00100000
00000000
01000000
00000000
00010000
00100000
,
00000000
00001000
00010000
00000000
00000010
00000000
00001000
00000001
00000000
00000010
00000100
00000000
00000110
00000000
00000000
00000010
,
00000001
00000000
00001000
00000000
00001001
00000000
00000001
00000100
00000000
00000010
00001000
00000000
00010000
00000000
01000000
00100000
,
00000000
10000000
00010000
00000000
10010000
00000000
10000000
01000000
00000000
00100000
00010000
00000000
00001000
00000000
00000100
00000010
,
00000000
00000001
00001000
00000000
00000100
00000000
00010000
00000000
00100000
00000000
00010000
00000000
00000010
00000000
00010000
00000000
,
01000000
00000000
00010000
00000000
00001000
01000000
00010000
01000000
00100000
10000000
00010000
10000000
01000000
00100000
00010000
00100000
,
00001000
00010000
00000010
00001000
MMMM0020
00000000
00000000
00000000
MMMM0000
00000000
00000000
00000000
MMMM0000
00000000
00000000
00000000
,
MMMM0000
MMMM0000
MMMM0000
MMMM0000
,
MMMM0000
00000030
00000000
00000000
00000000
00000000
00000000
00000000
,
00000000
0200MMMM
00000000
00000000
,
03000000
1001MMMM
0100MMMM
1001MMMM
,
MMMM0010
MMMM1001
MMMM0100
MMMM1001
,
0010MMMM
00000000
00010000
10000000
00100000
10000000
01000000
00010000
,
00001000
00000000
00010000
00000000
00000100
00001000
00000001
00001000
00000010
00010000
00001000
01000000
00010000
10000000
00010000
00100000
,
00001000
00010000
00001000
00010000
00000020
00000000
00000000
00000000
00000030
00000000
00000000
00000000
00000100
00000000
00000001
00001000
,
00000001
00000000
00000010
00000000
00000001
00001000
00000001
00000000
00000100
00000000
00001000
00010000
00001000
00000000
00100000
00000000
,
00001000
00010000
00001000
00000000
01000000
00000000
00100000
10000000
01000000
00000000
00100000
00010000
01000000
00000000
01000000
00010000
,
01000000
00000000
00001000
00000000
00010000
00000010
00001000
00000000
00000100
00000000
00001000
00000010
00010000
00000000
00001000
00000000
,
00000010
00000100
00000010
00000000
00000001
00000000
00000001
00000100
00000010
00000000
00000010
00010000
00001000
00000000
00001000
00100000
,
00001000
00000000
00010000
00000000
00100000
01000000
00100000
00000000
10000000
00000000
01000000
00100000
00010000
00000000
01000000
00000000
,
00100000
01000000
00010000
00000000
00100000
00000000
00001000
00010000
00000010
00000000
00001000
00000100
00001000
00000000
00000010
00000100
,
00000001
00000000
00000010
00000000
00000100
00001000
00000010
00000000
00010000
00000000
00001000
00100000
00010000
00000000
00010000
00000000
,
00010000
01000000
00100000
00000000
10000000
00000000
10000000
00000000
01000000
00010000
00001000
00010000
00000010
00000000
00000010
00001000
,
00000010
00000100
00000001
00000000
00000010
00000100
00001000
00000100
00000010
00000000
00000001
00001000
00000010
00010000
00001000
00000000
,
00100000
00010000
00100000
01000000
10000000
00000000
00100000
10000000
00010000
00000000
00100000
00001000
00010000
00000000
00010000
00000010
,
00010000
00001000
00100000
00000000
00010000
01000000
00001000
00010000
00001000
00000000
00000100
00000010
00000100
00000001
00001000
00000000
,
00000100
00010000
00001000
01000000
00010000
00000000
00010000
00100000
00010000
00000000
01000000
00100000
00010000
00000000
00010000
00001000
,
00010000
00000010
00001000
00000000
00000100
00001000
00000001
00000100
00000010
00000000
00000010
00001000
00000010
00000100
00000001
00000000
,
00000010
00000100
00001000
00000100
00010000
00000000
00010000
00001000
01000000
00000000
01000000
00000000
00100000
00000000
00010000
00000000
,
00000010
00000000
00010000
00000000
01000000
00000000
00001000
00000000
00000100
00000000
00001000
00000000
00000001
00000100
00000010
00001000
,
00000100
00010000
00001000
01000000
00010000
00100000
01000000
10000000
00010000
10000000
00100000
01000000
00020000
00000000
00000000
00000000
,
00000000
00000000
00000000
00030000
;
