#VERSION:0.83;
#TITLE:ECHIDNA;
#SUBTITLE:;
#ARTIST:HuΣeR;
#TITLETRANSLIT:;
#SUBTITLETRANSLIT:;
#ARTISTTRANSLIT:;
#GENRE:HYBRID BUCHIAGE TRANCE;
#CREDIT:;
#MUSIC:ECHIDNA.ogg;
#BANNER:ECHIDNA.png;
#BACKGROUND:ECHIDNA-bg.png;
#CDTITLE:./CDTitles/bm IIDX 24 SINOBUZ.png;
#SAMPLESTART:55.136;
#SAMPLELENGTH:15.000;
#SELECTABLE:YES;
#OFFSET:0.737;
#BPMS:0.000=146.000;
#STOPS:;
#TIMESIGNATURES:0.000=4=4;
#BGCHANGES:;
#FGCHANGES:;

//--------------- dance-single - forcednature ----------------
#NOTEDATA:;
#STEPSTYPE:dance-single;
#DESCRIPTION:forcednature;
#DIFFICULTY:Beginner;
#METER:4;
#RADARVALUES:0,0,0,0,0;
#CREDIT:forcednature;
#NOTES:
0000
0000
0000
0000
,
0000
0000
0000
0000
,
0000
0000
0000
0000
,
0000
0000
0000
0000
,
0000
0000
0000
0000
,
0000
0000
0000
0000
,
1000
0000
0001
0000
,
0000
0000
0001
0000
,
0100
0000
0010
0000
,
0000
0000
0010
0000
,
1000
0000
0001
0000
,
1000
0000
0000
0000
,
0001
0000
1000
0000
,
0001
0000
0000
0000
,
0010
0000
0010
0000
,
0100
0000
0100
0000
,
1000
0000
0001
0000
,
0100
0100
0100
0000
,
2002
0000
0000
0000
,
3003
0000
0000
0000
,
1000
0000
1000
0000
,
0001
0000
0001
0000
,
2002
0000
0000
0000
,
3003
0000
0000
0000
,
0001
0000
0001
0000
,
1000
0000
0010
0000
,
0110
0000
0000
0000
,
0100
0000
0000
0000
,
0001
0000
0000
0000
,
1000
0000
0100
0000
,
0010
0000
0000
0000
,
0001
0000
0000
0000
,
0100
0000
0100
0000
,
0010
0000
1000
0000
,
1001
0000
0000
0000
,
0001
0000
0010
0000
,
0001
0000
0000
0000
,
0100
0000
0010
0000
,
1000
0000
0001
0000
,
1000
0000
0100
0000
,
0010
0010
0010
0000
,
0100
0100
0100
0000
,
2002
0000
0000
0000
,
0000
0000
3003
0000
,
0002
0000
0003
0000
,
0200
0000
0300
0000
,
0020
0000
0030
0000
,
2000
0000
3000
0000
,
0001
0000
1000
0000
,
0000
0000
1000
0000
,
0100
0000
0010
0000
,
0000
0000
0010
0000
,
2002
0000
0000
0000
,
0000
0000
3003
0000
,
0001
0000
0000
0000
,
1000
0000
0010
0000
,
0000
0110
0000
1001
,
0000
0110
0000
1001
,
0000
1000
1000
0001
,
0001
0100
0010
0000
,
1001
0000
0001
0000
,
0010
0000
0100
0000
,
1000
0000
0001
0000
,
0100
0000
0010
0010
,
0010
0000
1000
0000
,
0001
0010
0001
0000
,
0100
0000
0010
0000
,
2002
0000
3003
0000
,
1000
0000
0001
0000
,
0100
0100
0010
0000
,
2002
0000
0000
0000
,
0000
0000
0000
0000
,
3003
0000
0000
0000
;

//--------------- dance-single - t7r ----------------
#NOTEDATA:;
#STEPSTYPE:dance-single;
#DESCRIPTION:t7r;
#DIFFICULTY:Easy;
#METER:9;
#RADARVALUES:0,0,0,0,0;
#CREDIT:t7r;
#NOTES:
0000
0000
0000
0000
,
0000
0000
0000
0000
,
0000
0000
0000
0000
,
0000
0000
0000
0000
,
0000
0000
0000
0000
,
0000
0000
0100
0000
,
1001
0000
1000
0000
,
0000
0001
0000
0000
1001
0000
0000
0000
,
0100
0000
1001
0000
,
0000
1000
0000
0000
1001
0000
0000
0000
,
1000
0100
0010
0100
,
1000
0010
0100
0000
,
0001
0010
0100
0010
,
0001
0100
0010
0000
,
1000
0100
1000
0000
0001
0100
0001
0000
,
1000
0010
1000
0000
0001
0010
0001
0000
,
1000
0001
1000
0001
1000
0001
1000
0000
,
0010
0100
0110
0000
,
2000
0000
0000
0000
0000
3200
0000
0000
,
0320
0000
0000
0000
0000
0000
0032
0000
0000
2000
0000
0000
0000
0000
3003
0000
,
1001
0101
1001
0101
,
1001
1100
1001
1100
,
0002
0000
0000
0000
0000
0023
0000
0000
,
0230
0000
0000
0000
0000
0000
2300
0000
0000
0002
0000
0000
0000
0000
3003
0000
,
1001
1010
1001
1010
,
1001
0011
2002
3003
,
0001
0100
0010
0100
,
0001
0010
0100
0010
,
0001
0100
0010
0100
,
1000
0100
0001
1001
,
1000
0000
0000
0100
0000
0000
0000
0000
0010
0000
0000
0010
0000
0000
0000
0000
,
0001
0000
0000
0100
0000
0000
0000
0000
0010
0000
0000
0010
0000
0000
0000
0000
,
1000
0100
1000
0000
0001
0100
0001
0000
,
1000
0010
0220
0330
,
2000
0010
0000
0001
,
3200
0000
0001
0000
0310
0100
1000
0000
,
0002
0010
0000
1000
,
0203
0000
1000
0000
0310
0100
0001
0000
,
1000
0200
0000
0000
0310
0000
0010
0000
,
0001
0100
0010
0000
1000
0100
0010
0000
,
0001
1000
0001
0000
1000
0010
1000
0000
,
0010
0100
0010
0100
0020
0000
0000
0000
,
1030
0000
0000
0000
,
0000
0000
0000
0000
,
0002
0000
0023
0000
,
0130
0100
2000
0000
,
3020
0000
0230
0000
,
0301
0001
2000
0000
,
3200
0000
0320
0000
,
0130
1000
0020
0000
,
0230
0000
0302
0023
,
0130
1000
2002
3003
,
2020
0000
0000
0000
,
0000
0000
0000
0000
,
3030
0000
0000
0000
,
0000
0000
1000
0002
,
1003
2100
3001
0102
,
1003
2010
3001
0012
,
1003
0100
1000
0000
0001
0100
0001
0000
,
1000
0001
0100
0000
2002
0000
3003
0000
,
1000
0001
0100
0010
,
1000
0000
0000
0100
0000
0000
0000
0000
1000
0000
0000
0000
0001
0000
0000
0000
,
1000
0010
0100
0001
,
0010
0000
0000
0001
0000
0000
0000
0000
0010
0000
0000
0010
0000
0000
0000
0000
,
0002
0000
0203
0000
,
0310
0000
1000
0000
0001
0000
2000
0000
0000
3100
0000
0000
,
0020
0000
0000
0032
0000
0000
0103
0000
0010
0000
0100
0000
,
0002
0000
0000
0000
,
1003
0000
0000
0010
,
1000
0100
1000
0100
1000
0001
1000
0000
,
0220
0000
0000
0000
,
0000
0000
0000
0000
,
0330
0000
0000
0000
;

//--------------- dance-single - forcednature ----------------
#NOTEDATA:;
#STEPSTYPE:dance-single;
#DESCRIPTION:forcednature;
#DIFFICULTY:Medium;
#METER:13;
#RADARVALUES:0,0,0,0,0;
#CREDIT:forcednature;
#NOTES:
0000
0000
0000
0000
,
0000
0000
0000
0000
,
0000
0000
0000
0000
,
0000
0000
0000
0000
,
0000
0000
0000
0000
,
0000
0000
0000
0000
0000
0000
0000
0000
0001
1000
0001
1000
0001
0000
0000
0000
,
0200
0000
0010
0000
,
0000
0000
0010
0000
0000
0010
0000
0000
0010
0000
0300
0000
0100
0000
0001
0000
,
0020
0000
0100
0000
,
0000
0000
0100
0000
0000
0130
0000
0000
1000
0001
1000
0001
1000
0000
0000
0000
,
0010
0100
0001
0000
0010
0100
1000
0000
,
0010
0100
0001
0100
0010
1000
1100
0000
,
0001
0010
0100
0000
1000
0010
0100
0000
,
0001
0010
0001
1000
0010
0000
0110
0000
,
0100
0001
0100
0001
0010
0100
0010
0100
,
1000
0010
1000
0010
0100
0001
0100
0001
,
1000
1000
0100
0100
0010
0010
0001
0001
,
0100
0010
0100
0000
0010
0100
0010
0100
0020
0000
0000
0000
0030
0000
0000
0000
,
1001
0000
0000
0000
0000
0000
0000
0000
0000
0000
2000
0000
0000
3200
0000
0000
,
0320
0000
0000
0032
0000
0000
0203
0000
0000
0320
0000
0000
0000
0000
0000
0000
,
1030
0000
0000
1000
0100
0000
1000
0000
0001
0000
0000
0001
0100
0000
0001
0000
,
0010
0000
0000
0010
0100
0000
0010
0000
0001
0000
1000
0000
0001
1000
0001
0000
,
0100
0000
0000
0000
0000
0000
0000
0000
0000
0000
0002
0000
0000
0023
0000
0000
,
0230
0000
0000
2300
0000
0000
3020
0000
0000
0230
0000
0000
0000
0000
0000
0000
,
0301
0000
0000
0001
0010
0000
0001
0000
1000
0000
0000
1000
0010
0000
1000
0000
,
0100
0000
0000
0100
0010
0000
0100
0000
1000
0001
1000
0001
1000
0000
0000
0000
,
0010
0100
0001
0100
0000
0100
0001
1000
,
0000
0010
1000
0001
0000
0001
0010
0100
,
0000
1000
0010
1000
0000
0001
0010
0001
,
0000
0000
0100
0000
0010
0000
0100
0000
0001
0000
1000
0001
0000
1000
0000
1001
,
0000
0001
0010
0100
0000
0010
0100
1000
,
0000
1000
0010
0100
0000
0010
0100
0001
,
0000
1000
1000
0100
0100
0010
0010
0001
,
0001
0000
1000
0000
0001
1000
0001
0000
0100
0010
0100
0010
0100
0000
0000
0000
,
0001
0000
1000
0000
1010
0000
0000
0010
0100
0000
0001
0000
1000
0000
0010
0000
,
1000
0000
0001
0000
0011
0000
0000
0010
0100
0000
1000
0000
0020
0000
0000
0000
,
0130
0000
0001
0000
0011
0000
0000
0010
0100
0000
1000
0000
0001
0000
1000
0000
,
0010
0000
0100
0000
0101
0000
0000
0000
0001
1000
0001
1000
0000
0001
0000
1001
,
0000
1000
0010
0100
0001
0100
0020
0000
,
1030
0001
0010
0001
1000
0100
1000
0001
,
0100
1000
0100
0001
0010
0001
1000
0010
,
1000
0001
1000
0000
0001
1000
0001
0000
0010
0100
0010
0100
0010
0000
0000
0000
,
0220
0000
0000
0000
,
0000
0000
0330
0000
,
2000
0000
0000
0000
3020
0000
0230
0000
0302
0000
0023
0000
,
0032
0000
0203
0000
0320
0000
2030
0000
0000
0000
3001
0010
,
0200
0000
0000
0000
0000
1300
0002
0000
0203
0000
0320
0000
,
2030
0000
3020
0000
0230
0000
0301
1000
0001
1000
0001
1000
,
0020
0000
0000
0000
0230
0000
0302
0000
0023
0000
0230
0000
,
0302
0000
0203
0000
2300
0000
3002
0000
0000
0000
0013
0001
,
2000
0000
0000
0000
0000
3010
0200
0000
0302
0000
2003
0000
,
3200
0000
0000
0000
0310
0000
0000
0000
1000
0001
1000
0001
1000
0000
0000
0000
,
2002
0000
0000
0000
,
0000
0000
0000
3003
,
0001
1000
0010
1000
,
0200
0000
0000
0000
0300
0000
0000
0000
1000
0001
1000
0001
1000
0000
0000
0000
,
0001
0100
0001
0100
0001
0000
0000
0000
1000
0100
1000
0100
1000
0000
0000
0000
,
0001
0010
0001
0010
0001
0000
0000
0000
1000
0010
1000
0010
1000
0000
0000
0000
,
0001
0010
0010
0100
1000
0010
0010
0100
,
0001
1000
0001
0000
1000
0001
1000
0000
0020
0000
0000
0000
0030
0000
0000
0000
,
0100
0000
0001
0100
0000
0010
0100
0000
0001
0000
1000
0010
0000
1000
0001
0000
,
1000
0000
0100
0010
0000
0100
1000
0000
0001
0000
0010
0000
0200
0000
0000
0000
,
0310
0000
0001
1000
0000
0001
0100
0000
0010
0000
1000
0001
0000
1000
0100
0000
,
1000
0000
0010
0100
0000
0001
0100
0000
0010
1000
0010
1000
0000
0001
0000
0002
,
0000
0000
0000
0000
0000
0000
0013
0000
0200
0000
0000
2300
0000
0000
3200
0000
,
0320
0000
0000
0032
0000
0000
2003
0000
3020
0000
0000
0000
0130
0000
0001
0000
,
0011
0000
0000
0000
1100
0000
0000
0000
0002
0000
0000
2003
0000
0000
3010
0000
,
0100
0000
0001
0000
0100
0010
0100
0000
0010
0000
1000
0000
0010
0100
0010
0000
,
2000
3000
0002
0003
,
1000
0001
1000
0000
0001
1000
0001
0000
0100
0010
0100
0010
0100
0000
0000
0000
,
2002
0000
0000
0000
,
0000
0000
0000
0000
,
3003
0000
0000
0000
;

//--------------- dance-single - 47R ----------------
#NOTEDATA:;
#STEPSTYPE:dance-single;
#DESCRIPTION:47R;
#DIFFICULTY:Hard;
#METER:16;
#RADARVALUES:0,0,0,0,0;
#CREDIT:47R;
#NOTES:
0000
0000
0000
0000
,
0000
0000
0000
0000
,
0000
0000
0000
0000
,
0000
0000
0000
0000
,
0000
0000
0000
0000
,
0000
0000
0000
0000
0000
0000
0000
0000
0100
0010
0100
0010
0100
0000
0000
0000
,
2001
0000
0010
0000
,
0000
0000
0100
0000
0000
0100
0000
0000
0010
0000
0000
0000
0000
3001
1000
0010
,
0200
0000
0001
0000
,
0000
0000
1000
0000
0000
1000
0000
0000
0301
1000
0100
0010
0002
0000
0000
0000
,
1003
0000
0000
0000
0001
0100
0001
1000
0000
0000
0000
0001
0010
0001
1000
0001
,
0000
0000
0000
1000
0020
0000
1030
0001
0000
0000
0000
1000
0001
0000
0001
1000
,
0001
0000
0000
1000
0100
0010
0100
1000
0000
0000
0001
0100
0010
0100
0001
1000
,
0000
0000
0001
0010
0002
0000
1003
0010
1000
0001
1000
0000
0010
0000
0100
0001
,
0100
0000
0100
0000
0010
1000
0001
1000
0100
0000
0100
1000
0001
1000
0010
1000
,
0001
0000
0001
0010
0002
0000
1003
0010
0100
0000
0100
0010
1000
0001
1000
0001
,
1000
0100
1000
0100
1000
0100
1000
0100
0010
0001
0010
0001
0010
0001
0010
0001
,
1000
0001
0200
0000
0310
1000
0001
1000
0020
0000
0000
0000
0130
0000
0000
0000
,
1002
0000
0000
0000
0000
0000
0000
0000
0000
0000
0023
0000
0000
0230
0000
0000
,
2300
0000
0000
3020
0000
0000
0032
0000
0000
0023
0000
0000
0000
0000
0000
0000
,
0130
0000
0001
1000
0100
0000
0001
0000
0100
0000
1000
0001
0100
0000
1000
0000
,
0100
0000
0001
1000
0010
0000
0001
0000
0010
0100
0001
0100
0000
0010
0000
1000
,
0002
0000
0000
0000
0000
0000
0000
0000
0000
0000
2003
0000
0000
3200
0000
0000
,
0302
0000
0000
0203
0000
0000
0320
0000
0000
0032
0000
0000
0000
0000
0000
0000
,
1003
0000
0100
0001
0100
0000
0010
0000
0001
0000
0100
1000
0100
0000
0010
0000
,
1000
0000
0001
0010
1000
0000
0010
0000
0220
0000
0000
0000
0330
0000
0000
0000
,
0001
0000
0010
0100
0000
1000
0000
1000
0001
0000
0010
0100
0000
1000
0000
1000
,
0001
0000
0100
0010
0000
1000
0000
1000
0001
0000
0100
0010
0000
1000
0000
1000
,
0010
0000
0100
0001
0000
0100
0000
0100
0010
0000
0100
1000
0000
1000
0000
0100
,
0010
0000
0100
0001
0000
0001
0010
0001
1000
0100
0010
0100
0000
0110
0000
1000
,
0100
0000
0010
0100
0000
0100
0000
0001
0100
0000
0010
0100
0000
0100
0000
1000
,
0010
0000
0100
0010
0000
0010
0000
0001
0010
0000
0100
0010
0000
0010
0000
1000
,
0001
0000
0100
0001
1000
0001
0010
0000
0001
0000
0100
0001
1000
0001
0010
0001
,
1000
0100
1000
0100
0010
0001
0010
0001
0200
0000
0000
0000
0310
0000
0000
0000
,
1001
0000
0001
0010
0100
1000
0000
0010
0100
0000
0001
0010
0100
1000
0000
0010
,
0100
0000
0001
1000
0100
0010
0000
0001
1000
0000
0010
0100
0002
0000
0000
0000
,
1003
0000
0100
0010
0001
0100
0000
0010
1000
0000
0100
0010
0001
0100
0000
0010
,
1000
0000
0001
0010
0100
1000
0001
1000
0010
0100
0001
0010
0000
0011
0000
0011
,
0000
0000
1000
0001
0200
0000
0320
0000
2030
0000
3001
0010
0200
0000
0000
0000
,
0310
0001
1000
0001
0200
0000
0310
1000
0001
1000
0100
0010
0001
0100
0010
1000
,
0001
0010
0001
1000
0200
0000
1300
0010
1000
0001
0200
0000
0310
1000
0001
0010
,
0100
1000
0100
1000
0001
0100
0001
0100
0020
0000
0000
0000
0030
0000
0000
0000
,
2001
0000
0000
0000
,
0000
0000
3020
0000
,
0230
0000
1000
0000
0310
0000
0020
0000
2030
0000
3200
0000
,
0320
0000
0032
0000
0203
0000
0320
0000
0001
0000
0130
0010
,
2000
0000
0100
0000
3001
0010
0002
0000
0203
0000
0320
0000
,
2030
0000
3200
0000
0320
0000
1030
0010
0100
1000
0010
0100
,
0002
0000
0010
0000
1003
0010
0200
0000
0301
0010
0100
1000
,
0020
0000
0230
0000
1300
0100
0002
0000
0013
0100
0001
0100
,
2000
0000
0010
0000
3001
0100
0020
0000
2030
0000
3001
0010
,
0200
0000
0000
0000
0000
0000
0000
0000
0301
0000
0000
0000
0100
0000
0000
0000
1000
0000
0000
0000
0010
0000
0000
0000
1000
0000
0000
0100
0000
0000
0010
0000
0000
0001
0000
0000
0200
0000
0000
0000
0000
0000
0000
0000
0000
0000
0000
0000
,
0320
0000
0000
0000
,
0000
0000
0000
0000
,
1030
0000
0001
0010
0000
0100
0000
0000
1000
0000
0001
0100
0000
0010
0000
0000
,
1000
0000
0001
0010
0000
0100
0000
0000
2002
0000
0000
0000
3003
0000
0000
0000
,
1000
0100
0010
0001
2000
0000
0000
0000
3001
0100
0010
1000
0002
0000
0000
0000
,
1003
0010
0100
0001
0020
0000
0000
0000
0031
0010
0100
1000
0020
0000
0000
0000
,
0130
0000
0001
0100
0010
1000
0001
0000
1000
0000
0100
0010
0001
1000
0010
0000
,
0100
0010
0100
0010
1000
0001
1000
0001
0020
0000
0000
0000
0130
0000
0000
0000
,
1000
0001
0010
0001
0100
0000
0010
0000
0010
1000
0001
0010
0100
0010
0001
0000
,
0100
0010
1000
0001
0010
0000
0100
1000
0001
0000
0100
0000
0010
1000
0010
1000
,
0100
0010
0001
0100
0000
0010
1000
0001
0010
0100
1000
0100
0010
0001
1000
0010
,
0100
0001
0010
0001
0000
0100
0010
1000
0001
0010
0100
1000
0000
1001
0000
0001
,
2000
0000
0000
3001
0100
0000
0001
0000
0012
0000
0000
1003
0010
0000
1000
0000
,
1020
0000
0000
0130
0020
0000
0031
0000
0010
0200
0000
0000
0302
0000
0023
0000
,
0230
0000
0301
0100
0020
0000
0031
0100
0020
0000
0031
0010
0000
0010
1000
0000
,
0100
0010
0100
0010
0100
0010
0100
0010
0001
1000
0001
1000
0001
1000
0001
1000
,
0020
0000
0000
0000
0230
0000
0000
0000
0302
0000
0000
2003
0000
0000
3200
0000
,
1300
0010
0100
0001
0010
0001
0100
0010
2000
0000
0000
0000
3000
0000
0000
0000
,
0220
0000
0000
0000
,
0000
0000
0000
0000
,
0330
0000
0000
0000
;

//--------------- dance-double - t7r ----------------
#NOTEDATA:;
#STEPSTYPE:dance-double;
#DESCRIPTION:t7r;
#DIFFICULTY:Easy;
#METER:9;
#RADARVALUES:0,0,0,0,0;
#CREDIT:t7r;
#NOTES:
00000000
00000000
00000000
00000000
,
00000000
00000000
00000000
00000000
,
00000000
00000000
00000000
00000000
,
00000000
00000000
00000000
00000000
,
00000000
00000000
00000000
00000000
,
00000000
00000000
00000000
00000000
,
01000000
00000000
10010000
00000000
,
10000000
01000000
00100000
00000000
,
00001000
00000000
00011000
00000000
,
00000100
00001000
00000001
00000000
,
00000100
00000010
00001000
00000001
,
00000010
00000100
00001000
00000000
,
00000100
00010000
00001000
01000000
,
00010000
10000000
00100000
00000000
,
10000000
01000000
10000000
00000000
00010000
01000000
00010000
00000000
,
00100000
00010000
00100000
00000000
00001000
00010000
00001000
00000000
,
00010000
00001000
00000010
00000001
,
00000100
00001000
00011000
00000000
,
00002000
00000000
00000000
00000000
00000000
02003000
00000000
00000000
,
03020000
00000000
00000000
00000000
00000000
00000000
20030000
00000000
00000000
00020000
00000000
00000000
00000000
00000000
30030000
00000000
,
10010000
10000000
01000000
00010000
,
00001000
00000100
00000001
00001000
,
00001002
00000000
00000000
00000000
00000000
00000023
00000000
00000000
,
00000230
00000000
00000000
00000000
00000000
00000000
00020300
00000000
00000000
00002000
00000000
00000000
00000000
00000000
00033000
00000000
,
00011000
00010000
00100000
10000000
,
00010000
00100000
00002000
00003000
,
00011000
00000000
00010000
00000000
,
00000100
00001000
00000001
00000000
,
00000010
00000000
00000001
00000000
,
00000100
00001000
00010000
00000000
,
00001000
00010000
01000000
10000000
,
00100000
01000000
00010000
00100000
,
00001000
00010000
00001000
00000100
,
00000001
00000000
00000010
00000100
00002000
00000000
00003000
00000000
,
00000002
00000010
00000000
00001003
,
00000001
00000100
00001000
00011000
,
00002000
00010000
00000000
00103000
,
00010000
00000000
01000000
00000000
00100000
10000000
00010000
00000000
,
10000000
02000000
00000000
00000000
03100000
00000000
00100000
00000000
,
00010000
00001000
00000010
00000100
,
00000001
00000010
00000100
00000000
00001000
00000100
00010000
00000000
,
00002000
00023000
01030000
10000000
,
00200000
00000000
00000000
00000000
,
00000000
00000000
00000000
00300000
,
20000000
00000000
32000000
00000000
,
03100000
00100000
00002000
00000000
,
00023000
00000000
00030020
00000000
,
00000130
00000100
00000002
00000000
,
00000023
00000000
00000230
00000000
,
00010300
00010000
00002000
00000000
,
00203000
00000000
00320000
20030000
,
30100000
00100000
02200000
03300000
,
20020000
00000000
00000000
00000000
,
00000000
00000000
00000000
00000000
,
30030000
00000000
00000000
00000000
,
00000000
00000000
00000000
00000000
,
00000001
00000010
00000100
00001000
,
00010000
00100000
01000000
10000000
,
00100000
00000000
00010000
00000000
00001000
00010000
00001000
00010000
,
00001000
00000010
00000220
00000330
,
00000001
00000100
00000010
00001000
,
00000001
00000000
00000000
00000010
00000000
00000000
00000000
00000000
00001000
00000000
00000000
00000000
00000000
00000000
00000000
00000000
,
00010000
00100000
01000000
00010000
,
10000000
00000000
00000000
01000000
00000000
00000000
00000000
00000000
00100000
00000000
00000000
00100000
00000000
00000000
00000000
00000000
,
00002000
00010000
02003000
00010000
,
03100000
00000000
10000000
00000000
00010000
00000000
20000000
00000000
00000000
31000000
00000000
00000000
,
00020000
00000000
00000000
00032000
00000000
00000000
00003100
00000000
00000010
00000000
00000100
00000000
,
00000002
00000000
00000000
00000000
,
00001003
00000000
00000100
00000000
,
00010000
00001000
00010000
00001000
00010000
00000000
01000000
00000000
,
22000000
00000000
00000000
00000000
,
00000000
00000000
00000000
00000000
,
33000000
00000000
00000000
00000000
;

//--------------- dance-double - forcednature ----------------
#NOTEDATA:;
#STEPSTYPE:dance-double;
#DESCRIPTION:forcednature;
#DIFFICULTY:Medium;
#METER:13;
#RADARVALUES:0,0,0,0,0;
#CREDIT:forcednature;
#NOTES:
00000000
00000000
00000000
00000000
,
00000000
00000000
00000000
00000000
,
00000000
00000000
00000000
00000000
,
00000000
00000000
00000000
00000000
,
00000000
00000000
00000000
00000000
,
00000000
00000000
00000000
00000000
00000000
00000000
00000000
00000000
00010000
00001000
00010000
00001000
00010000
00000000
00000000
00000000
,
00000200
00000000
00001000
00000000
,
00000000
00000000
00001000
00000000
00000000
00001000
00000000
00000000
00001000
00000000
00000300
00000000
00000100
00000000
00010000
00000000
,
00002000
00000000
01000000
00000000
,
00000000
00000000
01000000
00000000
00000000
01003000
00000000
00000000
00001000
00010000
00001000
00010000
00001000
00000000
00000000
00000000
,
01000000
00010000
00100000
00000000
01000000
10000000
00100000
00000000
,
10000000
01000000
00010000
00000000
00001000
00000010
00000001
00001000
,
00000100
00001000
00000010
00000000
00000100
00000001
00000010
00000000
,
00000001
00000100
00001000
00000000
00010000
00100000
10000000
00010000
,
00000000
10000000
01000000
00020000
00000000
00031000
00010000
02000000
,
00000000
03100000
00001000
00020000
00000000
00030010
00010000
00002000
,
00000000
00003010
00000100
00001000
00000100
00010000
00001000
01000000
,
00001000
00010000
00001000
00010000
00001000
00000000
00000000
00000000
00022000
00000000
00000000
00000000
00033000
00000000
00000000
00000000
,
01000000
00000000
00000000
00000000
00000000
00000000
00000000
00000000
00000000
00000000
00020000
00000000
00000000
00230000
00000000
00000000
,
02300000
00000000
00000000
03020000
00000000
00000000
00032000
00000000
00000000
00003020
00000000
00000000
00000000
00000000
00000000
00000000
,
00000130
00001000
00000001
00000010
00000001
00000100
00001000
00010000
,
00000010
00000000
00001000
00000000
00010000
00000000
01000000
00000000
00010000
00000000
00100000
00000000
00000000
01000000
00000000
01000000
,
00100000
00000000
00000000
00000000
00000000
00000000
00000000
00000000
00000000
00000000
02000000
00000000
00000000
03020000
00000000
00000000
,
00032000
00000000
00000000
00003020
00000000
00000000
00000230
00000000
00000000
00020300
00000000
00000000
00000000
00000000
00000000
00000000
,
00031000
00000100
00000001
00001000
00000010
00010000
00001000
00100000
,
01000000
00000000
00010000
00000000
00001000
00000000
00100000
00000000
00001000
00010000
00001000
00010000
00001000
00000000
00000000
00000000
,
01000000
00010000
00100000
01000000
00000000
00100000
00001000
00010000
,
00000000
00000010
00010000
00001000
00000000
00000010
00000100
00001000
,
00000001
00000100
00001000
00000100
00000000
00000010
00010000
00001000
,
00000000
00000000
01000000
00000000
00001000
00000000
00010000
00000000
01000000
00000000
10000000
00000000
00000000
00100000
00000000
00100000
,
00000000
10000000
01000000
00010000
00000000
01000000
00010000
00001000
,
00000000
00010000
00001000
00000010
00000000
00001000
00000010
00000001
,
00000000
00001000
00000010
00001000
00000100
00010000
00001000
01000000
,
00010000
00000000
00100000
00000000
00010000
00000000
01000000
00000000
00001000
00010000
00001000
00010000
00001000
00000000
00000000
00000000
,
01000000
00000000
00010000
00000000
00110000
00000000
00000000
00100000
01000000
00000000
10000000
00000000
00010000
00000000
00000000
00000000
,
00100000
00000000
00001000
00000000
00011000
00000000
00000000
00010000
00000010
00000000
00001000
00000000
00000002
00000000
00000000
00000000
,
00000103
00000000
00001000
00000000
00001100
00000000
00000000
00000100
00000001
00000000
00001000
00000000
00000010
00000000
00000000
00000000
,
00010000
00000000
00001000
00000000
00101000
00000000
00000000
00000000
00100000
00010000
00100000
00010000
00000000
01000000
00000000
01000000
,
00000000
00100000
10000000
01000000
00010000
00001000
00200000
00000000
,
00301000
00010000
00000010
00001000
00000100
00000001
00000100
00001000
,
00000010
00000100
00001000
00010000
00000010
00001000
00000001
00000010
,
00001000
00000000
00001000
00000000
00010000
00000000
00010000
00000000
00001000
00010000
00001000
00010000
00001000
00000000
00000000
00000000
,
00022000
00000000
00000000
00000000
,
00000000
00000000
00000000
00033000
,
01000000
00000000
00000000
00000000
00020000
00000000
20030000
00000000
30200000
00000000
20300000
00000000
,
32000000
00000000
03020000
00000000
00032000
00000000
00203000
00000000
00000000
00000000
00301000
00010000
,
00002000
00000000
00000000
00000000
00000000
00013000
00000020
00000000
00002030
00000000
00003002
00000000
,
00000023
00000000
00002030
00000000
00023000
00000000
02030000
00000000
00100000
00000000
13000000
00000000
,
10010000
00000000
00000000
00010000
01000000
00001000
00020000
00000000
00030020
00000000
00002030
00000000
,
00003002
00000000
00000023
00000000
00000230
00000000
00002300
00000000
00000000
00003010
00010000
00001000
,
00020000
00000000
00000000
00031000
01000000
00010000
02000000
00000000
03200000
00000000
20300000
00000000
,
30020000
00000000
00000000
00000000
00100000
00000000
00000000
00000000
01030000
00000000
00000000
01000000
00100000
00000000
00000000
00000000
,
20020000
00000000
00000000
00000000
,
00000000
00000000
00000000
30030000
,
10000000
01000000
00010000
00001000
,
00200000
00000000
00000000
00000000
00300000
00000000
00000000
00000000
00001000
00010000
00001000
00010000
00001000
00000000
00000000
00000000
,
00010000
00000100
00010000
00000100
00010000
00000000
00000000
00000000
00001000
00100000
00001000
00100000
00001000
00000000
00000000
00000000
,
00010000
00000010
00010000
00000010
00010000
00000000
00000000
00000000
00001000
01000000
00001000
01000000
00001000
00000000
00000000
00000000
,
00100000
00010000
01000000
00001000
00010000
00000100
00001000
00000010
,
00010000
00000000
00001000
00000000
00010000
00001000
00010000
00001000
00020000
00000000
00000000
00000000
00030000
00000000
00000000
00000000
,
00001000
00000000
00010000
00000100
00000000
00001000
00000100
00000000
00000010
00000000
00000001
00000100
00000000
00000010
00001000
00000000
,
00000010
00000000
00010000
00001000
00000000
00100000
00001000
00000000
00010000
00000000
00100000
00000000
02000000
00000000
00000000
00000000
,
03010000
00000000
10000000
00100000
00000000
10000000
00010000
00000000
00100000
00000000
01000000
10000000
00000000
00010000
00100000
00000000
,
00010000
00000000
01000000
00001000
00000000
00010000
00001000
00000000
00010000
00000010
00001000
00000010
00000000
00000100
00000000
00000120
,
00000000
00000000
00000000
00000000
00000000
00000000
00001030
00000000
00000002
00000000
00000000
00000023
00000000
00000000
00002030
00000000
,
00023000
00000000
00000000
02030000
00000000
00000000
23000000
00000000
30200000
00000000
00000000
00000000
00310000
00000000
00001000
00000000
,
00101000
00000000
00000000
00000000
00010010
00000000
00000000
00000000
00020000
00000000
00000000
00032000
00000000
00000000
00003010
00000000
,
00000001
00000000
00000001
00000000
00001000
00000000
00001000
00000000
00000001
00001000
00000001
00001000
00000001
00000000
00000000
00000000
,
00000200
00000000
00000000
00000000
00002300
00000000
00000000
00000000
00023000
00000000
00000000
00230000
00000000
00000000
10300000
00000000
,
00010000
00000000
01000000
00000000
00010000
00000000
00100000
00000000
00001000
00010000
00001000
00010000
00001000
00000000
00000000
00000000
,
00022000
00000000
00000000
00000000
,
00000000
00000000
00000000
00000000
,
00033000
00000000
00000000
00000000
;

//--------------- dance-double - 47R ----------------
#NOTEDATA:;
#STEPSTYPE:dance-double;
#DESCRIPTION:47R;
#DIFFICULTY:Hard;
#METER:16;
#RADARVALUES:0,0,0,0,0;
#CREDIT:47R;
#NOTES:
00000000
00000000
00000000
00000000
,
00000000
00000000
00000000
00000000
,
00000000
00000000
00000000
00000000
,
00000000
00000000
00000000
00000000
,
00000000
00000000
00000000
00000000
,
00000000
00000000
00000000
00000000
00000000
00000000
00000000
00000000
00001000
00010000
00000100
00001000
00000100
00010000
00001000
00000000
,
00200000
00000000
00010000
00000000
,
00000000
00000000
01000000
00000000
00000000
01000000
00000000
00000000
00010000
00000000
00000000
00300000
00000000
00100000
00001000
00010000
,
00000020
00000000
00001000
00000000
,
00000000
00000000
00000100
00000000
00000000
00000100
00000000
00000000
00001030
00000010
00000100
00000001
00000100
00000010
00001000
00000000
,
00000001
00000000
00000010
00000000
00001000
00000000
00010000
00000100
00000000
00000000
00001000
00000000
00000001
00000000
00000100
00001000
,
00000000
00000000
00010000
00000000
00100000
00000000
10000000
01000000
00000000
00000000
10000000
00000000
00100000
00000000
00010000
00001000
,
00010000
00000000
01000000
00000000
00100000
00001000
00010000
00001000
00000000
00000000
00010000
00000000
00000010
00001000
00000001
00001000
,
00000000
00000000
00000001
00000000
00000100
00000010
00001000
00000100
00010000
00001000
00010000
00000000
00001000
00000000
00010000
00001000
,
00010000
00000000
00010000
00000000
00001000
01000000
00010000
10000000
00010000
00000000
00010000
00000000
10000000
01000000
00100000
00010000
,
10000000
00000000
10000000
00000000
00100000
01000000
00001000
00010000
00001000
00000000
00001000
00000000
00010000
00000100
00001000
00000001
,
00001000
00000100
00001000
00000100
00001000
00000100
00001000
00000100
00010000
00001000
00010000
00001000
00010000
00001000
00010000
00001000
,
01000000
00000000
00100000
00000000
00010000
00001000
00010000
00000000
00001000
00000000
00000010
00000000
00000001
00000000
00000000
00000000
,
00001001
00000000
00000000
00000000
00000000
00000000
00000000
00000000
00000000
00000000
00000002
00000000
00000000
00000203
00000000
00000000
,
00002300
00000000
00000000
00023000
00000000
00000000
02030000
00000000
00000000
23000000
00000000
00000000
00000000
00000000
00000000
00000000
,
30100000
01000000
00010000
10000000
00100000
00000000
10000000
00000000
01000000
00010000
00001000
00100000
00001000
00000000
00010000
00000000
,
00000010
00001000
00000001
00000100
00000010
00000000
00001000
00000000
00000001
00000010
00001000
00000010
00000000
00000110
00000000
00000100
,
00010000
00000000
00000000
00000000
00000000
00000000
00000000
00000000
00000000
00000000
20000000
00000000
00000000
32000000
00000000
00000000
,
03020000
00000000
00000000
00032000
00000000
00000000
00003200
00000000
00000000
00000302
00000000
00000000
00000000
00000000
00000000
00000000
,
00000013
00000100
00001000
00000001
00000010
00000000
00000001
00000000
00000100
00001000
00010000
00000010
00010000
00000000
00001000
00000000
,
00100000
00010000
10000000
01000000
00100000
00000000
00010000
00000000
01000000
00010000
01000000
00001000
00010000
00001000
00100000
00000000
,
00010000
00000000
01000000
00010000
00000000
10000000
00000000
00010000
01000000
00000000
00010000
10000000
00000000
00010000
00000000
00100000
,
00001000
00000000
00010000
00001000
00000000
00010000
00000000
00000010
00001000
00000000
00000010
00000100
00000000
00000010
00000000
00001000
,
00000100
00000000
00000010
00000001
00000000
00001000
00000000
00000001
00000100
00000000
00001000
00010000
00000000
00001000
00000000
00010000
,
00100000
00000000
01000000
00010000
00000000
10000000
01000000
00000000
00010000
00001000
00010000
00001000
00000000
00011000
00000000
00001000
,
00000100
00000000
00000001
00000010
00000000
00000010
00000000
00000001
00000100
00000000
00001000
00010000
00000000
00010000
00000000
01000000
,
10000000
00000000
00100000
01000000
00000000
01000000
00000000
00100000
00010000
00000000
00001000
00000010
00000000
00000010
00000000
00000100
,
00001000
00001000
00000001
00000001
00000100
00000100
00001000
00001000
,
00010000
00100000
01000000
00000000
00010000
00100000
01000000
10000000
00020000
00000000
00000000
00000000
10000000
00000000
00000000
00000000
,
01030000
00010000
01000000
00100000
10000000
00100000
00000000
01000000
00010000
00000000
01000000
00001000
00010000
00001000
00000000
00010000
,
00000010
00000000
00001000
00000010
00000100
00000001
00000000
00000100
00000010
00000000
00001000
00000001
00000020
00000000
00000000
00000000
,
00000130
00001000
00000100
00000010
00000001
00000010
00000000
00000100
00001000
00000000
00000100
00010000
00001000
00010000
00000000
00001000
,
00100000
00000000
00010000
00100000
01000000
10000000
00010000
10000000
00100000
00010000
00001000
00010000
00000000
00011000
00000000
00011000
,
00000000
00000000
00001000
00000010
00000002
00000000
00000203
00000000
00002300
00000000
00003100
00000001
00000020
00000000
00000000
00000000
,
00000130
00001000
00000100
00010000
00002000
00000000
01003000
00010000
01000000
00001000
00010000
00001000
00100000
00010000
00100000
01000000
,
10000000
00100000
10000000
01000000
00020000
00000000
00031000
00010000
01000000
10000000
00200000
00000000
10300000
01000000
00010000
00001000
,
00100000
00010000
00100000
00001000
00010000
00000010
00001000
00000010
00000200
00000000
00000000
00000000
00000300
00000000
00000000
00000000
,
00002001
00000000
00000000
00000000
,
00000000
00000000
00003002
00000000
,
00000203
00000000
00001000
00000000
00000310
00000000
00000020
00000000
00002030
00000000
00003002
00000000
,
00000023
00000000
00002030
00000000
00023000
00000000
02030000
00000000
00000000
00000000
13000000
00100000
,
02000000
00000000
10000000
00000000
03100000
10000000
00020000
00000000
00230000
00000000
00302000
00000000
,
00023000
00000000
00030020
00000000
00000230
00000000
00000301
00000010
00000001
00001000
00000100
00001000
,
00000002
00000000
00000010
00000000
00000103
00001000
00020000
00000000
00030010
00001000
00000100
00010000
,
00002000
00000000
00203000
00000000
00310000
01000000
20000000
00000000
31000000
00010000
10000000
01000000
,
20000000
00000000
00100000
00000000
31000000
00010000
00002000
00000000
00003020
00000000
00000130
00001000
,
00000002
00000000
00000000
00000000
00000000
00000000
00000000
00000000
00000103
00000000
00000000
00000000
00000001
00000000
00000000
00000000
00000010
00000000
00000000
00000000
00001000
00000000
00000000
00000000
00020000
00000000
00000000
00000000
00000000
00000000
00030010
00000000
00000000
00001000
00000000
00000000
00000100
00000000
00000000
00000000
00000000
00000000
00000000
00000000
00000000
00000000
00000000
00000000
,
00022000
00000000
00000000
00000000
,
00000000
00000000
00000000
00000000
,
00033000
00000000
00000000
00000000
,
00000000
00000000
00000000
00000000
00000000
00000000
00000000
00000000
10000000
01000000
00100000
00010000
00001000
00010000
00000010
00000000
,
00001000
00000100
00001000
00000100
00020000
00000000
00000000
00000000
00031000
01000000
00010000
01000000
00002000
00000000
00000000
00000000
,
00013000
00000010
00001000
00000010
00020000
00000000
00000000
00000000
00031000
00100000
00010000
00100000
00002000
00000000
00000000
00000000
,
00013000
00000000
00001000
00000100
00000000
00000001
00000000
00001000
00000100
00000000
00010000
00001000
00000000
00010000
00000000
01000000
,
10000000
00000000
00100000
01000000
00010000
00000000
00100000
00001000
00010000
00000000
00000000
00000000
00021000
00000000
00000000
00000000
,
00031000
00100000
00010000
00100000
00000000
00010000
10000000
01000000
10000000
00010000
01000000
00100000
01000000
00010000
00100000
00000000
,
00001000
00010000
00000100
00001000
00000000
00000100
00000010
00000001
00000100
00000000
00001000
00000000
00010000
00001000
00010000
00001000
,
00100000
00010000
00100000
00001000
00000000
00010000
00000010
00001000
00000010
00010000
00001000
00000010
00000100
00001000
00000100
00000010
,
00000001
00001000
00000010
00001000
00000000
00000001
00000010
00000001
00000100
00001000
00010000
00001000
00000000
00011000
00000000
00010000
,
00002000
00000000
00000000
01003000
00010000
00000000
00100000
00000000
00210000
00000000
00000000
00310000
10000000
00000000
00100000
00000000
,
00020000
00000000
00000000
00031000
00000010
00000000
00000100
00000000
00000120
00000000
00000000
00000000
00000031
00000000
00000100
00000000
,
00002000
00000000
00013000
00100000
02000000
00000000
03010000
00100000
02000000
00000000
03100000
00001000
00020000
00000000
00031000
00000000
,
00000010
00000000
00000001
00000100
00000001
00000000
00001000
00000000
00000100
00000000
00010000
00001000
00010000
00000000
00001000
00010000
,
00002000
00000000
00000000
00000000
00023000
00000000
00000000
00000000
00030200
00000000
00000000
00002300
00000000
00000000
00003002
00000000
,
00001003
00000100
00010000
00001000
00100000
00010000
01000000
00100000
20000000
00000000
31000000
00010000
00001000
00010000
01000000
00000000
,
02200000
00000000
00000000
00000000
,
00000000
00000000
00000000
00000000
,
03300000
00000000
00000000
00000000
;
