#VERSION:0.83;
#TITLE:EBONY & IVORY;
#SUBTITLE:;
#ARTIST:OSTER project;
#TITLETRANSLIT:;
#SUBTITLETRANSLIT:;
#ARTISTTRANSLIT:;
#GENRE:RAGTIME CHIPTUNE;
#CREDIT:;
#MUSIC:EBONY & IVORY.ogg;
#BANNER:EBONY & IVORY.png;
#BACKGROUND:EBONY & IVORY-bg.png;
#CDTITLE:./CDTitles/BeatStream.png;
#SAMPLESTART:12.699;
#SAMPLELENGTH:15.000;
#SELECTABLE:YES;
#OFFSET:0.000;
#BPMS:0.000=170.000
,164.000=113.333
,188.000=170.000
;
#STOPS:189.000=0.176
,190.500=0.175
,261.000=0.706
;
#TIMESIGNATURES:0.000=4=4,
164.000=3=4,
191.000=4=4
;
#BGCHANGES:0.000=EBONY & IVORY.mp4=1.000=0=0=0=StretchNoLoop====,
99999.000=-nosongbg-=1.000=0=0=0=StretchNoLoop====
;
#FGCHANGES:;

//--------------- dance-single - forcednature ----------------
#NOTEDATA:;
#STEPSTYPE:dance-single;
#DESCRIPTION:forcednature;
#CREDIT:forcednature;
#DIFFICULTY:Beginner;
#METER:4;
#RADARVALUES:0,0,0,0,0;
#NOTES:
0000
0000
0000
0000
,
0000
0000
0000
0000
,
0000
0000
0000
0000
,
0001
0001
0000
1000
,
1001
0000
0000
0000
,
0001
0000
0000
0000
,
0100
0000
0001
0000
,
0001
0000
0000
0000
,
1000
1000
1000
0000
,
1001
0000
0001
0000
,
0010
0000
0000
0000
,
0100
0000
1000
0000
,
0010
0010
0010
0000
,
1000
0000
0001
0000
,
0100
0000
0000
0000
,
0001
0010
0100
1000
,
0010
0000
0000
0000
,
1001
0000
1000
0000
,
0001
0000
0000
0000
,
0100
0000
0001
0000
,
1000
1000
1000
0000
,
0100
0000
0010
0000
,
0001
0000
1000
0000
,
0010
0010
0010
0000
,
0100
0000
0000
0000
,
1001
0000
0000
1000
,
0100
0000
0000
1000
,
0010
0000
0000
0100
,
0001
0000
0010
0000
,
1001
0000
0000
0001
,
0100
0000
0000
0001
,
0010
0000
0110
0000
,
1000
1000
1000
0000
,
1001
0000
0000
1000
,
0010
0000
0000
0001
,
0100
0000
0000
1000
,
0100
0000
0010
0000
,
0001
0000
0000
1000
,
0100
0000
0000
0001
,
0020
0000
0000
0030
,
0200
0000
0000
0300
,
0000
0000
0000
1000
,
0000
0000
0000
0000
,
0000
0001
0000
0000
,
0000
0000
0000
0100
,
0000
0000
0000
0000
,
0000
0010
0000
0000
,
1000
0000
0000
0000
,
0000
0001
0001
0100
,
0000
0010
0000
2002
,
0000
0000
0000
0000
,
0000
3003
0000
1000
,
0000
0000
0000
0100
,
0000
1000
0000
0010
,
0000
0000
0000
0100
,
0000
0001
0000
0010
,
0000
0010
0000
0001
,
0000
0001
0000
0100
,
0000
0010
0000
1000
,
1000
1000
0000
1001
,
0000
0000
0000
0001
,
0010
0100
0000
1001
,
0000
1000
0000
0010
,
0000
0100
0010
0220
,
0000
0000
0000
0330
,
0000
1001
0000
1000
,
0001
0100
1001
0000
;

//--------------- dance-single - forcednature ----------------
#NOTEDATA:;
#STEPSTYPE:dance-single;
#DESCRIPTION:forcednature;
#CREDIT:forcednature;
#DIFFICULTY:Easy;
#METER:9;
#RADARVALUES:0,0,0,0,0;
#NOTES:
0000
0000
0000
0000
,
0000
0000
0000
0000
,
0000
0000
0000
0000
,
0001
1000
0000
0001
0000
1000
0001
0000
,
0200
0300
0020
0030
,
1000
0100
0010
0010
,
0100
1000
0001
0001
,
0100
0010
1000
1000
,
0010
0100
0001
0001
,
0000
1000
0001
0000
0010
0000
0001
0000
,
0100
0000
0010
0000
1000
0002
0000
0000
,
0003
0001
0010
0000
0100
0000
0010
0000
,
0001
1000
0001
0000
0100
0000
0110
0000
,
0000
1000
0001
0000
0010
0000
0001
0000
,
0100
0010
0100
0000
0010
0000
1000
0000
,
0200
0320
0032
2003
,
3010
0000
0100
0110
,
0000
0001
1000
0000
0010
0000
0100
0000
,
0001
0000
0010
0000
0100
2000
0000
0000
,
3000
0010
0100
0000
0001
0000
0010
0000
,
0001
1000
0001
0000
0100
0000
0110
0000
,
0000
1000
0001
0000
0010
0000
0001
0000
,
1000
0010
1000
0000
0001
0000
0100
0000
,
0002
0023
0230
2300
,
3010
0000
0000
0000
1000
0001
1000
0000
,
1001
0000
0001
0000
0100
0000
0001
0010
,
0001
0000
1000
0000
0100
0000
1000
0010
,
1000
0000
0001
0000
0010
0000
0001
0100
,
0001
0010
0100
1000
,
0010
0000
0100
0000
0001
0000
0010
0100
,
0010
0000
0001
0000
1000
0000
0010
0100
,
0010
0000
1001
0000
,
0002
0023
0230
2300
,
3001
0000
0100
0000
0001
0100
0001
0000
,
1000
0000
0010
0000
1000
0010
1000
0000
,
0001
0000
0010
0000
0001
0010
0001
0000
,
0110
0000
1001
0000
,
1000
0000
0100
0000
1000
0010
1000
0000
,
0001
0000
0100
0000
0001
0010
0001
0000
,
2001
0100
0001
3010
,
1002
0000
0010
0000
,
0003
0001
0100
0010
,
1000
0010
0100
0001
,
1000
0000
0100
0020
0000
0000
0000
0000
,
0030
0100
1000
0001
,
0100
0000
0010
0000
1000
0001
1000
0000
,
0100
0000
0010
0002
0000
0000
0000
0003
,
2002
0000
3003
0220
0000
0330
1000
0000
,
0100
0000
1000
0000
0001
1000
0002
0000
,
0100
1000
0013
0210
,
0000
1000
0000
0320
,
0000
0000
0100
0000
0000
0000
0031
0010
,
0001
0000
0100
0000
0001
0000
1000
0010
,
1000
0000
0100
0000
1000
0000
0001
0010
,
0001
0000
0100
0000
0001
0000
1000
0010
,
1000
0000
0100
0000
1000
0000
0010
0100
,
0010
0000
1000
0100
0010
0000
0010
0100
,
0010
0000
0001
0100
0010
0000
1000
0100
,
1000
0000
0100
0010
0001
0000
0001
0100
,
0001
0000
0100
0010
1000
0000
2001
0000
,
0000
0000
0100
0000
0001
0000
3010
0010
,
0010
0100
0001
1002
,
0100
1000
0013
0220
,
0330
1001
0110
1002
,
0203
0320
2030
3200
,
0000
0000
0000
0310
0000
0000
0000
0000
0000
0001
0000
0001
,
1000
0000
1000
0010
0000
0000
2002
0000
0000
0000
0000
0000
,
0000
0000
0000
0000
,
3003
0000
0000
0000
;

//--------------- dance-single - forcednature ----------------
#NOTEDATA:;
#STEPSTYPE:dance-single;
#DESCRIPTION:forcednature;
#CREDIT:forcednature;
#DIFFICULTY:Medium;
#METER:13;
#RADARVALUES:0,0,0,0,0;
#NOTES:
0000
0000
0000
0000
,
0000
0000
0000
0000
,
0000
0000
0000
0000
,
0001
1000
0000
1001
0000
0001
0100
0010
,
2000
0000
0100
0000
0010
0010
3010
0000
,
0001
0000
0100
0000
0010
0000
0100
0000
0001
0000
0000
1000
0000
0000
0010
0000
,
1000
0000
0100
0000
0010
0000
0100
0000
1000
0000
0000
0001
0000
0000
0010
0000
,
0001
0000
0100
0000
1000
0000
0100
0000
0001
0000
0000
1000
0000
0000
0010
0000
,
1000
0000
0100
0000
0001
0000
0100
0000
1000
0000
0000
0001
0000
0000
0010
0000
,
0000
0000
0001
0000
0100
0000
0010
0100
0000
0010
0000
1000
0001
0000
0010
0000
,
0100
0000
0000
0000
0000
0000
0010
0000
0000
0000
0000
0000
0001
0000
0000
1000
0000
0000
0000
0000
0000
0100
0000
0000
0000
0000
0000
0000
0020
0000
0000
0000
0000
0000
0000
0000
0000
0000
0000
0000
0000
0000
0000
0000
0030
0000
0000
0000
,
0000
0000
0100
0000
1000
0000
0001
0100
0000
0000
0010
0000
0100
0000
0001
0000
,
2000
0000
3200
0000
0320
0000
0032
0000
0103
0000
0000
2002
0000
0000
3003
0000
,
0001
0000
0010
0000
0001
0000
0010
0100
0000
1000
0000
0100
0010
0000
0001
0000
,
1000
0000
0010
0000
1000
0001
0000
0200
0000
0000
0310
0000
1000
0000
0000
0000
,
0001
0001
0010
0010
0100
0100
1000
1000
,
0020
0000
0000
0030
1000
0001
1001
0000
,
0000
0000
1000
0000
0100
0000
0010
0100
0000
0010
0000
0001
1000
0000
0010
0000
,
0100
0000
0000
0000
0000
0000
0010
0000
0000
0000
0000
0000
1000
0000
0000
0001
0000
0000
0000
0000
0000
0100
0000
0000
0000
0000
0000
0000
0020
0000
0000
0000
0000
0000
0000
0000
0000
0000
0000
0000
0000
0000
0000
0000
0030
0000
0000
0000
,
0000
0000
0100
0000
0001
0000
1000
0100
0000
0000
0010
0000
0100
0000
1000
0000
,
0002
0000
0023
0000
0230
0000
2300
0000
3010
0000
0000
2002
0000
0000
3003
0000
,
1000
0000
0010
0000
1000
0000
0010
0100
0000
0001
0000
0100
0010
0000
1000
0000
,
0001
0000
0010
0000
0001
1000
0000
0200
0000
0000
0310
0000
0001
0000
0000
0000
,
1000
1000
0010
0010
0100
0100
0001
0001
,
0020
0000
0000
0030
0001
1000
1001
0000
,
0001
0010
0100
0010
0001
1000
0100
0001
,
0100
1000
0010
1000
0001
0100
1000
0100
,
0001
0010
0001
1000
0010
1000
0001
0100
,
0001
0010
0100
0010
0100
1000
0001
1000
,
0010
0100
1000
0100
0001
1000
0010
1000
,
0100
0001
0100
1000
0001
0010
0100
0000
,
1001
0000
0110
0000
,
2000
3200
0320
0032
0203
0320
2030
0000
,
3001
0100
1000
0100
0001
0100
0010
1000
,
0100
0001
0100
1000
0100
0001
0100
0010
,
0001
1000
0010
0001
0010
1000
0001
0000
,
0220
0000
0330
0000
1000
0001
1001
0000
,
1000
0010
0100
1000
0100
0010
1000
0001
,
0010
0100
0001
0100
0010
0001
1000
0000
,
0002
0100
0203
0010
0320
1000
1030
0001
,
2002
0000
0000
3003
,
0000
0000
1000
0100
1000
0001
0020
0000
,
0032
0000
0203
0000
0310
0000
1000
0001
,
0010
0000
0001
2000
0000
0000
0000
0000
,
3000
0000
0010
0100
0001
0100
0020
0000
,
1030
0000
0001
0000
0010
0100
1000
0000
,
0001
0000
0100
0020
0000
0000
0000
0030
,
2002
0000
3003
0220
0000
0330
1000
0100
,
1000
0010
0100
0001
0010
0001
0200
0000
,
0310
1000
0010
2000
0000
0000
3002
0000
0000
0023
0000
0000
,
0100
0000
0000
0030
0100
0000
2000
0000
0000
0000
0000
0000
3010
0000
0000
0000
0010
0000
0200
0000
0000
0000
0000
0000
,
0000
0000
0302
0000
0000
0000
1003
0100
,
0001
0100
1000
0100
0001
0100
1000
0001
,
0010
0000
0001
0000
1000
0000
0010
0000
0100
0010
0100
0000
0001
0000
0100
0000
,
1000
0100
0001
0100
1000
0100
0001
0010
,
0001
0000
1000
0000
0010
0000
1000
0000
0100
0000
0010
0100
0010
0000
0001
0000
,
0100
0010
1000
0100
0010
0001
0100
0010
,
1000
0100
0010
0001
0100
0010
0001
0010
,
1000
0010
0001
0010
1000
0010
0100
0001
,
0100
0010
0100
0000
0010
0000
1000
0000
0001
0000
0000
0000
2001
0000
0000
0000
,
0100
0000
0000
0000
0100
0000
0000
0000
0100
0000
0000
0000
3010
0000
1000
0010
,
1000
0010
0000
0100
0001
0000
0010
0000
0100
0000
0010
0000
1002
0000
0000
0000
,
0010
0000
0010
0000
0010
0000
0010
0000
0013
0000
0000
0000
0001
0000
0100
0001
,
0100
0001
0000
0100
0010
0000
1000
0000
0100
0000
1000
0000
1002
0000
0000
0000
,
0203
0000
0320
0000
2030
0000
3100
0010
,
0200
0000
0000
0301
0000
0000
0000
0000
0000
0100
1000
0010
,
0100
0001
0010
0100
0000
0000
2002
0000
0000
0000
0000
0000
,
0000
0000
0000
0000
,
3003
0000
0000
0000
;

//--------------- dance-single - forcednature ----------------
#NOTEDATA:;
#STEPSTYPE:dance-single;
#DESCRIPTION:forcednature;
#CREDIT:forcednature;
#DIFFICULTY:Hard;
#METER:17;
#RADARVALUES:0,0,0,0,0;
#NOTES:
0000
0000
0000
0000
,
0000
0000
0000
0000
,
0000
0000
0000
0000
,
1001
1001
0000
1200
0000
0310
0001
0100
,
0220
0000
0330
0000
1000
0001
1001
0000
,
1000
0000
0100
0000
0010
0000
0100
0000
1000
0000
0001
0010
0000
0100
0010
0000
,
0001
0000
0100
0000
0010
0000
0100
0000
0001
0000
1000
0010
0000
0100
0010
0000
,
1000
0000
0100
0000
0010
0000
0100
0000
1000
0000
0001
0010
0000
0100
0010
0000
,
0001
0000
0100
0000
0010
0000
0100
0000
0001
0000
1000
0001
0010
0000
0000
0000
,
0100
0000
1000
0000
0010
0100
0010
0100
0000
0001
0000
0001
0010
0000
0001
0000
,
0100
0000
0000
0000
0000
0000
0010
0000
0000
1000
0000
0000
0010
0000
0000
0100
0000
0000
0001
0000
0000
0200
0000
0000
0000
0000
0000
0000
0010
0000
0000
0000
0010
0000
0000
0000
0010
0000
0000
0000
0010
0000
0000
0000
0310
0000
0000
0000
,
0000
0000
1000
0100
1000
0100
1000
0010
0000
0000
0100
0000
0001
0000
0010
0000
,
0001
1000
0100
1000
0001
0010
0100
0010
0001
0000
0000
2002
0000
0000
3003
0000
,
1000
0000
0010
0000
0100
0001
0100
0001
0000
0010
0000
0010
0001
0000
0100
0000
,
0010
0000
1000
0000
0001
0010
0100
0010
0001
1000
0100
1000
0001
0000
0100
0000
,
0010
1000
0010
1000
0010
0100
0010
0100
0001
0100
0001
0100
0010
1000
0001
0000
,
2000
3200
0302
2003
3020
0032
0203
0300
,
1001
0000
0001
0000
0010
0100
0010
0100
0000
1000
0000
1000
0010
0000
1000
0000
,
0100
0000
0000
0000
0000
0000
0010
0000
0000
0001
0000
0000
0010
0000
0000
0100
0000
0000
1000
0000
0000
0200
0000
0000
0000
0000
0000
0000
0010
0000
0000
0000
0010
0000
0000
0000
0010
0000
0000
0000
0010
0000
0000
0000
0310
0000
0000
0000
,
0000
0000
0001
0100
0001
0100
0001
0010
0000
0000
0100
0000
1000
0000
0010
0000
,
1000
0001
0100
0001
1000
0010
0100
0010
1000
0000
0000
2002
0000
0000
3003
0000
,
1001
0000
1000
0000
0100
0010
0100
0010
0000
0001
0000
0001
1000
0000
0010
0000
,
0100
0000
0001
0000
1000
0100
0010
0100
1000
0001
0100
0001
1000
0000
0100
0000
,
0010
0001
0010
0001
1000
0100
1000
0100
1000
0010
0100
0010
1000
0001
0100
0000
,
0010
0000
0010
1000
0100
0000
0010
0001
0100
0000
0010
0000
1001
0000
0000
0000
,
1000
0100
0010
0000
0001
0010
0100
1000
0001
0000
1000
0100
0010
0001
1000
0000
,
0001
0100
0010
0000
1000
0010
0100
0001
1000
0000
0001
0100
0010
1000
0001
0000
,
1000
0100
0000
0010
0100
0000
1000
0010
0000
0100
0010
0000
1000
0001
0000
0100
,
0002
0000
0010
0000
0023
0000
0100
0000
0230
0000
1000
0000
1300
0001
1000
0000
,
0001
0100
0010
0000
1000
0010
0100
0001
1000
0000
0001
0100
0010
1000
0001
0000
,
1000
0100
0010
0000
0001
0010
0100
1000
0001
0000
1000
0100
0010
0001
1000
0000
,
1001
0000
0110
0000
,
1000
0100
1000
0000
0100
0000
0010
0100
0000
0010
0001
0010
0001
1000
0001
0000
,
1000
0100
0001
0000
0100
0000
1000
0001
0010
0000
0100
0000
0010
0001
1000
0000
,
0001
0100
1000
0000
0100
0000
0001
1000
0010
0000
0100
0000
0010
1000
0001
0000
,
0010
0100
0001
0000
0100
0000
0010
0001
1000
0000
0010
0000
1000
0001
0010
0000
,
0001
0100
0010
1000
0001
0000
0100
0000
0001
0010
0001
0010
0100
1000
0001
0000
,
1000
0010
0001
0000
0010
1000
0100
0000
0001
0000
0100
1000
0010
0000
1000
0000
,
0001
0010
1000
0000
0010
0001
0100
0000
0010
1000
0100
0000
1000
0010
0001
0000
,
0020
0000
0000
0000
1030
0001
1000
0001
0100
0001
0100
0001
1000
0010
0100
0001
,
2000
0000
3100
0010
0001
0100
0010
0000
,
1001
0000
0001
0001
0010
0100
2000
0000
,
3020
0000
0230
0000
0301
0000
0010
0001
,
1000
0000
0010
0200
0000
0000
0000
0000
,
0301
0000
0010
0001
1000
0010
2000
0000
,
3100
0000
0010
0000
0001
1000
0010
0000
,
0100
0000
0001
0020
0000
0000
0000
0030
,
0001
0000
0100
0000
0001
0000
0100
0000
0002
0003
0000
0000
1000
0000
0100
0000
1000
0000
0100
0000
2000
3000
0000
0000
0010
0000
0000
0000
0100
0000
0001
0000
,
0010
0000
0100
1000
0010
0000
1000
0001
0000
0001
1000
0000
0020
0000
0000
0000
,
0130
0001
0010
0200
0000
0000
1300
0000
0000
1002
0000
0000
,
0013
0001
0010
0200
0000
0000
1300
0010
0100
0002
0000
0000
,
0000
0000
0000
0000
0023
0000
0000
0000
0000
0000
0000
0000
0031
0000
1000
0100
,
0010
0000
0001
0000
1000
0000
0001
0100
0010
0000
1000
0000
0001
0000
0010
0100
,
1000
0000
0001
0000
1000
0000
0010
0100
0001
0000
1000
0000
0100
0000
0010
0001
,
0100
0000
0010
0000
0100
0000
0010
1000
0100
0000
0010
0000
0001
0000
1000
0010
,
0100
0000
0001
0000
1000
0100
1000
0000
0001
0000
1000
0100
0010
0001
0010
0001
,
1000
0100
0010
0000
0001
0100
0001
0100
0010
1000
0001
0000
0010
0100
0010
0100
,
1000
0010
0100
0000
0001
1000
0100
1000
0001
0010
0100
0000
0010
0001
0010
0001
,
1000
0100
1000
0001
1000
0010
1000
0010
0100
0001
1000
0001
0010
0100
0010
0100
,
1000
0100
1000
0100
0010
0001
0010
0001
1000
0010
0100
0001
2000
0000
0000
0000
,
0010
0000
0000
0001
0000
0001
0000
0000
3100
0000
1000
0000
0001
0000
0010
0100
,
0010
0001
0000
1000
0010
0100
0010
0100
0001
0000
1000
0000
1001
0000
0001
0010
,
0001
0010
0100
0010
0000
0100
1000
0100
1000
0000
0001
0000
0101
0000
0100
0010
,
1000
0010
0000
0100
0001
1000
0001
0000
0010
0100
1000
0000
2001
0000
0000
0000
,
3001
0010
0001
0010
0100
0010
0100
0010
0100
1000
0100
1000
0002
0000
0000
0000
,
0203
0000
0000
0310
0000
0000
0000
0000
0000
0100
0001
0010
,
0100
1000
0010
0100
0000
0000
2002
0000
0000
0000
0000
0000
,
0000
0000
0000
0000
,
3003
0000
0000
0000
;

//--------------- dance-single - forcednature ----------------
#NOTEDATA:;
#STEPSTYPE:dance-single;
#DESCRIPTION:forcednature;
#CREDIT:forcednature;
#DIFFICULTY:Challenge;
#METER:18;
#RADARVALUES:0,0,0,0,0;
#NOTES:
0000
0000
0000
0000
,
0000
0000
0000
0000
,
0000
0000
0000
0000
,
1001
1001
0000
0201
0000
0310
1000
1100
,
0110
0000
0000
0000
0010
0001
0010
0100
1000
0000
0001
0000
0200
0000
0000
0000
,
0310
0000
1000
0000
0100
0000
1000
0000
0001
0000
0100
1000
0000
0100
0001
0000
,
0010
0000
0001
0000
0100
0000
0001
0000
1000
0000
0100
0001
0000
0100
1000
0000
,
0010
0000
0100
0000
0001
0000
0100
0000
0010
0000
1000
0100
0000
0001
0100
0000
,
0010
0000
0001
0000
1000
0000
0100
0000
1000
0010
0100
0001
1000
0000
0000
0000
,
0001
0000
0010
0000
0100
0010
0001
1000
0000
1000
0000
0010
0100
0000
0001
0000
,
1000
0000
0000
0000
0000
0000
0100
0000
0000
1000
0000
0000
0001
0000
0000
0010
0000
0000
0001
0000
0000
0200
0000
0000
0000
0000
0000
0000
0320
0000
2030
0000
3020
0000
2030
0000
3020
0000
2030
0000
3020
0000
2030
0000
3020
0000
2030
0000
,
3000
0000
0001
0010
0100
0010
0001
1000
0000
0010
0100
0000
0001
0000
1000
0000
,
0100
1000
0010
0100
0001
0010
0100
1000
0010
0000
0000
0220
0000
0000
0330
0000
,
0001
0000
1000
0100
1000
0001
0010
0100
0000
0100
0000
1000
0010
0000
0100
0000
,
0001
0000
0010
0000
0001
1000
0100
1000
0001
0100
0001
1000
0010
0000
0100
0000
,
0001
0010
0001
0100
0010
1000
0100
1000
0010
0100
0001
0010
0100
1000
0010
0000
,
1000
0000
0000
0000
0000
0000
1000
0000
0000
0100
0000
0000
0010
0000
0000
0000
0000
0000
0100
0000
0000
0010
0000
0000
0001
0000
0000
0000
0000
0000
0010
0000
0000
0001
0000
0000
2000
0000
0000
0000
0000
0000
0000
0000
3000
0000
0000
0000
,
1001
0000
0001
0000
0100
0010
1000
0100
0000
0100
0000
1000
0001
0000
0010
0000
,
0001
0000
0000
0000
0000
0000
0100
0000
0000
0001
0000
0000
1000
0000
0000
0010
0000
0000
1000
0000
0000
0200
0000
0000
0000
0000
0000
0000
0320
0000
0032
0000
0023
0000
0032
0000
0023
0000
0032
0000
0023
0000
0032
0000
0023
0000
0032
0000
,
0003
0000
1000
0010
0100
0010
1000
0001
0000
0010
0100
0000
1000
0000
0001
0000
,
0100
0001
0010
0100
1000
0010
0100
0001
0010
0000
0000
0220
0000
0000
0330
0000
,
1001
0000
0001
0100
0001
1000
0010
0100
0000
0100
0000
0001
0010
0000
0100
0000
,
1000
0000
0010
0000
1000
0001
0100
0001
1000
0100
1000
0001
0010
0000
0100
0000
,
1000
0010
1000
0100
0010
0001
0100
0001
0010
0100
1000
0010
0100
0001
0010
0000
,
0001
0000
0000
0000
0000
0000
0001
0000
0000
0100
0000
0000
0010
0000
0000
0000
0000
0000
0100
0000
0000
0010
0000
0000
2000
0000
0000
0000
0000
0000
0001
0000
0000
0000
0000
0000
3002
0000
0000
0000
0000
0000
0000
0000
0003
0000
0000
0000
,
1000
0001
0010
0100
0010
0001
1000
0001
0010
0100
0010
0001
1000
0001
0010
0100
,
1000
0001
0100
0010
0100
0001
1000
0001
0100
0010
0100
0001
1000
0001
0100
0010
,
1000
0100
1000
0001
0100
0001
1000
0100
1000
0001
0100
0001
1000
0100
0010
0001
,
0200
0000
0310
1000
0200
0000
0310
0001
2000
0000
3010
0100
0002
0000
0023
0000
,
0031
1000
0010
0100
0010
1000
0001
1000
0010
0100
0010
1000
0001
0100
0010
1000
,
0001
0010
0100
0010
0001
1000
0001
0010
0100
0010
0001
1000
0001
0010
0100
1000
,
0020
0030
0000
0000
2002
3003
0000
0000
,
2000
0000
0100
0000
3200
0000
0010
0000
0320
0000
0001
0000
0031
1000
0001
1000
,
0001
0100
0010
0100
1000
0100
0001
0100
0010
0100
1000
0100
0001
1000
0010
0000
,
1000
0100
0010
0100
0001
0100
1000
0100
0010
0100
0001
0100
1000
0001
0010
0000
,
0100
1000
0010
1000
0001
1000
0010
1000
0100
1000
0010
1000
0001
0000
0100
0000
,
0110
0000
0001
0010
0100
0000
1000
0000
0010
0100
0001
0100
0010
1000
0001
0000
,
1000
0100
0010
0100
0001
0100
1000
0100
0010
0100
0001
0100
1000
0001
0010
0001
,
1000
0010
0100
0010
0001
0010
0100
0010
1000
0001
0100
0001
1000
0010
1000
0000
,
0001
0010
0100
0010
0001
0010
0100
0010
0001
1000
0100
1000
0001
0100
0010
1000
,
0002
0000
0000
0000
0103
0010
0100
0010
1000
0001
0100
0010
0100
0001
1000
0000
,
0020
0000
0000
0000
0000
0000
0130
0000
0000
0100
0000
0001
0010
0000
0000
0100
0000
0000
2000
0000
0000
0000
0000
0000
,
3020
0000
0000
0000
0000
0130
0001
0000
0000
0001
0000
0000
1000
0000
0000
0000
0000
0100
0010
0000
0000
0100
0000
0000
,
1000
0000
0000
0000
0000
0000
0000
0000
0000
0000
0000
0000
0000
0000
0000
0000
0000
0000
0000
0000
0000
0000
0000
0000
0001
0000
0000
0000
0000
0000
0000
0000
0000
0000
0000
0000
0000
0000
0000
0000
0010
0000
0000
0000
0000
0000
0000
0000
0001
0000
0000
0000
0000
0000
0000
0000
0000
0000
0000
0000
0000
0000
0000
0000
0000
0000
0000
0000
0200
0000
0000
0000
0000
0300
0000
0000
0000
0000
0000
0000
0020
0000
0000
0000
0000
0030
0000
0000
0000
0000
0200
0000
0000
0000
0000
0000
0320
0000
0000
0000
0000
0230
0000
0000
0000
0000
0320
0000
0000
0000
0000
0000
0230
0000
0000
0000
0000
0320
0000
0000
0000
0000
0230
0000
0000
0000
0000
0000
0320
0000
0000
0000
0000
0230
0000
0000
0000
0000
0320
0000
0000
0000
0000
0000
0230
0000
0000
0000
0000
0320
0000
0000
0000
0000
0230
0000
0000
0000
0000
0000
0320
0000
0000
0000
0000
0230
0000
0000
0000
0000
0320
0000
0000
0000
0000
0000
0230
0000
0000
0000
0000
0300
0000
0000
0000
0000
0000
0000
0000
0000
0000
0000
,
0002
0000
0000
0000
0000
0000
1003
0000
0000
0100
0000
1000
0010
0000
0000
0100
0000
0000
0002
0000
0000
0000
0000
0013
,
0100
0000
0000
0010
0000
0001
1000
0000
1000
0001
0000
0000
0010
0000
0000
0001
0000
0000
0100
0000
0000
0000
0000
0010
,
1000
0000
0000
0000
0000
0000
0000
0000
0000
0000
0000
0000
0000
0000
0000
0000
0000
0000
0000
0000
0000
0000
0000
0000
0100
0000
0000
0000
0000
0000
0000
0000
0000
0000
0000
0000
0000
0000
0000
0000
0000
0000
0000
0000
0000
0000
0000
0000
1000
0000
0000
0000
0000
0000
0000
0000
0000
0000
0000
0000
0000
0000
0000
0000
0000
0000
0000
0000
0000
0000
0000
0000
0002
0000
0000
0000
0000
0003
0000
0000
2000
0000
0000
0000
0000
3000
0000
0000
0002
0000
0000
0000
0000
0003
0000
0000
2000
0000
0000
0000
0000
3002
0000
0000
0000
0000
2003
0000
0000
0000
0000
0000
3002
0000
0000
0000
0000
2003
0000
0000
0000
0000
3002
0000
0000
0000
0000
0000
2003
0000
0000
0000
0000
3002
0000
0000
0000
0000
2003
0000
0000
0000
0000
0000
3002
0000
0000
0000
0000
2003
0000
0000
0000
0000
3002
0000
0000
0000
0000
0000
2003
0000
0000
0000
0000
3002
0000
0000
0000
0000
2003
0000
0000
0000
0000
0000
3002
0000
0000
0000
0000
0003
0000
0000
0000
0000
0000
0000
0000
0000
0000
0000
,
0010
0000
0100
0000
1000
0000
0001
0000
0200
0300
0000
0000
0010
0000
0100
0000
0001
0000
1000
0000
0200
0300
0000
0000
0010
0000
0001
0000
0010
0000
0001
0000
,
0100
0010
1000
0000
0100
1000
0100
1000
0010
0100
0001
0010
0200
0000
0000
0000
,
0310
0001
1000
0020
0000
0000
0230
0000
0300
2001
0000
0000
,
0100
0100
0100
3200
0000
0000
0310
0001
1000
0020
0000
0000
,
0000
0000
0000
0000
0200
0000
0000
0000
0000
0000
0330
0000
0001
1000
0100
0010
,
0100
1000
0001
0000
1000
0001
0100
0010
0100
0001
1000
0000
0010
0100
0001
1000
,
0001
0100
0010
0000
1000
0100
1000
0001
0100
0001
0010
0000
0001
0010
0100
0010
,
0001
1000
0100
0000
1000
0010
0100
0001
0100
0010
1000
0000
0100
0010
0001
1000
,
0001
0100
0010
0000
1000
0100
0000
0010
0100
0000
0010
0001
1000
0010
0100
0001
,
0100
0010
1000
0001
1000
0100
0010
0001
0010
0100
1000
0001
1000
0010
0100
0001
,
0100
0010
1000
0001
1000
0100
0010
0001
0010
0100
1000
0001
0100
0010
1000
0100
,
0010
0001
0100
0010
1000
0100
1000
0001
0100
0001
0010
0100
1000
0010
0100
0001
,
0010
0100
1000
0010
0100
0001
0010
0001
0100
0001
1000
0001
0100
0000
0010
1000
,
0010
1000
0001
0010
0000
0010
0000
0100
1000
0000
0001
0000
0100
0000
0100
1000
,
0100
0001
0000
0010
0001
0100
0010
1000
0200
0000
0310
0000
1001
0000
1000
0100
,
1000
0001
1000
0010
0000
0100
1000
0100
0010
0100
0001
1000
0010
0000
0100
0001
,
1000
0010
0000
1000
0100
0001
0100
1000
0001
0010
0001
0000
2000
3200
2300
3020
,
0230
0302
0023
0032
0203
0320
2030
3200
0320
0032
0203
0320
2030
0000
0000
0000
,
3002
0000
0000
0103
0000
0000
0000
0000
0000
0001
0010
1000
,
0001
0100
1000
0010
0000
0000
2002
0000
0000
0000
0000
0000
,
0000
0000
0000
0000
,
3003
0000
0000
0000
;

//--------------- dance-double - forcednature ----------------
#NOTEDATA:;
#STEPSTYPE:dance-double;
#DESCRIPTION:forcednature;
#CREDIT:forcednature;
#DIFFICULTY:Easy;
#METER:9;
#RADARVALUES:0,0,0,0,0;
#NOTES:
00000000
00000000
00000000
00000000
,
00000000
00000000
00000000
00000000
,
00000000
00000000
00000000
00000000
,
00010000
00001000
00000000
00001000
00000000
00100000
00010000
00000000
,
02000000
03000000
00200000
00300000
,
10000000
01000000
10000000
10000000
,
00100000
01000000
00010000
00010000
,
00100000
00001000
00010000
00010000
,
00000010
00001000
00000001
00000001
,
00000000
00001000
00000100
00000000
00001000
00000000
00000010
00000000
,
00010000
00000000
00001000
00000000
00100000
00020000
00000000
00000000
,
00030000
10000000
01000000
00000000
10000000
00000000
00100000
00000000
,
10000000
00010000
10000000
00000000
00010000
00000000
00100000
00000000
,
00000000
00001000
00010000
00000000
00000100
00000000
00001000
00000000
,
00000100
00000010
00000100
00000000
00000010
00000000
00000001
00000000
,
00002000
00003020
00020030
00032000
,
01003000
00000000
00010000
10010000
,
00000000
10000000
01000000
00000000
10000000
00000000
00100000
00000000
,
01000000
00000000
00010000
00000000
00100000
00002000
00000000
00000000
,
00003000
00010000
00001000
00000000
00010000
00000000
00000100
00000000
,
00001000
00000010
00001000
00000000
00000001
00000000
00000100
00000000
,
00000000
00000001
00000010
00000000
00000100
00000000
00000010
00000000
,
00000100
00001000
00000100
00000000
00010000
00000000
00001000
00000000
,
00200000
00320000
00230000
02300000
,
13000000
00000000
00000000
00000000
00010000
10000000
00010000
00000000
,
10010000
00010000
00100000
00010000
,
01000000
00001000
00010000
00000100
,
00001000
00000010
00001000
00000100
,
00000010
00000001
00000100
00000001
,
00001000
00000100
00010000
00001000
,
00100000
00010000
01000000
00100000
,
01100000
00000000
10010000
00000000
,
00020000
00230000
00302000
00023000
,
00030100
00000000
00001000
00000000
00000100
00001000
00000100
00000000
,
00000010
00000000
00000001
00000000
00000010
00000001
00000010
00000000
,
00000001
00000000
00000100
00000000
00000001
00000100
00000001
00000000
,
00001001
00000000
00011000
00000000
,
00100000
00000000
00010000
00000000
00100000
01000000
00100000
00000000
,
01000000
00000000
10000000
00000000
00100000
10000000
00100000
00000000
,
02000000
03020000
00230000
00302000
,
00023000
00000000
00000100
00000000
,
00030000
00010000
00001000
00010000
,
00000100
00001000
00000100
00000010
,
00000001
00000000
00000000
00000200
00000000
00000000
00000000
00000000
,
00000300
00000010
00001000
00000100
,
00010000
00000000
00001000
00000000
00100000
00010000
00100000
00000000
,
01000000
00000000
00000000
20000000
00000000
00000000
00000000
30000000
,
00200000
00000000
00300000
02000000
00000000
03000000
00010000
00000000
,
00100000
00000000
00001000
00000000
00010000
00001000
00020000
00000000
,
00000100
00001000
00030010
00000210
,
00000000
00000001
00000000
00000320
,
00000000
00000000
00001000
00000000
00000000
00000000
00000130
00000001
,
00000100
00000000
00001000
00000000
00010000
00000000
00001000
00100000
,
00001000
00000000
00010000
00000000
00001000
00000000
01000000
00010000
,
01000000
00000000
00100000
00000000
10000000
00000000
01000000
10000000
,
01000000
00000000
00010000
00000000
00001000
00000000
00100000
00010000
,
00100000
00000000
00001000
00000000
00010000
00000000
00000010
00001000
,
00000010
00000000
00010000
00000000
00001000
00000000
01000000
00010000
,
01000000
00000000
00010000
00100000
00010000
00000000
10000000
00100000
,
10000000
00000000
01000000
10000000
01000000
00000000
01200000
00000000
,
00000000
00000000
00010000
00000000
00010000
00000000
00001000
00001000
,
00301000
00010000
00000100
00002000
,
00000100
00000001
00003010
00002002
,
00003003
00001000
00000100
00020000
,
00032000
00203000
00320000
20030000
,
00000000
30100000
00000000
00010000
,
00001000
00011000
00000020
00000000
,
00000000
00000000
00000000
00000000
,
00000030
00000000
00000000
00000000
;

//--------------- dance-double - forcednature ----------------
#NOTEDATA:;
#STEPSTYPE:dance-double;
#DESCRIPTION:forcednature;
#CREDIT:forcednature;
#DIFFICULTY:Medium;
#METER:14;
#RADARVALUES:0,0,0,0,0;
#NOTES:
00000000
00000000
00000000
00000000
,
00000000
00000000
00000000
00000000
,
00000000
00000000
00000000
00000000
,
00010000
00001000
00000000
00011000
00000000
00010000
00000010
00001000
,
00000200
00000000
00000010
00000000
00001000
00001000
00001300
00000000
,
00000001
00000000
00000010
00000000
00000001
00000000
00000100
00000000
00001000
00000000
00000000
00010000
00000000
00000000
01000000
00000000
,
10000000
00000000
00100000
00000000
10000000
00000000
01000000
00000000
00010000
00000000
00000000
00001000
00000000
00000000
00000100
00000000
,
00000001
00000000
00000010
00000000
00000001
00000000
00000100
00000000
00001000
00000000
00000000
00010000
00000000
00000000
01000000
00000000
,
10000000
00000000
00100000
00000000
10000000
00000000
01000000
00000000
00010000
00000000
00000000
00001000
00000000
00000000
00000100
00000000
,
00000000
00000000
00000001
00000000
00000010
00000000
00000001
00001000
00000000
00001000
00000000
00000100
00000010
00000000
00001000
00000000
,
00010000
00000000
00000000
00000000
00000000
00000000
00001000
00000000
00000000
00000000
00000000
00000000
00100000
00000000
00000000
00010000
00000000
00000000
00000000
00000000
00000000
01000000
00000000
00000000
00000000
00000000
00000000
00000000
00200000
00000000
00000000
00000000
00000000
00000000
00000000
00000000
00000000
00000000
00000000
00000000
00000000
00000000
00000000
00000000
00300000
00000000
00000000
00000000
,
00000000
00000000
10000000
00000000
01000000
00000000
10000000
00100000
00000000
00000000
01000000
00000000
10000000
00000000
01000000
00000000
,
00020000
00000000
00230000
00000000
00302000
00000000
00023000
00000000
00030100
00000000
00000000
00022000
00000000
00000000
00033000
00000000
,
00010000
00000000
00100000
00000000
10000000
00000000
00100000
01000000
00000000
01000000
00000000
00010000
00100000
00000000
00001000
00000000
,
00010000
00000000
00000010
00000000
00001000
00000100
00000000
00000020
00000000
00000000
00000130
00000000
00001000
00000000
00000001
00000000
,
00000100
00001000
00000100
00001000
00010000
00100000
00010000
00100000
,
20000000
00000000
00000000
30000000
01000000
00100000
02200000
03300000
,
00000000
00000000
10000000
00000000
00100000
00000000
10000000
00010000
00000000
00010000
00000000
01000000
00100000
00000000
00010000
00000000
,
00001000
00000000
00000000
00000000
00000000
00000000
00010000
00000000
00000000
00000000
00000000
00000000
00000010
00000000
00000000
00001000
00000000
00000000
00000000
00000000
00000000
00000100
00000000
00000000
00000000
00000000
00000000
00000000
00000020
00000000
00000000
00000000
00000000
00000000
00000000
00000000
00000000
00000000
00000000
00000000
00000000
00000000
00000000
00000000
00000030
00000000
00000000
00000000
,
00000000
00000000
00000001
00000000
00000100
00000000
00000001
00000010
00000000
00000000
00000100
00000000
00000001
00000000
00000100
00000000
,
00002000
00000000
00003020
00000000
00020030
00000000
00032000
00000000
01003000
00000000
00000000
00022000
00000000
00000000
00033000
00000000
,
00001000
00000000
00000010
00000000
00000001
00000000
00000010
00000100
00000000
00000100
00000000
00001000
00000010
00000000
00010000
00000000
,
00001000
00000000
00100000
00000000
00010000
01000000
00000000
00200000
00000000
00000000
01300000
00000000
00010000
00000000
10000000
00000000
,
01000000
00010000
01000000
00010000
00001000
00000010
00001000
00000010
,
00000002
00000000
00000103
00000100
00000001
00000010
00002000
00000000
,
00013000
00001000
00000010
00001000
00010000
00000100
00010000
00001000
,
00100000
00001000
00010000
00100000
00010000
00001000
01000000
00001000
,
00010000
00100000
00010000
00100000
10000000
01000000
10000000
01000000
,
00010000
00001000
00100000
00010000
00001000
00000100
00011000
00000000
,
00001000
00010000
00100000
00010000
00001000
01000000
00001000
00010000
,
00000010
00010000
00001000
00000010
00001000
00010000
00000100
00010000
,
00002000
00000000
00003010
00001000
00020000
00000000
00130000
00010000
,
00001000
01000000
00010000
00100000
01000000
10000000
00010000
00000000
,
00100000
01000000
00010000
00001000
00100000
00010000
00100000
00001000
,
00010000
01000000
00010000
00001000
00000010
00001000
00010000
00000100
,
00010000
00001000
00000010
00000001
00000010
00001000
00010000
00000000
,
00022000
00000000
00033000
00000000
00100000
00100000
00010000
01000000
,
10000000
01000000
00010000
00100000
00010000
01000000
10000000
01000000
,
00010000
00100000
00001000
00010000
00000010
00001000
00000001
00000100
,
00000002
00000023
00002030
00023000
,
02030000
00000000
10000000
03000000
,
00000000
00000000
01000000
00010000
00001000
00010000
00002000
00000000
,
00003020
00000000
00000032
00000000
00000103
00000000
00000001
00000010
,
00001000
00000000
00010000
00002000
00000000
00000000
00000000
00000000
,
00003000
00000000
00100000
00010000
01000000
00010000
20000000
00000000
,
31000000
00000000
10000000
00000000
00100000
00010000
00001000
00000000
,
00000100
00000000
00000001
00000020
00000000
00000000
00000000
00000030
,
00000001
00000000
00000000
00000000
00000100
00000000
00000000
00000000
00002000
00003000
00000000
00000000
00010000
00000000
00000000
00000000
00100000
00000000
00000000
00000000
20000000
30000000
00000000
00000000
01000000
00000000
00000000
00000000
00100000
00000000
00000000
00000000
,
01000000
10000000
00100000
01000000
00100000
00010000
00002000
00000000
,
00103000
00010000
00100000
00020000
00000000
00000000
02030000
00000000
00000000
03002000
00000000
00000000
,
00013000
00000000
00010000
00000020
00000000
00000000
00001030
00000000
00001000
00000200
00000000
00000000
,
00000000
00000000
00000320
00000000
00000000
00000000
00000031
00000100
,
00001000
00000100
00000001
00000100
00001000
00000100
00000001
00000100
,
00001000
00010000
00100000
10000000
00010000
00000000
10000000
01000000
,
00010000
01000000
10000000
01000000
00010000
01000000
10000000
01000000
,
00010000
00000000
00001000
00000000
00000010
00000000
00000001
00000000
00001000
00000000
00000001
00001000
00000001
00000000
00000100
00000000
,
00001000
00010000
00001000
00000100
00000001
00000100
00001000
00010000
,
00001000
00000100
00000001
00000100
00001000
00010000
00100000
10000000
,
01000000
10000000
00100000
10000000
01000000
10000000
00100000
00010000
,
00001000
00000000
00000100
00000000
00000001
00000000
00000010
00000000
00000001
00001000
00000001
00001000
00000200
00000000
00000000
00000000
,
00000010
00000000
00000010
00000000
00000010
00000000
00001300
00000100
,
00010000
00001000
00000000
00001000
00100000
00000000
00010000
00000000
01000000
00000000
00100000
00000000
20000000
00000000
00000000
00000000
,
01000000
01000000
01000000
01000000
31000000
00000000
10000000
00100000
,
01000000
00100000
00000000
01000000
00010000
00000000
00100000
00000000
00001000
00000000
00010000
00000000
00012000
00000000
00000000
00000000
,
00003020
00000000
00000000
00000000
00000032
00000000
00000000
00000000
00000203
00000000
00000000
00000000
00001300
00000000
00000000
00001000
,
00010000
00000000
00000000
00000000
00000000
00000000
00000000
00000000
00000000
00010000
00000000
00000000
00100000
00000000
00000000
00000000
00000000
00000000
00000000
00000000
00000000
00000000
00000000
00000000
00000000
00000000
00000000
00000000
00000000
00000000
00000000
00000000
00000000
00000000
00000000
00000000
01000000
00000000
00000000
00000000
00010000
00000000
00000000
00000000
01000000
00000000
00000000
00000000
,
00001000
00010000
00001000
00100000
00000000
00000000
00022000
00000000
00000000
00000000
00000000
00000000
,
00000000
00000000
00000000
00000000
,
00033000
00000000
00000000
00000000
;

//--------------- dance-double - forcednature ----------------
#NOTEDATA:;
#STEPSTYPE:dance-double;
#DESCRIPTION:forcednature;
#CREDIT:forcednature;
#DIFFICULTY:Hard;
#METER:17;
#RADARVALUES:0,0,0,0,0;
#NOTES:
00000000
00000000
00000000
00000000
,
00000000
00000000
00000000
00000000
,
00000000
00000000
00000000
00000000
,
00011000
00011000
00000000
00201000
00000000
01300000
00010000
00001000
,
00202000
00000000
00303000
00000000
00000100
00010000
00001000
00000000
,
00000010
00000000
00000001
00000000
00000100
00000000
00000001
00000000
00000010
00000000
00001000
00010000
00000000
00001000
00010000
00000000
,
00100000
00000000
10000000
00000000
01000000
00000000
10000000
00000000
00100000
00000000
00010000
00001000
00000000
00010000
00001000
00000000
,
00000100
00000000
00000001
00000000
00000010
00000000
00000001
00000000
00000100
00000000
00001000
00010000
00000000
00001000
00010000
00000000
,
01000000
00000000
10000000
00000000
00100000
00000000
10000000
00000000
01000000
00000000
00010000
00001000
00010000
00000000
00000000
00000000
,
00001000
00000000
00000010
00000000
00000001
00000010
00000001
00000010
00000000
00000001
00000000
00000001
00000100
00000000
00001000
00000000
,
00010000
00000000
00000000
00000000
00000000
00000000
00001000
00000000
00000000
00100000
00000000
00000000
00010000
00000000
00000000
00100000
00000000
00000000
00000000
00000000
00000000
02000000
00000000
00000000
00000000
00000000
00000000
00000000
10000000
00000000
00000000
00000000
10000000
00000000
00000000
00000000
10000000
00000000
00000000
00000000
10000000
00000000
00000000
00000000
13000000
00000000
00000000
00000000
,
00000000
00000000
01000000
00100000
01000000
00100000
00010000
00100000
00000000
00000000
00001000
00000000
00010000
00000000
00000010
00000000
,
00001000
00000100
00001000
00000100
00000010
00000001
00000010
00000001
00000100
00000000
00000000
00002002
00000000
00000000
00003003
00000000
,
00001000
00000000
00000010
00000000
00010000
00001000
00010000
00001000
00000000
00100000
00000000
00100000
00010000
00000000
01000000
00000000
,
00100000
00000000
10000000
00000000
01000000
10000000
01000000
10000000
00010000
00100000
00010000
00100000
00001000
00000000
00010000
00000000
,
00000010
00001000
00000010
00001000
00000100
00010000
00000100
00010000
00001000
01000000
00001000
01000000
00010000
00000000
00100000
00000000
,
02000000
23000000
32000000
03020000
00032000
00203000
00302000
00003000
,
00010000
00000000
00100000
00000000
10000000
00100000
10000000
00100000
00000000
10000000
00000000
10000000
01000000
00000000
00010000
00000000
,
00001000
00000000
00000000
00000000
00000000
00000000
00010000
00000000
00000000
00000010
00000000
00000000
00001000
00000000
00000000
00000010
00000000
00000000
00000000
00000000
00000000
00000200
00000000
00000000
00000000
00000000
00000000
00000000
00000001
00000000
00000000
00000000
00000001
00000000
00000000
00000000
00000001
00000000
00000000
00000000
00000001
00000000
00000000
00000000
00000301
00000000
00000000
00000000
,
00000000
00000000
00000100
00000010
00000100
00000010
00001000
00000010
00000000
00000000
00010000
00000000
00001000
00000000
00100000
00000000
,
00010000
01000000
00010000
01000000
00100000
10000000
00100000
10000000
01000000
00000000
00000000
20020000
00000000
00000000
30030000
00000000
,
00010000
00000000
00100000
00000000
00001000
00010000
00001000
00010000
00000000
00000010
00000000
00000010
00001000
00000000
00000100
00000000
,
00000010
00000000
00000001
00000000
00000100
00000001
00000100
00000001
00001000
00000010
00001000
00000010
00010000
00000000
00001000
00000000
,
00100000
00010000
00100000
00010000
01000000
00001000
01000000
00001000
00010000
00000100
00010000
00000100
00001000
00000010
00001000
00000000
,
00000002
00000000
00000010
00000010
00001000
00001000
00000103
00000000
,
00000001
00000000
00000100
00000000
00001000
00000000
00010000
00000000
00100000
00000000
10000000
01000000
00000000
00100000
00010000
00000000
,
10000000
00000000
01000000
00000000
00010000
00000000
00001000
00000000
00000010
00000000
00000001
00000100
00000000
00000010
00001000
00000000
,
00000001
00000000
00000010
00000000
00001000
00000000
00010000
00000000
01000000
00000000
10000000
00100000
00000000
01000000
00010000
00000000
,
20000000
00000000
30020000
00000000
00032000
00000000
00003001
00001000
,
00000001
00000000
00000010
00000000
00001000
00000000
00010000
00000000
00100000
00000000
10000000
01000000
00000000
00100000
00010000
00000000
,
10000000
00000000
00100000
00000000
00010000
00000000
00001000
00000000
00000010
00000000
00000001
00000100
00000000
00000010
00001000
00000000
,
00001001
00000000
00011000
00000000
,
10000000
01000000
10000000
00000000
01000000
00000000
00100000
01000000
00000000
00100000
00010000
00100000
00001000
00010000
00001000
00000000
,
00010000
00000000
00100000
00000000
10000000
00000000
01000000
00000000
00010000
00000000
00001000
01000000
00000000
00010000
00100000
00000000
,
00001000
00000000
00000010
00000000
00000001
00000000
00000100
00000000
00001000
00000000
00010000
00000100
00000000
00001000
00000010
00000000
,
00010000
00000000
00100000
00000000
10000000
00000000
01000000
00000000
00010000
00000000
00001000
01000000
00000000
00010000
00100000
00000000
,
00001000
00010000
00001000
00010000
00001000
00000000
00000010
00000000
00000001
00000100
00000001
00000100
00000010
00000000
00010000
00000000
,
00001000
00000000
00000100
00000000
00000001
00000000
00000010
00000000
00001000
00000000
00100000
00010000
00000000
01000000
00001000
00000000
,
00010000
00000000
00100000
00000000
10000000
00000000
01000000
00000000
00010000
00000000
00000010
00001000
00000000
00000100
00010000
00000000
,
00002000
00000000
00000000
00000000
00103000
00010000
00100000
00010000
01000000
00100000
01000000
00100000
10000000
01000000
00100000
00010000
,
20000000
00000000
31000000
00010000
00001000
00000010
00000001
00000000
,
00001001
00000000
00001000
00001000
00000001
00000100
00002000
00000000
,
00023000
00000000
00230000
00000000
10300000
00000000
01000000
00010000
,
00001000
00000000
00100000
00020000
00000000
00000000
00000000
00000000
,
00031000
00000000
00000100
00010000
00001000
00100000
00020000
00000000
,
00030010
00000000
00000001
00000000
00000100
00001000
00010000
00000000
,
00100000
00000000
10000000
02000000
00000000
00000000
00000000
03000000
,
00010000
00000000
00001000
00000000
00010000
00000000
00001000
00000000
00200000
00300000
00000000
00000000
00001000
00000000
00010000
00000000
00001000
00000000
00010000
00000000
00000020
00000030
00000000
00000000
00001000
00000000
00000000
00000000
00000100
00000000
00001000
00000000
,
00000100
00000000
00000010
00000001
00000010
00000000
00000001
00001000
00000000
00001000
00000001
00000000
00000200
00000000
00000000
00000000
,
00001300
00010000
00001000
00020000
00000000
00000000
00230000
00000000
00000000
20300000
00000000
00000000
,
31000000
00010000
00001000
00020000
00000000
00000000
00031000
00000010
00000001
00000020
00000000
00000000
,
00000000
00000000
00000000
00000000
00000230
00000000
00000000
00000000
00000000
00000000
00000000
00000000
00010300
00000000
00001000
00010000
,
00100000
00000000
01000000
00000000
00100000
00000000
10000000
00000000
01000000
00000000
00010000
00000000
00001000
00000000
00010000
00001000
,
00000010
00000000
00000100
00000000
00000010
00000000
00000001
00000000
00000100
00000000
00001000
00000000
00010000
00000000
00001000
00010000
,
00100000
00000000
01000000
00000000
00100000
00000000
10000000
00000000
01000000
00000000
00010000
00000000
00001000
00000000
00010000
00001000
,
00000010
00000000
00000100
00000000
00000010
00000001
00000010
00000000
00000100
00000000
00001000
00000100
00010000
00001000
00010000
00001000
,
00100000
00010000
00100000
00000000
01000000
10000000
01000000
10000000
00010000
01000000
00010000
00000000
00100000
00001000
00100000
00001000
,
00010000
00000100
00010000
00000000
00000010
00001000
00000010
00001000
00000001
00000100
00000001
00000000
00001000
00000100
00001000
00000100
,
00010000
00001000
00100000
00010000
01000000
00100000
01000000
00100000
10000000
01000000
10000000
01000000
00100000
00001000
00100000
00001000
,
00010000
00000100
00010000
00000100
00001000
00000010
00001000
00000010
00000100
00000001
00001000
00000010
00002000
00000000
00000000
00000000
,
00000100
00000000
00000000
00000001
00000000
00000001
00000000
00000000
00003010
00000000
00001000
00000000
00010000
00000000
01000000
00100000
,
01000000
00010000
00000000
10000000
00100000
01000000
00100000
00000000
01000000
00000000
00010000
00000000
00100000
00000000
00001000
00010000
,
00001000
00010000
00000010
00001000
00000000
00000001
00000100
00000001
00000100
00000000
00000010
00000000
00001001
00000000
00001000
00000100
,
00010000
00001000
00000000
00010000
00001000
00100000
00010000
00000000
01000000
00100000
10000000
00000000
20010000
00000000
00000000
00000000
,
31000000
00000000
00010000
00000000
00001000
00000000
00000010
00000000
00000001
00001000
00000001
00001000
00000200
00000000
00000000
00000000
,
00020300
00000000
00000000
00130000
00000000
00000000
00000000
00000000
00000000
01000000
00010000
00100000
,
00001000
00010000
00000010
00001000
00000000
00000000
00000220
00000000
00000000
00000000
00000000
00000000
,
00000000
00000000
00000000
00000000
,
00000330
00000000
00000000
00000000
;

//--------------- dance-double - forcednature ----------------
#NOTEDATA:;
#STEPSTYPE:dance-double;
#DESCRIPTION:forcednature;
#CREDIT:forcednature;
#DIFFICULTY:Challenge;
#METER:18;
#RADARVALUES:0,0,0,0,0;
#NOTES:
00000000
00000000
00000000
00000000
,
00000000
00000000
00000000
00000000
,
00000000
00000000
00000000
00000000
,
00011000
00011000
00000000
00201000
00000000
00310000
01000000
00100000
,
10010000
00000000
00000000
00000000
10000000
01000000
00100000
00010000
00100000
00000000
00001000
00000000
00020000
00000000
00000000
00000000
,
00130000
00000000
00010000
00000000
00001000
00000000
00000010
00000000
00000100
00000000
00001000
00000100
00000000
00001000
00000001
00000000
,
00000010
00000000
00001000
00000000
00010000
00000000
00100000
00000000
01000000
00000000
00010000
01000000
00000000
00010000
10000000
00000000
,
00100000
00000000
00010000
00000000
00001000
00000000
00000010
00000000
00000100
00000000
00001000
00000100
00000000
00001000
00000001
00000000
,
00000010
00000000
00001000
00000000
00010000
00000000
00100000
00000000
01000000
00000000
00010000
01000000
00000000
00010000
10000000
00000000
,
01000000
00000000
00010000
00000000
00001000
00010000
00000100
00001000
00000000
00001000
00000000
00000010
00000100
00000000
00000001
00000000
,
00000010
00000000
00000000
00000000
00000000
00000000
00000100
00000000
00000000
00001000
00000000
00000000
00000100
00000000
00000000
00010000
00000000
00000000
00001000
00000000
00000000
00200000
00000000
00000000
00000000
00000000
00000000
00000000
00302000
00000000
00023000
00000000
00032000
00000000
00023000
00000000
00032000
00000000
00023000
00000000
00032000
00000000
00023000
00000000
00032000
00000000
00023000
00000000
,
00030000
00000000
00100000
01000000
00100000
10000000
00010000
01000000
00000000
00010000
00100000
00000000
00001000
00000000
00000010
00000000
,
00000100
00001000
00000100
00010000
00001000
00100000
00010000
00100000
01000000
00000000
00000000
02200000
00000000
00000000
03300000
00000000
,
00010000
00000000
10000000
01000000
10000000
00010000
00100000
00001000
00000000
00001000
00000000
00010000
00100000
00000000
00010000
00000000
,
00001000
00000000
00000010
00000000
00000100
00001000
00000001
00000010
00000001
00001000
00000010
00001000
00000100
00000000
00000001
00000000
,
00000100
00001000
00000010
00001000
00000001
00000010
00001000
00010000
00001000
00100000
00010000
00100000
00001000
00010000
00001000
00000000
,
01000000
00000000
00000000
00000000
00000000
00000000
01000000
00000000
00000000
00010000
00000000
00000000
00100000
00000000
00000000
00000000
00000000
00000000
01000000
00000000
00000000
10000000
00000000
00000000
00100000
00000000
00000000
00000000
00000000
00000000
00010000
00000000
00000000
00000000
00000000
00000000
00002000
00000000
00000000
00000000
00000000
00000000
00000000
00000000
00003000
00000000
00000000
00000000
,
00000100
00000000
00001000
00000000
00010000
00001000
01000000
00010000
00000000
00010000
00000000
00100000
01000000
00000000
10000000
00000000
,
00100000
00000000
00000000
00000000
00000000
00000000
01000000
00000000
00000000
00010000
00000000
00000000
01000000
00000000
00000000
00001000
00000000
00000000
00010000
00000000
00000000
00000020
00000000
00000000
00000000
00000000
00000000
00000000
00020030
00000000
00032000
00000000
00023000
00000000
00032000
00000000
00023000
00000000
00032000
00000000
00023000
00000000
00032000
00000000
00023000
00000000
00032000
00000000
,
00003000
00000000
00000010
00000100
00000010
00000001
00001000
00000100
00000000
00001000
00000010
00000000
00010000
00000000
00100000
00000000
,
01000000
00010000
01000000
00001000
00010000
00000010
00001000
00000010
00000100
00000000
00000000
00000220
00000000
00000000
00000330
00000000
,
00001000
00000000
00000001
00000100
00000001
00001000
00000010
00010000
00000000
00010000
00000000
00001000
00000010
00000000
00001000
00000000
,
00010000
00000000
00100000
00000000
01000000
00010000
10000000
00100000
10000000
00010000
00100000
00010000
01000000
00000000
10000000
00000000
,
01000000
00010000
00100000
00010000
10000000
00100000
00010000
00001000
00010000
00000010
00001000
00000010
00010000
00001000
00010000
00000000
,
00000100
00000000
00000000
00000000
00000000
00000000
00000100
00000000
00000000
00001000
00000000
00000000
00000010
00000000
00000000
00000000
00000000
00000000
00000100
00000000
00000000
00000001
00000000
00000000
00000010
00000000
00000000
00000000
00000000
00000000
00001000
00000000
00000000
00000000
00000000
00000000
00020000
00000000
00000000
00000000
00000000
00000000
00000000
00000000
00030000
00000000
00000000
00000000
,
00001000
00100000
00001000
00010000
00000100
00010000
00001000
00100000
00001000
00010000
00000100
00010000
00001000
00100000
00001000
00000000
,
00010000
00000010
00010000
00001000
01000000
00001000
00010000
00000010
00010000
00001000
01000000
00001000
00010000
00000010
00010000
00000000
,
00001000
01000000
00001000
00100000
00010000
00100000
00001000
01000000
00001000
00100000
00010000
00100000
00001000
01000000
00001000
00000000
,
00020000
00000000
00030100
00001000
00000200
00000000
00000310
00000001
00000020
00000000
00001030
00010000
00002000
00000000
00023000
00000000
,
00031000
00100000
00001000
00010000
00000010
00010000
00001000
00100000
00001000
00010000
00000010
00010000
00001000
00100000
00001000
00000000
,
00010000
00000100
00010000
00001000
01000000
00001000
00010000
00000100
00010000
00001000
01000000
00001000
00010000
00000100
00001000
00000100
,
00000020
00000030
00000000
00000000
00002002
00003003
00000000
00000000
,
00000002
00000010
00000023
00001000
00002030
00010000
00023000
00100000
,
00130000
10000000
00100000
10000000
01000000
10000000
01000000
10000000
01000000
00010000
01000000
00010000
00001000
00010000
00001000
00010000
,
00001000
00000010
00001000
00000010
00000001
00000010
00000001
00000010
00000001
00000100
00000001
00000100
00001000
00000100
00001000
00000100
,
00001000
00010000
00001000
00010000
00100000
00010000
00100000
00010000
00100000
10000000
00100000
10000000
01000000
00010000
01000000
00010000
,
00002000
00000000
00000000
00000000
00003000
00000000
00000000
00000000
00100000
00010000
00100000
00010000
10000000
00000000
01000000
00000000
,
10000000
00100000
10000000
00100000
10000000
01000000
10000000
01000000
00100000
00010000
00100000
00010000
00001000
00000100
00001000
00000100
,
00001000
00000010
00001000
00000010
00000100
00001000
00000100
00001000
00000100
00000001
00000100
00000001
00000010
00000000
00001000
00000000
,
00010000
00001000
00010000
00001000
00100000
00010000
00100000
00010000
10000000
01000000
10000000
01000000
00010000
00001000
00010000
00001000
,
00000020
00000000
00000000
00000000
00000130
00001000
00000001
00000100
,
00002000
00000000
00000000
00000000
00000000
00000000
00013000
00000000
00000000
00010000
00000000
00100000
10000000
00000000
00000000
01000000
00000000
00000000
00020000
00000000
00000000
00000000
00000000
00000000
,
00032000
00000000
00000000
00000000
00000000
00003010
00000001
00000000
00000000
00000001
00000000
00000000
00000100
00000000
00000000
00000000
00000000
00000100
00001000
00000000
00000000
00010000
00000000
00000000
,
00100000
00000000
00000000
00000000
00000000
00000000
00000000
00000000
00000000
00000000
00000000
00000000
00000000
00000000
00000000
00000000
00000000
00000000
00000000
00000000
00000000
00000000
00000000
00000000
00000000
00000000
00000000
00000000
00000000
00000000
00000000
00000000
00000000
00000000
00000000
00000000
00000000
00000000
00000000
00000000
00100000
00000000
00000000
00000000
00000000
00000000
00000000
00000000
00010000
00000000
00000000
00000000
00000000
00000000
00000000
00000000
00000000
00000000
00000000
00000000
00000000
00000000
00000000
00000000
00000000
00000000
00000000
00000000
00002000
00000000
00000000
00000000
00000000
00003000
00000000
00000000
00000000
00000000
00000000
00000000
00020000
00000000
00000000
00000000
00000000
00030000
00000000
00000000
00000000
00000000
00002000
00000000
00000000
00000000
00000000
00000000
00023000
00000000
00000000
00000000
00000000
00032000
00000000
00000000
00000000
00000000
00023000
00000000
00000000
00000000
00000000
00000000
00032000
00000000
00000000
00000000
00000000
00023000
00000000
00000000
00000000
00000000
00032000
00000000
00000000
00000000
00000000
00000000
00023000
00000000
00000000
00000000
00000000
00032000
00000000
00000000
00000000
00000000
00023000
00000000
00000000
00000000
00000000
00000000
00032000
00000000
00000000
00000000
00000000
00023000
00000000
00000000
00000000
00000000
00032000
00000000
00000000
00000000
00000000
00000000
00023000
00000000
00000000
00000000
00000000
00032000
00000000
00000000
00000000
00000000
00023000
00000000
00000000
00000000
00000000
00000000
00032000
00000000
00000000
00000000
00000000
00003000
00000000
00000000
00000000
00000000
00000000
00000000
00000000
00000000
00000000
00000000
,
00020000
00000000
00000000
00000000
00000000
00000000
00130000
00000000
00000000
00100000
00000000
10000000
01000000
00000000
00000000
00010000
00000000
00000000
00002000
00000000
00000000
00000000
00000000
00003010
,
00000001
00000000
00000000
00000100
00000000
00000001
00001000
00000000
00001000
00000010
00000000
00000000
00010000
00000000
00000000
00001000
00000000
00000000
00100000
00000000
00000000
00000000
00000000
00010000
,
10000000
00000000
00000000
00000000
00000000
00000000
00000000
00000000
00000000
00000000
00000000
00000000
00000000
00000000
00000000
00000000
00000000
00000000
00000000
00000000
00000000
00000000
00000000
00000000
01000000
00000000
00000000
00000000
00000000
00000000
00000000
00000000
00000000
00000000
00000000
00000000
00000000
00000000
00000000
00000000
00000000
00000000
00000000
00000000
00000000
00000000
00000000
00000000
00010000
00000000
00000000
00000000
00000000
00000000
00000000
00000000
00000000
00000000
00000000
00000000
00000000
00000000
00000000
00000000
00000000
00000000
00000000
00000000
00000000
00000000
00000000
00000000
00020000
00000000
00000000
00000000
00000000
00030000
00000000
00000000
00002000
00000000
00000000
00000000
00000000
00003000
00000000
00000000
00020000
00000000
00000000
00000000
00000000
00030000
00000000
00000000
00002000
00000000
00000000
00000000
00000000
00023000
00000000
00000000
00000000
00000000
00032000
00000000
00000000
00000000
00000000
00000000
00023000
00000000
00000000
00000000
00000000
00032000
00000000
00000000
00000000
00000000
00023000
00000000
00000000
00000000
00000000
00000000
00032000
00000000
00000000
00000000
00000000
00023000
00000000
00000000
00000000
00000000
00032000
00000000
00000000
00000000
00000000
00000000
00023000
00000000
00000000
00000000
00000000
00032000
00000000
00000000
00000000
00000000
00023000
00000000
00000000
00000000
00000000
00000000
00032000
00000000
00000000
00000000
00000000
00023000
00000000
00000000
00000000
00000000
00032000
00000000
00000000
00000000
00000000
00000000
00023000
00000000
00000000
00000000
00000000
00030000
00000000
00000000
00000000
00000000
00000000
00000000
00000000
00000000
00000000
00000000
,
00000010
00000000
00001000
00000000
00000100
00000000
00010000
00000000
00002000
00003000
00000000
00000000
00100000
00000000
00010000
00000000
01000000
00000000
00001000
00000000
00020000
00030000
00000000
00000000
00000010
00000000
00001000
00000000
00000010
00000000
00001000
00000000
,
00000001
00000010
00000001
00000000
00001000
00000100
00001000
00000100
00010000
00001000
00100000
00010000
00200000
00000000
00000000
00000000
,
01300000
10000000
01000000
00020000
00000000
00000000
00032000
00000000
00000000
00003020
00000000
00000000
,
00000001
00000001
00000001
00000032
00000000
00000000
00000103
00001000
00010000
00200000
00000000
00000000
,
00000000
00000000
00000000
00000000
20000000
00000000
00000000
00000000
00000000
00000000
30300000
00000000
00010000
10000000
00010000
10000000
,
01000000
10000000
00010000
00000000
00100000
00001000
00100000
00001000
00010000
00001000
00100000
00000000
00001000
00010000
00000100
00001000
,
00000100
00010000
00001000
00000000
00000010
00000001
00001000
00000010
00001000
00000001
00000010
00000000
00000100
00001000
00000100
00010000
,
00001000
00100000
00010000
00000000
00100000
01000000
10000000
00100000
01000000
00010000
00100000
00000000
00001000
00010000
00000010
00001000
,
00000010
00010000
00001000
00000000
00100000
00010000
00000000
00100000
01000000
00000000
10000000
01000000
10000000
00100000
01000000
00010000
,
01000000
00001000
00010000
00000100
00001000
00000100
00000010
00000001
00001000
00000010
00001000
00000001
00000010
00000100
00001000
00000100
,
00010000
00001000
01000000
00010000
01000000
00100000
10000000
01000000
00100000
00010000
00001000
00000100
00001000
00000010
00000100
00000001
,
00000010
00000001
00000100
00000001
00000100
00001000
00010000
00001000
00010000
00100000
10000000
00100000
01000000
00010000
00100000
00010000
,
00001000
00000100
00001000
00000010
00000100
00000001
00001000
00000001
00000010
00000001
00001000
00000001
00000100
00000000
00001000
00010000
,
00001000
00010000
00100000
10000000
00000000
10000000
00000000
01000000
00010000
00000000
00001000
00000000
00010000
00000000
00010000
00000010
,
00001000
00000010
00000000
00000100
00001000
00000100
00000001
00001000
00000002
00000000
00000013
00000000
00001001
00000000
00001000
00000100
,
00000010
00000100
00001000
00000001
00000000
00000010
00001000
00010000
00001000
00010000
01000000
00000000
01100000
00000000
00100000
00010000
,
10000000
00100000
00000000
10000000
01000000
00010000
00001000
00100000
00010000
00100000
00001000
00000000
02000000
03200000
00320000
00032000
,
00203000
00320000
00032000
00003200
00020300
00032000
00003200
00000320
00002030
00003200
00000320
00000032
00000203
00000000
00000000
00000000
,
00020300
00000000
00000000
01030000
00000000
00000000
00000000
00000000
00000000
10000000
00100000
00010000
,
00001000
00000010
00000001
00000100
00000000
00000000
00022000
00000000
00000000
00000000
00000000
00000000
,
00000000
00000000
00000000
00000000
,
00033000
00000000
00000000
00000000
;
