#VERSION:0.83;
#TITLE:Dynasty;
#SUBTITLE:;
#ARTIST:Yooh;
#TITLETRANSLIT:;
#SUBTITLETRANSLIT:;
#ARTISTTRANSLIT:;
#GENRE:;
#CREDIT:;
#MUSIC:Dynasty.ogg;
#BANNER:Dynasty.png;
#BACKGROUND:Dynasty-bg.png;
#CDTITLE:./CDTitles/SDVX BOOTH.png;
#SAMPLESTART:68.241;
#SAMPLELENGTH:15.000;
#SELECTABLE:YES;
#OFFSET:1.268;
#BPMS:0.000=189.000;
#STOPS:;
#TIMESIGNATURES:0.000=4=4,
68.000=3=4,
215.000=5=4,
220.000=3=4
;
#BGCHANGES:4.000=Dynasty.mp4=1.000=0=0=0=StretchNoLoop====,
99999.000=-nosongbg-=1.000=0=0=0=StretchNoLoop====
;
#FGCHANGES:;

//--------------- dance-single - forcednature ----------------
#NOTEDATA:;
#STEPSTYPE:dance-single;
#DESCRIPTION:forcednature;
#DIFFICULTY:Beginner;
#METER:4;
#RADARVALUES:0,0,0,0,0;
#CREDIT:forcednature;
#NOTES:
0000
0000
0000
0000
,
0000
0000
0000
0000
,
0000
0000
0000
0000
,
0000
0000
0000
0000
,
0000
0000
0000
0000
,
0000
0000
0000
0000
,
1000
0000
0000
1000
,
0000
0000
1000
0000
,
0001
0000
0000
0001
,
0000
0000
0001
0000
,
0100
0000
0000
0000
,
0010
0000
1000
0000
,
0001
0000
0000
0000
,
0010
0000
0001
0000
,
1000
0000
0000
0010
,
0000
0000
0100
0000
,
0000
0001
0000
0000
,
0010
0000
0000
0000
,
0000
0000
0100
0000
,
0000
1000
0000
0000
,
0001
0000
0000
0100
,
0000
0000
0001
0000
,
0000
0010
0000
0000
,
0100
0000
0000
1000
,
0000
0000
0010
0000
,
0000
0100
0000
0000
,
0001
0000
0000
1000
,
0000
0000
0100
0000
,
0000
0010
0000
0000
,
0001
0000
0000
1000
,
0001
1000
0001
0000
,
0000
0010
0000
0000
,
0100
0000
0000
0010
,
0000
0000
0001
0000
,
0000
1000
0000
0000
,
0100
0000
0000
1000
,
0000
0000
0010
0000
,
0000
0100
0000
0000
,
0001
0000
0000
0100
,
0000
0000
0110
0000
,
0000
1001
0000
0000
,
1000
0001
1000
0001
,
0000
0000
0110
0000
,
1000
0000
0001
0000
,
0100
0000
0010
0000
,
1000
0000
0001
0000
,
0010
0000
0001
0000
,
0100
0000
0010
0000
,
1000
0000
1001
0000
,
0001
0010
0000
0010
,
0001
0000
1000
0010
,
0000
0010
1000
0000
,
0000
0001
0000
0000
,
0010
0000
0000
0001
,
1000
1001
0000
0000
,
0001
0000
0100
0001
,
0100
0000
0010
0000
,
1000
0010
1000
0000
,
0001
0000
0010
0000
,
0100
0000
1000
0000
,
0001
0000
0100
0000
,
0010
0000
1000
0001
,
1000
0000
0100
0000
,
0010
0001
0010
0000
,
0100
0000
1000
0000
,
0001
0000
0100
0010
,
0100
0010
0000
0000
,
1001
0000
0001
0010
,
0001
0000
0100
0000
,
0010
1000
0010
0000
,
0100
0000
0001
0000
,
1000
0000
0100
0000
,
0010
0000
0001
0000
,
1001
0000
1000
0010
,
1000
0000
1001
0000
,
0001
0010
0001
0000
,
1001
0000
0000
0110
,
0000
0000
1000
0001
,
1000
0001
0000
0000
,
0110
0000
0000
1001
,
0000
0000
1000
0000
,
0100
1000
0000
0001
,
0100
0000
0001
0010
,
0000
0001
0100
0000
,
0010
1000
0000
0001
,
0010
0000
0100
1000
,
0000
0001
0200
0000
,
0000
0000
0000
0000
,
0300
0000
0000
0000
,
0000
0000
2002
0000
,
0000
0000
0000
0000
,
0000
0000
0000
0000
,
0000
0000
0000
0000
,
0000
0000
3003
0000
;

//--------------- dance-single - forcednature ----------------
#NOTEDATA:;
#STEPSTYPE:dance-single;
#DESCRIPTION:forcednature;
#DIFFICULTY:Easy;
#METER:10;
#RADARVALUES:0,0,0,0,0;
#CREDIT:forcednature;
#NOTES:
0000
0000
0000
0000
,
0000
0000
0000
0000
,
0000
0000
0000
0000
,
0000
0000
0000
0000
,
0000
0000
0000
0000
,
0000
0000
0000
0000
,
1000
0000
0000
0100
0000
0000
1000
0000
,
0000
0100
0000
0000
1000
0000
0000
0000
,
0001
0000
0000
0100
0000
0000
0001
0000
,
0000
0100
0000
0000
0001
0000
0000
0000
,
1001
0000
1000
0100
,
0010
0100
1000
0001
,
0100
0000
0010
1000
,
0001
0010
0001
1000
,
1001
0000
0000
0010
0000
0000
0110
0000
,
0000
0100
0000
0000
1001
0000
0000
0100
,
0000
0001
0010
0100
,
2000
0000
0000
0000
,
3000
0000
0001
0000
,
0100
0001
1000
0010
,
1000
0000
0100
1000
,
0100
0010
0001
0000
,
0100
0010
1000
0001
,
0010
0100
1000
0001
,
0100
0001
0010
0000
,
0100
1000
0001
1000
,
0010
0000
0100
0001
,
1000
0001
0010
0100
,
1000
0100
0010
0001
,
1000
0010
0100
0001
,
0010
0001
1001
1000
,
0100
1000
0010
0100
,
0001
0010
0001
1000
,
0010
0100
0010
1000
,
0001
0010
0100
1000
,
0001
0100
0001
0010
,
0001
1000
1001
0001
,
0100
0010
1000
0010
,
0100
0001
0010
0001
,
1000
0010
1001
1000
,
0100
1001
0001
0100
,
0110
0010
0010
2002
,
0000
3003
1000
0200
,
0310
0001
0200
0310
,
1000
0001
0010
0001
,
0100
0010
1000
0002
,
0013
0001
2000
3010
,
0100
0001
1000
0100
,
0010
0001
1001
2000
,
3010
0200
0010
0301
,
1001
0002
0013
0200
,
1000
0310
1001
0001
,
0100
1001
1000
0100
,
1001
0000
0000
0110
0000
0000
1001
0000
,
0110
1001
0000
0000
,
1000
0100
1000
0000
0001
0000
0010
0000
,
0001
0000
0100
0000
0010
1000
0010
0000
,
0100
0001
1000
0100
,
0010
0001
0010
0000
0100
0000
1000
0010
,
1000
0000
0001
0000
0010
0100
0010
0000
,
0001
1000
0010
0100
,
0001
1000
0001
0000
0010
0000
0100
0000
,
1000
0000
0001
0000
0100
0001
0100
0000
,
0010
1000
0100
0010
,
0100
1000
0100
0000
0010
0000
0001
0100
,
0001
0000
1000
0000
0010
0100
0010
0000
,
1000
0002
0010
0100
,
1003
0010
1000
0000
0001
0000
0010
0000
,
0100
0000
0010
0000
0001
0100
0001
0000
,
1000
0010
0100
0010
,
1000
0001
1000
0000
0100
0000
0010
0001
,
0010
0000
0100
0000
1000
0010
1000
0000
,
0001
0010
0001
0100
,
0010
1000
0010
0000
0100
0000
0001
0000
,
1000
0000
0100
0000
0010
0001
0010
0000
,
0100
1000
0001
0100
,
0110
0001
1000
0110
,
1000
0000
0001
0000
1000
0100
1000
0000
,
0001
0100
0001
0000
0010
0000
0100
0000
,
2002
0000
3003
0220
,
0000
0000
0330
0000
1000
0000
1000
1000
,
1000
0000
0100
0000
0100
0100
0100
0000
,
0010
0000
0010
0010
0010
0000
0001
0000
,
0001
0001
0001
0000
0100
0000
0010
0010
,
0010
0000
1000
0000
0001
0001
0001
0000
,
0001
0000
1000
1000
1000
0000
0010
0000
,
0100
0100
0100
0000
0220
0000
0000
0000
,
0000
0000
0000
0000
,
0330
0000
0000
0000
,
0000
0000
2002
0000
,
0000
0000
0000
0000
,
0000
0000
3003
0000
;

//--------------- dance-single - forcednature ----------------
#NOTEDATA:;
#STEPSTYPE:dance-single;
#DESCRIPTION:forcednature;
#DIFFICULTY:Medium;
#METER:13;
#RADARVALUES:0,0,0,0,0;
#CREDIT:forcednature;
#NOTES:
0000
0000
0000
0000
,
0000
0000
0000
0000
,
0000
0000
0000
0000
,
0000
0000
0000
0000
,
0000
0000
0000
0000
,
0000
0000
0000
0000
,
1000
0000
0000
0001
0000
0000
0100
0000
,
0000
0010
0000
0000
1000
0000
0001
0000
,
0001
0000
0000
1000
0000
0000
0100
0000
,
0000
0010
0000
0000
0001
0000
1000
0000
,
1001
0001
0100
0001
,
0010
0001
1000
0010
,
1000
0100
0010
0100
,
1000
0000
0001
0000
0100
0010
0100
0000
,
1001
0000
0000
0011
0000
0000
1010
0000
,
0000
1001
0000
0000
1000
0100
0000
0001
,
0100
0000
0010
0001
1000
0001
0100
0010
,
2000
0000
0000
0000
,
3000
0000
0000
0000
0002
0000
0013
0100
,
1000
0100
0010
0000
0001
0000
1000
0000
,
0020
0000
0130
0001
1000
0001
0010
0000
,
0100
0000
1000
0000
0002
0000
0103
0010
,
1000
0010
0100
0000
0001
0000
1000
0000
,
0100
0010
0001
1000
,
0020
0000
1000
0000
0230
0000
0301
0010
,
0001
0100
0001
0000
1000
0000
0010
0000
,
0200
0000
0310
1000
0100
1000
0001
0000
,
0010
0100
1000
0010
,
0100
0001
0010
0100
,
1000
0010
1000
0010
0100
0001
0100
0001
,
1000
0100
0010
0001
0100
0000
0010
1000
,
0010
0100
0002
0000
0023
0000
0230
0000
,
1300
0000
0001
0010
0001
0100
0020
0000
,
2030
0000
3002
0000
0013
0000
0100
1000
,
0001
1000
0010
0000
0100
0001
1000
0001
,
0010
0000
0100
1000
0001
0100
0010
0000
,
1000
0000
0100
0000
0110
0000
0010
0001
,
1000
0010
0200
0000
0302
0000
0023
0000
,
0130
0000
1000
0001
0100
0010
2000
0000
,
3002
0000
0013
0000
1001
0000
0001
0100
,
0001
1000
0010
0000
1000
0100
1000
0001
,
0010
0000
0100
0010
0100
1000
0002
0000
,
0100
0000
1000
0000
0013
0000
0001
0100
,
1000
0000
0100
0000
0001
0010
1000
0000
,
0010
0000
0001
0100
0001
0010
0100
0000
,
1000
0001
0100
0000
0010
0000
1000
0100
,
0001
0000
0100
0000
1000
0010
0001
0000
,
0010
0000
0100
0001
0010
0001
1000
1000
,
0010
0000
0100
0000
1001
0000
0001
0010
,
1000
0010
0200
0000
1000
0000
0301
0000
,
0110
0000
1000
0010
0001
0010
0200
0000
,
1000
0000
0301
0000
0110
0000
0010
1000
,
0100
1000
0001
0000
0010
0001
0100
0001
,
1000
0100
1000
0001
0100
0001
0010
0000
,
0110
1001
0000
0000
,
1000
0100
1000
0000
0001
0000
0010
0000
0001
0000
0100
0000
0020
0000
0000
0000
,
2030
0000
0000
0000
3002
0000
0000
0000
0013
0100
0010
0000
0001
0000
1000
0000
,
0010
0100
0002
0000
2003
0000
3200
0000
,
1300
0010
1000
0000
0001
0000
0100
0000
0001
0000
0000
0000
0010
0100
0010
0000
,
0001
0000
1000
0000
0010
0000
0000
0000
0100
0001
0100
0000
0010
0000
1000
0000
,
0001
0010
0200
0000
2300
0000
3002
0000
,
0103
0010
0100
0000
0001
0000
1000
0000
0100
0000
1000
0000
0020
0000
0000
0000
,
0230
0000
0000
0000
0302
0000
0000
0000
1003
0100
1000
0000
0001
0000
0010
0000
,
0001
0100
0020
0000
2030
0000
3002
0000
,
0013
0100
0010
0000
0001
0000
1000
0000
0010
0000
0000
0000
0100
0001
0100
0000
,
0010
1000
0001
0000
0010
0010
0100
1000
,
1000
0001
0100
0000
0110
0000
1001
0000
,
0001
0010
0001
0000
1000
0000
0010
0000
0100
0000
0001
0000
2000
0000
0000
0000
,
3200
0000
0000
0000
1300
0000
0010
0000
0100
0001
0100
0000
0010
0000
1000
0000
,
0001
0010
0200
0000
2300
0000
3001
0100
,
0010
1000
0010
0000
0100
0000
0001
0000
1000
0000
0100
0000
0010
0001
0010
0000
,
0100
0000
1000
0000
0001
0000
0100
0000
0001
0010
0001
0000
1000
0000
0010
0000
,
0100
0001
1000
1000
0100
0010
0001
0000
,
1000
0010
1000
0000
0001
0000
0010
0000
0100
0000
1000
0000
0002
0000
0000
0000
,
0203
0000
0000
0000
0310
0000
1000
0000
0001
0010
0001
0000
0100
0000
0010
0000
,
1000
0001
0020
0000
0230
0000
1300
0001
,
0100
0010
0100
0000
0001
0000
1000
0000
0001
0000
0010
0000
0100
0010
0100
0000
,
1000
0000
0001
0000
1000
0000
0010
0000
0100
0001
0100
0000
0010
0000
0010
0000
,
1000
1000
0002
0000
0023
0000
0130
0000
,
2002
0000
3003
0220
,
0000
0000
0330
0000
1001
0000
1000
0100
,
0001
0100
1000
0000
0001
0100
1000
0100
,
0001
0000
1000
0010
0001
0010
1000
0000
,
0001
0000
0010
0000
1000
0000
0010
0000
0001
0000
0000
0000
1000
0100
1000
0000
,
0001
0000
0001
0000
0010
0000
0000
0000
0001
0100
0001
0000
1000
0000
1000
0000
,
0010
0000
0000
0000
0100
0001
0100
0000
0010
0000
1000
0000
0001
0010
0001
0000
,
1000
1000
0010
0010
0200
0000
0000
0000
,
0000
0000
0000
0000
,
0300
0000
0000
0000
,
0000
0000
2002
0000
,
0000
0000
0000
0000
,
0000
0000
3003
0000
;

//--------------- dance-single - forcednature ----------------
#NOTEDATA:;
#STEPSTYPE:dance-single;
#DESCRIPTION:forcednature;
#DIFFICULTY:Hard;
#METER:17;
#RADARVALUES:0,0,0,0,0;
#CREDIT:forcednature;
#NOTES:
0000
0000
0000
0000
,
0000
0000
0000
0000
,
0000
0000
0000
0000
,
0000
0000
0000
0000
,
0000
0000
0000
0000
,
0000
0000
0000
0000
,
1000
0000
0000
0100
0000
0000
1000
0000
,
0000
0010
0000
0000
1000
0000
0001
0000
,
0100
0000
0000
0010
0000
0000
1000
0000
,
0000
0001
0010
0001
0100
0010
1000
1000
,
0100
0000
0010
0100
1000
0010
0100
0010
,
1000
0100
0010
0100
1000
0001
0010
0001
,
0100
0000
0010
0100
0001
0010
0100
0010
,
0001
0000
0100
0000
0010
0000
1000
0010
1000
0010
1000
0000
0001
0000
0010
0000
,
0100
1000
0100
0000
0010
0000
0001
0100
0001
0000
1000
0000
0001
0010
0001
0000
,
0100
0000
0010
1000
0010
0000
0100
0000
0001
0010
0100
0010
0001
0000
0100
0000
,
0010
0000
1000
0000
0100
1000
0100
0000
0010
0100
0010
0000
0001
1000
0010
0100
,
0002
0000
0000
0000
,
0003
0000
0000
0000
1000
1000
0001
0100
,
0010
0100
0001
0000
1000
0000
0100
0000
,
0010
0010
0001
1000
0001
0100
0010
0000
,
1000
0000
0001
0000
0010
0010
0100
1000
,
0001
0100
0010
0000
1000
0000
0100
0000
,
0010
0001
1000
0010
,
0100
0000
0001
0000
1000
1000
0100
1000
,
0001
0100
0010
0000
1000
0000
0001
0000
,
0010
0010
0100
0010
0001
1000
0010
0000
,
0100
0000
0001
0000
1000
0100
1000
0010
,
0100
0001
0010
0001
0100
0010
1000
0001
,
0010
0000
0010
0000
0100
0000
0100
0000
1000
0000
1000
0000
0001
0100
0001
0100
,
0010
1000
0010
1000
0001
0010
0100
1000
0001
0000
0100
0000
1000
0000
0100
0000
,
0001
0010
0100
0000
1000
0000
0020
0000
,
1030
0100
0001
0100
1000
0010
0100
0000
,
0001
0000
0020
0000
0130
0001
0100
1000
,
0010
1000
0001
0100
1000
0100
0001
0010
,
1000
0000
0010
0000
0100
0000
1000
0000
0010
0000
0100
0000
0001
0100
0001
0000
,
1000
0010
1000
0001
0010
0001
0100
1000
,
0100
0001
0010
0000
0100
0000
2000
0000
,
3001
0100
0010
0001
0010
1000
0001
0000
,
0010
0000
0000
0000
0200
0000
0000
0000
1300
0100
1000
0000
0010
0000
1000
0000
,
0001
0000
0010
0000
0001
0100
0001
0000
0010
0000
0001
0000
1000
0000
0010
0000
,
1000
0100
1000
0100
0010
0001
0010
0001
1000
0000
0010
0000
0200
0000
0000
0000
,
0001
0000
0000
0000
0310
0000
0100
0001
0100
0000
0000
0000
0010
0000
1000
0100
,
0010
0000
0001
0000
1000
0000
0000
0000
0010
0000
0100
0001
1000
0001
0010
0000
,
0001
0000
0100
1000
0100
0001
0010
0001
,
1000
0000
0010
0000
1000
0000
0100
0000
0001
0000
0000
0000
0100
0000
1000
0001
,
0010
0000
0001
0000
0100
0000
0000
0000
0001
0000
0010
0001
1000
0001
0100
0000
,
0010
0000
0000
0000
1000
0000
0100
0000
1000
0001
0100
0000
0010
1000
0010
0000
,
0100
0000
0100
0000
0001
0000
0001
0000
0010
0000
0000
0000
0100
0000
1000
0001
,
0100
0010
2000
0000
3100
0001
0100
1000
,
1010
0000
0000
0000
0001
0000
0100
0010
1000
0000
0001
0000
0020
0000
0000
0000
,
0230
0000
1300
0001
0101
0100
1000
0100
,
0001
0010
1100
0100
0001
0100
1000
0010
,
0100
0001
0100
0001
1000
0100
1000
0100
0010
0001
0010
0001
0100
0000
0000
0000
,
0110
0000
0000
0000
1001
0000
0000
0000
0000
0000
0000
0000
1000
0100
0010
0001
,
1000
0100
1000
0000
0010
0000
0100
0000
0001
0000
0010
0000
1000
0000
0010
0000
,
0001
0000
0100
0000
0010
0000
0100
0000
0001
1000
0001
0000
0010
0000
0100
0000
,
1000
0010
0100
1000
0100
0001
0010
0001
,
1000
0010
1000
0000
0001
0100
0001
0000
1000
0001
0010
0000
0100
1000
0100
0010
,
0100
0010
0001
0000
0100
0001
0100
0000
0010
1000
0001
0000
0010
0000
0100
0000
,
0001
0000
0100
0000
1000
0100
1000
0000
0010
0000
0010
0000
0100
0000
0100
0000
,
0001
0010
0001
0000
1000
0000
0010
0000
0100
0000
0001
0000
0010
0000
1000
0000
,
0010
0000
0001
0000
1000
0000
0010
0000
0100
0001
0100
0000
0010
0000
1000
0000
,
0100
0001
0100
1000
0010
1000
0001
0010
,
0001
0100
0001
0100
0010
0000
0100
0000
0010
1000
0010
0000
1000
0100
0010
0100
,
1000
0000
0001
0000
0100
0001
0100
0000
0010
0000
0010
0000
1000
0000
1000
0000
,
0001
0010
0001
0100
0010
0000
0000
0000
1000
0000
0100
0000
0010
0000
0001
0000
,
0100
0001
0100
0010
1000
0000
0100
1000
0100
0000
0010
0000
0001
0000
0100
0000
,
1000
0000
0100
0000
0001
0000
0010
0000
0100
1000
0100
0010
0001
0000
0100
0001
,
0100
0010
1000
0100
0001
0100
0010
0001
,
0100
0001
0100
0000
0010
1000
0010
1000
0001
0010
0001
0000
1000
0100
1000
0000
,
0010
0100
0010
0100
0001
0100
0001
0000
1000
0100
0010
0000
0001
0000
0100
0000
,
0010
0000
1000
0000
0100
0010
0100
0000
1000
0000
1000
0000
0001
0000
0001
0000
,
0100
0010
1000
0010
0100
0000
0001
0010
0001
0000
1000
0000
0100
0000
0001
0000
,
0100
0000
1000
0000
0001
0000
0010
0000
0001
0100
0001
1000
0010
0000
1000
0100
,
1000
0010
0100
1000
0100
0001
0010
0100
,
0110
0000
0000
0000
0010
0000
0001
1000
0010
0000
0100
0000
0110
0000
0000
0000
,
0010
0000
1000
0001
0010
0000
0100
0000
1000
0010
1000
0010
0100
0001
0100
0001
,
0010
0100
0010
0100
1000
0001
0100
0000
0001
1000
0100
0000
0010
0000
0001
0000
,
0202
0000
0303
2200
,
0000
0000
0000
0000
3300
0000
0000
0000
1001
0000
0000
0000
1000
0100
0010
0001
,
0010
0000
0100
0000
1000
0000
0001
0000
0100
0010
1000
0001
0100
0000
0010
0000
,
1000
0001
0010
0001
0010
0000
0100
1000
0001
0000
0100
0000
0010
0000
1000
0001
,
0010
0000
0010
0001
0100
0000
0100
0010
1000
0000
0000
0000
0100
0010
0100
1000
,
0001
0000
0100
0000
0010
1000
0100
0010
0001
0010
0001
0000
1000
0000
0001
0000
,
0100
0010
1000
0001
0010
0000
0100
0010
0001
0000
0100
0000
0010
0000
1000
0001
,
0100
0001
0010
0000
0100
1000
0001
1000
0020
0000
0000
0000
0000
0000
0000
0000
,
0000
0000
0000
0000
,
0030
0000
0000
0000
,
0000
0000
2002
0000
,
0000
0000
0000
0000
,
0000
0000
3003
0000
;

//--------------- dance-double - forcednature ----------------
#NOTEDATA:;
#STEPSTYPE:dance-double;
#DESCRIPTION:forcednature;
#DIFFICULTY:Easy;
#METER:9;
#RADARVALUES:0,0,0,0,0;
#CREDIT:forcednature;
#NOTES:
00000000
00000000
00000000
00000000
,
00000000
00000000
00000000
00000000
,
00000000
00000000
00000000
00000000
,
00000000
00000000
00000000
00000000
,
00000000
00000000
00000000
00000000
,
00000000
00000000
00000000
00000000
,
00001000
00000000
00000000
00001000
00000000
00000000
00001000
00000000
,
00000000
00001000
00000000
00000000
01000000
00000000
00000000
00000000
,
00010000
00000000
00000000
00010000
00000000
00000000
00010000
00000000
,
00000000
00010000
00000000
00000000
00000100
00000000
00000000
00000000
,
00011000
00000000
00001000
00000000
,
01000000
00010000
01000000
00000000
,
00100000
00000000
10000000
00000000
,
00010000
00100000
00010000
00000000
,
01000000
00000000
00000000
01000000
00000000
00000000
00001000
00000000
,
00000000
00001000
00000000
00000000
00010000
00000000
00000000
00010000
,
00000000
00000100
00001000
00000100
,
00000020
00000000
00000000
00000000
,
00000030
00000000
00000001
00000000
,
00000100
00000000
00000010
00000000
,
00001000
00000000
00000100
00000000
,
00010000
00000000
00001000
00000000
,
01000000
00000000
00010000
00000000
,
10000000
01000000
10000000
00010000
,
01000000
00010000
00100000
00000000
,
00001000
00000000
00010000
00000000
,
00000010
00000000
00001000
00000000
,
00000001
00000000
00000010
00000100
,
00000010
00000100
00001000
00000100
,
00010000
00001000
00010000
00001000
,
01000000
00001000
00010000
00000000
,
00100000
01000000
00100000
10000000
,
00010000
00000000
00100000
00001000
,
00010000
00000010
00010000
00000000
,
00001000
00000010
00000100
00000010
,
00000001
00000000
00001000
00000010
,
00010000
00001000
01000000
00000000
,
00010000
00100000
01000000
00100000
,
00010000
00000000
01000000
00001000
,
00010000
00000100
00001000
00001000
,
00000001
00000100
00000100
00000010
,
00010000
00001000
00100000
00002000
,
00000000
00003000
00010000
00200000
,
01300000
00010000
00200000
01300000
,
10000000
01000000
00010000
00001000
,
00010000
00000000
00001000
00000020
,
00000130
00001000
00000020
00000130
,
00000001
00000010
00000100
00010000
,
00001000
00000000
00011000
00000000
,
00001000
02000000
00000000
03010000
,
10010000
00000000
10000000
02000000
,
00000000
03100000
10010000
00000000
,
00001000
00011000
00000000
00010000
,
00000100
00000100
00000010
00000001
,
00001000
00001001
00000000
00000000
,
00001000
00000100
00010000
00001000
,
01000000
00010000
00100000
01000000
,
00100000
00001000
00010000
00000010
,
00001000
00000100
00001000
00000001
,
00000100
00000001
00000010
00000100
,
00000010
00000100
00010000
00001000
,
01000000
00010000
00100000
01000000
,
10000000
01000000
00010000
00001000
,
00000100
00000001
00000010
00000001
,
00000100
00000010
00001000
00000100
,
00010000
00001000
01000000
00010000
,
00100000
02000000
00100000
10000000
,
03100000
01000000
00100000
00000000
00010000
00000000
10000000
00000000
,
00010000
00000000
01000000
00000000
00001000
00010000
00001000
00000000
,
00010000
00000100
00001000
00000100
,
00000010
00000001
00000010
00000000
00000100
00000000
00010000
00000000
,
00001000
00000000
01000000
00000000
00010000
10000000
00010000
00000000
,
00100000
00001000
00010000
00000010
,
00001000
00000100
00001000
00000000
00000001
00000000
00000100
00000000
,
00000010
00000000
00010000
00000000
00001000
01000000
00001000
00000000
,
00010000
00100000
01000000
00100000
,
10000000
01000000
00010000
00001000
,
00000100
00000001
00001001
00001000
,
00000100
00010000
00000100
00000000
00010000
00000000
00001000
00000000
,
02002000
00000000
03003000
00020200
,
00000000
00030300
00011000
01000000
,
00010000
00100000
00001000
00010000
,
00000010
00001000
00000100
00010000
,
00001000
01000000
01100000
00100000
,
10000000
01000000
00100000
00001000
,
00010000
00000100
00000010
00000001
,
00000100
00001000
00022000
00000000
,
00000000
00000000
00000000
00000000
,
00033000
00000000
00000000
00000000
,
00000000
00000000
20020000
00000000
,
00000000
00000000
00000000
00000000
,
00000000
00000000
30030000
00000000
;

//--------------- dance-double - forcednature ----------------
#NOTEDATA:;
#STEPSTYPE:dance-double;
#DESCRIPTION:forcednature;
#DIFFICULTY:Medium;
#METER:14;
#RADARVALUES:0,0,0,0,0;
#CREDIT:forcednature;
#NOTES:
00000000
00000000
00000000
00000000
,
00000000
00000000
00000000
00000000
,
00000000
00000000
00000000
00000000
,
00000000
00000000
00000000
00000000
,
00000000
00000000
00000000
00000000
,
00000000
00000000
00000000
00000000
,
00001000
00000000
00000000
00010000
00000000
00000000
00100000
00000000
,
00000000
00010000
00000000
00000000
00001000
00000000
00010000
00000000
,
00001000
00000000
00000000
00000010
00000000
00000000
00001000
00000000
,
00000000
00010000
00000000
00000000
00001000
00000000
01000000
00000000
,
01100000
00100000
10000000
00010000
,
10000000
01000000
00010000
00001000
,
00000100
00000001
00000010
00000001
,
00000100
00000000
00001000
00000000
00010000
00001000
00010000
00000000
,
01001000
00000000
00000000
00011000
00000000
00000000
00101000
00000000
,
00000000
00011000
00000000
00000000
00000010
00001000
00000000
00001000
,
00000100
00000000
00000100
00000010
00000001
00000010
00000100
00010000
,
00002000
00000000
00000000
00000000
,
00003000
00000000
00000000
00000000
02000000
00000000
03010000
00100000
,
00010000
00100000
01000000
00000000
00010000
00000000
00001000
00000000
,
00020000
00000000
00030100
00001000
00000100
00001000
00000001
00000000
,
00000100
00000000
00000010
00000000
00020000
00000000
00031000
00100000
,
00010000
00100000
00001000
00000000
00010000
00000000
00100000
00000000
,
10000000
01000000
00010000
00001000
,
00000200
00000000
00000001
00000000
00000320
00000000
00001030
00000010
,
00010000
00000010
00001000
00000000
00000100
00000000
00010000
00000000
,
00002000
00000000
01003000
00010000
00100000
00010000
01000000
00000000
,
00100000
10000000
01000000
00010000
,
00001000
00000100
00000001
00000010
,
00000100
00010000
00000100
00010000
00001000
01000000
00001000
01000000
,
00010000
10000000
00010000
00100000
01000000
00000000
00100000
00001000
,
00100000
00010000
00002000
00000000
00003200
00000000
00020300
00000000
,
00031000
00000000
00000100
00000001
00000100
00000010
00002000
00000000
,
00003200
00000000
00020300
00000000
00031000
00000000
01000000
00010000
,
10000000
00010000
00100000
00000000
01000000
10000000
00010000
10000000
,
00100000
00000000
01000000
10000000
01000000
00010000
00100000
00000000
,
00001000
00000000
00010000
00000000
00010010
00000000
00000010
00000100
,
00001000
00000100
00000002
00000000
00000023
00000000
00000230
00000000
,
00010300
00000000
00001000
01000000
00010000
01000000
00200000
00000000
,
20300000
00000000
31000000
00000000
01100000
00000000
00100000
00001000
,
00010000
00000010
00001000
00000000
00000100
00010000
00001000
01000000
,
00010000
00000000
00100000
01000000
00100000
00001000
00020000
00000000
,
00000010
00000000
00001000
00000000
00030100
00000000
00010000
00001000
,
00000100
00000000
00000010
00000000
00000100
00001000
00010000
00000000
,
01000000
00000000
00100000
00001000
00010000
00100000
00010000
00000000
,
00001000
01000000
00010000
00000000
10000000
00000000
01000000
00010000
,
00001000
00000000
00000100
00000000
00001000
00010000
01000000
00000000
,
10000000
00000000
00100000
00010000
00001000
00010000
00000100
00000100
,
00001000
00000000
00000010
00000000
00000110
00000000
00000100
00001000
,
00010000
01000000
00200000
00000000
10000000
00000000
00310000
00000000
,
01100000
00000000
01000000
00010000
00001000
00000100
00000020
00000000
,
00000001
00000000
00001030
00000000
00000110
00000000
00000001
00000010
,
00000100
00010000
00001000
00000000
10000000
00100000
01000000
00001000
,
00010000
00000100
00010000
00001000
00010000
00000010
00001000
00000000
,
00001100
00000011
00000000
00000000
,
00000001
00000100
00000001
00000000
00001000
00000000
00000010
00000000
00010000
00000000
00001000
00000000
00200000
00000000
00000000
00000000
,
00320000
00000000
00000000
00000000
02030000
00000000
00000000
00000000
03100000
10000000
00100000
00000000
01000000
00000000
00010000
00000000
,
01000000
00001000
00020000
00000000
00030200
00000000
00002300
00000000
,
00003001
00000100
00000001
00000000
00000010
00000000
00000100
00000000
00010000
00000000
00000000
00000000
00001000
00100000
00001000
00000000
,
00010000
00000000
00100000
00000000
10000000
00000000
00000000
00000000
01000000
00100000
01000000
00000000
00100000
00000000
00001000
00000000
,
00010000
00000010
00002000
00000000
00003200
00000000
00000320
00000000
,
00000031
00000010
00000001
00000000
00001000
00000000
00000010
00000000
00010000
00000000
00001000
00000000
02000000
00000000
00000000
00000000
,
03020000
00000000
00000000
00000000
20030000
00000000
00000000
00000000
31000000
00100000
01000000
00000000
10000000
00000000
00010000
00000000
,
01000000
00010000
00200000
00000000
00302000
00000000
00023000
00000000
,
00030010
00001000
00000010
00000000
00000100
00000000
00001000
00000000
00000100
00000000
00000000
00000000
00000001
00000100
00000001
00000000
,
00000010
00000100
00000010
00000000
00000100
00000100
00010000
00001000
,
00001000
01000000
00010000
00000000
00110000
00000000
11000000
00000000
,
10000000
00100000
10000000
00000000
01000000
00000000
00010000
00000000
01000000
00000000
00100000
00000000
00002000
00000000
00000000
00000000
,
00023000
00000000
00000000
00000000
00030010
00000000
00000100
00000000
00000001
00000010
00000001
00000000
00001000
00000000
00000010
00000000
,
00001000
00010000
02000000
00000000
03200000
00000000
10300000
00010000
,
00100000
01000000
00100000
00000000
01000000
00000000
00100000
00000000
00001000
00000000
00010000
00000000
00000010
00001000
00000010
00000000
,
00000100
00000000
00000001
00000000
00000010
00000000
00000001
00000000
00001000
00000010
00001000
00000000
00000100
00000000
00010000
00000000
,
00001000
01000000
00010000
00010000
00100000
01000000
00100000
00000000
,
00001000
00010000
00001000
00000000
00010000
00000000
00000010
00000000
00001000
00000000
00000010
00000000
00000200
00000000
00000000
00000000
,
00000302
00000000
00000000
00000000
00001003
00000000
00000100
00000000
00010000
00001000
00010000
00000000
00001000
00000000
01000000
00000000
,
00010000
01000000
00200000
00000000
20300000
00000000
31000000
00100000
,
00001000
00010000
00001000
00000000
01000000
00000000
00010000
00000000
00100000
00000000
00001000
00000000
00010000
00001000
00010000
00000000
,
00000100
00000000
00001000
00000000
00000010
00000000
00010000
00000000
00000100
00001000
00000100
00000000
00000010
00000000
00000010
00000000
,
00000001
00000001
00000200
00000000
00002300
00000000
00013000
00000000
,
02002000
00000000
03003000
00020200
,
00000000
00000000
00030300
00000000
00011000
00000000
00001000
00010000
,
00100000
00010000
00001000
00000000
00010000
00001000
00000010
00001000
,
00010000
00000000
00001000
00010000
01000000
00010000
00001000
00000000
,
00010000
00000000
00001000
00000000
00000100
00000000
00001000
00000000
00010000
00000000
00000000
00000000
00001000
01000000
00001000
00000000
,
00100000
00000000
00100000
00000000
00001000
00000000
00000000
00000000
00010000
00000100
00010000
00000000
00000010
00000000
00000010
00000000
,
00010000
00000000
00000000
00000000
00001000
00100000
00001000
00000000
00010000
00000000
00000010
00000000
00001000
00000010
00001000
00000000
,
00000001
00000001
00000010
00000010
00000200
00000000
00000000
00000000
,
00000000
00000000
00000000
00000000
,
00000300
00000000
00000000
00000000
,
00000000
00000000
00022000
00000000
,
00000000
00000000
00000000
00000000
,
00000000
00000000
00033000
00000000
;

//--------------- dance-double - forcednature ----------------
#NOTEDATA:;
#STEPSTYPE:dance-double;
#DESCRIPTION:forcednature;
#DIFFICULTY:Hard;
#METER:17;
#RADARVALUES:0,0,0,0,0;
#CREDIT:forcednature;
#NOTES:
00000000
00000000
00000000
00000000
,
00000000
00000000
00000000
00000000
,
00000000
00000000
00000000
00000000
,
00000000
00000000
00000000
00000000
,
00000000
00000000
00000000
00000000
,
00000000
00000000
00000000
00000000
,
00001000
00000000
00000000
00010000
00000000
00000000
00100000
00000000
,
00000000
10000000
00000000
00000000
01000000
00000000
00010000
00000000
,
00010000
00000000
00000000
00001000
00000000
00000000
00000010
00000000
,
00000000
00000001
00000100
00000001
00001000
00000100
00001000
00001000
,
00000010
00000000
00010000
00001000
00100000
01000000
00100000
00001000
,
00010000
00100000
01000000
00100000
10000000
00010000
00100000
00010000
,
01000000
00000000
00100000
01000000
10000000
01000000
00010000
00100000
,
00010000
00000000
00001000
00000000
00000100
00000000
00001000
00000010
00001000
00000010
00001000
00000000
00000001
00000000
00000010
00000000
,
00000100
00001000
00000100
00000000
00010000
00000000
00001000
01000000
00001000
00000000
00010000
00000000
00000010
00001000
00000010
00000000
,
00010000
00000000
00001000
00100000
00001000
00000000
00010000
00000000
00100000
01000000
00100000
00000000
10000000
00000000
00010000
00000000
,
00100000
00000000
00010000
00000000
00001000
00000100
00001000
00000000
00000100
00000010
00000100
00000000
00000010
00000001
00001000
00000001
,
00000200
00000000
00000000
00000000
,
00000300
00000000
00000000
00000000
00000010
00000010
00010000
00001000
,
00010000
00100000
10000000
00000000
00010000
00000000
00100000
00000000
,
01000000
01000000
00010000
00001000
00010000
00000100
00001000
00000000
,
00000010
00000000
00000001
00000000
00000010
00000010
00001000
00000100
,
00010000
00001000
01000000
00000000
00010000
00000000
00100000
00000000
,
10000000
00100000
00010000
01000000
,
00001000
00000000
00010000
00000000
00000100
00000100
00010000
00000010
,
00010000
00001000
00000010
00000000
00000001
00000000
00000100
00000000
,
00001000
00001000
00010000
00100000
01000000
00100000
10000000
00000000
,
00010000
00000000
00100000
00000000
01000000
10000000
01000000
00010000
,
00001000
00000100
00000001
00000100
00000010
00000001
00000010
00001000
,
00000100
00000000
00000100
00000000
00010000
00000000
00010000
00000000
00001000
00000000
00001000
00000000
01000000
00010000
01000000
00010000
,
10000000
01000000
10000000
01000000
00100000
00010000
00100000
00001000
00010000
00000000
00000010
00000000
00001000
00000000
00000010
00000000
,
00010000
00001000
00000010
00000000
00000001
00000000
00000200
00000000
,
00001300
00010000
00100000
01000000
00100000
10000000
00010000
00000000
,
00100000
00000000
00002000
00000000
00013000
00000010
00000100
00000010
,
00001000
00000001
00000010
00000100
00010000
00001000
00100000
01000000
,
00100000
00000000
00001000
00000000
00010000
00000000
00100000
00000000
10000000
00000000
00100000
00000000
10000000
01000000
10000000
00000000
,
00010000
00100000
01000000
00010000
00001000
00000010
00000100
00010000
,
00001000
00000100
00000001
00000000
00000010
00000000
00000200
00000000
,
00010300
00001000
01000000
00010000
00100000
10000000
00100000
00000000
,
00001000
00000000
00000000
00000000
00020000
00000000
00000000
00000000
00030010
00001000
00000010
00000000
00000100
00000000
00001000
00000000
,
00000100
00000000
00000001
00000000
00000010
00000100
00000010
00000000
00000100
00000000
00010000
00000000
00001000
00000000
01000000
00000000
,
00010000
00100000
00010000
00100000
01000000
10000000
01000000
10000000
00100000
00000000
01000000
00000000
00002000
00000000
00000000
00000000
,
00100000
00000000
00000000
00000000
00013000
00000000
00001000
01000000
00001000
00000000
00000000
00000000
00010000
00000000
00000100
00001000
,
00000010
00000000
00000100
00000000
00000001
00000000
00000000
00000000
00000010
00000000
00000100
00001000
00000100
00010000
00001000
00000000
,
01000000
00000000
00010000
00100000
10000000
00100000
00010000
01000000
,
00100000
00000000
00010000
00000000
00001000
00000000
00000010
00000000
00000100
00000000
00000000
00000000
00001000
00000000
00000001
00000100
,
00000010
00000000
00010000
00000000
00001000
00000000
00000000
00000000
00100000
00000000
00010000
00100000
01000000
10000000
01000000
00000000
,
00100000
00000000
00000000
00000000
00001000
00000000
00010000
00000000
00000010
00001000
00000010
00000000
00000100
00000001
00000100
00000000
,
00001000
00000000
00001000
00000000
00010000
00000000
00010000
00000000
00100000
00000000
00000000
00000000
01000000
00000000
00010000
10000000
,
01000000
00100000
00002000
00000000
01003000
00001000
00010000
00000100
,
00000110
00000000
00000000
00000000
00000010
00000000
00000001
00001000
00000010
00000000
00010000
00000000
00002000
00000000
00000000
00000000
,
00203000
00000000
01300000
10000000
00100000
00010000
00001000
00000100
,
00000001
00000010
00001000
00010000
01000000
10000000
00010000
10000000
,
00100000
01000000
00100000
01000000
00010000
01000000
00010000
01000000
00001000
00010000
00001000
00010000
00000100
00000000
00000000
00000000
,
00000110
00000000
00000000
00000000
00001001
00000000
00000000
00000000
00000000
00000000
00000000
00000000
00001000
00000100
00000010
00000001
,
00001000
00000010
00001000
00000000
00000100
00000000
00010000
00000000
00001000
00000000
01000000
00000000
00100000
00000000
00010000
00000000
,
00100000
00000000
10000000
00000000
00010000
00000000
00100000
00000000
01000000
10000000
01000000
00000000
00010000
00000000
00001000
00000000
,
00000100
00000001
00000010
00000100
00000010
00000001
00000100
00001000
,
00010000
00000010
00010000
00000000
00001000
01000000
00001000
00000000
00010000
00001000
00100000
00000000
00010000
01000000
00010000
00000000
,
10000000
01000000
10000000
00000000
00100000
01000000
00010000
00000000
00100000
00001000
00010000
00000000
00000010
00000000
00001000
00000000
,
00000100
00000000
00000001
00000000
00000100
00001000
00000100
00000000
00000010
00000000
00000010
00000000
00000001
00000000
00000001
00000000
,
00000100
00000001
00000100
00000000
00000010
00000000
00001000
00000000
00010000
00000000
01000000
00000000
00010000
00000000
00100000
00000000
,
10000000
00000000
00100000
00000000
00010000
00000000
01000000
00000000
00001000
00010000
00001000
00000000
00000010
00000000
00000100
00000000
,
00000001
00000100
00001000
00000010
00001000
00010000
01000000
00010000
,
00100000
01000000
00100000
01000000
10000000
00000000
00010000
00000000
01000000
00010000
01000000
00000000
00001000
00010000
00000100
00001000
,
00000100
00000000
00000010
00000000
00000001
00001000
00000001
00000000
00000100
00000000
00000100
00000000
00001000
00000000
00001000
00000000
,
00010000
00001000
00010000
00000010
00001000
00000000
00000000
00000000
00010000
00000000
01000000
00000000
00010000
00000000
00100000
00000000
,
01000000
10000000
01000000
00100000
00010000
00000000
01000000
00000000
00001000
00000000
00010000
00000000
00000100
00000000
00010000
00000000
,
00001000
00000000
00000010
00000000
00000001
00000000
00000010
00000000
00000100
00001000
00000100
00010000
00001000
00000000
01000000
00000000
,
00010000
00100000
10000000
00100000
00010000
01000000
00001000
00010000
,
00000100
00001000
00000100
00000000
00000010
00000001
00001000
00000001
00000100
00000000
00000010
00000000
00001000
00000100
00001000
00000000
,
00000010
00010000
00001000
01000000
00010000
00000000
10000000
00000000
00010000
00100000
00010000
00000000
01000000
00000000
00100000
00000000
,
00010000
00000000
00100000
00000000
10000000
00100000
10000000
00000000
01000000
00000000
01000000
00000000
00010000
00000000
00010000
00000000
,
00001000
00100000
00010000
00100000
00001000
00000000
00010000
00000010
00010000
00000000
00001000
00000000
00000010
00000000
00000100
00000000
,
00000010
00000000
00000001
00000000
00001000
00000000
00000010
00000000
00010000
00001000
01000000
00010000
01000000
00000000
00100000
10000000
,
00100000
10000000
01000000
00010000
00001000
00000100
00000001
00000010
,
00000110
00000000
00000000
00000000
00000100
00000000
00010000
00001000
01000000
00000000
00100000
00000000
01100000
00000000
00000000
00000000
,
01000000
00000000
00001000
00010000
00000100
00000000
00000010
00000000
00000001
00000100
00000001
00000100
00000010
00001000
00000010
00001000
,
00000100
00010000
00000100
00010000
00001000
00000000
01000000
00000000
00100000
10000000
01000000
00000000
00100000
00000000
00001000
00000000
,
02002000
00000000
03003000
00020200
,
00000000
00000000
00000000
00000000
00030300
00000000
00000000
00000000
00000110
00000000
00000000
00000000
00000010
00000001
00001000
00000001
,
00000100
00000000
00000010
00000000
00001000
00000000
00000000
00000000
00010000
01000000
00010000
10000000
00010000
00000000
00100000
00000000
,
01000000
10000000
01000000
10000000
01000000
00000000
00100000
00010000
10000000
00000000
00010000
00000000
01000000
00000000
00001000
00010000
,
00000100
00000000
00000100
00001000
00000001
00000000
00000001
00000100
00000010
00000000
00000000
00000000
00001000
00000100
00010000
00001000
,
00100000
00000000
00010000
00000000
01000000
00001000
00010000
00000010
00001000
00000000
00001000
00000000
00000100
00000000
00000001
00000000
,
00000100
00001000
00000100
00000010
00000001
00000000
00001000
00000001
00000100
00000000
00001000
00000000
00011000
00000000
00010000
00100000
,
01000000
00000000
01000000
00000000
00010000
10000000
01000000
00100000
00020000
00000000
00000000
00000000
00000000
00000000
00000000
00000000
,
00000000
00000000
00000000
00000000
,
00030000
00000000
00000000
00000000
,
00000000
00000000
00002002
00000000
,
00000000
00000000
00000000
00000000
,
00000000
00000000
00003003
00000000
;
