#VERSION:0.83;
#TITLE:DropZ-Line-;
#SUBTITLE:;
#ARTIST:Getty vs. DJ DiA;
#TITLETRANSLIT:;
#SUBTITLETRANSLIT:;
#ARTISTTRANSLIT:;
#GENRE:PUMPCORE;
#CREDIT:;
#MUSIC:DropZ-Line-.ogg;
#BANNER:DropZ-Line-.png;
#BACKGROUND:DropZ-Line--bg.png;
#CDTITLE:./CDTitles/SDVX IV HEAVENLY HAVEN.png;
#SAMPLESTART:13.188;
#SAMPLELENGTH:15.000;
#SELECTABLE:YES;
#OFFSET:0.000;
#BPMS:0.000=200.000
,108.000=100.000
,132.000=200.000
,180.000=50.000
,188.000=100.000
,192.000=200.000
,200.000=400.000
,216.000=25.000
,216.750=200.000
;
#STOPS:216.750=0.525;
#TIMESIGNATURES:0.000=4=4,
216.000=1=4,
217.000=4=4
;
#DISPLAYBPM:50.000:200.000;
#BGCHANGES:0.000=../BGAs/17te.mp4=1.000=0=0=0=StretchNoLoop====,
99999.000=-nosongbg-=1.000=0=0=0=StretchNoLoop====
;
#FGCHANGES:;

//--------------- dance-single - forcednature ----------------
#NOTEDATA:;
#STEPSTYPE:dance-single;
#DESCRIPTION:forcednature;
#DIFFICULTY:Beginner;
#METER:5;
#RADARVALUES:0,0,0,0,0;
#CREDIT:forcednature;
#NOTES:
0000
0000
0000
0000
,
0000
0000
0000
0000
,
0000
0000
0000
0000
,
0000
0000
0000
0000
,
0000
0000
0000
0000
,
0000
0000
0000
0000
,
0000
0000
0000
0000
,
1000
0000
0000
0000
,
0000
0000
0000
0000
,
0001
0000
0001
0000
,
1000
0000
0010
0000
,
1001
0000
0000
0000
,
1000
0000
0000
0000
,
0100
0000
1000
0000
,
0001
0000
0010
0000
,
0001
0000
0000
0000
,
1000
0000
0000
0000
,
0010
0000
0100
0000
,
0001
0000
0100
0000
,
0010
0000
0000
0000
,
1000
0000
0100
0000
,
0010
0000
0000
0000
,
0001
0000
0100
0000
,
0010
0000
0000
0000
,
1000
0000
0001
0000
,
0010
0000
0100
0000
,
0010
0000
0000
0000
,
0110
0000
0001
0000
,
0100
0000
0001
0000
,
0110
0000
1000
0000
,
0100
0100
0100
0000
,
1000
0000
0010
0000
,
1000
0000
0100
0000
,
1001
0000
0000
0000
,
0001
0000
0001
0000
,
1000
0000
1000
0000
,
0010
0000
0000
0000
,
0110
0000
0000
0000
,
0001
0000
1000
0000
,
1001
0000
0000
0000
,
0100
0000
0010
0000
,
0110
0000
0000
0000
,
1000
0000
0001
0000
,
1001
0000
0110
0000
,
0002
0000
0003
0000
,
2002
0000
3003
0000
,
0220
0000
0330
0000
,
1000
1000
1000
0000
,
0001
0000
0001
0000
,
0001
0000
0000
0000
,
0200
0000
0000
0000
,
0000
0000
0000
0000
,
0000
0000
0000
0000
,
0000
0000
0000
0000
,
0300
0001
0000
1000
,
0000
0010
0000
0000
,
0000
1000
0000
0001
,
0000
0010
0010
0010
,
0000
0001
0000
1000
,
0000
0100
0000
0000
,
0000
1000
0000
0001
,
0000
0100
0100
0100
,
0000
0010
0000
1000
,
0000
0010
1000
0010
,
0000
1000
0000
0100
,
0000
1000
0100
1000
,
0000
0001
0000
0100
,
0000
0001
0100
0001
,
0000
0010
0001
0010
,
0000
0220
0000
0330
,
0000
1000
0000
0001
,
0000
0100
0100
0100
,
0000
0001
0000
1000
,
0000
0100
0100
0100
,
0000
0010
0000
0001
,
0000
1000
1000
1000
,
0000
0010
0000
1000
,
0000
0001
0001
0001
,
0000
1001
0000
0100
,
0000
1001
0000
0010
,
0000
0110
0000
1000
,
0000
0110
0000
0001
,
0000
1001
0000
0100
,
0000
1001
0000
0010
,
0000
0110
0000
1001
,
0000
0110
0000
0001
,
1000
0000
0000
0000
;

//--------------- dance-single - forcednature ----------------
#NOTEDATA:;
#STEPSTYPE:dance-single;
#DESCRIPTION:forcednature;
#DIFFICULTY:Easy;
#METER:10;
#RADARVALUES:0,0,0,0,0;
#CREDIT:forcednature;
#NOTES:
0000
0000
0000
0000
,
0000
0000
0000
0000
,
0000
0000
0000
0000
,
0000
0000
0000
0000
,
0000
0000
0000
0000
,
0000
0000
0000
0000
,
0000
0000
0000
0000
,
1000
1000
1000
0000
,
0001
0001
0001
0000
,
0100
0010
0100
0010
,
1000
0001
1001
0000
,
0001
0010
0100
0010
,
0001
1000
0100
1000
,
0001
0100
0010
1000
,
0010
0100
0001
0000
,
1000
0100
0010
0100
,
1000
0001
0010
0001
,
1000
0010
0100
0001
,
0100
0010
1000
0000
,
0001
0001
0010
0010
,
0001
1000
0100
0000
,
1000
1000
0010
0010
,
1000
0001
0100
0000
,
0010
0010
1000
1000
,
0001
0001
0010
0010
,
0001
1000
0100
1000
,
0001
0100
0010
0000
,
1001
0000
0000
0000
1000
0100
0010
0001
,
1000
0000
1000
0000
0001
0100
0010
1000
,
0001
0000
0001
0000
0010
0100
1000
0001
,
0100
0000
0010
0100
0001
1000
0010
0000
,
0110
0000
1001
0000
1000
0100
1000
0000
,
0110
0000
1001
0000
0001
0100
0001
0000
,
1000
1000
0010
1000
,
0001
0001
0010
0001
,
0100
0100
0010
0010
,
0220
0000
0330
0000
,
1000
0100
0010
0001
,
1000
0100
0010
0001
,
1000
0010
0100
0001
,
1000
0000
0010
0000
1000
0001
1000
0000
,
0001
0010
0100
1000
,
0001
0010
0100
1000
,
0001
0000
0100
0000
0001
1000
0001
0000
,
0020
0000
0030
0000
,
2002
0000
0000
3003
,
0220
0000
0000
0330
,
0001
1000
0001
1000
0001
1000
0001
0000
,
1000
0001
1000
0001
,
1000
0001
1000
0000
,
0001
0000
1000
0000
,
0001
0000
1000
0000
,
0001
0000
1000
0000
,
0001
0000
1000
0000
,
0001
1000
0010
0100
,
0010
1000
0001
0100
,
0000
0001
0010
0100
,
0010
0001
1001
0110
,
0000
1000
0010
0100
,
0010
1000
0001
0100
,
0000
0001
0010
0100
,
0010
1001
0110
1001
,
0000
1000
1000
0100
,
0100
0000
1000
0001
1000
0000
0010
0000
,
0100
0001
0001
0100
,
0100
0000
0001
1000
0001
0000
0010
0000
,
0100
0000
1000
0001
1000
0000
0010
0000
,
0100
0000
0001
1000
0001
0000
0010
0000
,
0100
0000
1000
0001
1000
0000
0001
1000
,
0001
0200
0010
0020
,
0330
0000
1001
0000
0001
0000
0010
0100
,
0010
0001
1000
0010
,
0100
0000
1001
0000
1000
0000
0010
0100
,
0010
1000
0001
0010
,
0100
0000
0110
0000
1000
0000
0001
0100
,
0001
1000
0100
0010
,
0001
0000
0110
0000
1000
0000
0001
0100
,
0001
0000
1000
0000
0100
0000
1000
0001
,
1000
0000
0010
0000
0100
0010
0000
0100
,
0000
0000
0001
0000
1000
0001
0000
1000
,
0000
0000
0100
0000
0010
0100
0000
0010
,
0000
0000
1000
0000
0001
1000
0000
0001
,
0000
0000
0100
0000
0001
0100
0000
0100
,
0001
0000
1000
0000
0100
1000
0000
1000
,
0100
0000
0010
0000
0001
1000
0000
1000
,
0001
0000
0001
1000
0000
1000
0001
0000
,
1001
0000
0000
0000
;

//--------------- dance-single - forcednature ----------------
#NOTEDATA:;
#STEPSTYPE:dance-single;
#DESCRIPTION:forcednature;
#DIFFICULTY:Medium;
#METER:14;
#RADARVALUES:0,0,0,0,0;
#CREDIT:forcednature;
#NOTES:
0000
0000
0000
0000
,
0000
0000
0000
0000
,
0000
0000
0000
0000
,
0000
0000
0000
0000
,
0000
0000
0000
0000
,
0000
0000
0000
0000
,
0000
0000
0000
0000
,
1000
1000
0001
0100
,
0001
0001
1000
0100
,
0010
0100
0010
0100
1000
0001
1000
0001
,
0200
0310
0110
1001
,
1000
0100
0001
0100
1000
0001
0010
0000
,
0100
1000
0010
0000
0100
0001
0010
0000
,
0001
0100
1000
0100
0001
1000
0010
0000
,
0100
0001
0010
0000
0100
1000
0010
0000
,
0110
0000
0100
0001
0010
0001
1000
0000
,
0100
1000
0010
1000
0001
0001
0010
0000
,
0100
1000
0100
0001
0100
1000
0001
0010
,
0000
0001
0100
0010
1000
0100
0010
0000
,
0110
0000
1000
0001
0010
0001
1000
0010
,
0100
0001
0010
0100
1000
0010
0100
0000
,
0110
0000
0001
1000
0010
1000
0001
0010
,
0100
1000
0010
0100
0001
0010
0100
0000
,
0011
0000
0001
1000
0010
1000
0001
0000
,
1010
0000
1000
0001
0010
0001
1000
0000
,
0101
0000
0001
0010
0100
0100
0010
0100
,
1000
0000
0000
1000
0000
0000
1000
0000
0001
0000
0100
0000
0010
0000
0000
0000
,
0110
0000
0000
0000
1000
0000
0001
0100
0001
0100
0010
1000
0010
1000
0001
0100
,
0010
0000
1000
0000
0001
0000
1000
0100
1000
0100
0010
0001
0010
0001
1000
0100
,
0010
0000
0001
0000
1000
0000
0010
0100
0010
0100
0001
1000
0001
1000
0010
0100
,
0001
0000
1000
1000
1000
0100
1000
0000
0001
0001
0001
0100
0001
0000
0010
0000
,
0110
0000
0000
1100
0000
0000
0010
0000
1100
0000
0000
0011
0000
0000
1000
0000
,
0110
0000
0000
0101
0000
0000
0010
0000
1010
0000
0000
0001
1000
0001
0010
0000
,
0110
0000
0100
1000
0010
1000
0100
0000
,
0110
0000
0010
0001
0100
0001
0010
0000
,
0100
0100
1000
0001
0010
0010
0001
1000
,
0010
0000
0000
0010
0000
0000
0010
0000
0100
0000
0001
0000
1000
0000
0000
0000
,
0010
1000
0100
0010
0001
0100
0010
1000
,
0001
0010
0100
0001
0100
0010
0001
0000
,
1000
0010
0100
0001
0010
0100
1000
0001
,
1000
0100
0010
1000
0010
0100
1000
0000
,
0001
0010
1000
0000
0010
0001
1000
0100
,
1000
0010
0001
0000
0010
1000
0001
0001
,
0001
0000
0100
0010
1000
0010
0100
0100
,
0002
1000
0010
0103
,
2002
0000
0000
3003
,
0220
0000
0000
0330
,
0001
0010
0100
0000
1000
0010
0100
0000
0001
0010
0100
0000
0110
0000
1001
0000
,
1000
0001
1000
0001
0100
0010
0100
0010
,
1000
0000
0001
0000
1000
0000
0001
0000
0100
0000
0000
0100
0000
0000
0100
0000
,
0010
0010
0010
0010
,
0010
0010
0010
0010
,
0010
0010
0010
0010
,
0010
0010
0010
0000
,
0020
0000
0000
0030
1000
0000
0100
0000
0001
0000
0100
0000
1000
0000
0000
0000
,
0001
0010
1000
0000
0010
0001
1000
0000
,
1010
0000
0001
0100
1000
0100
0001
0000
,
1000
0010
0001
0000
0010
1000
0001
0000
,
0110
0000
0001
0010
1000
0010
0001
0000
,
1000
0100
0001
0000
0100
1000
0010
0010
,
0010
0000
1000
0010
0001
0010
1000
0000
,
0001
0100
1000
0100
0001
1000
0010
0010
,
0010
0000
0100
0001
0010
0001
0100
0001
,
0010
0001
0100
1000
0100
0001
0010
0001
,
1000
0000
0100
1000
0010
1000
0100
1000
,
0010
1000
0100
0001
0100
1000
0010
0100
,
0001
0000
0010
0100
1000
0100
0001
0100
,
1000
0000
0010
0100
0001
0100
1000
0100
,
0001
0000
0010
0010
0100
0100
0010
0010
,
0100
0000
0100
0000
1000
0000
0000
1000
0000
0000
1000
0000
0001
0000
0100
0000
,
0010
0000
0110
0000
1000
0001
0010
0001
,
1000
0010
1000
0100
0001
0100
1000
0001
,
0010
0000
0110
0000
0001
1000
0010
1000
,
0001
0010
0001
0100
1000
0100
0001
1000
,
0010
0000
0110
0000
0100
0001
0010
0100
,
1000
0010
0100
0010
1000
0100
0001
0100
,
1000
0000
0110
0000
0010
0001
0100
0001
,
0010
0001
0100
1000
0100
0001
0010
0010
,
0010
0000
0110
0000
0000
1001
0000
1000
,
0010
0000
0110
0000
0000
1001
0000
0001
,
0010
0000
1100
0000
0000
1010
0000
0001
,
0010
0000
0101
0000
0000
0011
0000
1000
,
0010
0000
1100
0000
1000
0010
0000
0100
,
0110
0000
0101
0000
0001
0010
0000
0100
,
0110
0000
1001
0000
0001
0011
0000
1000
,
1010
0000
0100
0110
0000
0001
0100
0100
,
0010
0010
0000
0000
0000
0000
0000
0000
;

//--------------- dance-single - forcednature ----------------
#NOTEDATA:;
#STEPSTYPE:dance-single;
#DESCRIPTION:forcednature;
#DIFFICULTY:Hard;
#METER:17;
#RADARVALUES:0,0,0,0,0;
#CREDIT:forcednature;
#NOTES:
0000
0000
0000
0000
,
0000
0000
0000
0000
,
0000
0000
0000
0000
,
0000
0000
0000
0000
,
0000
0000
0000
0000
,
0000
0000
0000
0000
,
0000
0000
0000
0000
,
0001
0100
0001
0100
0010
0010
1000
0001
,
1000
0100
1000
0100
0010
0010
0001
1000
,
0010
0100
0010
0100
0001
0100
0001
0100
0010
1000
0010
0100
0001
1000
0001
0100
,
0020
0000
0000
1000
0000
0000
1030
0000
0010
0100
0001
1000
0010
0000
0000
0000
,
2001
0000
0000
0000
3100
0000
0010
0100
0010
0000
0001
0000
1000
0000
0010
0000
,
1000
0000
0001
0000
0010
0000
0100
0010
0100
0000
1000
0000
0001
0000
0100
0000
,
0010
2000
3100
0020
1030
0020
0130
2000
,
3002
0000
0023
0000
2030
0000
3020
0000
0031
0000
0010
0001
1000
0000
0000
0000
,
1002
0000
0000
0000
0103
0000
0010
0100
0010
0000
1000
0000
0001
0000
0010
0000
,
0001
0000
1000
0000
0010
0000
0100
0010
0100
0000
0001
0000
1000
0000
0100
0000
,
0010
0002
0103
0020
0031
0020
0130
0002
,
1003
0000
0010
1000
0001
0000
1000
0000
0010
0100
0010
0100
0001
0000
0000
0000
,
2001
0000
0000
0000
3010
0000
0100
0010
0100
0000
0001
0000
1000
0000
0100
0000
,
0010
0000
0001
0000
0100
0000
0010
0100
0010
0000
1000
0000
0001
0000
0010
0000
,
1002
0000
0000
0000
0013
0000
0100
0010
0100
0000
1000
0000
0001
0000
0100
0000
,
0010
0000
1000
0000
0100
0000
0010
0100
0010
0000
0001
0000
1000
0010
1000
0010
,
0200
0000
0000
0000
0301
0000
0100
0010
0100
0000
0001
0000
1000
0000
0010
1000
,
0200
0000
0000
0000
1300
0000
0100
0010
0100
0000
1000
0000
0001
0010
0001
0010
,
0200
0000
0000
0000
1300
0000
0010
0000
0100
0000
0100
0000
0010
0100
0001
0100
,
0020
0000
0000
1000
0000
0000
1030
0000
0010
0100
0001
1000
0010
0000
0000
0000
,
1000
0000
0000
1000
0100
0000
0010
0000
0002
0000
0000
0000
0100
0000
0100
0000
1000
0000
1000
0000
0010
0000
0010
0000
1000
0000
1000
0000
0100
0000
0103
0000
,
0000
0001
0010
0100
2000
0000
0100
0100
0001
0001
0010
0010
0001
0001
0100
3100
,
1000
0010
0100
0001
0020
0000
0001
0001
0100
0100
1000
1000
0100
0100
0001
0031
,
0000
0000
0010
0000
0100
0000
1000
0000
0010
0000
0010
0000
0100
0000
0010
0000
1000
0000
0001
1000
0001
0000
1000
0000
0100
0010
0100
0010
0100
0000
0000
0000
,
0011
0000
0100
0011
0000
1000
0100
1000
1010
0000
0100
1010
0000
0001
0010
0000
,
0110
0000
1000
0110
0000
0001
0100
0001
1001
0000
0010
0110
0100
0000
1001
0000
,
1100
0000
0000
0000
0001
0000
0010
0000
0011
0000
0000
0001
0100
0000
0001
0000
,
0101
0000
0000
0000
1000
0000
0010
0000
1010
0000
0000
1000
0100
0000
1000
0000
,
0010
0000
0100
0001
1000
0000
0001
0000
0010
0100
0010
0100
1000
0100
1000
0100
,
0020
0000
0000
0001
0000
0000
0031
0000
0010
0100
1000
0001
0010
0000
0000
0000
,
0001
0100
0010
0000
1000
0000
0001
0000
0010
0000
0100
0000
0010
0000
0001
0000
,
1000
0010
0100
0000
0001
0000
1000
0000
0100
0000
0010
0000
0100
0000
0100
1000
,
0001
1000
0100
0000
0010
0000
0001
0000
1000
0000
0010
0000
0100
0000
0001
0000
,
0010
0100
1000
0000
0001
0000
1000
0000
0010
0000
0200
0000
0000
0000
0000
0000
,
0301
1000
0100
0000
0010
0000
0001
0000
1000
0000
0010
0000
0100
0000
0100
0001
,
1000
0001
0100
0000
0010
0000
1000
0000
0001
0000
0010
0000
0100
0010
0100
0010
,
0100
0000
1000
0000
0001
0000
1000
0000
0010
0100
0010
0100
0001
0100
0010
1000
,
0002
0000
0000
0000
0013
0000
0100
0000
1000
0100
0010
0001
1000
0000
0000
0000
,
2002
0000
0000
0000
0000
0000
0000
0000
0000
0000
0000
0000
0003
0000
0000
0000
0010
0000
0000
0010
0000
0000
0010
0000
0000
0000
0001
0000
3100
0000
0000
0000
,
2002
0000
0000
0000
0000
0000
0000
0000
0000
0000
0000
0000
3000
0000
0000
0000
0010
0000
0000
0010
0000
0000
0010
0000
0000
0000
1000
0000
0103
0000
0110
0000
,
0001
1000
0010
0100
0001
1000
0010
0100
0001
1000
0010
0100
0110
0000
1001
0000
,
1000
0001
1000
0001
1000
0001
1000
0001
1000
0001
1000
0001
1000
0001
1000
0001
,
1000
0001
1000
0001
1000
0001
1000
0001
0010
0000
0000
0110
0000
0000
0100
0000
,
0010
0100
0010
0100
0010
0100
0010
0100
,
0010
0100
0010
0100
0010
0100
0010
0100
,
0010
0100
0010
0100
0010
0100
0010
0100
,
0010
0100
0010
0100
0010
0100
0010
0100
,
0010
0000
0000
0000
0001
1000
0100
1000
0001
0000
0010
0000
0001
0000
1000
0000
,
0010
0100
0010
0000
0100
0000
0001
0100
0000
0010
1000
0000
0001
0010
0100
1000
,
0100
0010
0001
0000
1000
0001
0100
0001
1000
0000
0010
0000
1000
0000
0001
0000
,
0010
0100
0010
0000
0100
0000
1000
0100
0000
0010
0001
0000
0100
1000
0100
0001
,
0100
0000
0000
0000
0001
0100
0010
1000
0001
0000
1000
0000
0100
0000
0010
0000
,
0100
1000
0100
0000
0010
0000
0001
1000
0000
0001
0100
0000
0010
1000
0001
0100
,
0001
1000
0010
0000
1000
0100
0010
0001
1000
0000
0001
0000
0100
0000
0010
0000
,
0100
0001
0100
0001
1000
0000
1000
0000
0010
0000
0010
0000
1000
0001
0100
0010
,
1000
0000
1100
0100
0110
0100
1100
0100
,
0110
0000
0100
0000
1000
0001
0010
0000
0001
1000
0100
0000
0010
0100
0010
0100
,
1000
0001
0010
0000
0101
0000
0100
0000
0110
0000
0100
0000
0101
0000
0100
0000
,
0110
0000
0100
0000
0001
1000
0010
0000
0100
0001
1000
0000
0010
0100
0010
0100
,
0001
0100
0010
0000
1001
0000
0100
0000
1001
0000
0010
0000
0110
0000
1000
0100
,
0010
0000
0001
0100
0010
0000
1000
0001
0010
0001
1000
0001
0010
0100
1000
0100
,
0010
0001
1000
0001
0100
0010
0100
0010
0100
0010
0100
0010
1000
0001
0100
0001
,
1000
0001
0100
0001
0010
0000
0000
0110
0000
0000
0110
0000
0100
1000
0001
0010
,
0100
0000
0000
0000
0012
0000
0000
0000
1003
0000
0010
0100
0001
0000
0010
0001
,
0100
0000
0010
0000
1000
0000
0100
0000
0001
0000
0100
0000
1000
0001
0010
0001
,
1000
0000
0000
0000
0001
0000
0100
0010
1000
0000
0001
0000
1000
0000
0100
0010
,
0001
0000
1000
0000
0010
0000
0100
0000
0001
0000
0100
0000
0010
1000
0001
0100
,
0010
0000
0000
0000
2010
0000
0000
0000
3001
0000
0010
0100
1000
0000
0010
1000
,
0100
0000
0010
0000
0001
0000
0100
0000
1000
0000
0100
0000
0001
1000
0010
1000
,
0001
0000
0000
0000
1000
0000
0100
0010
0001
0000
1000
0000
0001
0000
0100
0010
,
1000
0000
0001
0000
0010
0000
0100
0010
0001
0000
0100
0000
0001
1000
0010
0100
,
0001
0000
1100
0000
0001
0011
0000
1000
,
0001
0000
0000
0000
0101
0000
0000
0000
1000
0000
1010
0000
0010
0100
0001
0100
,
0010
0000
1001
0000
0100
0110
0000
0010
,
1001
0000
0110
0000
1000
0010
0001
0010
,
0110
0000
0101
0000
1000
1010
0000
0001
,
0010
0100
1100
0000
0001
0011
0000
1000
,
0010
0100
0110
0010
0100
1001
0100
0010
,
0110
1000
0001
0110
0001
1000
1001
0110
,
1001
0110
0000
0000
0000
0000
0000
0000
;

//--------------- dance-double - forcednature ----------------
#NOTEDATA:;
#STEPSTYPE:dance-double;
#DESCRIPTION:forcednature;
#DIFFICULTY:Easy;
#METER:10;
#RADARVALUES:0,0,0,0,0;
#CREDIT:forcednature;
#NOTES:
00000000
00000000
00000000
00000000
,
00000000
00000000
00000000
00000000
,
00000000
00000000
00000000
00000000
,
00000000
00000000
00000000
00000000
,
00000000
00000000
00000000
00000000
,
00000000
00000000
00000000
00000000
,
00000000
00000000
00000000
00000000
,
00001000
00001000
00001000
00000000
,
00010000
00010000
00010000
00000000
,
00000100
00001000
00000100
00001000
,
00000001
00000001
00000010
00000000
,
00000001
00000100
00000010
00000000
,
00001000
00000100
00000010
00000000
,
00000100
00010000
00001000
00100000
,
00001000
00010000
00000100
00000000
,
00010000
00001000
01000000
00000000
,
00010000
01000000
00001000
00000000
,
00100000
00010000
00100000
01000000
,
10000000
10000000
10000000
00000000
,
00100000
00100000
01000000
01000000
,
00100000
10000000
00010000
00000000
,
00100000
00100000
00010000
00010000
,
00100000
00001000
00010000
00000000
,
00000100
00000100
00001000
00000010
,
00010000
00010000
00001000
00100000
,
00010000
00010000
10000000
10000000
,
00100000
01000000
00100000
00000000
,
10010000
00000000
00000000
00000000
10000000
01000000
00100000
00010000
,
00100000
00000000
00001000
00000000
00010000
00000100
00001000
00000100
,
00000010
00000000
00000001
00000000
00000100
00000001
00001000
00000010
,
00000100
00000000
00001000
00010000
00001000
00010000
00001000
00000000
,
00011000
00000000
00011000
00000000
01000000
00010000
01000000
00000000
,
00011000
00000000
00011000
00000000
00000100
00001000
00000100
00000000
,
00000010
00000010
00000001
00000100
,
00000010
00000010
00001000
00000100
,
00010000
00010000
00001000
00001000
,
00022000
00000000
00033000
00000000
,
01000000
00010000
10000000
00010000
,
00100000
00010000
10000000
00010000
,
01000000
00100000
10000000
01000000
,
00100000
00010000
01000000
00000000
,
00001000
00010000
00000100
00001000
,
00000010
00010000
00001000
00100000
,
00010000
00010000
10000000
00010000
,
00200000
00000000
00300000
00000000
,
02200000
00000000
00000000
03300000
,
00022000
00000000
00000000
00033000
,
00001000
00010000
00001000
00010000
00001000
00010000
00001000
00000000
,
00010000
00001000
00010000
00001000
,
00010000
00001000
00010000
00000000
,
00001000
00000000
00010000
00000000
,
00001000
00000000
00010000
00000000
,
00001000
00000000
00010000
00000000
,
00001000
00000000
00010000
00000000
,
00001000
00100000
00010000
00100000
,
01000000
10000000
00010000
00100000
,
00000000
00001000
00010000
00000010
,
00001000
00000001
00001000
00001001
,
00000000
00000001
00000010
00000100
,
00000010
00000100
00010000
00001000
,
00000000
00100000
00010000
01000000
,
00100000
01000000
01100000
10010000
,
00000000
10000000
10000000
01000000
,
01000000
10000000
00100000
00010000
,
00001000
00010000
00010000
00001000
,
00001000
00010000
00001000
00000010
,
00000001
00000100
00000100
00000010
,
00001000
00000100
00000100
00000010
,
00000001
00000000
00000100
00000010
00000100
00000000
00000010
00000100
,
00000010
00002000
00000001
00000002
,
00003003
00001001
00001000
00000100
,
00010000
00001000
00100000
00010000
,
01000000
10010000
00010000
00100000
,
00001000
00010000
00000010
00001000
,
00000100
00000110
00001000
00000010
,
00010000
00001000
01000000
00010000
,
00100000
01100000
00010000
01000000
,
00001000
00000000
00010000
00000000
00001000
00010000
00001000
00000000
,
00010000
00000000
00000100
00000000
00000000
00000100
00000000
00000100
,
00000000
00000000
00001000
00000000
00000000
00001000
00000000
00001000
,
00000000
00000000
00000010
00000000
00000000
00000010
00000000
00000010
,
00000000
00000000
00010000
00000000
00000000
00010000
00000000
00010000
,
00000000
00000000
00001000
00000000
00010000
00001000
00000000
00001000
,
00000000
00000000
01000000
00000000
00010000
01000000
00000000
01000000
,
00000000
00000000
00100000
00000000
00000000
01100000
00000000
00000000
,
01000000
00000000
00000000
10010000
00000000
00000000
01100000
00000000
,
10010000
00000000
00000000
00000000
;

//--------------- dance-double - forcednature ----------------
#NOTEDATA:;
#STEPSTYPE:dance-double;
#DESCRIPTION:forcednature;
#DIFFICULTY:Medium;
#METER:14;
#RADARVALUES:0,0,0,0,0;
#CREDIT:forcednature;
#NOTES:
00000000
00000000
00000000
00000000
,
00000000
00000000
00000000
00000000
,
00000000
00000000
00000000
00000000
,
00000000
00000000
00000000
00000000
,
00000000
00000000
00000000
00000000
,
00000000
00000000
00000000
00000000
,
00000000
00000000
00000000
00000000
,
00001000
00001000
00010000
00000100
,
00010000
00010000
00001000
01000000
,
00010000
10000000
00010000
10000000
00100000
01000000
00100000
01000000
,
00020000
00000000
20030000
00000000
31000000
00010000
00001000
00000000
,
00100000
00010000
00100000
00001000
00010000
00000100
00001000
00000000
,
00000010
00001000
00000100
00000000
00000010
00000001
00000100
00000000
,
00000001
00000010
00001000
00010000
00001000
00010000
01000000
00000000
,
10000000
00010000
00100000
00000000
00010000
10000000
00100000
00000000
,
01100000
00000000
01000000
00010000
00100000
00010000
10000000
00000000
,
01000000
00010000
00001000
00100000
00001000
00001000
00010000
00000000
,
00000100
00001000
00000010
00000100
00000001
00000010
00000100
00010000
,
00000000
00001000
00000010
00000001
00000010
00001000
00010000
00000000
,
00011000
00000000
00001000
00100000
00010000
00100000
00001000
00010000
,
01000000
10000000
00100000
10000000
01000000
00010000
00001000
00000000
,
00011000
00000000
00010000
00000010
00001000
00000010
00010000
00001000
,
00000100
00000001
00000010
00000001
00000100
00001000
00010000
00000000
,
00011000
00000000
00010000
01000000
00100000
00001000
00010000
00000000
,
00011000
00000000
00001000
00000100
00000010
00010000
00001000
00000000
,
00011000
00000000
00010000
00100000
01000000
01000000
00100000
10000000
,
00010000
00000000
00000000
00010000
00000000
00000000
00010000
00000000
00100000
00000000
01000000
00000000
00010000
00000000
00000000
00000000
,
00011000
00000000
00000000
00000000
00001000
00000000
00010000
00000100
00010000
00000100
00001000
00000010
00001000
00000010
00000100
00000001
,
00000010
00000000
00000100
00000000
00010000
00000000
00001000
01000000
00001000
01000000
00010000
00100000
00010000
00100000
01000000
10000000
,
00100000
00000000
00010000
00000000
00001000
00000000
00010000
00000100
00010000
00000100
00001000
00000010
00001000
00000010
00000100
00000001
,
00000010
00000000
00001000
00001000
00001000
00010000
00001000
00000000
00010000
00010000
00010000
00001000
00010000
00000000
00100000
00000000
,
01100000
00000000
00000000
01100000
00000000
00000000
10000000
00000000
01100000
00000000
00000000
01100000
00000000
00000000
00010000
00000000
,
00110000
00000000
00000000
00101000
00000000
00000000
00010000
00000000
00011000
00000000
00000000
00000010
00001000
00000010
00000100
00000000
,
00000110
00000000
00000010
00001000
00000001
00000010
00000100
00000000
,
00000110
00000000
00000010
00001000
00010000
00000100
00010000
00000000
,
00001000
00001000
00100000
00010000
00100000
00100000
00001000
00010000
,
01000000
00000000
00000000
01000000
00000000
00000000
01000000
00000000
10000000
00000000
00010000
00000000
00100000
00000000
00000000
00000000
,
00001000
00010000
00000010
00001000
00000100
00010000
00001000
00000010
,
00000100
00001000
00000001
00000010
00000001
00000100
00001000
00000000
,
00010000
00100000
01000000
00100000
10000000
01000000
00100000
01000000
,
00010000
00001000
00100000
00010000
00100000
00001000
00010000
00000000
,
00000010
00001000
00010000
00000000
01000000
00010000
00100000
00001000
,
00100000
00010000
00001000
00000000
00000100
00001000
00000010
00000010
,
00000010
00000000
00000100
00001000
00010000
00001000
00010000
00010000
,
00200000
10000000
01000000
00310000
,
02200000
00000000
00000000
03300000
,
00022000
00000000
00000000
00033000
,
01000000
00010000
01000000
00000000
00010000
01000000
00010000
00000000
01000000
00010000
01000000
00000000
00001000
00000000
00001000
00000000
,
00010000
00001000
00010000
00001000
00010000
00001000
00010000
00001000
,
00010000
00000000
00001000
00000000
00010000
00000000
00001000
00000000
00000010
00000000
00000000
00000010
00000000
00000000
00000010
00000000
,
00000100
00000100
00000100
00000100
,
00000100
00000100
00000100
00000100
,
00000100
00000100
00000100
00000100
,
00000100
00000100
00000100
00000000
,
00000200
00000000
00000000
00000300
00010000
00000000
00000100
00000000
00001000
00000000
00000010
00000000
00010000
00000000
00000000
00000000
,
00001000
00000010
00000001
00000000
00000010
00001000
00010000
00000000
,
00011000
00000000
01000000
00010000
00100000
01000000
00010000
00000000
,
00001000
00010000
01000000
00000000
10000000
00010000
00100000
00000000
,
00011000
00000000
00001000
01000000
00010000
00100000
00001000
00000000
,
00010000
00100000
10000000
00000000
00100000
00010000
00001000
00000000
,
00011000
00000000
00000100
00001000
00000010
00000100
00001000
00000000
,
00010000
00001000
00000100
00000000
00000001
00001000
00000010
00000000
,
00001000
00000000
00010000
01000000
00010000
00100000
00010000
01000000
,
00010000
00100000
01000000
10000000
01000000
00010000
00001000
00000010
,
00000001
00000000
00001000
00000010
00001000
00000100
00001000
00000010
,
00001000
00000100
00000010
00000001
00000010
00001000
00010000
01000000
,
10000000
00000000
00100000
00010000
00001000
00010000
00100000
00010000
,
00001000
00000000
00000010
00001000
00010000
00001000
00000010
00001000
,
00010000
00000000
01000000
01000000
10000000
10000000
00100000
00100000
,
10000000
00000000
10000000
00000000
01000000
00000000
00000000
01000000
00000000
00000000
01000000
00000000
00010000
00000000
00001000
00000000
,
00000010
00000000
00000110
00000000
00000100
00001000
00000001
00000010
,
00001000
00010000
00000100
00001000
00000010
00010000
00100000
01000000
,
00100000
00000000
01100000
00000000
01000000
00010000
00100000
00010000
,
10000000
01000000
00010000
00001000
00100000
00010000
00100000
00001000
,
00000010
00000000
00000110
00000000
00000100
00010000
00001000
00000010
,
00000001
00000100
00000001
00000010
00001000
00010000
01000000
00100000
,
01000000
00000000
01100000
00000000
00100000
00001000
00010000
01000000
,
00100000
00001000
00000010
00000100
00010000
00001000
00000010
00000010
,
00000010
00000000
00000110
00000000
00000000
00011000
00000000
01000000
,
00100000
00000000
01100000
00000000
00000000
00011000
00000000
00000100
,
00000010
00000000
00001001
00000000
00000000
00000110
00000000
00001000
,
00010000
00000000
01100000
00000000
00000000
10010000
00000000
01000000
,
00100000
00000000
10010000
00000000
10000000
01000000
00000000
01000000
,
00010000
00000000
00011000
00000000
00001000
00000010
00000000
00000010
,
00000001
00000000
00001001
00000000
00001000
00001100
00000000
00010000
,
00011000
00000000
00100000
00110000
00000000
10000000
00100000
00100000
,
00100000
00100000
00000000
00000000
00000000
00000000
00000000
00000000
;

//--------------- dance-double - forcednature ----------------
#NOTEDATA:;
#STEPSTYPE:dance-double;
#DESCRIPTION:forcednature;
#DIFFICULTY:Hard;
#METER:17;
#RADARVALUES:0,0,0,0,0;
#CREDIT:forcednature;
#NOTES:
00000000
00000000
00000000
00000000
,
00000000
00000000
00000000
00000000
,
00000000
00000000
00000000
00000000
,
00000000
00000000
00000000
00000000
,
00000000
00000000
00000000
00000000
,
00000000
00000000
00000000
00000000
,
00000000
00000000
00000000
00000000
,
00001000
00010000
00001000
00010000
00000100
00001000
00000100
00000000
,
00010000
00001000
00010000
00001000
01000000
00010000
01000000
00000000
,
00100000
10000000
00100000
10000000
00010000
01000000
00010000
01000000
00001000
00010000
00001000
00010000
00001000
00010000
00001000
00010000
,
00002000
00000000
00000000
00100000
00000000
00000000
00103000
00000000
00001000
00010000
00001000
00010000
00000100
00000000
00000000
00000000
,
00002100
00000000
00000000
00000000
00003010
00000000
00001000
00000010
00001000
00000000
00000010
00000000
00000100
00000000
00000001
00000000
,
00001000
00000000
00000010
00000000
00001000
00000000
00000100
00001000
00000100
00000000
00010000
00000000
00001000
00000000
00100000
00000000
,
00000000
00020000
02030000
23000000
32000000
03020000
00230000
00302000
,
00023000
00000000
02030000
00000000
03020000
00000000
00032000
00000000
00000000
00000000
00013000
00000100
00001000
00000000
00000000
00000000
,
00012000
00000000
00000000
00000000
00103000
00000000
00010000
00100000
00010000
00000000
00100000
00000000
01000000
00000000
10000000
00000000
,
00010000
00000000
00100000
00000000
00010000
00000000
01000000
00010000
01000000
00000000
00001000
00000000
00010000
00000000
00000010
00000000
,
00000000
00002000
00003200
00000302
00000203
00002300
00003020
00020030
,
00032000
00000000
00203000
00000000
00320000
00000000
00230000
00000000
01300000
10000000
01000000
10000000
00010000
00000000
00000000
00000000
,
20010000
00000000
00000000
00000000
30100000
00000000
01000000
00100000
01000000
00000000
00010000
00000000
00100000
00000000
01000000
00000000
,
00010000
00000000
00001000
00000000
00100000
00000000
00010000
00100000
00001000
00000000
00010000
00000000
00000100
00000000
00001000
00000000
,
00001002
00000000
00000000
00000000
00000013
00000000
00000100
00000010
00000100
00000000
00001000
00000000
00000010
00000000
00000100
00000000
,
00001000
00000000
00010000
00000000
00000010
00000000
00001000
00000010
00010000
00000000
00001000
00000000
01000000
00000000
00000000
00000000
,
20010000
00000000
00000000
00000000
31000000
00000000
00100000
01000000
10000000
00000000
00010000
00000000
00100000
00000000
00010000
00100000
,
00002000
00000000
00000000
00000000
00013000
00000000
00001000
00010000
00000100
00000000
00001000
00000000
00000100
00000010
00000100
00000010
,
00000002
00000000
00000000
00000000
00000103
00000000
00000010
00000000
00001000
00000000
00001000
00000000
00000010
00000100
00000010
00000100
,
00000002
00000000
00000000
00001000
00000000
00000000
00001003
00000000
00000001
00000010
00000100
00001000
00000001
00000000
00000000
00000000
,
00000001
00000000
00000000
00000001
00000100
00000000
00001000
00000000
00020000
00000000
00000000
00000000
00000100
00000000
00000100
00000000
00001000
00000000
00001000
00000000
00000010
00000000
00000010
00000000
00001000
00000000
00001000
00000000
00000100
00000000
00030100
00000000
,
00000000
00010000
00001000
00100000
00002000
00000000
01000000
01000000
00010000
00010000
00100000
00100000
00010000
00010000
01000000
01003000
,
00001000
00100000
00010000
01000000
00002000
00000000
01000000
01000000
00010000
00010000
00000010
00000010
00010000
00010000
01000000
01003000
,
00000000
00000000
00001000
00000000
00010000
00000000
00000100
00000000
00001000
00000000
00001000
00000000
00000001
00000000
00000100
00000000
00001000
00000000
00010000
00001000
00010000
00000000
00100000
00000000
01000000
00100000
01000000
00100000
01000000
00000000
00000000
00000000
,
10100000
00000000
00100000
10100000
00000000
10000000
01000000
00010000
00001000
00000000
00010000
00011000
00000000
00000100
00001000
00000000
,
00000011
00000000
00000010
00000011
00000000
00000001
00000100
00001000
00010000
00000000
00001000
00011000
00010000
00000000
00100000
00000000
,
10010000
00000000
00000000
00000000
10000000
00000000
01000000
00000000
00010000
00000000
00000000
01000000
10000000
00000000
01000000
00000000
,
00010000
00000000
00000000
00000000
00001000
00000000
00000010
00000000
00000001
00000000
00000000
00000010
00001000
00000000
00000010
00000000
,
00000001
00000000
00000100
00000001
00000100
00000000
00001000
00000000
00010000
00001000
00010000
00001000
00010000
00001000
00010000
00001000
,
00200000
00000000
00000000
00010000
00000000
00000000
00310000
00000000
00100000
01000000
10000000
00010000
00100000
00000000
00000000
00000000
,
01000000
10000000
01000000
00010000
00001000
00100000
00010000
00100000
,
00001000
00000000
00000010
00000000
00000100
00000000
00010000
00000000
00001000
00000000
00000010
00000000
00000001
00000000
00001000
00000001
,
00000100
00000001
00000100
00001000
00010000
00000010
00001000
00000010
,
00010000
00000000
00100000
00000000
01000000
00000000
00001000
00000000
00010000
00000000
00100000
00000000
10000000
00010000
10000000
00010000
,
20000000
00000000
00000000
00000000
31000000
00000000
00010000
00000000
00001000
00000000
00000010
00000000
00000001
00000000
00000001
00001000
,
00000002
00000000
00000000
00000000
00000103
00000000
00001000
00000000
00010000
00000000
00100000
00000000
10000000
00010000
10000000
00010000
,
20000000
00000000
00000000
00000000
31000000
00000000
00100000
00000000
00010000
00100000
00010000
00100000
00001000
00010000
00001000
00010000
,
00002000
00003020
00000032
00000103
,
00002002
00000000
00000000
00000000
00000000
00000000
00000000
00000000
00000000
00000000
00000000
00000000
00003000
00000000
00000000
00000000
00000010
00000000
00000000
00000010
00000000
00000000
00000010
00000000
00000000
00000000
00001000
00000000
00000103
00000000
00000000
00000000
,
00022000
00000000
00000000
00000000
00000000
00000000
00000000
00000000
00000000
00000000
00000000
00000000
00030000
00000000
00000000
00000000
00100000
00000000
00000000
00100000
00000000
00000000
00100000
00000000
00000000
00000000
00010000
00000000
01003000
00000000
01000000
00000000
,
00100000
01000000
00100000
01000000
00100000
01000000
00100000
01000000
00100000
01000000
00100000
01000000
01100000
00000000
00011000
00000000
,
00001000
00010000
00001000
00010000
00001000
00010000
00001000
00010000
00001000
00010000
00001000
00010000
00001000
00010000
00001000
00010000
,
00001000
00010000
00001000
00010000
00001000
00010000
00001000
00010000
00000010
00000000
00000000
00000010
00000000
00000000
00000010
00000000
,
00000100
00000010
00000100
00000010
00000100
00000010
00000100
00000010
,
00000100
00000010
00000100
00000010
00000100
00000010
00000100
00000010
,
00000100
00000010
00000100
00000010
00000100
00000010
00000100
00000010
,
00000100
00000010
00000100
00000010
00000100
00000010
00000100
00000010
,
00000100
00000000
00000000
00000000
00000001
00001000
00000010
00001000
00000001
00000000
00000010
00000000
00000200
00000000
00000000
00000000
,
00010300
00000000
00001000
00000000
00100000
00000000
00010000
00100000
00000000
01000000
00100000
00000000
01000000
10000000
00010000
10000000
,
01000000
00000000
01000000
00000000
10000000
00010000
00100000
00010000
10000000
00000000
00100000
00000000
02000000
00000000
00000000
00000000
,
03001000
00000000
00010000
00000000
00000010
00000000
00001000
00000010
00000000
00000100
00000010
00000000
00000100
00001000
00000100
00001000
,
00010000
00000000
00000000
00000000
00000010
00001000
00000001
00001000
00000010
00000000
00000100
00000000
00002000
00000000
00000000
00000000
,
00013000
00000000
00001000
00000000
00010000
00000000
00100000
01000000
00000000
00100000
10000000
00000000
00010000
00100000
01000000
10000000
,
00010000
00000000
00010000
00000000
00100000
00010000
10000000
00010000
00100000
00000000
01000000
00000000
00020000
00000000
00000000
00000000
,
00031000
00000000
00010000
00000000
00001000
00000000
00000010
00000100
00000000
00000010
00000001
00000000
00001000
00000010
00000100
00000001
,
00001000
00000000
00000001
00000100
00001000
00000100
00000001
00000100
,
00001000
00000000
00000100
00000000
00000001
00000000
00000100
00000000
00001000
00000000
00010000
00000000
00100000
10000000
00100000
10000000
,
00010000
01000000
00010000
00000000
10000000
00000000
01000000
00000000
00010000
00000000
01000000
00000000
10000000
00000000
01000000
00000000
,
00010000
00000000
01000000
00000000
10000000
00000000
01000000
00010000
01000000
00000000
00010000
00001000
00010000
00000000
00001000
00000000
,
00000010
00000001
00000010
00000001
00001000
00000000
00000001
00000000
00000100
00000000
00001000
00000000
00010000
00000000
00001000
00010000
,
00000100
00000000
00001000
00000100
00010000
00000000
00001000
00000000
00010000
00000000
01000000
00000000
00100000
00000000
00010000
00100000
,
00001000
00000000
00010000
00001000
00010000
00001000
00010000
00001000
00010000
00001000
00010000
00001000
00010000
00000100
00001000
00000100
,
00010000
00000100
00001000
00000100
00000010
00000000
00000000
00000110
00000000
00000000
00000110
00000000
00000100
00001000
00000001
00000010
,
00000100
00000000
00000000
00000000
00000012
00000000
00000000
00000000
00000103
00000000
00000001
00000100
00000001
00000000
00000100
00000010
,
00001000
00000100
00010000
00001000
00100000
00001000
00010000
01000000
,
11000000
00000000
00000000
00000000
20100000
00000000
00000000
00000000
31000000
00000000
10000000
01000000
10000000
00000000
01000000
00100000
,
00010000
00000000
01000000
00000000
00001000
00000000
00010000
00000000
00000010
00000000
00010000
00000000
00001000
00000000
00000010
00000100
,
00000010
00000000
00000001
00000000
00000102
00000000
00000000
00000000
00000013
00000000
00000001
00000010
00000001
00000000
00000010
00000100
,
00001000
00000010
00010000
00001000
01000000
00001000
00010000
00100000
,
10100000
00000000
00000000
00000000
21000000
00000000
00000000
00000000
30100000
00000000
10000000
00100000
10000000
00000000
00100000
01000000
,
00010000
00000000
00100000
00000000
00001000
00000000
00010000
00001000
00010000
00000000
00000100
00000000
00001000
00000000
00000010
00000000
,
00000001
00000000
00001010
00000000
00010000
00011000
00000000
01000000
,
00010000
00000000
00000000
00000000
00110000
00000000
00000000
00000000
00001000
00000000
00010000
00000000
00000100
00001000
00000100
00010000
,
00001000
00000000
01010000
00000000
00001000
00011000
00000000
00000010
,
00001010
00000000
00001100
00000000
00000001
00000010
00001000
00010000
,
01000000
00000000
01100000
00000000
00010000
00011000
00000000
00000010
,
00000100
00000001
00000110
00000000
00010000
00011000
00000000
00100000
,
01000000
10000000
01100000
00000000
00010000
00011000
00000000
00000010
,
00000110
00000000
00001000
00011000
00000000
00100000
01100000
11000000
,
10010000
00110000
00000000
00000000
00000000
00000000
00000000
00000000
;
