#VERSION:0.83;
#TITLE:Dreamin Train;
#SUBTITLE:;
#ARTIST:DJ NAGAI feat. Ayumi Nomiya;
#TITLETRANSLIT:;
#SUBTITLETRANSLIT:;
#ARTISTTRANSLIT:;
#GENRE:J-CORE EXPRESS;
#CREDIT:;
#MUSIC:Dreamin Train.ogg;
#BANNER:Dreamin Train.png;
#BACKGROUND:Dreamin Train-bg.png;
#CDTITLE:./CDTitles/bm IIDX 23 copula.png;
#SAMPLESTART:37.993;
#SAMPLELENGTH:15.000;
#SELECTABLE:YES;
#OFFSET:0.621;
#BPMS:0.000=174.000
,40.000=87.000
,42.000=174.000
,238.000=87.000
,240.000=174.000
;
#STOPS:240.000=0.172
,240.500=0.172
,241.000=0.172
,241.500=0.172
;
#TIMESIGNATURES:40.000=2=4,
42.000=4=4
;
#BGCHANGES:0.000=../BGAs/20te.mp4=1.000=0=0=0=StretchNoLoop====,
99999.000=-nosongbg-=1.000=0=0=0=StretchNoLoop====
;
#FGCHANGES:;

//--------------- dance-single - forcednature ----------------
#NOTEDATA:;
#STEPSTYPE:dance-single;
#DESCRIPTION:forcednature;
#DIFFICULTY:Beginner;
#METER:2;
#RADARVALUES:0,0,0,0,0;
#CREDIT:forcednature;
#NOTES:
0000
0000
0000
0000
,
0000
0000
0000
0000
,
0000
0000
0000
0000
,
0000
0000
0000
0000
,
0000
0000
0000
0000
,
0000
0000
0000
0000
,
1000
0000
0000
0000
,
0000
0000
0000
0000
,
0001
0000
0000
0000
,
0001
0000
0000
0000
,
0000
0000
0100
0000
,
0000
0000
0000
0000
,
0000
0000
0010
0000
,
0000
0000
0000
0000
,
0000
0000
1000
0000
,
0000
0000
0000
0000
,
0000
0000
0001
0000
,
0000
0000
0000
0000
,
0000
0000
0010
0000
,
0000
0000
0100
0000
,
0000
0000
1000
0000
,
0000
0000
0000
0000
,
0000
0000
0010
0000
,
0000
0000
0100
0000
,
0000
0000
0001
0000
,
0000
0000
0000
0000
,
0000
0000
1001
0000
,
0000
0000
0000
1000
,
1000
0000
0000
0100
,
0000
0000
0000
0010
,
0010
0000
0000
0001
,
0000
0000
0000
0100
,
0100
0000
0000
0010
,
0000
0000
1000
0000
,
1000
0000
0001
0000
,
0000
0000
0000
0010
,
0010
0000
0000
0100
,
0000
0000
0000
1000
,
1000
0000
0000
0001
,
0000
0000
0000
0100
,
0000
0100
0000
0100
,
0000
0000
0010
0000
,
0010
0000
0010
0000
,
0000
0000
1000
0000
,
0000
0000
0000
0000
,
0000
0000
0100
0000
,
0000
0000
0000
0000
,
0000
0000
0010
0000
,
0000
0000
0000
0000
,
0000
0000
0001
0000
,
0000
0000
0000
0000
,
0000
0000
0100
0000
,
0000
0000
0100
0000
,
0000
0000
0010
0000
,
0000
0000
1000
0000
,
0000
0000
0100
0000
,
0000
0000
0010
0000
,
0000
0000
0001
0000
,
0000
0000
0100
0000
,
0000
0000
0010
0000
,
0000
0000
1001
0000
,
0000
0000
1000
0000
,
1000
0000
1000
0000
,
0000
0000
0010
0000
,
0000
0000
0100
0000
,
0000
0000
0001
0000
,
0001
0000
0001
0000
,
0000
0000
0010
0000
,
0000
0000
0001
0000
,
0000
0000
0100
0000
,
0100
0000
0100
0000
,
0000
0000
0010
0000
,
0000
0000
1000
0000
,
0000
0000
0100
0000
,
0100
0000
0100
0000
,
0000
0000
0010
0000
,
0000
0000
0001
0000
,
0000
0000
0100
0000
,
0000
1001
0000
0000
;

//--------------- dance-single - forcednature ----------------
#NOTEDATA:;
#STEPSTYPE:dance-single;
#DESCRIPTION:forcednature;
#DIFFICULTY:Easy;
#METER:6;
#RADARVALUES:0,0,0,0,0;
#CREDIT:forcednature;
#NOTES:
0000
0000
0000
0000
,
0000
0000
0000
0000
,
0000
0000
0000
0000
,
0000
0000
0000
0000
,
0000
0000
0000
0000
,
0000
0000
0000
0000
,
1000
0100
1000
0000
,
0001
0100
0001
0000
,
0110
0000
0000
0100
0000
0000
1000
0000
,
0001
0001
0100
0010
,
0000
0000
1000
0000
,
1000
0100
1000
0000
,
0010
0000
0100
0000
,
0100
0001
0100
0000
,
0010
0000
1001
0000
,
0001
0100
0001
0000
,
0010
0000
0100
1000
,
0100
0000
1000
1000
,
0010
0000
0100
0100
,
0001
0000
0010
0010
,
0001
0000
0100
0010
,
1000
0000
0100
0010
,
0001
0000
1001
0000
,
1000
1000
0010
0000
,
0100
0000
0001
0001
,
0010
0010
0100
1000
,
0001
0000
0220
0000
,
0000
0330
0000
0001
,
1001
0000
1000
0010
,
0100
0001
0000
1000
,
1001
0000
0001
0010
,
0100
1000
0000
0010
,
0110
0000
0100
0001
,
1000
0100
0010
0010
,
0001
0001
1000
0100
,
0010
0000
0000
0001
,
1001
0000
1000
0010
,
0100
0001
0000
0010
,
0110
0000
0100
1000
,
0001
0010
0000
0001
,
0001
1000
1000
0001
,
0001
0000
1000
1000
,
0010
0010
0200
0300
,
0002
0003
2000
0000
,
0000
3000
0200
0000
,
0000
0300
0020
0000
,
0000
0030
0002
0000
,
0000
0003
0200
0000
,
0000
0300
0020
0000
,
0000
0030
2000
0000
,
0000
3000
0001
0001
,
0001
0000
0010
0000
,
0010
0100
1000
0000
,
1000
0000
0010
0000
,
0010
0100
0001
0000
,
0001
0000
0010
0010
,
0100
0100
0010
0100
,
0010
0000
0001
0001
,
1000
1000
0001
1000
,
0001
0000
2002
0000
,
3003
0000
1000
0100
,
1000
0010
0000
1000
,
1000
0000
0001
0100
,
0001
0010
0000
0001
,
0001
0000
0100
0010
,
1000
0001
0000
0100
,
0100
0000
0010
0010
,
1000
1000
0001
0100
,
0010
0000
1000
0001
,
1000
0001
0000
0010
,
0100
0000
0001
1000
,
0001
1000
0000
0010
,
0100
0000
0001
0010
,
0001
0010
0000
0100
,
1000
0000
0010
0010
,
0000
1000
0000
0001
,
0000
0100
0020
0000
,
0000
0000
1030
0001
,
0010
1001
0000
0000
;

//--------------- dance-single - forcednature ----------------
#NOTEDATA:;
#STEPSTYPE:dance-single;
#DESCRIPTION:forcednature;
#DIFFICULTY:Medium;
#METER:10;
#RADARVALUES:0,0,0,0,0;
#CREDIT:forcednature;
#NOTES:
0000
0000
0000
0000
,
0000
0000
0000
0000
,
0000
0000
0000
0000
,
0000
0000
0000
0000
,
0000
0000
0000
0000
,
0000
0000
0000
0000
,
1000
0000
0100
1000
0100
0000
0010
0000
,
0001
0000
0100
0001
0100
0000
0010
0000
,
1001
0000
0000
0110
0000
0000
1001
0000
,
0000
2000
3200
0320
,
0032
0000
0000
0003
0100
0000
0000
0000
,
0010
0010
0100
0010
,
1000
0000
0100
0000
,
0010
0100
0100
0010
,
0001
0000
1001
0000
,
1000
0010
0100
0100
,
0001
0000
0010
0000
,
0001
0100
0010
0010
,
1000
0000
0001
0010
,
0011
0000
1000
0010
,
1010
0000
0001
0100
,
0101
0000
1000
0100
,
1100
0000
0001
0001
,
0010
0010
0100
0100
,
1000
0000
1000
0000
0001
0100
0001
0000
,
0100
0010
0000
0110
0000
0010
1000
0000
,
2002
0000
3003
0000
1000
0100
0001
0100
,
2000
0000
3000
0000
1001
0000
0001
0100
,
0001
0001
0000
0000
1000
0000
0010
0000
,
0200
0000
0302
0000
0003
0000
1000
0100
,
1000
1000
0000
0000
0010
0000
0100
0000
,
0002
0000
2003
0000
3000
0000
0100
0010
,
0100
0100
0000
0000
0010
0000
0001
0000
,
2000
3010
0110
0001
,
0110
0000
1000
0000
1001
0000
0100
0020
,
0000
0000
0000
0030
0000
0000
1000
0100
,
1000
1000
0000
0000
0010
0000
0100
0000
,
0002
0000
0023
0000
0030
0000
0001
0100
,
0001
0001
0000
1001
0000
0100
0000
0220
,
0000
0330
1001
0001
,
0100
0100
0001
0001
,
0010
0000
0010
0000
0002
0000
0103
0010
,
2000
0000
3100
0010
0002
0000
0000
0103
,
0020
0030
2001
0000
,
0100
0000
3002
0000
,
0100
0000
2003
0000
,
3010
0100
0002
0000
,
0023
0000
0230
0000
,
1000
0000
0320
0000
,
0032
0000
0203
0000
,
0010
0000
0000
0301
0000
1000
0000
1001
,
0000
0110
0000
0000
0002
0000
0100
0000
,
1000
0010
2003
0100
,
0001
0010
3200
1000
,
0010
1000
0320
0001
,
0100
0000
0031
0000
1000
0100
1000
0000
,
0001
0100
0001
0000
1000
0010
1000
0000
,
0001
0010
0001
0000
0100
0010
1000
0000
,
0100
0010
0001
0000
0100
0100
0100
0000
,
0010
0010
0010
0000
2002
0000
0000
3003
,
1000
0001
0110
1001
0002
0000
0203
0000
,
2300
0000
3100
0001
0000
0001
0010
0000
,
0100
0100
0100
0000
2000
0000
3200
0000
,
0302
0000
0103
1000
0000
1001
0000
0010
,
0100
0010
0010
0000
0002
0000
0203
0000
,
2300
0000
3100
0001
0000
0001
0010
0000
,
0100
0100
0100
0000
2000
0000
3010
0100
,
0000
0110
0000
0101
0000
0001
0010
0100
,
2000
3001
2000
3020
,
0032
0000
0013
1000
0000
1000
0100
0000
,
0010
0010
0010
0000
0002
0000
0023
0000
,
2030
0000
3010
0001
0000
1001
0000
0010
,
0100
0010
0010
0000
2000
0000
3200
0000
,
0302
0000
0103
1000
0000
1000
0010
0000
,
0100
0100
0100
0000
1002
0000
0103
0010
,
0000
1000
0000
0001
0000
0010
0000
0100
,
0000
1000
0000
0001
0200
0000
0000
0000
,
0000
0000
0010
0010
0310
0000
0110
0000
,
1000
0001
1001
0000
0000
0000
0000
0000
;

//--------------- dance-single - forcednature ----------------
#NOTEDATA:;
#STEPSTYPE:dance-single;
#DESCRIPTION:forcednature;
#DIFFICULTY:Hard;
#METER:14;
#RADARVALUES:0,0,0,0,0;
#CREDIT:forcednature;
#NOTES:
0000
0000
0000
0000
,
0000
0000
0000
0000
,
0000
0000
0000
0000
,
0000
0000
0000
0000
,
0000
0000
0000
0000
,
0000
0000
0000
0000
,
1000
0100
1000
0001
0010
0001
1000
0000
,
0001
0100
0001
1000
0010
1000
0001
0000
,
0011
0000
0010
0110
0000
0100
1100
0000
,
1000
0010
1000
0001
1000
0100
0010
0001
,
0200
0000
0000
0300
0010
1000
0000
0001
,
0000
0010
0100
0010
0000
0001
1000
0010
,
0100
0000
0000
0000
0001
1000
0000
0100
,
0000
1000
0001
0010
0000
0001
1000
0010
,
0100
0100
0001
0000
1000
0100
0000
0010
,
0000
0100
1000
0001
0000
0010
0001
1000
,
0010
0000
0100
0000
0001
0010
0000
0100
,
0000
1000
0010
1000
0000
0001
0010
0001
,
0100
0000
0010
0010
1000
0100
0010
0000
,
0110
0000
0100
0010
0000
0010
0001
0000
,
1001
0000
0000
0000
0001
0100
0010
0000
,
0110
0000
0100
0010
0000
0010
1000
0001
,
0010
0001
0000
0000
0100
0001
0100
0001
,
1000
0010
1000
0000
0100
1000
0100
1000
,
0001
0010
0001
0000
0100
0010
0100
0010
,
1000
0001
1000
0100
0000
0010
0010
0001
,
2002
0000
0000
0000
3003
0000
0000
0000
0001
1000
0001
0000
1000
0000
0010
0000
,
0200
0000
0310
0000
0000
0000
0001
0100
,
0101
0101
0000
0001
0010
0100
1000
0010
,
0100
0000
2002
0000
3003
0000
1000
0100
,
1100
1100
0000
1000
0010
0100
0001
0010
,
0200
0000
1000
1300
0000
0000
0001
0010
,
0011
0011
0000
0001
0100
0010
1000
0100
,
0010
0000
0001
0000
0100
0000
0000
0000
0001
0010
0000
0000
0001
0100
0000
0000
,
1000
0100
0000
0000
1000
0010
0000
0000
1000
0001
1000
0001
0100
0000
0020
0000
,
0000
0000
0000
0030
0000
0000
1000
0100
,
1100
0011
0000
0001
0100
1000
0100
0010
,
1000
0001
0020
0000
0030
0000
0001
0100
,
0101
1010
0000
1100
0000
0010
0001
0011
,
0000
0001
0200
0000
0310
1000
0100
1000
,
0001
0010
0001
0100
0010
1000
0100
0010
,
0001
0100
0010
1000
0001
0001
0010
0010
,
0100
0100
1000
0001
0201
0000
0000
0010
,
0020
0330
2000
0100
,
0001
0000
3010
1000
0002
0000
0100
0000
,
1000
0000
0013
0001
0200
0000
0010
0000
,
0301
1000
0200
0000
0010
0010
0310
0000
,
0100
1100
0000
1000
0002
0000
0100
0000
,
0010
0000
0103
0001
2000
0000
0100
0100
,
0000
3001
1000
0010
0200
0000
0001
0000
,
0310
0100
0000
1010
0000
1100
0000
0101
,
0000
0000
0011
0000
0000
0000
0001
0010
0001
0000
1000
0000
0010
0000
0100
0000
,
0001
1000
0010
0000
1000
0001
0010
0100
,
1000
0001
0010
0000
0100
1000
0010
1000
,
0100
1000
0010
0000
0100
0001
0010
0001
,
0100
0001
0010
0000
0100
1000
0100
0010
,
0100
1000
0001
0010
0001
0100
0010
0100
,
0001
1000
0010
1000
0001
0010
0001
0100
,
0010
1000
0100
1000
0010
0010
0100
0100
,
0001
0001
1000
1000
0200
0000
0000
0000
,
0310
0000
0100
0000
0110
0000
2002
3003
1100
0000
0000
0000
0101
0000
0000
0000
,
1100
0000
1000
0010
0000
0100
0001
1000
,
0010
1000
0010
1000
0010
0000
0000
0000
0101
0000
0000
0000
1100
0000
0000
0000
,
0101
0000
0001
0010
0000
0110
0000
0100
,
1000
0001
1000
0001
0010
0000
0000
0000
0110
0000
0000
0000
1100
0000
0000
0000
,
0011
0000
1000
0001
0000
0010
0100
1000
,
0001
0100
0001
0100
0001
0000
0000
0000
0011
0000
0000
0000
0010
0000
0100
0000
,
0000
1100
0000
1010
0000
0010
0100
0001
,
0100
0000
0010
1000
0010
0000
0000
0000
1000
0000
0100
0000
0010
0000
0100
0000
,
1000
0001
0100
0001
0010
0100
1000
0100
,
0010
0001
0010
0001
0010
0000
0000
0000
0100
0000
1000
0000
0001
0000
0100
0000
,
0010
0000
1000
0000
0001
0000
0010
0000
0000
0000
1001
0000
0000
0000
0010
0100
,
0010
0100
0100
0000
1001
0000
0001
0010
,
0100
0010
0001
1000
0010
0100
0001
0100
,
0010
1000
0010
1000
0001
0000
0000
0000
0021
0000
0000
0000
0130
0000
2000
0000
,
0000
3002
0000
0203
0000
0320
0000
1030
,
0001
0020
0000
0130
2000
0000
0000
0000
,
3001
0001
0100
0001
0010
0100
1000
0100
,
0010
0000
0001
1000
0010
0000
0000
0000
0000
0000
0000
0000
0000
0000
0000
0000
;

//--------------- dance-double - forcednature ----------------
#NOTEDATA:;
#STEPSTYPE:dance-double;
#DESCRIPTION:forcednature;
#DIFFICULTY:Easy;
#METER:6;
#RADARVALUES:0,0,0,0,0;
#CREDIT:forcednature;
#NOTES:
00000000
00000000
00000000
00000000
,
00000000
00000000
00000000
00000000
,
00000000
00000000
00000000
00000000
,
00000000
00000000
00000000
00000000
,
00000000
00000000
00000000
00000000
,
00000000
00000000
00000000
00000000
,
00001000
00010000
00001000
00000000
,
01000000
00010000
01000000
00000000
,
01100000
00000000
00000000
00100000
00000000
00000000
10000000
00000000
,
00010000
00010000
00100000
01000000
,
00000000
00000000
00100000
00000000
,
00100000
00001000
00010000
00000000
,
00001000
00000000
00010000
00000000
,
00000100
00001000
00000100
00000000
,
00000010
00000000
00001001
00000000
,
00001000
00000010
00010000
00000000
,
00001000
00000000
01000000
00010000
,
10000000
00000000
01000000
01000000
,
00100000
00000000
00010000
00010000
,
00100000
00000000
00001000
00001000
,
00010000
00000000
00000100
00001000
,
00000010
00000000
00000100
00000001
,
00000010
00000000
00001001
00000000
,
00001000
00001000
00000100
00000000
,
00010000
00000000
00001000
00001000
,
00010000
00010000
00001000
00010000
,
00001000
00000000
00022000
00000000
,
00000000
00033000
00000000
01000000
,
01000000
00000000
00010000
10000000
,
00100000
10000000
00000000
01000000
,
01000000
00000000
00100000
00010000
,
00100000
00001000
00000000
00010000
,
00010000
00000000
00000100
00001000
,
00000001
00000100
00000010
00000010
,
00001000
00001000
00000010
00000100
,
00000001
00000000
00000000
00000010
,
00000110
00000000
00000100
00001000
,
00000100
00010000
00000000
00001000
,
00011000
00000000
00010000
00001000
,
01000000
00010000
00000000
00100000
,
00100000
01000000
01000000
00100000
,
00100000
00000000
00010000
00010000
,
10000000
10000000
00020000
00030000
,
02000000
03000000
00200000
00000000
,
00000000
00300000
20000000
00000000
,
00000000
30000000
00020000
00000000
,
00000000
00030000
02000000
00000000
,
00000000
03000000
00020000
00000000
,
00000000
00030000
00200000
00000000
,
00000000
00300000
00002000
00000000
,
00000000
00003000
00010000
00010000
,
00010000
00000000
00000100
00000000
,
00000100
00001000
00000001
00000000
,
00000001
00000000
00000100
00000000
,
00000100
00000010
00001000
00000000
,
00001000
00000000
00000100
00000100
,
00001000
00001000
00000100
00010000
,
00001000
00000000
01000000
01000000
,
00010000
00010000
10000000
00100000
,
10000000
00000000
20020000
00000000
,
30030000
00000000
10000000
01000000
,
10000000
00100000
00000000
10000000
,
10000000
00000000
01000000
00010000
,
00001000
00010000
00000000
00001000
,
00001000
00000000
00000010
00000001
,
00000100
00000001
00000000
00000010
,
00000010
00000000
00000100
00000100
,
00001000
00001000
00000100
00010000
,
00001000
00000000
01000000
00010000
,
01000000
00010000
00000000
00100000
,
01000000
00000000
10000000
00010000
,
10000000
00010000
00000000
00100000
,
00001000
00000000
00010000
00001000
,
00010000
00001000
00000000
00010000
,
00000100
00000000
00001000
00001000
,
00000000
00000001
00000000
00000100
,
00000000
00001000
00020000
00000000
,
00000000
00030000
00001000
00001000
,
00010000
00011000
00000000
00000000
;

//--------------- dance-double - forcednature ----------------
#NOTEDATA:;
#STEPSTYPE:dance-double;
#DESCRIPTION:forcednature;
#DIFFICULTY:Medium;
#METER:10;
#RADARVALUES:0,0,0,0,0;
#CREDIT:forcednature;
#NOTES:
00000000
00000000
00000000
00000000
,
00000000
00000000
00000000
00000000
,
00000000
00000000
00000000
00000000
,
00000000
00000000
00000000
00000000
,
00000000
00000000
00000000
00000000
,
00000000
00000000
00000000
00000000
,
00001000
00000000
00010000
00001000
00010000
00000000
00000100
00000000
,
00001000
00000000
00000001
00001000
00000001
00000000
00000100
00000000
,
00000110
00000000
00000000
00011000
00000000
00000000
01100000
00000000
,
20000000
32000000
03200000
00320000
,
02030000
00000000
00000000
03000000
00010000
00000000
00000000
00000000
,
00010000
00100000
00001000
00010000
,
00001000
00000000
00010000
00000000
,
00000010
00001000
00000001
00000100
,
00000001
00000000
00001001
00000000
,
00001000
00000100
00010000
00001000
,
00010000
00000000
00001000
00000000
,
00100000
00010000
10000000
01000000
,
10000000
00000000
00010000
01000000
,
01010000
00000000
10000000
00100000
,
10100000
00000000
00001000
00010000
,
00011000
00000000
00000100
00001000
,
00001100
00000000
00000001
00000001
,
00000100
00000100
00001000
00001000
,
00010000
00000000
00010000
00000000
00001000
00010000
00001000
00000000
,
00010000
00001000
00000000
00011000
00000000
00010000
00001000
00000000
,
00022000
00000000
00033000
00000000
01000000
00010000
00100000
01000000
,
20000000
00000000
30000000
00000000
01000000
00000000
00010000
00001000
,
00010000
00010000
00000000
00000000
00000100
00000000
00001000
00000000
,
00000002
00000000
00000023
00000000
00000030
00000000
00000001
00000100
,
00000001
00000001
00000000
00000000
00000100
00000000
00001000
00000000
,
00020000
00000000
00032000
00000000
00003000
00000000
00010000
00001000
,
00010000
00010000
00000000
00000000
00001000
00000000
01000000
00000000
,
00020000
10030000
10010000
00100000
,
10010000
00000000
01000000
00000000
01100000
00000000
10000000
00020000
,
00000000
00000000
00000000
00030000
00000000
00000000
00100000
01000000
,
00100000
00100000
00000000
00000000
00001000
00000000
00010000
00000000
,
00000200
00000000
00002300
00000000
00003000
00000000
00000001
00000100
,
00000001
00000001
00000000
00001001
00000000
00000100
00000000
00000220
,
00000000
00000330
00001001
00001000
,
00000100
00000100
00010000
00010000
,
00001000
00000000
00001000
00000000
00200000
00000000
00310000
10000000
,
00020000
00000000
01030000
00100000
02000000
00000000
00000000
03000000
,
00200000
00000000
00000000
00300000
20000000
00000000
00000000
00000000
,
01000000
00000000
30020000
00000000
,
01000000
00000000
00230000
00000000
,
00301000
00010000
00000020
00000000
,
00002030
00000000
00003002
00000000
,
00000100
00000000
00002003
00000000
,
00003200
00000000
00020300
00000000
,
00001000
00000000
00000000
00031000
00000000
00010000
00000000
00011000
,
00000000
00101000
00000000
00000000
00020000
00000000
01000000
00000000
,
01000000
10000000
10000000
00100000
,
00130000
00010000
00002000
00000100
,
00000100
00000001
00000001
00000010
,
00003010
00001000
00010000
01000000
,
00010000
10000000
00010000
00000000
00100000
01000000
00100000
00000000
,
01000000
10000000
01000000
00000000
00100000
00010000
00100000
00000000
,
00001000
00010000
00001000
00000000
00000100
00000100
00000100
00000000
,
00000010
00000010
00000010
00000000
00002002
00000000
00000000
00003003
,
00001000
00000100
00010000
00011000
00020000
00000000
02030000
00000000
,
23000000
00000000
31000000
00010000
00000000
00001000
00010000
00000000
,
00001000
00001000
00001000
00000000
00000020
00000000
00000032
00000000
,
00000203
00000000
00000301
00000010
00000000
00000110
00000000
00000100
,
00010000
00001000
00001000
00000000
00020000
00000000
02030000
00000000
,
23000000
00000000
31000000
00010000
00000000
00001000
00010000
00000000
,
00000010
00000010
00000010
00000000
00002000
00000000
00003001
00000100
,
00000000
00000110
00000000
00001010
00000000
00001000
00000100
00010000
,
00002000
00013000
02000000
03020000
,
00230000
00000000
01300000
10000000
00000000
00010000
10000000
00000000
,
00100000
00100000
00100000
00000000
20000000
00000000
32000000
00000000
,
03020000
00000000
00031000
00010000
00000000
00011000
00000000
00001000
,
00000010
00000001
00000001
00000000
00000200
00000000
00002300
00000000
,
00003200
00000000
00000301
00000010
00000000
00000001
00000100
00000000
,
00001000
00001000
00001000
00000000
00021000
00000000
00130000
10000000
,
00000000
01000000
00000000
00010000
00000000
00001000
00000000
00000100
,
00000000
00000001
00000000
00000010
00000200
00000000
00000000
00000000
,
00000000
00000000
00001000
00001000
00001300
00000000
00011000
00000000
,
01000000
00100000
01100000
00000000
00000000
00000000
00000000
00000000
;

//--------------- dance-double - forcednature ----------------
#NOTEDATA:;
#STEPSTYPE:dance-double;
#DESCRIPTION:forcednature;
#DIFFICULTY:Hard;
#METER:14;
#RADARVALUES:0,0,0,0,0;
#CREDIT:forcednature;
#NOTES:
00000000
00000000
00000000
00000000
,
00000000
00000000
00000000
00000000
,
00000000
00000000
00000000
00000000
,
00000000
00000000
00000000
00000000
,
00000000
00000000
00000000
00000000
,
00000000
00000000
00000000
00000000
,
00001000
00010000
00001000
00000010
00000100
00001000
00000001
00000000
,
00000100
00001000
00010000
00001000
00010000
00100000
10000000
00000000
,
10010000
00000000
00010000
00100000
00000000
10000000
00100000
00000000
,
00010000
01000000
00010000
00100000
00001000
00010000
00000010
00001000
,
00000200
00000000
00000000
00000300
00000010
00000001
00000000
00000100
,
00000000
00001000
00000100
00001000
00000000
00010000
00001000
00010000
,
00100000
00000000
00000000
00000000
10000000
01000000
00000000
10000000
,
00000000
00010000
00100000
00010000
00000000
01000000
00001000
00100000
,
00010000
00010000
10000000
00000000
01000000
00010000
00000000
00001000
,
00000000
00010000
00001000
00000010
00000000
00000001
00001000
00000100
,
00001000
00000000
00000001
00000000
00000100
00001000
00000000
00010000
,
00000000
00001000
00010000
00100000
00000000
10000000
00010000
01000000
,
00010000
00000000
10000000
10000000
01000000
00010000
00001000
00000000
,
00011000
00000000
00001000
00000010
00000000
00000010
00000001
00000000
,
00000101
00000000
00000000
00000000
00000100
00001000
00010000
00000000
,
00011000
00000000
00010000
00100000
00000000
00100000
10000000
00010000
,
01000000
00010000
00000000
00000000
10000000
01000000
10000000
01000000
,
00010000
00001000
00010000
00001000
00000100
00000001
00000100
00000001
,
00000010
00001000
00000010
00001000
00010000
01000000
00010000
01000000
,
10000000
00100000
10000000
00100000
00000000
00010000
00001000
00010000
,
00022000
00000000
00000000
00000000
00033000
00000000
00000000
00000000
00001000
00010000
00001000
00000000
00010000
00000000
00001000
00000000
,
00000020
00000000
00000130
00000000
00000110
00000000
00000001
00000100
,
00001000
00001100
00000000
00000100
00001000
00010000
00001000
00010000
,
00100000
00000000
20020000
00000000
30030000
00000000
10000000
01000000
,
00010000
01010000
00000000
01000000
00010000
00001000
00010000
00001000
,
00000020
00000000
00000001
00000031
00000000
00000000
00000001
00000100
,
00001000
00001100
00000000
00000100
00001000
00010000
00001000
00010000
,
00100000
00000000
10000000
00000000
00010000
00000000
00000000
00000000
10000000
01000000
00000000
00000000
00100000
01000000
00000000
00000000
,
00100000
00010000
00000000
00000000
00100000
00001000
00000000
00000000
00010000
00001000
00010000
00001000
00010000
00000000
00022000
00000000
,
00000000
00000000
00000000
00033000
00000000
00000000
10000000
01000000
,
00010000
01010000
00000000
01000000
00010000
00001000
00010000
00001000
,
00000010
00000001
00002002
00000000
00003003
00000000
00000001
00000100
,
00001000
00001100
00000000
00011000
00000000
00001000
00100000
00110000
,
00000000
00010000
02000000
00000000
13000000
01000000
10000000
01000000
,
00010000
00100000
00010000
00100000
00001000
00000010
00000100
00001000
,
00000001
00000010
00000100
00000000
00000001
00000100
00000001
00000100
,
00001000
00010000
00001000
00010000
00200000
00000000
00000000
10000000
,
20000000
30300000
00020000
01000000
,
10000000
00100000
00032000
00000100
,
00000001
00000010
00023000
01000000
,
10000000
00100000
00032000
00000100
,
00000001
00000010
00023000
01000000
,
10000000
00100000
00032000
00000100
,
00000001
00000010
00023000
01000000
,
10000000
00000000
00130000
00110000
00000000
00011000
00000000
00001100
,
00000000
00000000
00001001
00000000
00000000
00000000
00000001
00000010
00000001
00000000
00000100
00000000
00000001
00000000
00000010
00000000
,
00000001
00000100
00001000
00010000
01000000
10000000
00100000
10000000
,
01000000
00010000
00001000
00000010
00000001
00000100
00000001
00000010
,
00000001
00000100
00001000
00010000
01000000
10000000
00100000
10000000
,
01000000
00010000
00001000
00000010
00000001
00000100
00000001
00000100
,
00001000
00010000
00001000
00010000
00100000
10000000
00100000
10000000
,
01000000
00010000
01000000
00010000
00001000
00000010
00000100
00000010
,
00000001
00000100
00000010
00000100
00001000
00001000
00010000
00010000
,
00100000
00100000
10000000
10000000
02000000
00000000
00000000
00000000
,
03010000
00000000
00001000
00000000
00011000
00000000
00000220
00000330
00001001
00000000
00000000
00000000
00000110
00000000
00000000
00000000
,
00001001
00000000
00001000
00000001
00000000
00000100
00001000
00010000
,
00001000
00010000
00001000
00010000
00001000
00000000
00000000
00000000
10010000
00000000
00000000
00000000
01100000
00000000
00000000
00000000
,
10010000
00000000
10000000
01000000
00000000
01100000
00100000
00001000
,
00010000
00001000
00010000
00001000
00010000
00000000
00000000
00000000
00001001
00000000
00000000
00000000
00000110
00000000
00000000
00000000
,
00001001
00000000
00001000
00000001
00000000
00000100
00001000
00010000
,
00001000
00010000
00001000
00010000
00001000
00000000
00000000
00000000
10010000
00000000
00000000
00000000
10000000
00000000
01000000
00000000
,
00000000
01100000
00000000
00101000
00000000
00001000
00010000
00000010
,
00001000
00000000
00000010
00000100
00000001
00000000
00000000
00000000
00000010
00000000
00000001
00000000
00000100
00000000
00001000
00000000
,
00010000
01000000
10000000
00100000
10000000
01000000
00010000
00001000
,
00010000
00001000
00010000
00001000
00010000
00000000
00000000
00000000
00100000
00000000
10000000
00000000
01000000
00000000
00010000
00000000
,
00001000
00000100
00000001
00000010
00000001
00000100
00001000
00010000
,
00001000
00010000
00001000
00010000
00001000
00000000
00000000
00000000
00000010
00000000
00000001
00000000
00000100
00000000
00001000
00000000
,
00010000
01000000
10000000
00100000
10000000
01000000
00010000
00001000
,
00010000
00001000
00010000
00001000
00010000
00000000
00000000
00000000
00002000
00000000
00000000
00000000
00003010
00000000
00000002
00000000
,
00000000
00000203
00000000
00002300
00000000
00023000
00000000
00130000
,
10000000
00020000
00000000
00130000
02000000
00000000
00000000
00000000
,
10000000
13000000
01000000
01000000
00010000
00001000
00000010
00000100
,
00001000
00000000
00000001
00000100
00000010
00000000
00000000
00000000
00000000
00000000
00000000
00000000
00000000
00000000
00000000
00000000
;
