#VERSION:0.83;
#TITLE:ドラマチック・デイドリーマー;
#SUBTITLE:;
#ARTIST:Ms.;
#TITLETRANSLIT:Dramatic daydreamer;
#SUBTITLETRANSLIT:;
#ARTISTTRANSLIT:;
#GENRE:;
#CREDIT:;
#MUSIC:Dramatic daydreamer.ogg;
#BANNER:Dramatic daydreamer.png;
#BACKGROUND:Dramatic daydreamer-bg.png;
#CDTITLE:./CDTitles/MUSECA 1_1.5.png;
#SAMPLESTART:74.906;
#SAMPLELENGTH:15.000;
#SELECTABLE:YES;
#OFFSET:-0.006;
#BPMS:0.000=175.000;
#STOPS:50.000=0.343
,217.000=0.343
;
#TIMESIGNATURES:0.000=4=4,
48.000=3=4,
51.000=4=4,
215.000=3=4,
218.000=4=4
;
#BGCHANGES:0.000=../BGAs/27hv.mp4=1.000=0=0=0=StretchNoLoop====,
99999.000=-nosongbg-=1.000=0=0=0=StretchNoLoop====
;
#FGCHANGES:;

//--------------- dance-single - forcednature ----------------
#NOTEDATA:;
#STEPSTYPE:dance-single;
#DESCRIPTION:forcednature;
#DIFFICULTY:Beginner;
#METER:2;
#RADARVALUES:0,0,0,0,0;
#CREDIT:forcednature;
#NOTES:
0000
0000
0000
0000
,
0000
0000
0000
0000
,
0000
0000
0000
0000
,
0000
0000
0000
0000
,
0000
0000
0000
0000
,
0000
0000
0000
0000
,
1000
0000
0000
0000
,
0001
0000
0000
0000
,
0100
0000
0000
0000
,
0010
0000
0000
0000
,
0000
0000
0000
0000
,
1000
0000
0000
0000
,
0001
0000
0000
0010
,
0000
0000
0000
0100
,
0000
0000
0000
0010
,
0000
0000
0000
0000
,
0000
0000
0000
0001
,
0000
0000
0000
0100
,
0000
0000
0000
0001
,
0000
0000
0000
1000
,
0000
0000
0000
0010
,
0000
0000
0000
0000
,
0000
1000
0000
1000
,
0000
0000
0000
0000
,
0000
0100
0000
0100
,
0000
0000
0000
0000
,
0000
0010
0000
0010
,
0000
0000
0000
0000
,
0000
0001
0000
0001
,
0000
0000
0000
0000
,
0000
0000
0000
0100
,
0000
0000
0000
0010
,
0000
0000
0000
1000
,
0000
0000
0000
0000
,
0000
0000
0000
0001
,
0000
0000
0000
0010
,
0000
0000
0000
0100
,
0000
0000
0000
0000
,
0000
0000
0000
1000
,
0000
0000
0000
0010
,
0000
0000
0000
1000
,
0000
0000
0000
0000
,
0000
0000
0000
0001
,
0000
0000
0000
0010
,
0000
0000
0000
0001
,
0000
0000
0000
0000
,
0000
0000
0000
0100
,
0000
0000
0000
0000
,
0000
0000
0000
0010
,
0000
0000
0000
1000
,
0000
0000
0000
0100
,
0000
0000
0000
1000
,
0000
0000
0000
0001
,
0000
0000
0000
0100
,
0000
0000
0010
0000
,
0000
0000
1000
0000
,
0000
0000
0010
0000
,
0000
0000
0000
0000
,
0000
0000
0100
0000
,
0000
0000
0001
0000
,
0000
0000
0100
0000
,
0000
0000
0000
0000
,
0000
0000
0001
0000
,
0000
0000
0001
0000
,
0000
0000
0010
0000
,
0000
0000
0010
0000
,
0000
0000
0100
0000
,
0000
0000
0100
0000
,
0000
0000
1000
0000
,
0000
0000
0001
0000
,
0000
0000
1001
0000
,
0000
0000
1000
0000
,
0000
0000
0010
0000
,
0000
0000
0100
0000
,
0000
0000
0001
0000
,
0000
0000
0010
0000
,
0000
0000
0100
0000
,
0000
0000
1000
0000
,
0000
0000
0010
0000
,
0000
0000
0200
0000
,
0000
0000
0000
0000
,
0000
0000
0000
0000
,
0000
0300
1001
0000
;

//--------------- dance-single - forcednature ----------------
#NOTEDATA:;
#STEPSTYPE:dance-single;
#DESCRIPTION:forcednature;
#DIFFICULTY:Easy;
#METER:5;
#RADARVALUES:0,0,0,0,0;
#CREDIT:forcednature;
#NOTES:
0000
0000
0000
0000
,
0000
0000
0000
0000
,
0000
0000
0000
0000
,
0000
0000
0000
0000
,
0000
0000
0000
0000
,
0000
0000
0000
0000
,
1000
0000
0100
1000
,
0001
0000
0100
0000
,
0001
0000
0010
0001
,
1000
0000
0000
0010
0000
0000
1000
0000
,
0000
0001
0000
0000
0000
0000
0000
1001
,
0000
0000
0000
0000
0000
0000
0000
0110
,
0000
0000
0000
0001
,
0100
0001
0000
0100
,
0001
0100
0000
0010
,
0000
1000
0000
0001
,
0000
0000
0000
1000
,
0100
1000
0000
0100
,
1000
0100
0000
0010
,
0000
0001
0000
1000
,
0000
0010
0000
0100
,
0000
0000
0000
0001
,
0000
1000
0000
0001
,
0000
0000
0000
0010
,
0000
0100
0000
1000
,
0000
0000
0000
0010
,
0000
1000
0000
0010
,
0000
0000
0000
0100
,
0000
0001
0000
1000
,
0000
0100
0000
1000
,
0000
0000
0000
0001
,
0000
0100
0000
0001
,
0000
0010
0000
0100
,
0000
1000
0000
0010
,
0000
1000
0000
0001
,
0000
0000
0000
0010
,
0000
0100
0000
1000
,
0000
0000
0000
0010
,
0000
1000
0000
0001
,
0000
0000
0000
0100
,
0100
0100
0000
0010
,
0000
1000
0000
0001
,
0000
1000
0000
0100
,
0000
0000
0000
0010
,
0000
0000
0000
0001
,
0000
0001
0000
1000
,
0000
1000
0000
0010
,
0000
0100
0000
0001
,
0000
0000
0000
1000
,
1000
0001
0001
0010
,
0000
0100
0000
1000
,
0000
0001
0000
0100
,
0000
0010
0000
1000
,
0000
0001
0000
0010
,
0010
0010
0001
0100
,
0001
0000
0100
0001
,
0100
0000
0010
0000
,
1000
0000
0001
0000
,
0000
0000
0010
0100
,
0010
0000
0100
0010
,
0100
0000
1000
0000
,
0001
0000
0100
0000
,
0010
0000
1000
0000
,
1000
0000
0100
0000
,
0010
0000
0001
0000
,
0001
0000
0100
0000
,
0010
0000
1000
0000
,
0001
0000
0010
0000
,
0001
0000
0100
0000
,
0010
0000
1000
0000
,
0010
0000
1001
0000
,
0000
0000
1000
0000
,
0000
0000
0100
0000
,
0010
0000
0001
0000
,
0010
0000
0100
0000
,
0100
0000
1000
0000
,
1000
0000
0001
0000
,
0001
0000
0100
0000
,
0100
0000
0020
0000
,
0000
0030
2002
0000
,
0000
0000
0000
0000
,
0000
0000
0000
0000
,
0000
3003
2002
0000
,
0000
3003
0000
0000
;

//--------------- dance-single - forcednature ----------------
#NOTEDATA:;
#STEPSTYPE:dance-single;
#DESCRIPTION:forcednature;
#DIFFICULTY:Medium;
#METER:11;
#RADARVALUES:0,0,0,0,0;
#CREDIT:forcednature;
#NOTES:
0000
0000
0000
0000
,
0000
0000
0000
0000
,
0000
0000
0000
0000
,
0000
0000
0000
0000
,
0000
0000
0000
0000
,
0000
0000
0000
0000
,
1001
0000
0001
0000
0100
0001
0100
0000
,
1001
0000
1000
0000
0100
1000
0100
0000
,
1001
0000
0001
0000
0010
0001
0010
0000
,
0100
0100
0000
1000
1000
0000
0001
0001
,
0000
0100
0100
0000
0010
0010
0000
2002
,
0000
0000
0000
0000
0000
3003
0000
0110
,
0000
1000
0001
0001
1000
0000
0001
0001
,
0001
0100
0000
0010
1000
0000
1000
1000
,
1000
0100
0000
0010
0001
0000
1001
0000
,
1000
0000
0000
0000
0010
0000
0000
0010
0000
0000
0101
0000
0000
0000
0001
0000
,
0010
0000
0200
0000
0300
0000
1000
1000
,
1000
0010
0000
0100
0001
0000
0001
0001
,
0001
0010
0000
0100
1000
0000
1001
0000
,
0001
0000
0100
0000
0010
1000
0000
1000
,
0100
0010
0110
1001
,
1000
0100
1000
0010
,
1000
0000
0000
0000
0001
0000
0000
0001
0000
0000
0010
0000
0001
0000
0000
0000
,
0100
0001
1000
0001
,
0010
0000
0000
0000
0100
0000
0000
0100
0000
0000
1000
0000
0010
0000
0000
0000
,
0100
0001
0100
0010
,
1000
0000
0000
0000
0001
0000
0000
0001
0000
0000
0010
0000
0100
0000
0000
0000
,
1000
0001
1000
0110
,
0001
0010
0200
0000
0000
0000
1300
0000
,
0010
1000
0100
1000
,
0010
1000
0000
0100
1000
0000
0001
0000
,
0010
0000
0001
0000
0100
0010
0000
1000
,
0001
1000
0000
0100
0000
0110
0000
0010
,
0001
0000
0100
0001
0100
0000
0010
1000
,
0010
0000
1000
0100
0000
1001
0000
0000
,
0001
0000
0100
0000
0010
1000
0000
0001
,
1000
0001
0000
0110
0000
0000
1000
0000
,
0100
1000
0010
0100
,
0001
0010
0000
0001
1000
0000
1001
0000
,
0000
0000
0000
0000
0000
0220
0000
0330
,
0000
1000
0000
0001
0000
1001
0000
0000
,
1000
0000
0100
1000
0100
0000
0010
0000
,
0001
0000
0010
0001
0000
1001
0000
1000
,
0010
0000
0100
0000
0001
0010
0000
0100
,
1000
0000
0010
0100
0010
0000
1000
0000
,
1100
0022
0033
0001
,
0101
2020
3030
1000
,
0100
0000
1000
0001
1000
0000
0001
0000
,
0100
0000
0000
0000
0000
0000
0001
0000
0000
1000
0000
0000
0001
0000
0000
0000
0000
0000
0010
0000
0000
0000
0010
0000
,
0100
0000
0100
1000
0000
1000
0001
0000
0001
0100
0000
0000
,
0010
0100
0000
0100
0000
1001
0000
0000
,
1000
0000
0100
0000
1000
0010
0000
0000
,
0100
0000
0001
0000
0010
0100
0000
0100
,
0010
0000
0001
0000
0100
0010
0000
1000
,
0001
1000
0001
0000
1000
0100
1000
0100
,
0000
0010
0001
0000
0001
0100
0001
0100
,
0000
0010
1000
0000
0001
0000
0010
0000
,
0100
1000
0001
0100
,
0010
0000
1000
0000
0100
0010
0100
0010
,
0000
0001
1000
0000
0010
0100
0010
0100
,
0000
0001
1000
0000
0101
0000
1000
0000
,
0010
0000
0000
0010
0000
0000
1000
0000
0000
0000
0001
0000
0010
0000
0000
0000
,
0100
1000
0100
0000
1000
0000
0010
0000
,
1000
0000
0100
1000
0000
0010
1000
0000
,
0001
0100
0001
0010
,
0001
0000
0100
0001
0000
0010
0001
0000
,
1000
0000
0010
0000
1000
0100
1000
0000
,
0100
0010
0100
0000
0010
0001
0010
0000
,
0001
1000
0001
0000
0101
0000
1000
0000
,
0010
0000
1000
0100
0000
0010
0001
0000
,
0100
0000
0110
0000
1001
0000
0001
0010
,
0001
0000
0100
0000
0010
0000
1000
0100
,
1000
0000
0010
0000
0100
0001
1000
0000
,
0010
1000
0001
0000
1000
0100
0010
0000
,
0100
1000
0010
0000
0110
0000
0100
0000
,
0001
0010
0001
0000
0110
0000
0100
0000
,
1000
0010
1000
0000
0100
1000
0100
1000
,
0010
1000
0010
0000
0100
0001
0100
0001
,
0010
0001
0010
0000
2002
0000
0000
0000
,
0000
3003
0220
0000
,
0000
0000
0000
0000
,
0000
0000
0000
0000
,
0000
0330
2002
0000
,
0000
3003
0000
0000
;

//--------------- dance-single - forcednature ----------------
#NOTEDATA:;
#STEPSTYPE:dance-single;
#DESCRIPTION:forcednature;
#DIFFICULTY:Hard;
#METER:16;
#RADARVALUES:0,0,0,0,0;
#CREDIT:forcednature;
#NOTES:
0000
0000
0000
0000
,
0000
0000
0000
0000
,
0000
0000
0000
0000
,
0000
0000
0000
0000
,
0000
0000
0000
0000
,
0000
0000
0000
0000
0010
0100
0010
0000
,
1001
0000
0000
0000
1000
0000
0010
0000
0100
0001
0100
0000
0010
0000
1000
0000
,
1001
0000
0000
0000
0001
0000
0010
0000
0100
1000
0100
0000
0010
0000
0001
0000
,
1001
0000
0000
0000
1000
0000
0100
0000
1000
0010
1000
0000
0001
0000
0010
0000
,
0100
1000
0100
1000
0100
0000
1000
0010
1000
0010
1000
0000
0001
0010
0001
0010
,
0001
0000
0100
0001
0100
0001
0100
0000
0010
0000
1000
0000
0000
0000
1002
0000
,
0000
0000
0000
0000
0010
0000
0000
0000
0013
0000
0001
0100
0001
0000
1010
0000
,
0000
0000
1000
0100
1000
0000
0001
0000
0001
0000
0000
0000
1000
0100
1000
0100
,
1000
0000
0001
0010
0000
0000
0100
0000
1000
0000
0010
0000
0100
0001
0100
0000
,
0001
0000
0010
0100
0000
0000
1000
0000
0001
0000
0100
0000
0110
0000
0000
0000
,
1000
0000
0000
1000
0001
0000
0000
0010
0000
0000
1100
0000
0000
0000
1000
0000
,
0001
0100
0001
0000
0010
0000
0100
1000
0000
1000
0010
0000
0100
0001
0100
0000
,
0010
0000
1000
0001
0000
0000
0010
0000
0100
0000
1000
0000
0010
0000
0100
0001
,
0100
0001
1000
0010
0000
0000
1000
0000
0100
0000
0010
0000
0011
0000
0000
0000
,
0001
0000
0000
0001
0100
0000
0010
1000
0010
0000
0110
0000
0000
0000
0100
0000
,
0001
0000
0010
0000
1000
0000
0000
0000
0110
0000
0000
0000
0001
0010
0001
0000
,
1000
0000
0100
0000
1000
0010
1000
0000
0001
0000
0100
0000
0001
0010
0001
0000
,
1000
0000
0100
0000
0110
0000
0000
0110
0000
0000
0100
0000
0010
0001
0010
0000
,
0001
0000
0100
0000
0010
1000
0010
0000
1000
0000
0100
0000
0010
0001
0010
0000
,
0001
0000
0100
0000
0110
0000
0000
0110
0000
0000
0100
0000
0001
0100
0001
0000
,
1000
0000
0010
0000
1000
0100
1000
0000
0001
0000
0010
0000
0001
0100
0001
0000
,
1000
0000
0010
0000
0110
0000
0000
1001
0000
0000
0010
0000
1000
0100
1000
0000
,
0001
0000
0010
0000
0001
0100
0001
0000
1000
0000
0010
0000
1000
0000
0001
0010
,
0001
0010
0100
1000
0002
0000
0000
0000
0000
0000
0000
0000
0103
0000
0010
0000
,
0001
0010
0100
0001
1000
0010
1000
0100
,
0001
0100
0000
0010
0010
0001
0100
0010
,
1000
0010
0100
0001
0010
0011
0000
0100
,
1000
1010
0000
0110
0000
1001
0000
1000
,
0100
0001
0100
1000
0010
0001
0010
0100
,
1000
0100
0001
0010
0100
1001
0000
1000
,
0100
0001
0000
1000
0010
0011
0000
0001
,
0100
0000
0110
0000
0000
0000
1010
0000
0000
0000
1000
0000
0001
0000
0010
0100
,
0010
0000
0001
0010
0001
0000
1000
0000
0010
0000
0100
0000
0001
0000
0010
0000
,
1000
0000
0010
0000
0000
0000
0100
1000
0100
0000
1000
0010
1000
0000
1000
0000
,
0001
0000
0001
0000
0100
0000
0100
0000
0010
0000
1001
0000
0000
0000
0001
0010
,
0001
0010
0100
1000
0100
1000
0010
0000
0000
0000
0110
0000
0000
0000
0100
0000
,
1000
0100
0001
0010
1000
0010
0001
1000
,
0010
0001
0010
0100
0001
0011
0000
0010
,
0100
0000
1000
0001
0000
0001
0100
0000
0010
0000
1010
0000
0000
0000
1000
0000
,
0100
0000
0010
0001
0010
0001
1000
0000
0010
0000
0100
0001
0100
0000
0000
0100
,
0010
0000
0000
0010
2000
0000
0100
0000
3001
0000
0000
0000
0001
0000
0000
0001
,
0010
0000
0000
0010
0200
0000
0001
0000
0310
0000
0100
0000
1000
0000
0010
0000
,
0001
0000
0010
0000
0100
0000
1000
0000
0100
0000
0101
0000
0000
0000
0001
0010
,
0100
0000
0000
0000
0000
0000
1100
0000
0000
0000
0000
0000
0000
0000
0000
0000
0000
0000
1000
0000
0000
0010
0000
0000
1000
0000
0000
0010
0000
0000
0100
0000
0000
0000
0000
0000
0001
0000
0000
0000
0010
0000
0000
0000
0001
0000
0000
0000
,
1000
0010
1000
0001
0100
0001
1000
0100
1000
0020
0000
0000
,
0130
0000
0100
0001
1000
0000
1100
0000
0000
0000
0011
0000
0000
0000
0001
0000
,
0100
0000
0010
1000
0000
1000
0001
0000
0010
0000
0110
0000
0000
0000
0100
1000
,
0100
0000
0010
0000
0001
0000
0001
0100
0010
0000
2000
0000
0000
0000
3100
0000
,
0001
0100
1000
0010
0100
1001
0000
0100
,
0110
0000
0010
0000
0110
0000
0000
0000
1000
0100
0010
0100
1000
0000
0001
0100
,
0000
0100
0010
0000
1000
0000
0100
0000
0010
0001
0100
0001
0010
0000
0100
1000
,
0000
1000
0001
0000
0100
0000
0010
0000
1010
0000
0000
1000
0100
0000
0000
0100
,
0010
0000
0000
0011
0000
0000
0101
0000
0000
0000
0100
0000
0010
1000
0001
0000
,
1000
0000
0100
0010
0000
0001
0010
0000
0001
0100
0010
0100
0001
0000
1000
0100
,
0000
0100
0010
0000
0001
0000
0100
0000
0010
1000
0001
1000
0010
0000
1000
0100
,
0000
0100
0010
0000
0001
0000
0100
0000
0110
0000
0000
0010
1000
0000
0000
1000
,
0001
0000
0000
0011
0000
0000
1100
0000
0000
0000
1000
0010
1000
0000
0001
0000
,
0010
0100
0010
0000
0001
0000
1000
0000
1010
0000
0000
0000
0010
0000
0100
0001
,
0100
0000
0001
0010
0001
0000
2000
0000
0000
0000
3100
0000
0010
0000
1000
0000
,
0010
0000
0001
0100
0001
0000
0010
0000
0110
0000
0000
0000
1100
0000
0000
0000
,
0011
0000
0000
0000
0100
0000
1001
0000
0000
0000
1000
0000
0001
0100
0001
0000
,
0010
0000
0100
1000
0100
1000
0001
0000
0100
0000
0010
0000
1000
0100
1000
0000
,
0001
0000
0010
0000
0001
0100
0001
0000
1000
0000
0100
0000
0010
0000
1000
0000
,
0010
0000
0001
0100
0001
0000
1000
0000
1020
0000
0000
0000
0031
0000
0010
0100
,
0010
0000
1000
0010
1000
0000
1100
0000
0000
0000
0010
0000
0001
0100
0010
1000
,
0001
0000
0110
0000
1001
0000
1000
0010
,
0100
0000
0001
1000
0010
0000
0100
0000
0001
0000
1000
0000
0100
0000
0010
0000
,
0001
0000
1000
0010
0100
0000
0001
0000
0010
0000
0100
0000
1000
0000
0001
0000
,
0100
0000
0010
1000
0001
0000
0010
0000
0100
1000
0100
0000
0010
0100
0010
0000
,
0001
0010
0001
0000
0100
0000
0010
0000
1001
0000
1000
0001
0100
0000
0010
1000
,
0010
0000
0100
0001
1000
0000
0100
0000
0010
0000
0100
1000
0001
0000
0010
0001
,
0010
0000
0001
1000
0100
0000
0010
0000
0001
0100
0001
0000
0100
0010
0100
0000
,
0010
1000
0010
0000
1000
0001
1000
0000
0100
1000
0100
0000
1000
0010
1000
0000
,
0001
0010
0001
0000
0100
0001
0100
0000
2002
0000
0000
0000
0000
0000
0000
0000
,
0000
3003
0220
0000
,
0000
0000
0000
0000
,
0000
0000
0000
0000
,
0000
0330
2002
0000
,
0000
3003
0000
0000
;

//--------------- dance-double - forcednature ----------------
#NOTEDATA:;
#STEPSTYPE:dance-double;
#DESCRIPTION:forcednature;
#DIFFICULTY:Easy;
#METER:5;
#RADARVALUES:0,0,0,0,0;
#CREDIT:forcednature;
#NOTES:
00000000
00000000
00000000
00000000
,
00000000
00000000
00000000
00000000
,
00000000
00000000
00000000
00000000
,
00000000
00000000
00000000
00000000
,
00000000
00000000
00000000
00000000
,
00000000
00000000
00000000
00000000
,
00001000
00000000
00010000
00000000
,
00001000
00000000
01000000
00000000
,
00010000
00000000
00100000
00100000
,
01000000
00000000
00000000
01000000
00000000
00000000
10000000
00000000
,
00000000
10000000
00000000
00000000
00000000
00000000
00000000
10010000
,
00000000
00000000
00000000
00000000
00000000
00000000
00000000
02000000
,
00000000
00000000
03000000
00010000
,
01000000
00010000
00000000
01000000
,
00010000
01000000
00000000
00001000
,
00000000
00010000
00000000
00001000
,
00000000
00010000
00000000
00000100
,
00001000
00000100
00000000
00001000
,
00000100
00001000
00000000
00000001
,
00000000
00000001
00000000
00000100
,
00000000
00000010
00000000
00001000
,
00000000
00000000
00000000
00000010
,
00000000
00010000
00000000
00001000
,
00000000
00000000
00000000
00100000
,
00000000
00010000
00000000
00100000
,
00000000
00000000
00000000
01000000
,
00000000
10000000
00000000
01000000
,
00000000
00000000
00000000
10000000
,
00000000
00100000
00000000
10000000
,
00000000
00000000
00000000
10000000
,
00000000
01000000
00000000
00100000
,
00000000
00000000
00000000
00100000
,
00000000
00001000
00000000
00010000
,
00000000
00001000
00000000
00010000
,
00000000
00000010
00000000
00001000
,
00000000
00000000
00000000
00000001
,
00000000
00001000
00000000
00000001
,
00000000
00000000
00000000
00000001
,
00000000
00000010
00000000
00000001
,
00000000
00000000
00000000
00000100
,
00000100
00000100
00000000
00000010
,
00000000
00001000
00000000
00000010
,
00000000
00010000
00000000
00001000
,
00000000
00000000
00000000
00100000
,
00000000
00000000
00000000
00010000
,
00000000
00010000
00000000
01000000
,
00000000
01000000
00000000
00010000
,
00000000
10000000
00000000
00010000
,
00000000
00000000
00000000
00100000
,
00100000
01000000
01000000
00100000
,
00000000
00001000
00000000
00010000
,
00000000
00000000
00000000
00001000
,
00000000
00010000
00000000
00000010
,
00000000
00001000
00000000
00000010
,
00000010
00000010
00000100
00000001
,
00000100
00000000
00000001
00000100
,
00000001
00000000
00000100
00000000
,
00000010
00000000
00001000
00000000
,
00000010
00000000
00010000
00001000
,
00010000
00000000
00001000
00010000
,
00001000
00000000
00100000
00000000
,
00010000
00000000
00100000
00000000
,
01000000
00000000
10000000
00000000
,
10000000
00000000
00010000
00000000
,
01000000
00000000
00001000
00000000
,
00001000
00000000
00010000
00000000
,
00000100
00000000
00001000
00000000
,
00000001
00000000
00000100
00000000
,
00000001
00000000
00000010
00000000
,
00000100
00000000
00001000
00000000
,
00000100
00000100
00010000
00000000
,
00000000
00000000
00001000
00000000
,
01000000
00000000
00001000
00000000
,
00000000
00000000
00100000
00000000
,
00010000
00000000
00100000
00000000
,
00100000
00000000
01000000
00000000
,
01000000
00000000
10000000
00000000
,
10000000
00000000
00010000
00000000
,
00010000
00000000
02000000
00000000
,
00000000
03000000
00002000
00000000
,
00000000
00000000
00000000
00000000
,
00000000
00000000
00000000
00000000
,
00000000
00003000
00022000
00000000
,
00000000
00033000
00000000
00000000
;

//--------------- dance-double - forcednature ----------------
#NOTEDATA:;
#STEPSTYPE:dance-double;
#DESCRIPTION:forcednature;
#DIFFICULTY:Medium;
#METER:11;
#RADARVALUES:0,0,0,0,0;
#CREDIT:forcednature;
#NOTES:
00000000
00000000
00000000
00000000
,
00000000
00000000
00000000
00000000
,
00000000
00000000
00000000
00000000
,
00000000
00000000
00000000
00000000
,
00000000
00000000
00000000
00000000
,
00000000
00000000
00000000
00000000
,
00011000
01000000
00010000
00100000
,
00011000
00000100
00001000
00000010
,
00011000
00100000
00010000
01000000
,
00001000
00001000
00000000
00010000
00010000
00000000
00000100
00000100
,
00000000
00010000
00010000
00000000
00000010
00001000
00000000
00000220
,
00000000
00000000
00000000
00000000
00000000
00000330
00000000
00001001
,
00000000
00001000
00000100
00001000
00000100
00000000
00010000
00010000
,
00010000
00001000
00000000
01000000
00010000
00000000
00100000
00100000
,
00100000
01000000
00000000
10000000
00100000
00000000
01000000
00000000
,
00001000
00000000
00000000
00000000
00010000
00000000
00000000
00010000
00000000
00000000
00000100
00000000
00000000
00000000
00001000
00000000
,
00000010
00000000
00000200
00000000
00000300
00000000
00000001
00000001
,
00000001
00000010
00000000
00000100
00010000
00000000
00001000
00001000
,
00001000
00100000
00000000
01000000
10000000
00000000
10010000
00000000
,
00010000
00000000
01000000
00000000
00001000
00010000
00000000
00010000
,
00000100
00000010
00000100
00001001
,
00001000
00000100
00010000
00001000
,
00100000
00000000
00000000
00000000
00010000
00000000
00000000
00010000
00000000
00000000
01000000
00000000
00010000
00000000
00000000
00000000
,
01000000
00001000
00010000
00000010
,
00001000
00000000
00000000
00000000
00000100
00000000
00000000
00000100
00000000
00000000
00001000
00000000
00000100
00000000
00000000
00000000
,
00010000
00001000
01000000
00010000
,
01000000
00000000
00000000
00000000
00001000
00000000
00000000
00001000
00000000
00000000
00010000
00000000
00000010
00000000
00000000
00000000
,
00001000
00000010
00020000
00031000
,
00010000
00001000
02000000
00000000
00000000
00000000
03100000
00000000
,
10000000
00100000
10000000
01000000
,
00100000
01000000
00000000
00100000
00010000
00000000
00100000
00000000
,
00001000
00000000
00100000
00000000
00001000
00010000
00000000
00000010
,
00001000
00000010
00000000
00000100
00000000
00000110
00000000
00000000
,
00000010
00000000
00001000
00000010
00001000
00000000
00000010
00010000
,
00000010
00000000
00010000
00001000
00000000
00011000
00000000
00000000
,
00010000
00000000
00001000
00000000
01000000
00010000
00000000
10000000
,
00010000
10000000
00000000
02000000
00000000
00000000
13000000
00000000
,
01000000
10000000
00010000
00100000
,
00001000
00010000
00000000
00001000
00010000
00000000
00000010
00000000
,
00000000
00000000
00000000
00000000
00000000
00002002
00000000
00003003
,
00000000
00001000
00000000
00000001
00000000
00000110
00000000
00000000
,
00001000
00000000
00000100
00001000
00000100
00000000
00010000
00000000
,
00001000
00000000
00010000
00001000
00000000
01000000
00000000
00010000
,
01000000
00000000
00100000
00000000
10000000
00010000
00000000
10000000
,
01000000
00200000
00010000
00301000
,
00011000
00020020
00030030
00010000
,
00011000
00202000
00303000
00001000
,
00010000
00000000
00000010
00001000
00000010
00000000
00010000
00000000
,
00001000
00000000
00000000
00000000
00000000
00000000
00100000
00000000
00000000
00010000
00000000
00000000
00100000
00000000
00000000
00000000
00000000
00000000
01000000
00000000
00000000
00000000
01000000
00000000
,
10000000
00000000
10000000
00100000
00000000
00100000
10000000
00000000
10000000
00020000
00000000
00000000
,
00030000
00000000
00000000
01000000
00000000
00011000
00000000
00000000
,
00000100
00000000
00001000
00000000
00000100
00000010
00000000
00000000
,
00000001
00000000
00000010
00000000
00000100
00001000
00000000
00001000
,
00000100
00000000
00010000
00000000
00001000
01000000
00000000
00001000
,
00010000
00001000
00010000
00000000
00001000
00001000
00001000
01000000
,
00000000
00010000
00100000
00000000
01000000
01000000
01000000
10000000
,
00000000
00100000
10000000
00000000
01000000
00000000
00010000
00000000
,
00001000
00000000
00000000
00001000
00000000
00000000
00010000
00000000
00000000
00000000
00000010
00000000
00001000
00000000
00000000
00000000
,
00000010
00000000
00000100
00000000
00000001
00000001
00000001
00000010
,
00000000
00000100
00001000
00000000
00000010
00000010
00000010
00010000
,
00000000
00001000
00010000
00000000
00011000
00000000
00001000
00000000
,
01000000
00000000
00000000
01000000
00000000
00000000
00010000
00000000
00000000
00000000
10000000
00000000
01000000
00000000
00000000
00000000
,
00200000
00010000
00301000
00100000
,
00010000
00000000
00100000
01000000
00000000
10000000
01000000
00000000
,
00100000
00001000
00010000
00000010
,
00001000
00000000
00000010
00000100
00000000
00000001
00000100
00000000
,
00000010
00000000
00001000
00000000
00000100
00001000
00000100
00000000
,
00010000
00001000
00010000
00000000
00001000
01000000
00001000
00000000
,
01000000
00010000
01000000
00000000
01100000
00000000
00000000
00000000
,
00100000
00000000
10000000
00010000
00000000
00010000
00100000
00000000
,
01000000
00000000
01100000
00000000
10010000
00000000
00010000
00100000
,
00010000
00000000
01000000
00000000
00001000
00000000
00010000
00000010
,
00010000
00000000
00001000
00000000
00010000
00000000
00000100
00001000
,
00000100
00000000
00000010
00000000
00000001
00000000
00000100
00000001
,
00000100
00000000
00000010
00000000
00001001
00000000
00001000
00000100
,
00001000
00000000
00000100
00001000
00000100
00000000
00010000
00001000
,
00010000
00000000
00001000
00010000
00001000
00000000
01000000
00010000
,
01000000
00010000
00100000
00000000
01000000
00000000
10000000
00010000
,
10000000
00010000
01000000
00000000
02002000
00000000
00000000
00000000
,
00000000
03003000
00020200
00000000
,
00000000
00000000
00000000
00000000
,
00000000
00000000
00000000
00000000
,
00000000
00030300
00002002
00000000
,
00000000
00003003
00000000
00000000
;

//--------------- dance-double - forcednature ----------------
#NOTEDATA:;
#STEPSTYPE:dance-double;
#DESCRIPTION:forcednature;
#DIFFICULTY:Hard;
#METER:16;
#RADARVALUES:0,0,0,0,0;
#CREDIT:forcednature;
#NOTES:
00000000
00000000
00000000
00000000
,
00000000
00000000
00000000
00000000
,
00000000
00000000
00000000
00000000
,
00000000
00000000
00000000
00000000
,
00000000
00000000
00000000
00000000
,
00000000
00000000
00002000
00010000
,
01003000
00000000
00000000
00000000
01000000
00000000
00010000
00000000
01000000
00010000
01000000
00000000
00100000
00000000
10000000
00000000
,
01000000
00000000
00000000
00000000
00100000
00000000
00010000
00000000
00100000
00010000
00100000
00000000
00001000
00000000
00010000
00000000
,
00000010
00000000
00000000
00000000
00001000
00000000
00000010
00000000
00001000
00000010
00001000
00000000
00000100
00000000
00000010
00000000
,
00000001
00000010
00000001
00000010
00000001
00000000
00000100
00000001
00000100
00000001
00000100
00000000
00000010
00001000
00000010
00001000
,
00000010
00000000
00010000
00001000
00010000
00001000
00010000
00000000
00001000
00000000
00100000
00000000
00000000
00000000
02100000
00000000
,
00000000
00000000
00000000
00000000
10000000
00000000
00000000
00000000
13000000
00000000
01000000
10000000
01000000
00000000
00100000
00000000
,
00000000
00000000
00010000
00000000
00010000
00000000
00100000
00000000
00001000
00000000
00000000
00000000
00010000
00000010
00010000
00000010
,
00010000
00000000
00000010
00001000
00000000
00000000
00000100
00000000
00000010
00000000
00000001
00000000
00000100
00000001
00000100
00000000
,
00000001
00000000
00001000
00000010
00000000
00000000
00010000
00000000
00001000
00000000
00100000
00000000
00010000
00000000
00000000
00000000
,
01000000
00000000
00000000
01000000
00010000
00000000
00000000
00100000
00000000
00000000
01100000
00000000
00000000
00000000
01000000
00000000
,
10000000
00010000
10000000
00000000
00100000
00000000
01000000
00001000
00000000
00001000
00010000
00000000
00000100
00001000
00000100
00000000
,
00000010
00000000
00000001
00001000
00000000
00000000
00000010
00000000
00010000
00000000
00001000
00000000
01000000
00000000
00010000
10000000
,
00010000
10000000
01000000
00100000
00000000
00000000
00001000
00000000
00010000
00000000
00000100
00000000
00000010
00000000
00000000
00000000
,
00000001
00000000
00000000
00000001
00000100
00000000
00000010
00001000
00000010
00000000
00010000
00000000
00000000
00000000
00001000
00000000
,
00100000
00000000
01000000
00000000
10000000
00000000
00000000
00000000
00100000
00000000
00000000
00000000
01000000
00010000
01000000
00000000
,
00001000
00000000
00010000
00000000
00000010
00001000
00000010
00000000
00010000
00000000
00001000
00000000
01000000
00010000
01000000
00000000
,
00001000
00000000
00010000
00000000
00000010
00000000
00000000
00000010
00000000
00000000
00010000
00000000
00000100
00001000
00000100
00000000
,
00010000
00000000
00001000
00000000
00100000
00010000
00100000
00000000
00001000
00000000
00010000
00000000
00000100
00001000
00000100
00000000
,
00010000
00000000
00001000
00000000
00100000
00000000
00000000
00100000
00000000
00000000
00001000
00000000
01000000
00010000
00100000
00000000
,
00001000
00000000
00010000
00000000
00000100
00001000
00000010
00000000
00010000
00000000
00001000
00000000
01000000
00010000
00100000
00000000
,
00001000
00000000
00010000
00000000
00000100
00000000
00000000
00000100
00000000
00000000
00010000
00000000
00000010
00001000
00000100
00000000
,
00010000
00000000
00001000
00000000
00100000
00010000
01000000
00000000
00001000
00000000
00010000
00000000
00000010
00000000
00001000
00000100
,
00001000
00000100
00000010
00000001
00000020
00000000
00000000
00000000
00000000
00000000
00000000
00000000
00000130
00000000
00010000
00000000
,
00001000
00010000
00000010
00001000
00000100
00001000
00000010
00000100
,
00001000
00010000
00000000
00100000
00100000
01000000
00010000
00100000
,
01000000
00100000
00001000
00010000
00000010
00001000
00000000
00000100
,
00001000
00010000
00000000
00100000
00000000
10010000
00000000
10000000
,
01000000
00010000
01000000
00100000
00001000
00010000
00000100
00000010
,
00000100
00010000
00001000
00000100
00000001
00000010
00000000
00000100
,
00010000
00001000
00000000
01000000
00001000
00010000
00000000
00100000
,
10000000
00000000
01000000
00000000
00000000
00000000
01100000
00000000
00000000
00000000
00100000
00000000
00010000
00000000
00100000
00001000
,
00100000
00000000
00001000
00010000
00001000
00000000
00010000
00000000
00000010
00000000
00001000
00000000
00000010
00000000
00000100
00000000
,
00001000
00000000
00000100
00000000
00000000
00000000
00000001
00000100
00000001
00000000
00000010
00000001
00000010
00000000
00000010
00000000
,
00000100
00000000
00000100
00000000
00010000
00000000
00010000
00000000
00001000
00000000
01000000
00000000
00000000
00000000
00010000
00100000
,
00010000
00100000
01000000
10000000
01000000
00000000
00100000
00000000
00000000
00000000
10010000
00000000
00000000
00000000
00010000
00000000
,
01000000
00001000
00010000
00000010
00010000
00001000
00100000
01000000
,
00100000
00001000
00010000
00000100
00000010
00000001
00000000
00000100
,
00000001
00000000
00000010
00000100
00000000
00000010
00000100
00000000
00001000
00000000
00000010
00000000
00000000
00000000
00010000
00000000
,
00001000
00000000
00100000
00000000
00010000
00100000
00010000
00000000
00100000
00000000
01000000
00000000
10000000
00000000
01000000
00000000
,
00010000
00001000
00000010
00000000
00001001
00000000
00000001
00000100
,
00001000
00010000
00100000
00000000
10010000
00000000
10000000
01000000
,
00010000
00000000
01000000
00000000
00100000
00000000
00001000
00000000
00010000
00000000
00000100
00000000
00000000
00000000
00001000
00000010
,
00001000
00000000
00000000
00000000
00000000
00000000
00000010
00000000
00000000
00000000
00000000
00000000
00000000
00000000
00000000
00000000
00000000
00000000
00000100
00000000
00000000
00000001
00000000
00000000
00000100
00000000
00000000
00000001
00000000
00000000
00000100
00000000
00000000
00000000
00000000
00000000
00000001
00000000
00000000
00000000
00000010
00000000
00000000
00000000
00000001
00000000
00000000
00000000
,
00000010
00000100
00000010
00000100
00001000
00000100
00010000
00001000
00010000
00200000
00000000
00000000
,
01300000
00000000
00010000
01000000
00010000
00000000
10000000
00000000
01000000
00000000
00100000
00000000
00000000
00000000
01000000
00000000
,
00100000
00000000
00001000
00010000
00000000
00001000
00010000
00000000
00000010
00000000
00001000
00000000
00000000
00000000
00000100
00000010
,
00000100
00000000
00000010
00000000
00000001
00000000
00000010
00000001
00000010
00000000
00000200
00000000
00000000
00000000
00010300
00000000
,
00001000
00010000
00100000
01000000
00100000
10000000
00000000
10000000
,
10000000
00000000
01000000
00000000
01000000
00000000
00000000
00000000
00100000
00010000
00100000
00010000
00100000
00000000
00001000
00010000
,
00000000
00000000
00000010
00000000
00001000
00000000
00000010
00000000
00000100
00000001
00000100
00000001
00000100
00000000
00000010
00001000
,
00000000
00000000
00000010
00000000
00010000
00000000
00001000
00000000
00100000
00000000
00000000
00000000
01000000
00000000
00000000
01000000
,
10000000
00000000
00000000
00100000
00000000
00000000
10010000
00000000
00000000
00000000
00010000
00000000
01000000
00010000
01000000
00000000
,
00001000
00000000
00010000
00001000
00000000
00010000
00001000
00000000
00010000
00000100
00010000
00000100
00010000
00000000
00000010
00001000
,
00000000
00000000
00000100
00000000
00000010
00000000
00000100
00000000
00001000
00000001
00001000
00000001
00001000
00000000
00000010
00010000
,
00000000
00000000
00001000
00000000
01000000
00000000
00010000
00000000
01000000
00000000
00000000
01000000
00100000
00000000
00000000
00100000
,
10000000
00000000
00000000
01000000
00000000
00000000
10010000
00000000
00000000
00000000
00010000
00000000
01000000
00000000
00001000
00000000
,
00010000
00000010
00010000
00000000
00001000
00000000
00000010
00000000
00000100
00000000
00000000
00000000
00000100
00000000
00001000
00000100
,
00001000
00000000
00000010
00001000
00000010
00000000
00000200
00000000
00000000
00000000
00000301
00000000
00000100
00000000
00001000
00000000
,
00000100
00000000
00000010
00000100
00000010
00000000
00010000
00000000
00001000
00000000
00000000
00000000
00100000
00000000
00000000
00000000
,
01000000
00000000
00000000
00000000
00100000
00000000
10010000
00000000
00000000
00000000
10000000
00000000
00100000
01000000
00100000
00000000
,
01000000
00000000
00010000
01000000
00010000
01000000
00001000
00000000
00010000
00000000
00000010
00000000
00001000
00000010
00001000
00000000
,
00000001
00000000
00000010
00000000
00000100
00000010
00000100
00000000
00010000
00000000
00000100
00000000
00001000
00000000
00000010
00000000
,
00010000
00000000
00001000
00010000
00001000
00000000
01000000
00000000
00020000
00000000
00000000
00000000
00030000
00000000
00100000
00010000
,
00100000
00000000
01000000
00100000
01000000
00000000
10000000
00000000
00000000
00000000
00100000
00000000
00010000
00000000
00001000
00000000
,
00000100
00000000
00000110
00000000
00001001
00000000
00001000
00000010
,
00010000
00000000
00001000
01000000
00010000
00000000
01000000
00000000
00100000
00000000
00000000
00000000
10000000
00000000
01000000
00000000
,
00100000
00000000
00010000
00100000
00001000
00000000
00010000
00000000
00000010
00000000
00000000
00000000
00000100
00000000
00000001
00000000
,
00000010
00000000
00000100
00000010
00000001
00000000
00000100
00000000
00000010
00000000
00001000
00000000
00010000
00000000
01000000
00000000
,
00010000
00000000
00100000
00000000
10000000
00000000
00000000
00000000
00100000
00000000
00010000
00100000
00010000
00000000
00100000
00001000
,
00100000
00000000
00001000
00010000
00001000
00000000
00010000
00000000
00000010
00000000
00001000
00000010
00001000
00000000
00000010
00000100
,
00000010
00000000
00000100
00000001
00000100
00000000
00000010
00000000
00001000
00000100
00001000
00000000
00000100
00010000
00000100
00000000
,
00010000
00001000
00010000
00000000
00001000
01000000
00001000
00000000
01000000
00010000
01000000
00000000
00010000
00100000
00010000
00000000
,
10000000
00100000
10000000
00000000
01000000
10000000
01000000
00000000
00200000
00000000
00000000
00000000
00000000
00000000
00000000
00000000
,
00000000
00300000
00022000
00000000
,
00000000
00000000
00000000
00000000
,
00000000
00000000
00000000
00000000
,
00000000
00033000
00000220
00000000
,
00000000
00000330
00000000
00000000
;
