#VERSION:0.83;
#TITLE:Dragontail Butterfly;
#SUBTITLE:;
#ARTIST:Tom-H@ck feat.Nadia;
#TITLETRANSLIT:;
#SUBTITLETRANSLIT:;
#ARTISTTRANSLIT:;
#GENRE:;
#CREDIT:;
#MUSIC:Dragontail Butterfly.ogg;
#BANNER:Dragontail Butterfly.png;
#BACKGROUND:Dragontail Butterfly-bg.png;
#CDTITLE:./CDTitles/GuitarFreaks X3 & DrumMania X3.png;
#SAMPLESTART:36.455;
#SAMPLELENGTH:15.000;
#SELECTABLE:YES;
#OFFSET:1.089;
#BPMS:0.000=170.000;
#STOPS:;
#BGCHANGES:0.000=../BGAs/19po.mp4=1.000=0=0=0=StretchNoLoop====,
99999.000=-nosongbg-=1.000=0=0=0=StretchNoLoop====
;
#FGCHANGES:;

//--------------- dance-single - forcednature ----------------
#NOTEDATA:;
#STEPSTYPE:dance-single;
#DESCRIPTION:forcednature;
#DIFFICULTY:Beginner;
#METER:1;
#RADARVALUES:0,0,0,0,0;
#CREDIT:forcednature;
#NOTES:
0000
0000
0000
0000
,
0000
0000
0000
0000
,
0000
0000
0000
0000
,
0000
0000
0000
0000
,
0000
0000
0000
0000
,
0001
0000
0000
0000
,
0000
0000
0000
0000
,
0000
0000
0000
0000
,
0000
0000
0000
0000
,
1000
0000
0000
0000
,
0000
0000
0000
0000
,
0000
0000
0000
0000
,
0000
0000
0000
0000
,
0000
0000
0000
0000
,
0000
0000
0000
0000
,
0000
0000
0000
0000
,
0000
0000
0000
0000
,
0010
0000
0000
0000
,
0000
0000
0000
0000
,
0000
0000
0000
0000
,
0000
0000
0000
0000
,
0100
0000
0000
0000
,
0000
0000
0000
0000
,
0000
0000
0000
0000
,
0000
0000
0000
0000
,
0000
0000
0000
0000
,
0000
0000
0000
0000
,
0100
0000
0000
0000
,
0000
0000
0000
0000
,
0000
0000
0000
0000
,
0000
0000
0000
0000
,
0001
0000
0000
0000
,
0000
0000
0000
0000
,
0000
0000
0000
0000
,
0000
0000
0000
0000
,
0000
0000
0000
0000
,
0001
0000
0000
0000
,
0000
0000
0000
0000
,
1000
0000
0000
0000
,
0000
0000
0000
0000
,
0000
0000
0000
0000
,
0000
0000
0000
0000
,
0001
0000
0000
0000
,
0000
0000
0000
0000
,
0000
0000
0000
0000
,
0000
0000
0000
0000
,
0100
0000
0000
0000
,
0000
0000
0000
0000
,
0000
0000
0000
0000
,
0000
0000
0000
0000
,
0000
0000
0010
0000
,
0000
0000
0000
0000
,
0000
0000
0000
0000
,
0000
1000
0000
0000
0000
0000
0000
0000
,
0000
0000
0000
0000
,
0000
0001
0000
0000
0000
0000
0000
0000
,
0000
0000
0000
0000
,
0000
0000
0000
0000
,
0000
0000
0000
0000
,
0000
0000
0000
0000
,
0000
0000
0000
0000
,
0000
0000
0000
0000
,
0000
0000
0000
0000
,
0000
0010
0000
0000
0000
0000
0000
0000
,
0000
0000
0000
0000
,
0000
0000
0000
0000
,
0000
0000
0000
0000
,
0000
0100
0000
0000
0000
0000
0000
0000
,
0000
0000
0000
0000
,
0000
0000
0000
0000
,
0000
0000
0000
0000
,
0000
0000
0000
0000
,
0000
1000
0000
0000
0000
0000
0000
0000
,
0000
0000
0000
0000
,
0000
0001
0000
0000
0000
0000
0000
0000
,
0000
0000
0000
0000
,
0000
0000
0000
0000
,
0000
0000
0000
0000
,
0000
0100
0000
0000
0000
0000
0000
0000
,
0000
0000
0000
0000
,
0000
0000
0000
0000
,
0000
0000
0000
0000
0000
0000
0000
0010
;

//--------------- dance-single - forcednature ----------------
#NOTEDATA:;
#STEPSTYPE:dance-single;
#DESCRIPTION:forcednature;
#DIFFICULTY:Easy;
#METER:3;
#RADARVALUES:0,0,0,0,0;
#CREDIT:forcednature;
#NOTES:
0000
0000
0000
0000
,
0000
0000
0000
0000
,
0000
0000
0000
0000
,
0000
0000
0000
0000
,
0000
0000
0000
0000
,
1000
0000
0000
0000
,
0001
0000
0000
0000
,
0100
0000
0000
0000
,
0001
0000
0000
0000
,
0010
0000
0000
0000
,
0000
0000
0000
0000
,
0100
0000
0000
0000
,
0000
0000
0000
0000
,
1000
0000
0000
0000
,
0000
0000
0000
0000
,
0001
0000
0000
0000
,
0000
0000
0000
0000
,
0100
0000
0000
0000
,
0000
0000
0000
0000
,
0010
0000
0010
0000
,
0010
0000
0000
0000
,
1000
0000
0000
0000
,
0000
0000
0000
0000
,
0001
0000
0000
0000
,
1000
0000
0000
0000
,
0010
0000
0100
0000
,
0000
0000
0000
0000
,
1001
0000
0000
0000
,
1000
0000
0000
0000
,
0100
0000
0000
0000
,
0010
0000
0000
0000
,
1001
0000
0000
0000
,
0001
0000
0000
0000
,
0100
0000
0000
0000
,
0010
0000
0000
0000
,
1000
0000
0000
0000
,
0001
0000
0000
0000
,
0000
0000
0000
0000
,
0010
0000
0000
0000
,
0000
0000
0000
0000
,
0100
0000
0000
0000
,
0000
0000
0000
0000
,
1000
0000
0000
0000
,
0000
0000
0000
0000
,
0001
0000
0001
0000
,
0001
0000
0000
0000
,
0100
0000
0000
0000
,
0010
0000
0000
0000
,
1000
0000
0000
0000
,
0001
0000
0000
0000
,
0000
0000
0100
0000
,
0100
0000
0100
0000
,
0000
0001
0000
0000
,
0000
1000
0000
0000
0000
0000
0000
0000
,
0000
0001
0000
0000
0000
0000
0000
0000
,
0000
0100
0000
0000
0000
0000
0000
0000
,
0000
0000
0000
0000
,
0000
0010
0000
0000
0000
0000
0000
0000
,
0000
1000
0000
0000
0000
0000
0000
0000
,
0000
0001
0000
0000
0000
0000
0000
0000
,
0000
0000
0000
0000
,
0000
0010
0000
0000
0000
0010
0000
0000
,
0000
0010
0000
0000
0000
0000
0000
0000
,
0000
1001
0000
0000
0000
0000
0000
0000
,
0000
1001
0000
0000
0000
0000
0000
0000
,
0000
1000
0000
0000
0000
0000
0000
0000
,
0000
0010
0000
0000
0000
0000
0000
0000
,
0000
1001
0000
0000
0000
0000
0000
0000
,
0000
0001
0000
0000
0000
0000
0000
0000
,
0000
0010
0000
0000
0000
0000
0000
0000
,
0000
0001
0000
0000
0000
0000
0000
0000
,
0000
0100
0000
0000
0000
0000
0000
0000
,
0000
2002
0000
0000
0000
0000
0000
0000
,
0000
0000
0000
0000
0000
3003
0000
0000
,
0000
1001
0000
0000
0000
0000
0000
0000
,
0000
0000
0000
0000
,
0000
0001
0000
0000
0000
0000
0000
0000
,
0000
0100
0000
0000
0000
0000
0000
0000
,
0000
0001
0000
0000
0000
0000
0000
0000
,
0000
0000
0000
0000
,
0000
1000
0000
0000
0000
1000
0000
0000
,
0000
0001
0000
0000
0000
0001
0000
0000
;

//--------------- dance-single - forcednature ----------------
#NOTEDATA:;
#STEPSTYPE:dance-single;
#DESCRIPTION:forcednature;
#DIFFICULTY:Medium;
#METER:8;
#RADARVALUES:0,0,0,0,0;
#CREDIT:forcednature;
#NOTES:
0000
0000
0000
0000
,
0000
0000
0000
0000
,
0000
0000
0000
0000
,
0000
0000
0000
0000
,
0000
0000
0000
0000
,
1000
0100
0010
0100
,
1000
0001
0010
0000
,
0001
0100
0010
0100
,
0001
1000
0010
0000
,
0100
0100
0001
0100
,
0001
0001
1000
0000
,
0100
0100
1000
0100
,
1000
1000
0001
0000
,
0010
0010
0100
0010
,
0100
0100
1000
0000
,
0010
0010
0100
0010
,
0100
0100
0001
0000
,
1001
0000
1000
0100
,
0010
0000
0100
1000
,
0001
0000
0100
0000
,
0001
0100
0001
0000
,
0010
0001
0100
0000
,
0100
0001
1000
0000
,
0010
0100
0110
0000
,
1000
0001
1001
0000
,
0001
0010
0100
2000
,
0000
0000
0000
3000
0000
0000
0000
0000
,
1001
0000
0000
0110
0000
0000
1001
0000
,
0000
1000
0100
1000
,
0000
0001
0100
0010
,
1000
0010
0100
0001
,
1001
0000
0000
0110
0000
0000
1001
0000
,
0000
0001
1000
0100
,
0000
0010
0001
0100
,
0001
0000
0010
0000
0100
0000
0000
1001
,
0000
1000
0010
0100
,
2002
0000
0000
0000
,
0000
0000
0000
3003
,
1000
0100
0001
0100
,
1000
0001
0010
0000
,
0001
0100
1000
0100
,
0001
1000
0010
0000
,
0100
0001
0010
0001
,
0100
0001
0010
0000
,
0110
0000
1001
0000
,
1000
1000
0001
0100
,
0110
0010
1000
0001
,
0100
0001
1000
0010
,
1000
0100
0001
0100
,
1000
0001
0010
1000
,
0010
0001
1001
1000
,
0010
0100
0001
0100
,
0010
1001
0001
0010
,
0000
0110
0000
1000
0000
0100
0000
1000
,
0000
0010
0000
0000
0000
0100
0000
0110
,
0000
0001
0000
0100
0000
0001
0000
0010
,
0000
0001
0000
0100
0000
0001
0010
0001
,
0000
1000
0000
0100
0000
1000
0000
0010
,
0000
1000
0000
0100
0000
1000
0010
1000
,
0000
0100
0000
0010
0000
0001
0000
1000
,
0000
0100
0000
0010
0000
0001
1000
0001
,
0000
0100
0000
0010
0000
1000
0000
0001
,
0000
0100
0000
0000
2002
0000
0000
3003
,
0000
0110
0000
0000
1001
0000
0000
0110
,
0000
0000
1000
0001
1000
0001
0000
0010
,
0000
0000
0000
0001
0000
0100
0000
0001
,
0000
1000
0000
0100
0000
1000
0000
0010
,
0000
0110
0000
0000
1001
0000
0000
0110
,
0000
1000
0000
0100
0000
1000
0000
1010
,
0000
0001
0000
0100
0000
0001
0000
0011
,
0000
1000
0000
0001
0000
0100
0000
0000
,
1001
0000
0000
0010
0000
0000
0110
0000
,
0000
2002
0000
0000
0000
0000
0000
0000
,
0000
0000
0000
0000
0000
0000
0000
3003
,
0000
1000
0000
0100
0000
1000
0000
0010
,
0000
0100
0000
0001
0000
0010
0100
0010
,
0000
0001
0000
0100
0000
0001
0000
0010
,
0000
0100
0000
1000
0000
0010
0100
0010
,
0000
1000
0000
0001
0000
0010
0000
0100
,
0000
1000
0000
0100
0000
0010
0001
0010
,
0000
0110
0000
0000
0000
1001
0000
0000
,
0000
0002
0000
0203
0000
2300
0000
3200
,
0000
0300
0000
0000
0000
0000
0000
0000
;

//--------------- dance-single - forcednature ----------------
#NOTEDATA:;
#STEPSTYPE:dance-single;
#DESCRIPTION:forcednature;
#DIFFICULTY:Hard;
#METER:14;
#RADARVALUES:0,0,0,0,0;
#CREDIT:forcednature;
#NOTES:
0000
0000
0000
0000
,
0000
0000
0000
0000
,
0000
0000
0000
0000
,
0000
0000
0000
0000
,
0000
0000
0000
0000
,
1000
0100
0010
0100
1000
0010
0100
0001
,
0000
0010
0000
0100
1000
1000
0001
0010
,
0000
0001
0100
0010
1000
0100
1000
0010
,
0000
0000
0100
0000
0001
0000
0010
0000
0100
0000
0000
0000
0220
0000
0000
0330
,
0000
1100
0000
1010
0000
0101
0000
1010
,
0000
1000
0100
1000
0001
0100
0001
0010
,
0000
0110
0000
1100
0000
0011
0000
1001
,
0000
1000
0010
0100
0001
0001
0100
0010
,
0000
1010
0000
1100
0000
1100
0000
1001
,
0000
0001
0010
0100
1000
0010
0100
0001
,
0020
0000
0130
1000
0020
0000
0130
0001
,
2000
0000
0000
0000
3100
0000
0001
0000
0100
0000
0100
0000
0010
0000
0000
0001
,
0020
0000
0000
0100
0230
0000
1300
0001
,
0200
0000
0010
0010
0320
0000
2030
0000
,
3001
0010
0100
1000
0100
0010
0001
0200
,
0000
0310
1000
0001
0100
0000
0110
0000
,
2001
0000
0100
0100
3200
0000
0310
0001
,
2000
0000
0010
0010
3010
0000
1000
0002
,
0000
0103
1000
0100
0001
1000
0000
2010
,
0000
3100
0001
0100
1000
0001
0000
0021
,
0000
0130
1000
0001
0100
0010
0220
0000
,
0000
0000
0000
0330
0000
0001
0001
0000
,
1100
1000
0100
0110
0010
0001
0011
0000
,
0001
0100
1000
0100
0101
0000
1010
0000
,
1000
0001
0010
0100
1000
0010
0100
0000
,
0210
0000
0000
0000
0301
0000
0001
0000
1000
0000
0010
1000
0010
0000
0000
0000
,
0101
0001
0100
0110
0010
1000
1010
0000
,
1000
0100
0001
0100
1100
0000
0011
0000
,
0001
1000
0010
0200
0000
0301
0010
0200
,
0000
0000
1300
0000
0001
0000
0100
0000
0010
0000
1000
0010
1000
0000
1001
0000
,
0000
0001
0010
0100
0001
0100
1000
0000
,
2002
0000
0000
3003
,
0001
0100
0001
0001
1000
0010
0100
0000
,
0001
0010
1000
0010
0001
1000
0100
1000
,
0000
0001
0100
1000
0000
0100
0001
0000
,
1000
0010
0001
0010
1000
0001
0000
0101
,
0000
0110
0000
0010
1000
1000
0001
0010
,
0100
1000
0010
1000
0100
0001
0100
1000
,
0000
0001
0100
1000
0100
0001
1000
1000
,
0020
0030
0220
0330
,
0001
0100
1000
0100
0001
0100
0020
0000
,
1030
0100
0010
0001
0100
0010
0001
0010
,
1000
0100
0001
0100
1000
0010
0001
1000
,
0100
0100
0001
0010
1000
0001
0100
1000
,
0001
0100
1000
0100
0001
0010
0100
1000
,
0010
0000
0100
0000
1000
0000
0001
0000
0010
0000
0000
1000
0010
0000
1000
0000
,
0010
0000
0000
0100
0001
0000
0010
0000
0001
0000
0100
0000
0010
0000
1000
0000
,
0100
0010
0001
0100
1000
0100
0001
1000
,
0010
0110
0000
0001
0010
0100
0001
0100
,
0010
0000
0002
0000
0000
0100
0000
0000
1003
0000
0010
0000
0000
0000
0110
0000
,
0000
0001
0100
1000
0100
0001
1000
0010
,
1000
0000
0001
0010
0200
0000
1300
0001
,
0100
0001
0100
0000
0010
0000
1000
0000
0010
0000
0100
0000
1000
0000
0100
0000
,
0001
0000
0011
0000
0010
0100
0100
0100
,
1000
0010
0100
1000
0001
0010
1000
0001
,
0100
0000
1000
0000
0100
0000
0001
0000
1000
0000
0100
0010
0100
0000
0110
0000
,
0000
0000
0010
0000
0001
1000
0200
0000
0000
0000
1300
0000
0010
0000
0001
0000
,
0010
1000
0001
0100
0120
0000
1000
1030
,
0000
0000
1001
0000
0000
0000
0000
0000
0110
0000
0000
0000
0000
0000
0001
1000
,
0001
1000
0001
0000
0000
0000
0010
0000
0100
0000
0110
0000
0000
0000
1001
0000
,
0000
1000
0100
0010
0001
0100
0000
0110
,
0000
0010
1000
0001
0010
0001
1000
0010
,
0000
1100
1000
0001
0011
0010
0100
0110
,
0000
0000
0010
0000
0001
0000
1000
0100
1000
0000
0001
0000
0000
0000
0101
0000
,
0000
1000
0010
0001
0010
0000
0100
1000
,
0100
0000
0001
0010
1000
0001
0100
1000
,
1100
0000
0001
0011
0000
0000
0110
0000
,
0000
2002
0000
0000
0000
0000
0000
0000
,
0000
0000
0000
0000
0000
0000
0000
3003
,
0000
0001
0100
1000
0100
0001
0010
1000
,
0010
0000
0000
0000
0100
0000
1000
0000
0001
0000
0010
0001
0010
0000
0001
0000
,
0000
0100
1000
0100
0001
1000
0100
0010
,
1000
0000
0000
0000
0010
0000
0001
0000
1000
0000
0010
1000
0010
0000
0100
0000
,
0001
0010
1000
0010
0001
0100
1000
0100
,
0001
0000
0000
0000
1000
0000
0010
0000
1000
0000
0001
0100
0001
0000
1000
0000
,
0000
2200
0000
3300
0000
0022
0000
0033
,
0000
0000
0001
0100
0001
0000
1000
0010
1000
0000
0010
0000
0100
0000
2002
0000
,
0000
3003
0000
0000
0000
0000
0000
0000
;

//--------------- dance-double - forcednature ----------------
#NOTEDATA:;
#STEPSTYPE:dance-double;
#DESCRIPTION:forcednature;
#DIFFICULTY:Easy;
#METER:3;
#RADARVALUES:0,0,0,0,0;
#CREDIT:forcednature;
#NOTES:
00000000
00000000
00000000
00000000
,
00000000
00000000
00000000
00000000
,
00000000
00000000
00000000
00000000
,
00000000
00000000
00000000
00000000
,
00000000
00000000
00000000
00000000
,
00001000
00000000
00000000
00000000
,
00010000
00000000
00000000
00000000
,
00000100
00000000
00000000
00000000
,
00001000
00000000
00000000
00000000
,
00000001
00000000
00000000
00000000
,
00000000
00000000
00000000
00000000
,
00001000
00000000
00000000
00000000
,
00000000
00000000
00000000
00000000
,
00000100
00000000
00000000
00000000
,
00000000
00000000
00000000
00000000
,
00000100
00000000
00000000
00000000
,
00000000
00000000
00000000
00000000
,
00001000
00000000
00000000
00000000
,
00000000
00000000
00000000
00000000
,
00000100
00000000
00000100
00000000
,
00000100
00000000
00000000
00000000
,
00010000
00000000
00000000
00000000
,
00000000
00000000
00000000
00000000
,
00001000
00000000
00000000
00000000
,
00010000
00000000
00000000
00000000
,
00010000
00000000
00001000
00000000
,
00000000
00000000
00000000
00000000
,
00011000
00000000
00000000
00000000
,
01000000
00000000
00000000
00000000
,
00010000
00000000
00000000
00000000
,
01000000
00000000
00000000
00000000
,
00010000
00000000
00000000
00000000
,
10000000
00000000
00000000
00000000
,
00100000
00000000
00000000
00000000
,
10000000
00000000
00000000
00000000
,
01000000
00000000
00000000
00000000
,
00100000
00000000
00000000
00000000
,
00000000
00000000
00000000
00000000
,
00010000
00000000
00000000
00000000
,
00000000
00000000
00000000
00000000
,
01000000
00000000
00000000
00000000
,
00000000
00000000
00000000
00000000
,
00010000
00000000
00000000
00000000
,
00000000
00000000
00000000
00000000
,
00100000
00000000
00100000
00000000
,
00100000
00000000
00000000
00000000
,
00001000
00000000
00000000
00000000
,
00010000
00000000
00000000
00000000
,
00001000
00000000
00000000
00000000
,
00010000
00000000
00000000
00000000
,
00000000
00000000
00000100
00000000
,
00000100
00000000
00000100
00000000
,
00000000
00001000
00000000
00000000
,
00000000
00000001
00000000
00000000
00000000
00000000
00000000
00000000
,
00000000
00000100
00000000
00000000
00000000
00000000
00000000
00000000
,
00000000
00000010
00000000
00000000
00000000
00000000
00000000
00000000
,
00000000
00000000
00000000
00000000
,
00000000
00001000
00000000
00000000
00000000
00000000
00000000
00000000
,
00000000
00000100
00000000
00000000
00000000
00000000
00000000
00000000
,
00000000
00010000
00000000
00000000
00000000
00000000
00000000
00000000
,
00000000
00000000
00000000
00000000
,
00000000
00001000
00000000
00000000
00000000
00001000
00000000
00000000
,
00000000
00001000
00000000
00000000
00000000
00000000
00000000
00000000
,
00000000
00011000
00000000
00000000
00000000
00000000
00000000
00000000
,
00000000
01000000
00000000
00000000
00000000
00000000
00000000
00000000
,
00000000
00010000
00000000
00000000
00000000
00000000
00000000
00000000
,
00000000
00100000
00000000
00000000
00000000
00000000
00000000
00000000
,
00000000
10010000
00000000
00000000
00000000
00000000
00000000
00000000
,
00000000
10000000
00000000
00000000
00000000
00000000
00000000
00000000
,
00000000
01000000
00000000
00000000
00000000
00000000
00000000
00000000
,
00000000
10000000
00000000
00000000
00000000
00000000
00000000
00000000
,
00000000
00100000
00000000
00000000
00000000
00000000
00000000
00000000
,
00000000
20020000
00000000
00000000
00000000
00000000
00000000
00000000
,
00000000
00000000
00000000
00000000
00000000
30030000
00000000
00000000
,
00000000
10010000
00000000
00000000
00000000
00000000
00000000
00000000
,
00000000
00000000
00000000
00000000
,
00000000
00010000
00000000
00000000
00000000
00000000
00000000
00000000
,
00000000
00100000
00000000
00000000
00000000
00000000
00000000
00000000
,
00000000
00001000
00000000
00000000
00000000
00000000
00000000
00000000
,
00000000
00000000
00000000
00000000
,
00000000
00010000
00000000
00000000
00000000
00010000
00000000
00000000
,
00000000
00001000
00000000
00000000
00000000
00001000
00000000
00000000
;

//--------------- dance-double - forcednature ----------------
#NOTEDATA:;
#STEPSTYPE:dance-double;
#DESCRIPTION:forcednature;
#DIFFICULTY:Medium;
#METER:8;
#RADARVALUES:0,0,0,0,0;
#CREDIT:forcednature;
#NOTES:
00000000
00000000
00000000
00000000
,
00000000
00000000
00000000
00000000
,
00000000
00000000
00000000
00000000
,
00000000
00000000
00000000
00000000
,
00000000
00000000
00000000
00000000
,
00001000
00010000
00000100
00001000
,
00000100
00010000
00001000
00000000
,
00100000
00010000
00100000
01000000
,
10000000
00010000
01000000
00000000
,
00001000
00001000
00010000
00000010
,
00001000
00001000
00000001
00000000
,
00000010
00000010
00000100
00001000
,
00000100
00000100
00010000
00000000
,
00001000
00001000
00100000
00010000
,
01000000
01000000
00010000
00000000
,
10000000
10000000
00100000
10000000
,
01000000
01000000
00100000
00000000
,
10010000
00000000
10000000
01000000
,
00010000
00000000
00001000
00010000
,
00001000
00000000
00010000
00000000
,
00000100
00001000
00000010
00000000
,
00000100
00000001
00001000
00000000
,
00000001
00000100
00001000
00000000
,
00010000
00001000
00011000
00000000
,
00001000
00010000
00011000
00000000
,
01000000
00010000
10000000
00200000
,
00000000
00000000
00000000
00300000
00000000
00000000
00000000
00000000
,
10010000
00000000
00000000
01100000
00000000
00000000
10010000
00000000
,
00000000
10000000
01000000
00010000
,
00000000
00001000
00010000
00000100
,
00001000
00000100
00000010
00000001
,
00001001
00000000
00000000
00000110
00000000
00000000
00001001
00000000
,
00000000
00000001
00000100
00001000
,
00000000
00000100
00000001
00001000
,
00000010
00000000
00010000
00000000
00001000
00000000
00000000
00011000
,
00000000
00010000
00001000
01000000
,
20020000
00000000
00000000
00000000
,
00000000
00000000
00000000
30030000
,
10000000
01000000
00010000
01000000
,
10000000
00010000
00100000
00000000
,
00001000
00010000
00000100
00001000
,
00000100
00000010
00000001
00000000
,
00000001
00000100
00001000
00000100
,
00000001
00001000
00000010
00000000
,
00011000
00000000
00011000
00000000
,
01000000
01000000
00010000
00100000
,
01100000
01000000
10000000
00010000
,
00100000
00001000
00010000
00000010
,
00001000
00000010
00010000
00001000
,
00010000
00000100
00001000
00000100
,
00000010
00000001
00001001
00001000
,
00000010
00010000
00001000
01000000
,
00010000
10010000
10000000
01000000
,
00000000
01100000
00000000
00100000
00000000
00001000
00000000
00010000
,
00000000
00000100
00000000
00000000
00000000
00001000
00000000
00000110
,
00000000
00000001
00000000
00000100
00000000
00000010
00000000
00000100
,
00000000
00000001
00000000
00001000
00000000
00000010
00001000
00000010
,
00000000
00010000
00000000
00001000
00000000
00100000
00000000
00010000
,
00000000
10000000
00000000
00100000
00000000
01000000
00010000
01000000
,
00000000
00001000
00000000
00010000
00000000
00001000
00000000
00100000
,
00000000
00010000
00000000
00100000
00000000
00001000
00010000
00001000
,
00000000
00010000
00000000
00000100
00000000
00001000
00000000
00000010
,
00000000
00000100
00000000
00000000
00002002
00000000
00000000
00003003
,
00000000
00000110
00000000
00000000
00001001
00000000
00000000
00000110
,
00000000
00000000
00001000
00000001
00001000
00000001
00000000
00000010
,
00000000
00000000
00000000
00000100
00000000
00001000
00000000
00000100
,
00000000
00010000
00000000
00001000
00000000
00100000
00000000
00010000
,
00000000
01100000
00000000
00000000
10010000
00000000
00000000
01100000
,
00000000
10000000
00000000
00010000
00000000
01000000
00000000
00010000
,
00000000
00100000
00000000
00001000
00000000
00010000
00000000
00011000
,
00000000
00000100
00000000
00001000
00000000
00000010
00000000
00000000
,
00001001
00000000
00000000
00000100
00000000
00000000
00011000
00000000
,
00000000
02000000
00000000
00000000
00000000
00000000
00000000
00000000
,
00000000
00000000
00000000
00000000
00000000
00000000
00000000
03000000
,
00000000
00010000
00000000
10000000
00000000
00100000
00000000
10000000
,
00000000
00010000
00000000
01000000
00000000
00010000
00100000
00010000
,
00000000
00100000
00000000
00001000
00000000
00010000
00000000
00000100
,
00000000
00001000
00000000
00000100
00000000
00001000
00000001
00001000
,
00000000
00000010
00000000
00000100
00000000
00000001
00000000
00000100
,
00000000
00000010
00000000
00001000
00000000
00000010
00000100
00000010
,
00000000
00000110
00000000
00000000
00000000
00001001
00000000
00000000
,
00000000
00020000
00000000
00032000
00000000
00203000
00000000
00320000
,
00000000
00030000
00000000
00000000
00000000
00000000
00000000
00000000
;

//--------------- dance-double - forcednature ----------------
#NOTEDATA:;
#STEPSTYPE:dance-double;
#DESCRIPTION:forcednature;
#DIFFICULTY:Hard;
#METER:14;
#RADARVALUES:0,0,0,0,0;
#CREDIT:forcednature;
#NOTES:
00000000
00000000
00000000
00000000
,
00000000
00000000
00000000
00000000
,
00000000
00000000
00000000
00000000
,
00000000
00000000
00000000
00000000
,
00000000
00000000
00000000
00000000
,
00001000
00010000
00000100
00001000
00000100
00000010
00000001
00001000
,
00000000
00000010
00000000
00000100
00001000
00001000
00010000
00100000
,
00000000
10000000
00010000
01000000
00010000
10000000
00100000
10000000
,
00000000
00000000
01000000
00000000
00010000
00000000
00001000
00000000
00010000
00000000
00000000
00000000
00022000
00000000
00000000
00033000
,
00000000
00010100
00000000
00001100
00000000
00000011
00000000
00001100
,
00000000
00010000
00001000
01000000
00010000
10000000
00100000
10000000
,
00000000
01010000
00000000
00110000
00000000
11000000
00000000
00110000
,
00000000
00001000
00010000
00000010
00001000
00001000
00000010
00010000
,
00000000
00011000
00000000
00101000
00000000
00101000
00000000
00010100
,
00000000
00000100
00001000
00000001
00000010
00000001
00000100
00001000
,
00020000
00000000
00130000
00010000
00002000
00000000
00013000
00100000
,
20000000
00000000
00000000
00000000
31000000
00000000
10000000
00000000
00010000
00000000
00010000
00000000
00100000
00000000
00000000
01000000
,
20000000
00000000
00000000
01000000
32000000
00000000
03010000
00001000
,
00020000
00000000
00000100
00000100
00030200
00000000
00002300
00000000
,
00003001
00000010
00001000
00010000
00001000
00000010
00000001
00002000
,
00000000
00003100
00010000
00001000
00100000
00000000
00011000
00000000
,
02000000
00000000
00010000
00010000
03020000
00000000
10000000
00130000
,
20000000
00000000
01000000
01000000
31000000
00000000
10000000
00020000
,
00000000
00130000
01000000
00010000
00001000
00100000
00000000
00021000
,
00000000
00030010
00001000
00000100
00010000
00001000
00000000
00201000
,
00000000
00310000
10000000
01000000
00010000
00001000
00022000
00000000
,
00000000
00000000
00000000
00033000
00000000
00000010
00000020
00000000
,
00000130
00001000
00010000
00100000
00010000
00001000
00000100
00000000
,
00001000
00010000
01000000
00100000
01100000
00000000
10010000
00000000
,
10000000
01000000
00010000
00001000
00100000
00000000
00001000
00000000
,
00020100
00000000
00000000
00000000
00031000
00000000
00010000
00000000
00001000
00000000
00100000
00010000
00100000
00000000
00000000
00000000
,
01000000
00010000
00001000
00000010
00001000
00010000
01000000
00000000
,
00010000
00001000
00000100
00000010
00000110
00000000
00001001
00000000
,
00000001
00000100
00001000
00020000
00000000
00130000
00010000
00002000
,
00000000
00000000
00013000
00000000
00100000
00000000
10000000
00000000
00010000
00000000
10000000
00010000
10000000
00000000
10010000
00000000
,
00000000
00010000
00100000
01000000
00010000
00001000
00000010
00000000
,
00000220
00000000
00000000
00000330
,
00000001
00000100
00001000
00010000
00000000
00100000
10000000
00000000
,
01000000
00010000
00001000
00010000
01000000
10000000
00010000
00100000
,
00000000
00001000
00010000
00000010
00000000
00001000
00000002
00000000
,
00000103
00001000
00010000
00001000
00000100
00000001
00000000
00001010
,
00000000
00011000
00000000
00110000
00000000
00010000
20000000
00000000
,
31000000
00010000
00001000
00010000
01000000
10000000
00010000
00100000
,
00000000
00001000
00010000
00000010
00000000
00001000
00000001
00000000
,
00002002
00003003
00022000
00033000
,
00010000
01000000
10000000
01000000
00010000
01000000
20000000
00000000
,
30010000
00100000
01000000
00010000
00001000
00000010
00000100
00010000
,
00001000
00000010
00000001
00000010
00001000
00010000
00000100
00001000
,
00000010
00000010
00001000
00000001
00000100
00001000
00010000
00100000
,
00010000
00001000
01000000
00010000
01000000
00001000
00010000
00100000
,
10000000
00000000
00010000
00000000
10000000
00000000
01000000
00000000
00010000
00000000
00000000
00001000
00010000
00000000
00001000
00000000
,
00010000
00000000
00000000
00000100
00001000
00000000
00000100
00000000
00001000
00000000
00000001
00000000
00000010
00000000
00000001
00000000
,
00001000
00000010
00000100
00001000
00010000
01000000
00100000
00000000
,
01000000
10010000
00000000
10000000
01000000
00010000
01000000
10000000
,
01000000
00000000
00010000
00000000
00000000
00010000
00000000
00000000
00001000
00000000
00000010
00000000
00000000
00000000
00001001
00000000
,
00000000
00000001
00000100
00001000
00000100
00000001
00000100
00001000
,
00020000
00000000
00130000
00010000
00002000
00000000
00013000
00100000
,
00000000
10000000
01000000
00010000
01000000
10000000
01000000
00000000
,
01100000
00000000
00011000
00000000
00000010
00000100
00000100
00000100
,
00000100
00000001
00000100
00001000
00000100
00000001
00000010
00001000
,
00010000
00000000
00001000
00000000
00100000
00000000
00010000
00000000
01000000
00000000
00100000
01000000
00100000
00000000
01100000
00000000
,
00000000
00000000
10000000
00000000
00000000
10000000
02000000
00000000
00000000
00000000
03010000
00000000
00001000
00000000
00100000
00000000
,
00001000
00010000
00000100
00001000
00000020
00000000
00000100
00000130
,
00000000
00000000
00001001
00000000
00000000
00000000
00000000
00000000
00011000
00000000
00000000
00000000
00000000
00000000
10000000
00010000
,
10000000
00010000
10000000
00000000
00000000
00000000
00100000
00000000
01000000
00000000
01100000
00000000
00000000
00000000
10010000
00000000
,
00000000
10000000
01000000
00010000
00001000
00100000
00000000
00011000
,
00000000
00000010
00001000
00000001
00000100
00001000
00010000
00001000
,
00000000
00100000
01000000
00010000
00001000
00000010
00000100
00010000
,
00000000
00000000
00001000
00000000
00000010
00000000
00000001
00000010
00000001
00000000
00000100
00000000
00000000
00000000
00001001
00000000
,
00000000
00000001
00000100
00001000
00020000
00000000
00130000
00010000
,
00002000
00000000
00013000
00100000
10000000
00010000
10000000
01000000
,
00010000
00000000
00000000
01100000
00000000
00000000
00011000
00000000
,
00000000
00000220
00000000
00000000
00000000
00000000
00000000
00000000
,
00000000
00000000
00000000
00000000
00000000
00000000
00000000
00000330
,
00000000
00000001
00000010
00001000
00000010
00000001
00000010
00001000
,
00010000
00000000
00000000
00000000
01000000
00000000
00010000
00000000
00001000
00000000
00100000
00010000
00100000
00000000
00020000
00000000
,
00000000
10030000
00100000
00010000
00100000
10000000
00100000
00010000
,
00001000
00000000
00000000
00000000
00000100
00000000
00001000
00000000
00010000
00000000
00000010
00001000
00000010
00000000
00002000
00000000
,
00000000
00003001
00000010
00001000
00000010
00000001
00000010
00001000
,
00010000
00000000
00000000
00000000
01000000
00000000
00010000
00000000
00001000
00000000
00100000
00010000
00100000
00000000
00010000
00000000
,
00000000
02200000
00000000
03300000
00000000
00022000
00000000
00033000
,
00000000
00000010
00000100
00001000
00010000
00100000
01000000
02200000
,
00000000
03300000
00000000
00000000
00000000
00000000
00000000
00000000
;
