#VERSION:0.83;
#TITLE:Dr. Chemical & Killing Machine;
#SUBTITLE:;
#ARTIST:Hommarju;
#TITLETRANSLIT:;
#SUBTITLETRANSLIT:;
#ARTISTTRANSLIT:;
#GENRE:INDUSTRIAL TECHNO;
#CREDIT:;
#MUSIC:Dr. Chemical & Killing Machine.ogg;
#BANNER:Dr. Chemical & Killing Machine.png;
#BACKGROUND:Dr. Chemical & Killing Machine-bg.png;
#CDTITLE:./CDTitles/bm IIDX 26 Rootage.png;
#SAMPLESTART:90.664;
#SAMPLELENGTH:15.000;
#SELECTABLE:YES;
#OFFSET:0.957;
#BPMS:0.000=165.000
,180.000=82.500
,212.000=165.000
;
#STOPS:;
#TIMESIGNATURES:0.000=4=4;
#BGCHANGES:0.000=../BGAs/26he.mp4=1.000=0=0=0=StretchNoLoop====,
99999.000=-nosongbg-=1.000=0=0=0=StretchNoLoop====
;
#FGCHANGES:;

//--------------- dance-single - forcednature ----------------
#NOTEDATA:;
#STEPSTYPE:dance-single;
#DESCRIPTION:forcednature;
#DIFFICULTY:Beginner;
#METER:5;
#RADARVALUES:0,0,0,0,0;
#CREDIT:forcednature;
#NOTES:
0000
0000
0000
0000
,
0000
0000
0000
0000
,
0000
0000
0000
0000
,
0000
0000
0000
0000
,
0000
0000
0000
0000
,
1000
0000
0000
0000
,
0100
0000
0000
0000
,
0010
0000
0000
0000
,
0001
0000
0100
0000
,
1001
0000
1000
0000
,
0001
0000
0100
0000
,
0001
0000
1000
0000
,
0100
0000
1000
0000
,
0000
0000
0010
0000
,
0100
0000
0001
0000
,
0010
0000
0001
0000
,
1000
0000
1001
0000
,
0000
0000
0000
0000
,
0220
0000
0330
0000
,
1000
0000
0100
0000
,
1000
0000
1000
0000
,
0001
0000
0100
0000
,
0001
0000
0001
0000
,
0010
0000
0100
0000
,
1000
0000
1000
0000
,
0010
0000
0100
0000
,
0001
0000
1000
0000
,
1001
0000
0000
0000
,
0110
0000
0000
0000
,
0001
0000
0000
0000
,
1000
0000
0000
0000
,
0110
0000
0000
0000
,
1001
0000
0000
0000
,
0010
0000
0000
0000
,
0100
0000
0000
0000
,
0000
0000
0000
0000
,
2002
0000
3003
0000
,
1000
0000
1000
1000
,
1000
0000
0000
0000
,
0001
0000
0001
0001
,
0001
0000
0000
0000
,
0100
0000
0100
0100
,
0100
0000
0000
0000
,
0010
0000
0010
0010
,
0010
0000
0000
0000
,
2002
0000
0000
0000
,
0000
0000
0000
3003
,
0220
0000
0000
0000
,
0000
0000
0000
0330
,
2000
3000
0200
0300
,
0020
0030
0002
0003
,
2000
3000
0020
0030
,
0200
0300
0002
0003
,
2002
0000
0000
0000
,
0000
0000
3003
0000
,
1000
0000
0100
0000
,
1000
0100
1000
0000
,
0001
0000
0100
0000
,
0001
0100
0001
0000
,
1000
0000
0010
0000
,
1000
0010
1000
0000
,
0001
0000
0010
0000
,
0001
0010
0001
0000
,
1000
1000
0000
1000
,
0010
0010
0000
0010
,
0100
0100
0000
0100
,
0001
0001
0000
0001
,
0010
0100
0000
1000
,
0100
0010
0000
0001
,
0100
0010
0000
1000
,
0010
0100
0000
0000
,
2002
0000
0000
0000
0000
0000
0000
3003
;

//--------------- dance-single - forcednature ----------------
#NOTEDATA:;
#STEPSTYPE:dance-single;
#DESCRIPTION:forcednature;
#DIFFICULTY:Easy;
#METER:9;
#RADARVALUES:0,0,0,0,0;
#CREDIT:forcednature;
#NOTES:
0000
0000
0000
0000
,
0000
0000
0000
0000
,
0000
0000
0000
0000
,
0000
0000
0000
0000
,
0000
0000
0000
0000
,
1000
0000
0100
0000
0000
1000
0100
0000
,
0000
0010
0000
0001
0000
0010
0001
0000
,
0100
0000
0001
0000
0000
0100
0001
0000
,
0000
1000
0000
0010
0000
1000
0010
0000
,
0110
0000
0100
0000
0001
0100
0001
0000
,
1000
0010
1000
0000
,
0100
0000
0010
0000
0100
1000
0100
0000
,
0010
0000
0000
0000
0001
0000
0000
0000
0100
0000
0000
0010
0000
0000
0010
0000
,
0000
0000
1000
0000
0010
1000
0010
0000
,
0100
0001
0010
0000
,
0001
0000
0010
0000
0001
0100
0001
0000
,
1000
0000
0000
1000
0000
0000
1000
0000
0002
0000
0000
0000
0000
0000
0000
0000
,
0013
0100
0100
0010
,
2002
0000
0000
3003
,
1000
0100
1000
0000
0100
0010
0100
0000
,
0010
0001
0010
0000
0001
0000
0000
0000
,
0001
0100
0001
0000
0100
0010
0100
0000
,
0010
1000
0010
0000
1000
0000
0001
0000
,
1000
0010
1000
0000
0010
0100
0010
0000
,
0100
0001
0100
0000
0001
0000
0000
0000
,
0001
0010
0001
0000
0010
0100
0010
0000
,
0100
1000
0100
0000
2002
0000
3003
0000
,
1000
0000
0000
0010
0000
0000
1000
0000
0000
0000
0001
0000
0100
0000
0000
0000
,
0001
0000
0000
0010
0000
0000
0001
0000
0000
0000
1000
0000
0100
0000
0000
0000
,
1000
0000
0000
0001
0000
0000
1000
0000
0000
0000
0010
0000
0100
0000
0000
0000
,
0001
0000
0000
1000
0000
0000
0001
0000
0000
0000
0010
0000
0100
0000
0000
0000
,
1000
0000
0000
0001
0000
0000
0010
0000
0000
0000
0001
0000
0100
0000
0000
0000
,
0001
0000
0000
1000
0000
0000
0010
0000
0000
0000
1000
0000
0100
0000
0000
0000
,
0010
0000
0000
0001
0000
0000
1000
0000
0000
0000
0001
0000
0100
0000
0000
0000
,
0010
0000
0000
1000
0000
0000
0001
0000
0000
0000
0000
0000
0000
0000
0000
0000
,
0010
0100
0100
0010
,
2002
0000
0000
3003
,
1000
0000
0100
0000
1000
0001
0001
0000
,
0000
0010
0010
0001
0000
0010
0001
0000
,
0001
0000
0100
0000
0001
1000
1000
0000
,
0000
0000
0010
0000
0010
0000
1000
0000
0000
0000
0000
0001
0000
0000
0001
0000
,
0000
0010
0010
0000
0001
1000
1000
0000
,
0000
0100
0000
1000
0000
0010
1000
0000
,
0001
0000
0100
0000
0001
1000
1000
0000
,
0010
0000
0000
0010
0000
0000
0100
0000
0002
0000
0000
0000
0003
0000
0000
0000
,
2000
0000
0000
3000
0200
0000
0000
0300
,
0020
0000
0000
0030
0002
0000
0000
0003
,
0200
0000
0000
0300
0020
0000
0000
0030
,
2000
0000
0000
3000
0002
0000
0000
0003
,
2200
3300
0202
0303
,
2020
3030
0022
0033
,
2002
3003
0220
0330
,
2200
3300
0202
0303
,
2002
0000
0000
0000
,
0000
0000
0000
3003
,
0000
1000
0100
1000
0000
0100
0010
0001
,
0000
0001
0100
0001
0000
0100
0010
1000
,
0000
0001
0010
0001
0000
0010
0100
1000
,
0000
1000
0010
1000
0000
0010
0010
0100
,
0000
0001
0010
0001
0000
0010
0100
1000
,
0000
1000
0010
1000
0000
0010
0100
0001
,
0000
1000
0100
1000
0000
0010
0100
0001
,
0000
0000
0001
0000
0010
0000
0000
0000
2002
0000
0000
0000
0000
3003
0000
0000
,
1100
0000
0001
0000
0010
0100
1000
0000
,
0101
0000
1000
0000
0010
0100
0001
0000
,
0011
0000
1000
0000
0001
0100
0010
0000
,
1010
0000
0001
0000
1000
0100
0010
0000
,
0110
0000
1000
0000
0001
0100
0010
0000
,
1001
0000
0010
0000
1000
0100
0010
0000
,
0110
0000
0001
0000
1000
0010
0100
0000
,
1001
0000
0001
0010
0200
0000
1300
0000
,
2002
0000
0000
0000
0000
0000
0000
3003
;

//--------------- dance-single - forcednature ----------------
#NOTEDATA:;
#STEPSTYPE:dance-single;
#DESCRIPTION:forcednature;
#DIFFICULTY:Medium;
#METER:13;
#RADARVALUES:0,0,0,0,0;
#CREDIT:forcednature;
#NOTES:
0000
0000
0000
0000
,
0000
0000
0000
0000
,
0000
0000
0000
0000
,
0000
0000
0000
0000
,
0000
0000
0000
0000
,
1100
0000
1100
0000
0001
0010
0001
0000
,
1000
0010
0100
0001
0000
0001
0010
0000
,
0101
0000
0101
0000
1000
0010
1000
0000
,
0002
0000
0013
0100
2000
0000
3010
0000
,
1001
0000
1000
0100
0001
0100
1000
0000
,
1000
0010
0001
0010
1000
0000
0000
0000
,
0001
0000
0001
0100
1000
0100
0001
0000
,
0001
0000
0010
0000
1000
0000
0010
0000
0001
0000
0000
0010
0000
0000
0100
0000
,
0000
1000
1000
0010
0001
0010
1000
0000
,
1000
0100
0001
0100
1000
0000
0000
0000
,
0001
0000
0001
0010
1000
0010
0001
0000
,
0001
0000
0100
0000
0000
0010
0000
0000
1002
0000
0000
0000
0000
0000
0000
0000
,
0013
0000
0001
0000
0010
0001
0001
0000
,
0220
0000
0000
0330
,
1000
0100
1000
0010
0100
0001
0010
0001
,
0100
0010
1000
0001
0100
0000
1001
0000
,
0001
0100
0001
0010
0100
1000
0010
1000
,
0100
0010
0001
1000
0100
2000
0000
0000
,
3010
0100
0001
0010
0100
1000
0010
0100
,
0001
0010
0001
1000
0010
0000
0110
0000
,
0100
0001
0010
0100
1000
0010
0100
0001
,
0010
0000
0001
0000
1000
0000
0000
0010
0000
0000
0220
0000
0000
0000
0330
0000
,
0100
0000
0000
0100
0001
0000
1000
0000
0010
0000
0100
0000
0001
0000
0000
0000
,
1000
0000
0000
1000
0100
0000
0010
0000
0001
0000
1000
0000
0020
0000
0000
0000
,
0130
0000
0000
0100
0001
0000
0010
0000
0100
0000
1000
0000
0001
0000
0000
0000
,
1000
0000
0000
1000
0010
0000
0100
0000
0001
0000
0020
0000
0000
0000
0000
0000
,
0031
0000
0000
0100
0001
0000
0010
0000
0001
0000
1000
0000
0010
0000
0000
0000
,
0100
0000
0000
0010
0100
0000
0001
0000
1000
0000
0100
0000
0020
0000
0000
0000
,
0031
0000
0000
1000
0010
0000
0100
0000
0001
0000
0010
0000
0001
0000
1000
0000
,
0010
0000
0100
0000
0000
0100
0000
0000
2002
0000
0000
0000
3003
0000
0000
0000
,
1000
0000
0010
0000
1000
0010
0020
0000
,
0130
0001
1000
0001
0010
0001
1000
0001
,
0100
0000
0110
0000
1010
0000
0001
0100
,
0000
0001
1000
1000
0010
0100
0001
0000
,
0010
0011
0110
0001
,
0100
0000
0001
0000
1000
0000
1000
0000
0010
0000
0000
0100
0000
0000
0110
0000
,
0000
0001
0001
0000
0011
0000
0110
0000
,
0100
1000
1000
0001
0100
0001
1000
0000
,
1010
0000
0110
0000
0102
0000
1003
0001
,
0010
0000
0100
0010
0000
0100
0010
0000
0002
0000
0000
0000
2003
0000
0000
0000
,
3020
0000
0000
0030
0200
0000
0000
0300
,
0002
0000
0000
0003
2000
0000
0000
3000
,
0100
0000
0000
0010
0000
0000
0002
0000
0000
0000
0000
0000
0003
0000
0000
0000
0100
0000
0000
0010
0000
0000
2000
0000
0000
0000
0000
0000
3000
0000
0000
0000
,
0001
0000
0000
0010
0000
0000
0200
0000
0000
0000
0000
0300
0000
0000
1000
0000
0010
0000
0000
0100
0000
0000
0002
0000
0000
0000
0000
0000
0003
0000
0000
0000
,
1000
2200
0000
3300
0001
0202
0000
0303
,
0010
0220
0330
0100
1000
2002
0000
3003
,
0011
0022
0000
0033
1010
2020
0000
3030
,
1001
2002
3003
0100
0010
0220
0000
0330
,
2002
0000
0000
3003
,
1000
0100
1000
1000
0001
0100
0001
0001
,
0010
0000
0100
0000
1000
0000
0010
0100
0000
0001
0100
0000
0001
0000
0010
0000
,
0001
0000
1000
0000
0010
0000
1000
0100
0000
0010
0100
0000
1000
0000
0001
0000
,
0100
0000
0010
0000
1000
0000
0001
0010
0000
0100
0010
0000
0001
0000
1000
0000
,
0100
0000
1000
0000
0001
0000
0100
0010
0000
1000
0001
0000
0001
0000
0010
0000
,
0001
0000
0100
0000
0010
0000
1000
0010
0000
1000
0100
0000
0010
0000
0001
0000
,
1000
0000
0010
0000
0100
0000
0001
0010
0000
0100
0010
0000
0001
0000
1000
0000
,
0010
0000
1000
0000
0001
0000
0010
0100
0000
1000
0100
0000
0010
0000
0001
0000
,
0100
0000
0001
0000
0010
0000
0000
0100
0000
0000
1000
0001
1000
0001
1000
0000
,
0001
0000
0000
0001
0100
0000
1000
0000
0100
0000
0001
0000
0011
0000
0000
0000
,
1000
0000
0000
1000
0100
0000
0001
0000
0100
0000
1000
0000
1010
0000
0000
0000
,
0001
0000
0000
0001
0010
0000
1000
0000
0010
0000
0001
0000
0101
0000
0000
0000
,
1000
0000
0000
1000
0010
0000
0001
0000
0010
0000
1000
0000
1100
0000
0000
0000
,
0100
0000
0000
0010
0001
0000
0100
0000
0001
0000
1000
0000
1100
0000
0001
0000
,
0100
0000
0000
0010
1000
0000
0100
0000
1000
0000
0001
0000
0101
0000
1000
0000
,
0010
0000
0000
0100
0001
0000
0010
0000
0001
0000
1000
0000
1010
0000
0001
0000
,
0010
0000
0100
1000
0000
0100
0010
0000
0001
0000
0100
0000
0110
0000
0000
0000
,
2002
0000
0000
0000
0000
0000
0000
3003
;

//--------------- dance-single - forcednature ----------------
#NOTEDATA:;
#STEPSTYPE:dance-single;
#DESCRIPTION:forcednature;
#DIFFICULTY:Hard;
#METER:16;
#RADARVALUES:0,0,0,0,0;
#CREDIT:forcednature;
#NOTES:
0000
0000
0000
0000
,
0000
0000
0000
0000
,
0000
0000
0000
0000
,
0000
0000
0000
0000
,
0000
0000
0000
0000
,
1100
0000
1100
0000
0001
0010
1000
0000
,
0010
0001
0100
0100
0001
1000
0010
0000
,
0101
0000
0101
0000
1000
0010
0001
0000
,
0010
1000
0100
0100
1000
0001
1001
0000
,
1000
0000
0010
0000
0100
0001
0100
0001
1000
0000
0010
0000
0100
0000
0001
1000
,
0010
0000
1000
0000
0001
0100
0001
0100
0010
0000
1000
0000
1000
0000
0000
0000
,
0001
0000
0010
0000
0100
1000
0100
1000
0001
0000
0010
0000
0100
0000
1000
0001
,
0010
0000
0001
0000
1000
0100
1000
0100
0010
0000
0001
0100
0000
0001
0010
0000
,
0000
0000
0001
0000
1000
0010
1000
0010
1000
0000
0001
0000
0100
0000
0001
0010
,
0001
0000
1000
0000
0100
0010
0100
0010
0001
0000
1000
0000
1000
0000
0000
0000
,
0001
0000
0100
0000
0001
0010
0001
0010
0001
0000
1000
0000
0100
0000
1000
0010
,
1000
0000
0100
0010
0000
0001
0010
0000
2002
0000
0000
0000
3003
0000
0000
0000
,
0001
0000
0100
0000
0001
0010
0010
0000
,
2002
0000
0000
3003
,
1000
0000
0100
0000
0010
0001
1000
0001
0010
0000
0100
0000
1000
0000
0001
0010
,
0100
0000
0010
0000
0001
1000
0100
1000
0001
0000
0000
0000
1001
0000
0000
0000
,
0001
0000
0100
0000
0010
1000
0001
1000
0010
0000
0100
0000
0001
0000
1000
0010
,
0100
0000
0010
0000
1000
0001
0100
0001
1000
0000
0010
0100
0010
0100
0010
0000
,
1000
0000
0001
0000
0010
0100
1000
0100
0010
0000
0001
0000
1000
0000
0001
0010
,
0100
0000
1000
0000
0001
0010
0001
1000
0100
0000
0000
0000
1001
0000
0000
0000
,
0001
0000
1000
0000
0010
0100
0001
0100
0010
0000
1000
0000
0001
0000
1000
0010
,
0100
0000
0001
0000
1000
0010
1000
0001
0100
0000
0001
0010
0001
0010
0001
0010
,
0100
0000
0000
1100
0000
0000
1000
0000
0010
0100
0001
0000
0010
0000
0100
0000
,
0110
0000
0000
0011
0000
0000
0001
0000
1000
0010
0100
0000
0001
1000
0100
0010
,
0001
0000
0000
0101
0000
0000
1000
0000
0010
0100
0001
0000
1000
0001
0010
0000
,
0100
0000
0000
1100
0000
0000
1010
0000
0000
0000
0001
0100
0010
1000
0010
0100
,
0001
0000
0000
0011
0000
0000
1100
0000
1000
0001
0010
0000
0100
0000
0010
0000
,
0001
0000
0000
1010
0000
0000
0101
0000
0001
1000
0010
0000
1000
0100
0010
0001
,
1000
0000
0000
1010
0000
0000
0101
0000
0001
1000
0010
0000
1000
0100
0010
0000
,
0001
0000
0010
0001
0000
0100
0001
0000
2002
0000
0000
0000
3003
0000
0000
0000
,
1000
0000
0100
0000
1000
0010
0010
0000
,
1000
0000
0001
0000
0100
0000
0010
0000
1000
0001
1000
0001
0100
0010
0100
0010
,
1000
0000
1100
0000
1000
0001
0011
0000
,
0001
0100
1000
0100
0010
1010
1001
0000
,
0011
0000
0101
0000
0001
1000
1010
0000
,
0010
0000
0100
0000
1000
0000
0100
0000
0001
0000
1000
0010
0000
1000
0001
0100
,
0000
0010
1001
0000
0100
0110
1001
0000
,
1000
0100
0001
0100
1000
1100
0011
0000
,
0101
0000
0000
0000
1010
0000
0000
0000
0010
0000
0110
0000
0100
0000
0001
1000
,
0010
0000
1000
0100
0000
0010
0100
0000
0010
0001
1000
0100
0010
0000
0000
0000
,
0002
0000
0000
0003
0200
0000
0000
0300
,
0020
0000
0000
0030
2000
0000
0000
3000
,
0001
0000
0000
0010
0000
0000
0200
0000
0000
0000
0000
0000
0300
0000
0000
0000
1000
0000
0000
0010
0000
0000
0200
0000
0000
0000
0000
0000
0300
0000
0000
0000
,
0001
0000
0000
1000
0000
0000
0020
0000
0000
0000
0000
0030
0000
0000
1000
0000
0001
0000
0000
0010
0000
0000
0200
0000
0000
0000
0000
0000
0300
0000
0000
0000
,
1000
2020
0000
3030
0001
0022
0000
0033
,
0101
2002
3003
1000
1100
2002
0000
3003
,
0101
2020
0000
3030
1100
0022
0000
0033
,
0110
2002
3003
0010
1001
0220
0000
0330
,
2002
0000
0000
3003
,
1000
0000
0001
0000
0010
0000
0100
0000
1000
0001
1000
0001
0010
0100
0010
0100
,
1000
0000
0001
0000
0100
0001
0100
0010
0000
1000
0010
0100
0010
0000
1000
0000
,
0001
0000
0100
0000
0001
0010
0100
0010
0000
0100
1000
0001
1000
0000
0010
1000
,
0010
0000
0100
0000
0001
0010
0100
1000
0000
0100
0010
0001
1000
0000
0010
0000
,
0100
0000
0001
0000
0010
0100
0010
0001
0000
1000
0010
0100
0010
1000
0010
0000
,
0100
0000
0001
0000
1000
0100
0010
0100
0000
1000
0001
0010
0001
0000
1000
0000
,
0010
0000
0100
0000
0001
0010
0100
0010
0000
0100
1000
0001
1000
0000
0010
0100
,
0001
0000
1000
0000
0100
0010
0001
1000
0000
0010
0100
0001
1000
0000
0100
0000
,
0010
0000
0001
0000
1000
0010
0100
0010
0000
1000
0001
0010
0001
0010
0001
0010
,
0100
0000
1000
0001
0000
0100
0001
0000
0010
0100
1000
0100
0010
0000
0001
0000
,
0100
0000
0001
1000
0000
0100
1000
0000
0010
0100
0001
0100
0010
0000
1000
0001
,
0010
0000
0100
1000
0000
0001
0100
0000
0010
1000
0001
0010
0100
0000
1000
0000
,
0010
0000
0100
1000
0000
0100
0001
0000
1000
0010
0100
0010
1000
0001
0100
0000
,
0001
0000
0010
0100
0000
1000
0010
0000
0100
0001
1000
0001
0010
0000
0100
0000
,
1000
0000
0010
0100
0000
0001
0010
0000
0100
1000
0001
1000
0010
0000
0100
0001
,
1000
0000
0100
0010
0000
0001
0100
0000
0010
1000
0001
1000
0100
0000
1000
0000
,
0010
0000
1000
0100
0000
0001
0100
0000
1000
0001
0010
0001
1000
0100
1000
0001
,
0020
0000
0000
0000
0000
0000
0000
0030
;

//--------------- dance-single - forcednature ----------------
#NOTEDATA:;
#STEPSTYPE:dance-single;
#DESCRIPTION:forcednature;
#DIFFICULTY:Challenge;
#METER:17;
#RADARVALUES:0,0,0,0,0;
#CREDIT:forcednature;
#NOTES:
0000
0000
0000
0000
,
0000
0000
0000
0000
,
0000
0000
0000
0000
,
0000
0000
0000
0000
,
0000
0000
0000
0000
,
1100
0000
1100
0000
1000
0001
0011
0000
,
0001
0100
0100
0001
1000
0010
0110
0000
,
0101
0000
0101
0000
0001
1000
1010
0000
,
1000
0000
0100
0000
0100
0000
1000
0000
0001
0010
0001
0010
0001
0000
0000
0000
,
1000
0000
0001
0000
0100
0010
1000
0010
0100
0000
0001
0000
0010
0000
0001
1000
,
0100
0000
0010
0000
0100
1000
0001
1000
0010
0000
0100
0000
0100
0000
0000
0000
,
0001
0000
1000
0000
0100
0010
0001
0010
0100
0000
1000
0000
0010
0000
1000
0001
,
0100
0000
0010
0000
0100
0001
1000
0001
0010
0000
0100
1000
0000
0100
0001
0000
,
0000
0000
0100
0000
1000
0001
0010
0001
1000
0000
0100
0000
1000
0000
0001
1000
,
0010
0000
0100
0000
0001
1000
0010
1000
0001
0000
0010
0000
0010
0000
0000
0000
,
0001
0000
0100
0000
0010
1000
0001
1000
0010
0000
0100
0000
0001
0000
1000
0100
,
0010
0000
0001
0100
0000
1000
0100
0000
0002
0000
0000
0000
0000
0000
0000
0000
,
1003
0000
1010
0000
0001
0010
0110
0000
,
0001
0100
0001
0100
0010
1000
0010
1000
0001
0010
0100
1000
0100
0010
0001
1000
,
0001
0000
0100
0000
0010
1000
0001
0100
1000
0000
0100
0000
0001
0000
1000
0010
,
0100
0000
0001
0000
0010
0001
1000
0100
0001
0000
0000
0000
1100
0000
0000
0000
,
0001
0000
0010
0000
0001
1000
0001
0100
1000
0000
0100
0000
0001
0000
0010
0001
,
1000
0000
0100
0000
1000
0001
1000
0100
0001
0000
0100
1000
0010
1000
0100
0000
,
1000
0000
0001
0000
0010
0001
1000
0100
0001
0000
0100
0000
1000
0000
0001
0010
,
0100
0000
1000
0000
0010
1000
0001
0100
1000
0000
0000
0000
0101
0000
0000
0000
,
1000
0000
0010
0000
1000
0001
1000
0100
0001
0000
0100
0000
1000
0000
0010
1000
,
0001
0000
0100
0000
0001
1000
0001
0100
0000
1000
0100
0010
0100
0001
1000
0010
,
2000
0000
3100
0020
0000
0031
0100
0000
0010
1000
0001
0000
0011
0000
0010
0000
,
0002
0000
0103
0020
0000
1030
0100
0000
0010
0001
1000
0000
0010
0100
0001
1000
,
0020
0000
0130
0002
0000
0013
0100
0000
1000
0001
0010
0000
0010
0001
0100
0000
,
0020
0000
1030
0200
0000
1300
0010
0000
1000
0001
0010
0100
1000
0100
0010
0001
,
2000
0000
3010
0200
0000
0301
0010
0000
0100
1000
0001
0000
0101
0000
0100
0000
,
0020
0000
1030
0002
0000
0013
0100
0000
1000
0001
0100
0000
0001
0010
0100
1000
,
0002
0000
0103
0020
0000
1030
0100
0000
0010
0001
1000
0000
1000
0010
0100
0000
,
0002
0000
1003
0200
0000
0301
0100
0000
0220
0000
0000
0000
0330
0000
0000
0000
,
0001
0000
0011
0000
1000
0010
0110
0000
,
1000
0010
0100
0010
1000
0001
0100
0001
1000
0100
0010
0001
1000
0010
0100
0001
,
1000
0000
1000
0000
0100
0010
0001
0000
0100
0000
0110
0000
1010
0000
0000
0000
,
0001
0000
0011
0000
0010
0100
1000
0000
0010
0000
1010
0000
0110
0000
0000
0000
,
1000
0000
0001
0000
0010
0100
1000
0000
0010
0000
0110
0000
0101
0000
0000
0000
,
0001
0000
0011
0000
0110
0000
1100
0000
1000
0000
0010
1000
0000
0001
0100
1000
,
0000
0000
1100
0000
0110
0000
0000
0010
1000
0000
1001
0000
0101
0000
0000
0000
,
0001
0000
0011
0000
0110
0000
0011
0000
0001
0000
0100
0010
1000
0000
0010
0000
,
0110
0000
0100
0001
0010
0000
0100
1000
0010
0000
1010
0000
0110
0000
0100
0001
,
1000
0000
0100
0010
0001
0100
0001
0010
0100
1000
0010
0100
0001
0010
0001
0100
,
0010
0000
0000
1000
0000
0000
0002
0000
0000
0000
0000
0000
0000
0000
0003
0000
0010
0000
0000
0100
0000
0000
2000
0000
0000
0000
0000
0000
0000
0000
3000
0000
,
0001
0000
0000
0100
0000
0000
0020
0000
0000
0000
0000
0000
0030
0000
1000
0000
0001
0000
0000
0010
0000
0000
0200
0000
0000
0000
0000
0000
0000
0000
0300
0000
,
1000
0000
0000
0010
0000
0000
0200
0000
0000
0000
0000
0000
0000
0000
0300
0000
0001
0000
0000
0010
0000
0000
0200
0000
0000
0000
0000
0000
0000
0000
0300
0000
,
1000
0000
0000
0010
0000
0000
0002
0000
0000
0000
0000
0000
0003
0000
0010
0000
1000
0000
0000
0001
0000
0000
0200
0000
0000
0000
0000
0000
0000
0000
0300
0000
,
0110
0000
2020
0000
0000
0000
0000
3030
1100
0000
0022
0000
0000
0000
0000
0033
,
0101
0000
2200
0000
0000
3300
1010
0000
1100
0000
0022
0000
0000
0000
0000
0033
,
0101
0100
2020
0000
0000
0000
0000
3030
1100
0100
0022
0000
0000
0000
0000
0033
,
1001
0100
0220
0000
0000
0330
1001
0000
0110
0010
2002
0000
0000
0000
0000
3003
,
0110
0220
0330
1001
,
1000
0100
1000
0100
0010
0001
0010
0001
1000
0010
0100
0010
1000
0001
0100
0001
,
1000
0000
0100
0010
0001
0100
0010
1000
0000
0001
0010
0100
0010
0001
1000
0010
,
0100
0000
0001
1000
0100
1000
0001
0100
0000
0010
1000
0100
1000
0001
0100
0010
,
1000
0000
0001
0010
0100
1000
0010
0100
0000
0001
0010
0001
1000
0010
1000
0100
,
0010
0000
0001
1000
0010
0100
0001
1000
0100
0000
0010
0001
0100
0001
0010
0000
,
0100
0000
1000
0010
0100
0010
1000
0001
0000
0100
0010
1000
0001
0010
0001
0100
,
0010
0000
1000
0001
0010
0001
1000
0100
0000
1000
0010
0100
0001
0010
0001
0100
,
0010
0000
1000
0100
0010
0001
0100
0010
0000
1000
0100
1000
0010
0100
0001
0010
,
0001
0000
0100
0010
1000
0001
0010
0100
0000
1000
0001
0100
0010
0100
1000
0100
,
0002
0000
1003
0020
0000
0031
0010
0100
0010
1000
0001
0100
0001
1000
0010
1000
,
0002
0000
0013
2000
0000
3010
0001
1000
0100
1000
0010
0100
0001
0010
0100
1000
,
0002
0000
0103
2000
0000
3100
0001
1000
0010
0100
0001
0010
0100
0010
0001
1000
,
0020
0000
0130
0002
0000
1003
0200
0000
0310
0001
0100
0001
0010
0100
1000
0010
,
0200
0000
0301
0020
0000
1030
0010
0100
0010
0001
1000
0010
0100
0001
0010
0100
,
2000
0000
3010
0002
0000
0013
0100
0001
1000
0100
0010
0001
0100
0010
1000
0001
,
0020
0000
0130
2000
0000
3100
0001
0100
1000
0001
0010
0001
1000
0010
0100
0001
,
2000
0000
3100
0001
0100
1000
0002
0000
1003
0010
0100
0010
0001
0010
1000
0001
,
0200
0000
0010
0000
0000
0000
0000
0300
;

//--------------- dance-double - forcednature ----------------
#NOTEDATA:;
#STEPSTYPE:dance-double;
#DESCRIPTION:forcednature;
#DIFFICULTY:Easy;
#METER:9;
#RADARVALUES:0,0,0,0,0;
#CREDIT:forcednature;
#NOTES:
00000000
00000000
00000000
00000000
,
00000000
00000000
00000000
00000000
,
00000000
00000000
00000000
00000000
,
00000000
00000000
00000000
00000000
,
00000000
00000000
00000000
00000000
,
00001000
00010000
00000100
00001000
,
00000000
00000001
00000010
00000001
,
00001000
00000100
00010000
00001000
,
00000000
01000000
00010000
10000000
,
10010000
00010000
00100000
01000000
,
00010000
00001000
00100000
00000000
,
00001000
00010000
00000010
00001000
,
00000001
00000000
00000100
00000000
00000001
00000000
00001000
00001000
,
00000000
00000100
00010000
00001000
,
01000000
00010000
00100000
00000000
,
01000000
10000000
00100000
10000000
,
01000000
00010000
00001000
00000000
,
00010000
00000000
00000100
00000000
00000000
00001000
00000100
00000000
,
00000020
00000000
00000000
00000030
,
00000001
00000100
00000001
00000010
,
00000100
00000010
00000100
00000000
00001000
00000000
00000000
00000000
,
00000100
00010000
00001000
01000000
,
00010000
01000000
00010000
00000000
10000000
00000000
10000000
00000000
,
00100000
01000000
00100000
10000000
,
00010000
01000000
00010000
00000000
00100000
00000000
00000000
00000000
,
00001000
00010000
00000100
00001000
,
00000100
00000010
00000100
00000000
00000220
00000000
00000330
00000000
,
00000001
00000010
00000001
00001000
,
00000100
00000000
00010000
00000000
00001000
00000000
01000000
00010000
,
01000000
00001000
00010000
00001000
,
00100000
00000000
00010000
00000000
10000000
00000000
01000000
00100000
,
01000000
10000000
00010000
01000000
,
00001000
00000000
00010000
00000000
00000100
00000000
00001000
00000001
,
00001000
00000100
00000010
00000001
,
00001000
00000010
00010000
00000000
,
00001000
00000000
00010000
00000000
00000000
00001000
00010000
00000000
,
00200000
00000000
00000000
00300000
,
01100000
01100000
01000000
00010000
,
10000000
00100000
10000000
00000000
01000000
00000000
00010000
00000000
,
00011000
00011000
00001000
00100000
,
00010000
00100000
00010000
00000000
01000000
00000000
01000000
00000000
,
00000000
00001000
00010000
00000100
,
00001000
00000100
00001000
00000000
00000001
00000000
00000100
00000000
,
00000010
00001000
00000001
00000010
,
00000110
00000110
00001001
00000000
,
00002000
00000000
00000000
00003000
00000200
00000000
00000000
00000300
,
00020000
00000000
00000000
00030000
00002000
00000000
00000000
00003000
,
02000000
00000000
00000000
03000000
00020000
00000000
00000000
00030000
,
20000000
00000000
00000000
30000000
02000000
00000000
00000000
03000000
,
00100000
00020000
00030000
00000000
00100000
00002000
00003000
00000000
,
00010000
00000200
00000300
00000000
00001000
00000002
00000003
00000000
,
00000001
00000200
00000300
00000000
00000010
00020000
00030000
00000000
,
00001000
02000000
03000000
00000000
00010000
20000000
30000000
00000000
,
00200000
00000000
00000000
00000000
,
02000000
00000000
00000000
03300000
,
10000000
00010000
10000000
00000000
01000000
00000000
00100000
00000000
,
00010000
01000000
00001000
00010000
,
00000100
00001000
00000100
00000000
00000010
00000000
00000001
00000000
,
00001000
00000010
00010000
00001000
,
00100000
00010000
00100000
00000000
00001000
00000000
00010000
00000000
,
00000100
00001000
00000001
00000100
,
00000010
00001000
00000010
00000000
00010000
00000000
00001000
00000000
,
01000000
00000000
00010000
00000000
00100000
00100000
00100000
00000000
,
01000000
10000000
00010000
00100000
,
01100000
10010000
00010000
01000000
,
00001000
00010000
00000100
00001000
,
00001001
00000110
00000001
00001000
,
00000010
00010000
00001000
01000000
,
10010000
01100000
10000000
00010000
,
00100000
00001000
00010000
00000100
,
00001001
00000000
00000110
00000000
00000001
00001000
00000001
00000000
,
00000220
00000000
00000000
00000000
00000000
00000000
00000000
00000330
;

//--------------- dance-double - forcednature ----------------
#NOTEDATA:;
#STEPSTYPE:dance-double;
#DESCRIPTION:forcednature;
#DIFFICULTY:Medium;
#METER:13;
#RADARVALUES:0,0,0,0,0;
#CREDIT:forcednature;
#NOTES:
00000000
00000000
00000000
00000000
,
00000000
00000000
00000000
00000000
,
00000000
00000000
00000000
00000000
,
00000000
00000000
00000000
00000000
,
00000000
00000000
00000000
00000000
,
00001000
00000000
00010000
00000000
00001000
00000010
00000001
00000000
,
00001000
00000100
00010000
00010000
00000100
00001000
00000010
00000000
,
00010000
00000000
00001000
00000000
00010000
00100000
10000000
00000000
,
00010000
01000000
00001000
00001000
01000000
00010000
00100000
00000000
,
01000000
10000000
01000000
00010000
00001000
00100000
00010000
00100000
,
00001000
00010000
00000010
00001000
00000001
00000100
00000100
00000000
,
00000010
00001000
00000001
00000100
00001000
00010000
00001000
00100000
,
00010000
00000000
01000000
00000000
00010000
00000000
00100000
00000000
01000000
00000000
00000000
00010000
00000000
00000000
00001000
00000000
,
00000000
00000010
00000010
00001000
00010000
00000100
00001000
00000001
,
00000010
00000001
00000100
00001000
00010000
00001000
00001000
00000000
,
01000000
00010000
00100000
01000000
00010000
00001000
00000010
00000100
,
00000100
00000000
00001000
00000000
00000000
00000001
00000000
00000000
00000021
00000000
00000000
00000000
00000000
00000000
00000000
00000000
,
00000031
00000000
00000100
00000000
00001000
00010000
00100000
00000000
,
02200000
00000000
00000000
03300000
,
01000000
00010000
00100000
00010000
10000000
01000000
00010000
00001000
,
00100000
01000000
00010000
00001000
00000010
00000000
00000110
00000000
,
00000100
00001000
00000010
00001000
00000001
00000100
00001000
00010000
,
00000010
00000100
00001000
00010000
00100000
01000000
01000000
00100000
,
10000000
01000000
00010000
01000000
00100000
00001000
00010000
00100000
,
10000000
01000000
00010000
00001000
00000010
00000000
00001001
00000000
,
00000001
00000100
00001000
00000100
00000010
00010000
00001000
00000010
,
00000001
00000100
00001000
00010000
00100000
01000000
01000000
00100000
,
10000000
00000000
00000000
00010000
00000000
00000000
01000000
00000000
00001000
00000000
00010000
00000000
00001000
00000000
00100000
00000000
,
00010000
00000000
00000000
01000000
00000000
00000000
00001000
00000000
00010000
00000000
00000100
00000000
00001000
00000000
00000010
00000000
,
00000100
00000000
00000000
00000001
00000000
00000000
00001000
00000000
00000100
00000000
00000010
00000000
00000001
00000000
00000100
00000000
,
00000010
00000000
00000000
00010000
00000000
00000000
00001000
00000000
00100000
00000000
00010000
00000000
01000000
00000000
10000000
00000000
,
01000000
00000000
00000000
00010000
00000000
00000000
10000000
00000000
01000000
00000000
00100000
00000000
00001000
00000000
00010000
00000000
,
00000100
00000000
00000000
00001000
00000000
00000000
00000010
00000000
00010000
00000000
00001000
00000000
00000010
00000000
00000001
00000000
,
00000100
00000000
00000000
00000010
00000000
00000000
00001000
00000000
00000001
00000000
00000100
00000000
00001000
00000000
00010000
00000000
,
00000010
00000000
00001000
00000000
00000000
00001000
00000000
00000000
00000202
00000000
00000000
00000000
00000303
00000000
00000000
00000000
,
00000001
00000000
00000010
00000000
00001000
00010000
00001000
00000000
,
02000000
00001000
00010000
03100000
,
01000000
00010000
00100000
00000000
01000000
00100000
00001000
00000000
,
00010000
00000100
00001000
00000010
00010000
00001000
00000010
00000000
,
00000001
00000100
00001000
00000000
00000100
00000001
00000010
00000000
,
00000001
00000000
00000100
00000000
00001000
00000000
00010000
00000000
00000010
00000000
00000000
00001000
00000000
00000000
00001010
00000000
,
00000000
00010000
00001000
00000000
00100000
00010000
01000000
00000000
,
00100000
10000000
01000000
00010000
00001000
00010000
01000000
00000000
,
10000000
00010000
00100000
00000000
00001000
00010000
00000100
00001000
,
00001000
00000000
00000001
00000000
00000000
00000001
00000000
00000000
00002200
00000000
00000000
00000000
00003300
00000000
00000000
00000000
,
00020000
00000000
00000000
00030000
00002000
00000000
00000000
00003000
,
02000000
00000000
00000000
03000000
00020000
00000000
00000000
00030000
,
10000000
00000000
00000000
01000000
00000000
00000000
00200000
00000000
00000000
00000000
00000000
00000000
00300000
00000000
00000000
00000000
00010000
00000000
00000000
01000000
00000000
00000000
00002000
00000000
00000000
00000000
00000000
00000000
00003000
00000000
00000000
00000000
,
00010000
00000000
00000000
00000100
00000000
00000000
00002000
00000000
00000000
00000000
00000000
00003000
00000000
00000000
00000001
00000000
00000100
00000000
00000000
00000010
00000000
00000000
00002000
00000000
00000000
00000000
00000000
00000000
00003000
00000000
00000000
00000000
,
00000001
00000200
00000000
00000300
00000010
00002000
00000000
00003000
,
00010000
02000000
03000000
00010000
10000000
00200000
00000000
00300000
,
10000000
22000000
00000000
33000000
00010000
00220000
00000000
00330000
,
00001000
00022000
00033000
00010000
00000010
00002020
00000000
00003030
,
00002002
00000000
00000000
00003003
,
00000001
00000100
00000010
00001000
00000001
00000100
00001000
00010000
,
00000010
00001000
00000100
00000010
00000001
00000100
00001000
00010000
,
01000000
10000000
00100000
01000000
00010000
00100000
01000000
00010000
,
00001000
00000010
00000100
00010000
00001000
00000010
00000001
00000100
,
00001000
00000100
00000001
00000010
00001000
00010000
01000000
00000000
,
00100000
00001000
00010000
00100000
01000000
00010000
10000000
01000000
,
00010000
00001000
00100000
01000000
00010000
00001000
00000010
00000100
,
00010000
00001000
00000010
00000001
00000100
00001000
00000100
00000001
,
00000010
00000000
00001000
00000000
00010000
00000000
00000000
00000000
00022000
00000000
00000000
00000000
00000000
00033000
00000000
00000000
,
00010000
00100000
10000000
01000000
00010000
01000000
10000000
00100000
,
00010000
00001000
00000010
00000100
00010000
00001000
00000010
00000000
,
00000001
00000100
00001000
00000100
00000001
00000010
00001000
00000010
,
00000001
00000100
00001000
00010000
00100000
10000000
00010000
00000000
,
01000000
00010000
00100000
01000000
00010000
00001000
00100000
00010000
,
00100000
01000000
00010000
00000100
00001000
00000001
00000010
00000000
,
00000001
00000100
00001000
00000100
00000001
00000010
00001000
00010000
,
01000000
00100000
00001000
00010000
00100000
10000000
01000000
00000000
,
20020000
00000000
00000000
00000000
00000000
00000000
00000000
30030000
;

//--------------- dance-double - forcednature ----------------
#NOTEDATA:;
#STEPSTYPE:dance-double;
#DESCRIPTION:forcednature;
#DIFFICULTY:Hard;
#METER:16;
#RADARVALUES:0,0,0,0,0;
#CREDIT:forcednature;
#NOTES:
00000000
00000000
00000000
00000000
,
00000000
00000000
00000000
00000000
,
00000000
00000000
00000000
00000000
,
00000000
00000000
00000000
00000000
,
00000000
00000000
00000000
00000000
,
00011000
00000000
00011000
00000000
00001000
00000010
00000001
00000000
,
00000100
00001000
00000100
00000001
00000010
00001000
00010000
00000000
,
00011000
00000000
00011000
00000000
00010000
00100000
10000000
00000000
,
01000000
00010000
01000000
10000000
00100000
00010000
00001000
00000000
,
00000010
00000000
00000100
00000000
00001000
00000100
00010000
00001000
00010000
00000000
00001000
00000000
00001000
00000000
00100000
00010000
,
00100000
00000000
01000000
00000000
10000000
00010000
00100000
00010000
10000000
00000000
00000000
00000000
00000000
00000000
00000000
00000000
,
00100000
00000000
01000000
00000000
00010000
01000000
00001000
00010000
00001000
00000000
00010000
00000000
00010000
00000000
00000010
00001000
,
00000010
00000000
00000100
00000000
00000001
00001000
00000010
00001000
00000001
00000000
00000010
00000100
00000000
00001000
00000010
00000000
,
00000000
00000000
00000010
00000000
00001000
00000010
00010000
00001000
00010000
00000000
00001000
00000000
00001000
00000000
01000000
00010000
,
01000000
00000000
00100000
00000000
10000000
00010000
01000000
00010000
10000000
00000000
00000000
00000000
00000000
00000000
00000000
00000000
,
01000000
00000000
00100000
00000000
00010000
00100000
00001000
00010000
00001000
00000000
00010000
00000000
00010000
00000000
00000100
00001000
,
00000100
00000000
00000010
00000001
00000000
00000100
00000001
00000000
00000022
00000000
00000000
00000000
00000033
00000000
00000000
00000000
,
00000001
00000000
00000100
00000000
00001000
00010000
00100000
00000000
,
20020000
00000000
00000000
30030000
,
10000000
00000000
01000000
00000000
00100000
00010000
00100000
00001000
00010000
00000000
00000100
00000000
00001000
00000000
00000001
00000010
,
00000001
00000000
00000010
00000000
00000100
00001000
00000100
00010000
00001000
00000000
00000010
00000000
00000001
00000000
00000000
00000000
,
00000001
00000000
00000100
00000000
00000010
00001000
00000010
00010000
00001000
00000000
01000000
00000000
00010000
00000000
10000000
00100000
,
10000000
00000000
00100000
00000000
01000000
00010000
01000000
00001000
00010000
00000000
00001000
00010000
00001000
01000000
00010000
00000000
,
10000000
00000000
00100000
00000000
01000000
00010000
01000000
00001000
00010000
00000000
00000010
00000000
00001000
00000000
00000001
00000100
,
00000001
00000000
00000100
00000000
00000010
00001000
00000010
00010000
00001000
00000000
00000100
00000000
00000001
00000000
00000000
00000000
,
00000001
00000000
00000010
00000000
00000100
00001000
00000100
00010000
00001000
00000000
00100000
00000000
00010000
00000000
10000000
01000000
,
10000000
00000000
01000000
00000000
00100000
00010000
00100000
00001000
00010000
00000000
00000010
00001000
00000010
00001000
00000010
00001000
,
00000001
00000000
00000000
00000001
00000100
00000000
00001000
00000000
00010000
00000000
01000000
00000000
10000000
00000000
00100000
00000000
,
10000000
00000000
00000000
10000000
01000000
00000000
00010000
00000000
00001000
00000000
00000100
00000000
00000001
00001000
00000010
00000100
,
00000001
00000000
00000000
00000001
00000100
00000000
00001000
00000000
00010000
00000000
00100000
00000000
10000000
00010000
01000000
00000000
,
00100000
00000000
00000000
10000000
01000000
00000000
11000000
00000000
00000000
00000000
10000000
00100000
10000000
00010000
01000000
00010000
,
10000000
00000000
00000000
10000000
01000000
00000000
00010000
00000000
00001000
00000000
00000100
00000000
00000001
00000000
00000010
00000000
,
00000001
00000000
00000000
00000001
00000100
00000000
00001000
00000000
00010000
00000000
01000000
00000000
10000000
00010000
00100000
01000000
,
10000000
00000000
00000000
10000000
01000000
00000000
00010000
00000000
00001000
00000000
00000010
00000000
00000001
00001000
00000100
00000000
,
00000010
00000000
00000001
00000100
00000000
00000010
00000100
00000010
00002000
00000000
00000000
00000000
00003000
00000000
00000000
00000000
,
00000001
00000000
00000100
00000000
00001000
00010000
00100000
00000000
,
10000000
00000000
01000000
00000000
00100000
00000000
00010000
00000000
00100000
00010000
00100000
00001000
00010000
00000100
00001000
00000100
,
00010000
00000000
00011000
00000000
00001000
00000010
00000001
00000000
,
00000010
00000001
00001000
00000010
00000100
00001000
01000000
00000000
,
00010000
00000000
10010000
00000000
10000000
01000000
00010000
00000000
,
00001000
00000000
00010000
00000000
00001000
00000000
00000010
00000000
00000001
00000000
00001000
00000100
00000000
00001000
00000001
00000100
,
00000000
00001000
00001000
00000000
00010000
00100000
10000000
00000000
,
00100000
10000000
00010000
00100000
01000000
00010000
00000100
00000000
,
00001000
00000000
00000000
00000000
00001001
00000000
00000000
00000000
00000001
00000000
00000100
00000000
00001000
00000000
00010000
00001000
,
00010000
00000000
00001000
00010000
00000000
00001000
00010000
00001000
01000000
00010000
01000000
00001000
00010000
00000010
00001000
00000010
,
00020000
00000000
00000000
00030000
00002000
00000000
00000000
00003000
,
00000020
00000000
00000000
00000030
00000002
00000000
00000000
00000003
,
00000100
00000000
00000000
00000001
00000000
00000000
00000200
00000000
00000000
00000000
00000000
00000000
00000300
00000000
00000000
00000000
00000010
00000000
00000000
00001000
00000000
00000000
00000020
00000000
00000000
00000000
00000000
00000000
00000030
00000000
00000000
00000000
,
00010000
00000000
00000000
00001000
00000000
00000000
00200000
00000000
00000000
00000000
00000000
00300000
00000000
00000000
00001000
00000000
01000000
00000000
00000000
00010000
00000000
00000000
20000000
00000000
00000000
00000000
00000000
00000000
30000000
00000000
00000000
00000000
,
01000000
20020000
00000000
30030000
00100000
02200000
00000000
03300000
,
00010000
00022000
00033000
00001000
00000010
00000220
00000000
00000330
,
00000100
00002002
00000000
00003003
00000010
00000220
00000000
00000330
,
00001000
00022000
00033000
00010000
00100000
02200000
00000000
03300000
,
20020000
00000000
00000000
30030000
,
10000000
00000000
01000000
00000000
00010000
00000000
00001000
00000000
00100000
00010000
00100000
00001000
00010000
00000100
00001000
00000100
,
00010000
00000000
00001000
00000000
00010000
00001000
00010000
00000010
00000000
00001000
00000010
00000100
00000010
00000000
00001000
00000000
,
00000001
00000000
00000010
00000000
00000100
00000010
00000100
00001000
00000000
00000100
00010000
00001000
00010000
00000000
00001000
00010000
,
00001000
00000000
01000000
00000000
00010000
01000000
00100000
01000000
00000000
00100000
10000000
00010000
10000000
00000000
01000000
00000000
,
00010000
00000000
00001000
00000000
00100000
00010000
00100000
00001000
00000000
00010000
00001000
00010000
00000100
00001000
00000100
00000000
,
00010000
00000000
00001000
00000000
01000000
00010000
01000000
00100000
00000000
10000000
00010000
01000000
00010000
00000000
01000000
00000000
,
00001000
00000000
00010000
00000000
00000100
00001000
00000100
00000010
00000000
00000100
00001000
00000001
00001000
00000000
00000100
00001000
,
00000100
00000000
00010000
00000000
00001000
01000000
00010000
01000000
00000000
00100000
10000000
00010000
10000000
00000000
01000000
00000000
,
00010000
00000000
00001000
00000000
00100000
00010000
00100000
00001000
00000000
00010000
00001000
00010000
00001000
00010000
00001000
00010000
,
00000100
00000000
00001000
00000100
00000000
00000010
00000100
00000000
00000010
00000001
00001000
00000001
00000010
00000000
00000100
00000000
,
00001000
00000000
00000010
00001000
00000000
00000010
00010000
00000000
00001000
00010000
00001000
01000000
00010000
00000000
01000000
00100000
,
10000000
00000000
01000000
10000000
00000000
01000000
00100000
00000000
00010000
00100000
00001000
00010000
00001000
00000000
00010000
00000000
,
00000100
00000000
00001000
00000001
00000000
00000010
00000001
00000000
00001000
00000010
00000100
00000010
00000100
00000001
00001000
00000000
,
00000100
00000000
00001000
00000100
00000000
00010000
00001000
00000000
00100000
00010000
00100000
00001000
00010000
00000000
00000010
00000000
,
00001000
00000000
00000010
00000100
00000000
00000010
00001000
00000000
00000100
00001000
00000100
00010000
00001000
00000000
00100000
00010000
,
00100000
00000000
00001000
00010000
00000000
00001000
01000000
00000000
00010000
10000000
00100000
10000000
00010000
00000000
01000000
00000000
,
00001000
00000000
00010000
00001000
00010000
00000100
00001000
00000000
00000001
00000100
00000001
00000100
00000010
00001000
00000010
00001000
,
00000002
00000000
00000000
00000000
00000000
00000000
00000000
00000003
;

//--------------- dance-double - forcednature ----------------
#NOTEDATA:;
#STEPSTYPE:dance-double;
#DESCRIPTION:forcednature;
#DIFFICULTY:Challenge;
#METER:17;
#RADARVALUES:0,0,0,0,0;
#CREDIT:forcednature;
#NOTES:
00000000
00000000
00000000
00000000
,
00000000
00000000
00000000
00000000
,
00000000
00000000
00000000
00000000
,
00000000
00000000
00000000
00000000
,
00000000
00000000
00000000
00000000
,
00011000
00000000
00011000
00000000
00010000
00100000
10000000
00000000
,
01000000
00010000
00001000
00010000
01000000
00100000
00001000
00000000
,
00011000
00000000
00011000
00000000
00001000
00000010
00000001
00000000
,
00000100
00001000
00010000
00001000
00000100
00000010
00010000
00000000
,
00001000
00000000
00100000
00000000
00010000
10000000
01000000
10000000
00010000
00000000
00100000
00000000
00001000
00000000
00010000
00100000
,
10000000
00000000
01000000
00000000
10000000
00010000
00100000
01000000
00010000
00000000
00001000
00000000
00001000
00000000
00000000
00000000
,
00010000
00000000
00000010
00000000
00001000
00000001
00000100
00000001
00001000
00000000
00000010
00000000
00010000
00000000
00001000
00000010
,
00000001
00000000
00000100
00000000
00000001
00001000
00000010
00000100
00001000
00000000
00010000
00001000
00000000
00010000
00100000
00000000
,
00000000
00000000
01000000
00000000
00010000
10000000
00100000
10000000
00010000
00000000
01000000
00000000
00001000
00000000
00010000
01000000
,
10000000
00000000
00100000
00000000
10000000
00010000
01000000
00100000
00010000
00000000
00001000
00000000
00101000
00000000
00000000
00000000
,
00010000
00000000
00000100
00000000
00001000
00000001
00000010
00000001
00001000
00000000
00000100
00000000
00010000
00000000
00001000
00000100
,
00000001
00000000
00000010
00000001
00000000
00000100
00000001
00000000
00000020
00000000
00000000
00000000
00000030
00000000
00000000
00000000
,
00000100
00000000
00001001
00000000
00000001
00000100
00001000
00000000
,
00010000
00001000
00010000
00001000
01000000
00010000
01000000
00001000
00010000
00001000
00100000
00010000
00100000
01000000
10000000
00010000
,
10000000
00000000
01000000
00000000
10000000
00010000
00100000
00001000
00010000
00000000
00100000
00000000
10000000
00000000
01000000
00010000
,
00001000
00000000
00010000
00000000
00001000
00000010
00000001
00001000
00000100
00000000
00000000
00000000
00000110
00000000
00000000
00000000
,
00000001
00000000
00000100
00000000
00000001
00001000
00000010
00010000
00001000
00000000
00000010
00000000
00000001
00000000
00000100
00001000
,
00010000
00000000
00001000
00000000
00010000
00100000
10000000
00010000
01000000
00000000
00100000
10000000
01000000
10000000
00100000
00000000
,
10000000
00000000
00100000
00000000
01000000
00010000
01000000
00001000
00010000
00000000
01000000
00000000
10000000
00000000
00100000
00010000
,
00001000
00000000
00010000
00000000
00001000
00000100
00000001
00001000
00000010
00000000
00000000
00000000
00000110
00000000
00000000
00000000
,
00000001
00000000
00000010
00000000
00000100
00001000
00000100
00010000
00001000
00000000
00000100
00000000
00000001
00000000
00000010
00001000
,
00010000
00000000
00001000
00000000
00010000
01000000
10000000
00010000
00000000
00100000
00001000
00010000
00001000
01000000
00010000
01000000
,
00002000
00000000
00013000
00000200
00000000
00001300
00000010
00000000
00000100
00000001
00000010
00000000
00000110
00000000
00000100
00000000
,
00020000
00000000
00031000
02000000
00000000
03010000
00100000
00000000
01000000
10000000
00100000
00000000
10000000
01000000
00010000
00001000
,
00020000
00000000
00031000
00200000
00000000
00310000
01000000
00000000
00100000
10000000
01000000
00000000
00100000
00010000
01000000
00000000
,
00002000
00000000
00013000
00000020
00000000
00001030
00000100
00000000
00000010
00000001
00000100
00000010
00001000
00000100
00010000
00001000
,
00200000
00000000
01300000
20000000
00000000
30010000
01000000
00000000
00100000
00010000
00001000
00000000
00011000
00000000
00010000
00000000
,
00000020
00000000
00000130
00000002
00000000
00001003
00000100
00000000
00000010
00001000
00010000
00000000
00001000
01000000
00001000
00010000
,
00000200
00000000
00000310
00000002
00000000
00001003
00000010
00000000
00000100
00001000
00010000
00000000
00001000
00010000
00100000
00000000
,
02000000
00000000
03010000
20000000
00000000
31000000
00010000
00000000
00022000
00000000
00000000
00000000
00033000
00000000
00000000
00000000
,
00001000
00000000
00000010
00000000
00000001
00000100
00001000
00000000
,
01000000
00010000
10000000
00100000
10000000
00010000
01000000
00010000
00100000
00001000
00010000
00000100
00001000
00000100
00010000
00001000
,
00100000
00000000
00010000
00000000
10000000
01000000
00010000
00000000
00001000
00000000
00101000
00000000
00110000
00000000
00000000
00000000
,
00001000
00000000
00010000
00000000
00000010
00001000
00000001
00000000
00000100
00000000
00001100
00000000
00011000
00000000
00000000
00000000
,
00000100
00000000
00001000
00000000
00000001
00000100
00001000
00000000
00010000
00000000
00010010
00000000
00001010
00000000
00000000
00000000
,
00100000
00000000
00001000
00000000
00010000
00000000
01000000
00000000
11000000
00000000
10000000
01000000
00000000
00010000
00000100
00001000
,
00000000
00000000
00001010
00000000
00000101
00000000
00000000
00000001
00000010
00000000
00000110
00000000
00001100
00000000
00000000
00000000
,
00010000
00000000
00001000
00000000
01000000
00010000
00100000
00000000
01000000
00000000
10000000
00100000
01000000
00100000
10000000
00000000
,
01000000
00000000
00010000
00000000
00001000
00100000
00010000
00000000
01000000
00000000
01010000
00000000
00110000
00000000
00100000
01000000
,
10000000
00000000
01000000
00010000
00000000
00001000
00010000
00000000
00000100
00001000
00000100
00001000
00000010
00000100
00001000
00010000
,
00100000
00000000
00000000
10000000
00000000
00000000
02000000
00000000
00000000
00000000
00000000
00000000
00000000
00000000
03000000
00000000
00010000
00000000
00000000
00001000
00000000
00000000
00000020
00000000
00000000
00000000
00000000
00000000
00000000
00000000
00000030
00000000
,
00000001
00000000
00000000
00000100
00000000
00000000
00002000
00000000
00000000
00000000
00000000
00000000
00003000
00000000
00010000
00000000
00001000
00000000
00000000
00100000
00000000
00000000
02000000
00000000
00000000
00000000
00000000
00000000
00000000
00000000
03000000
00000000
,
00010000
00000000
00000000
00001000
00000000
00000000
00000020
00000000
00000000
00000000
00000000
00000000
00000000
00000000
00000030
00000000
00000001
00000000
00000000
00000100
00000000
00000000
00002000
00000000
00000000
00000000
00000000
00000000
00000000
00000000
00003000
00000000
,
00010000
00000000
00000000
00100000
00000000
00000000
20000000
00000000
00000000
00000000
00000000
00000000
30000000
00000000
01000000
00000000
00010000
00000000
00000000
00001000
00000000
00000000
00000020
00000000
00000000
00000000
00000000
00000000
00000000
00000000
00000030
00000000
,
00000001
00000100
00001000
00010000
00001000
00000100
00000001
00000000
00000010
00001000
00010000
00001000
00010000
00100000
10000000
00000000
,
00010000
01000000
10000000
01000000
00100000
10000000
00010000
00000000
00100000
01000000
00010000
00001000
00000010
00000100
00001000
00000000
,
00000001
00000100
00001000
00010000
01000000
10000000
00100000
00000000
10000000
01000000
00010000
00001000
00000100
00000001
00000010
00000000
,
00000001
00000010
00001000
00010000
01000000
00010000
00001000
00100000
00010000
01000000
00100000
10000000
01000000
00010000
00001000
00000000
,
00011000
00022000
00033000
00011000
,
01000000
00010000
01000000
00001000
00010000
00001000
00100000
00010000
00100000
00001000
00010000
00000010
00001000
00000001
00000100
00000010
,
00001000
00000000
00000001
00000010
00000001
00001000
00000100
00001000
00000000
00000100
00010000
00001000
01000000
00010000
01000000
00001000
,
00010000
00000000
00001000
00100000
00010000
00100000
01000000
10000000
00000000
00010000
01000000
00010000
10000000
00100000
10000000
01000000
,
00100000
00000000
00010000
00100000
00001000
00010000
00000010
00001000
00000000
00000100
00000010
00000100
00001000
00000001
00000010
00000001
,
00001000
00000000
00000010
00001000
00000010
00010000
00001000
01000000
00000000
00010000
00100000
01000000
00100000
00010000
00100000
01000000
,
10000000
00000000
00100000
01000000
00010000
01000000
00001000
00010000
00000000
00000100
00001000
00000100
00010000
00001000
00010000
00000010
,
00001000
00000000
00000001
00000010
00000100
00000010
00000100
00010000
00000000
00001000
00100000
00010000
00100000
00001000
00010000
00001000
,
01000000
00000000
00010000
10000000
00100000
01000000
00010000
00100000
00000000
01000000
10000000
01000000
00100000
00001000
00010000
00000100
,
00010000
00000000
00001000
00010000
00000010
00001000
00000010
00000100
00000000
00000001
00000010
00000001
00000100
00000001
00001000
00000001
,
00000200
00000000
00000310
00002000
00000000
00003100
00010000
00001000
01000000
00010000
01000000
00001000
00010000
00001000
00100000
00010000
,
00200000
00000000
01300000
20000000
00000000
30100000
01000000
00010000
00100000
00001000
00010000
00000100
00010000
00001000
00000010
00000001
,
00000020
00000000
00000130
00002000
00000000
00003001
00000100
00000001
00001000
00000100
00010000
00001000
00100000
00010000
00100000
00001000
,
00020000
00000000
00130000
02000000
00000000
03010000
20000000
00000000
31000000
00100000
01000000
00010000
00001000
00100000
00010000
00100000
,
00002000
00000000
00013000
00000020
00000000
00001030
00000100
00001000
00000001
00000100
00000001
00000010
00000100
00001000
00000100
00010000
,
00002000
00000000
01003000
00020000
00000000
00130000
01000000
10000000
01000000
00010000
00001000
00010000
00000100
00001000
00000010
00000100
,
00000002
00000000
00000013
00000200
00000000
00000301
00000100
00001000
00000100
00010000
00001000
00100000
00010000
00100000
00001000
00010000
,
00200000
00000000
10300000
01000000
00100000
01000000
00020000
00000000
00031000
00000010
00000100
00000010
00000001
00001000
00000100
00010000
,
00002000
00000000
00000010
00000000
00000000
00000000
00000000
00003000
;
