#VERSION:0.83;
#TITLE:Donkey Donk;
#SUBTITLE:;
#ARTIST:Ryu☆;
#TITLETRANSLIT:;
#SUBTITLETRANSLIT:;
#ARTISTTRANSLIT:;
#GENRE:DONK;
#CREDIT:;
#MUSIC:Donkey Donk.ogg;
#BANNER:Donkey Donk.png;
#BACKGROUND:Donkey Donk-bg.png;
#CDTITLE:./CDTitles/bm IIDX 23 copula.png;
#SAMPLESTART:52.078;
#SAMPLELENGTH:15.000;
#SELECTABLE:YES;
#OFFSET:0.559;
#BPMS:0.000=155.000;
#STOPS:;
#TIMESIGNATURES:0.000=4=4;
#BGCHANGES:0.000=../BGAs/18eu.mp4=1.000=0=0=0=StretchNoLoop====,
99999.000=-nosongbg-=1.000=0=0=0=StretchNoLoop====
;
#FGCHANGES:;

//--------------- dance-single - forcednature ----------------
#NOTEDATA:;
#STEPSTYPE:dance-single;
#DESCRIPTION:forcednature;
#DIFFICULTY:Beginner;
#METER:2;
#RADARVALUES:0,0,0,0,0;
#CREDIT:forcednature;
#NOTES:
0000
0000
0000
0000
,
0000
0000
0000
0000
,
0000
0000
0000
0000
,
0000
0000
0000
0000
,
0000
0000
0000
0000
,
0000
0000
0000
0000
,
1001
0000
0000
0000
,
0001
0000
0000
0000
,
0100
0000
0000
0000
,
0001
0000
0000
0000
,
0010
0000
0000
0000
,
0000
0000
0000
0000
,
0100
0000
0000
0000
,
1000
0000
0000
0000
,
0100
0000
0000
0000
,
0000
0000
0000
0000
,
1000
0000
0000
0000
,
0001
0000
0000
0000
,
1000
0000
0000
0000
,
0000
0000
0000
0000
,
0010
0000
0000
0000
,
0000
0000
0000
0000
,
0100
0000
0000
0000
,
0000
0000
0000
0000
,
0001
0000
0000
0000
,
0010
0000
0000
0000
,
0100
0000
0000
0000
,
0000
0000
0000
0000
,
1000
0000
0000
0000
,
0000
0000
0000
0000
,
0001
0000
0000
0000
,
0100
0000
0000
0000
,
0010
0000
0000
0000
,
1000
0000
0000
0000
,
1001
0000
0000
0000
,
0001
0000
0000
0000
,
0010
0000
0000
0000
,
0001
0000
0000
0000
,
0100
0000
0000
0000
,
0001
0000
0000
0000
,
1000
0000
0000
0000
,
0100
0000
0000
0000
,
1001
0000
0000
0000
,
1000
0000
0000
0000
,
0010
0000
0000
0000
,
1000
0000
0000
0000
,
0001
0000
0000
0000
,
1000
0000
0000
0000
,
0100
0000
0000
0000
,
0010
0000
0000
0000
,
0001
0000
0000
0000
,
0000
0000
0000
0000
,
0100
0000
0000
0000
,
0000
0000
0000
0000
,
0010
0000
0000
0000
,
0000
0000
0000
0000
,
1000
0000
0000
0000
,
0100
0000
0000
0000
,
0010
0000
0000
0000
,
0001
0000
0000
0000
,
1000
0000
0000
0000
,
0010
0000
0000
0000
,
0100
0000
0000
0000
,
0001
0000
1000
0000
,
0001
0000
0000
0000
,
0010
0000
0000
0000
,
0100
0000
0000
0000
,
1000
0000
0000
0000
,
0001
0000
0000
0000
,
0100
0000
0000
0000
,
0010
0000
0000
0000
,
1000
0000
0000
0000
,
0001
0000
0000
0000
,
1000
0000
0000
0000
,
0100
0000
0000
0000
,
0010
0000
0000
0000
,
0001
0000
0000
0000
,
1000
0000
0000
0000
,
0010
0000
0000
0000
;

//--------------- dance-single - forcednature ----------------
#NOTEDATA:;
#STEPSTYPE:dance-single;
#DESCRIPTION:forcednature;
#DIFFICULTY:Easy;
#METER:6;
#RADARVALUES:0,0,0,0,0;
#CREDIT:forcednature;
#NOTES:
0000
0000
0000
0000
,
0000
0000
0000
0000
,
0000
0000
0000
0000
,
0000
0000
0000
0000
,
0000
0000
0000
0000
,
0000
0000
0000
0000
,
1000
0000
0001
0000
,
0100
0000
0001
0001
,
1000
0000
0001
0000
,
0010
0010
0010
0010
,
0100
0000
1000
0000
,
0001
0000
1000
1000
,
0010
0000
0100
0000
,
0001
0001
0001
0001
,
1000
0000
0001
0000
,
0010
0000
0001
0000
,
0100
0000
0001
0000
,
0010
0010
0010
0010
,
0200
0000
0000
0000
,
1300
0000
0001
0001
,
0200
0000
0320
0000
,
2030
0000
3001
0001
,
0020
0000
0230
0000
,
2300
0000
3010
0100
,
0002
0000
2003
0000
,
3100
0100
0010
0010
,
0002
0000
0203
0000
,
0320
0000
1030
0001
,
2000
0000
3200
0000
,
0320
0000
0031
1000
,
0002
0000
0203
0000
,
0310
1000
0010
1000
,
0001
0010
0001
0010
,
0200
0000
1300
0001
,
1001
0000
1000
0010
,
0100
0001
1000
0100
,
0010
0000
0100
1000
,
0001
0100
0010
1000
,
1001
0000
0001
0010
,
0001
0100
0010
1000
,
0001
0000
0010
0100
,
1000
0010
0100
0001
,
1001
0000
1000
0100
,
1000
0001
0100
0001
,
0010
0000
0100
1000
,
0001
0100
0010
1000
,
1001
0000
0001
0010
,
0001
0100
0010
1000
,
0001
0000
0010
0100
,
1000
1000
1000
1000
,
0010
0000
0100
0000
,
0001
1000
0001
0001
,
0010
0000
0100
0000
,
1000
1000
1000
1000
,
0001
0000
0100
0000
,
0010
1000
0010
1000
,
0001
0000
0010
0000
,
0100
0100
0100
0100
,
0010
0010
0010
0010
,
0100
0100
0010
0010
,
0100
0010
0100
0010
,
0001
0000
1000
0010
,
0100
0000
0000
0000
0001
0000
0000
1001
,
0000
0000
0010
0100
,
1001
0000
1000
0100
,
1000
0001
0100
0001
,
1001
0000
1000
0010
,
0100
0001
0010
0100
,
1001
0000
0001
0100
,
0010
0010
0010
0010
,
1001
0000
1000
0100
,
1000
0001
0100
0001
,
1001
0000
0001
0010
,
0001
1000
0010
1000
,
1001
0000
0001
0010
,
0100
1000
0010
0100
,
0110
0000
0010
1000
,
0001
0001
0001
0001
,
0010
0000
0000
0000
;

//--------------- dance-single - forcednature ----------------
#NOTEDATA:;
#STEPSTYPE:dance-single;
#DESCRIPTION:forcednature;
#DIFFICULTY:Medium;
#METER:9;
#RADARVALUES:0,0,0,0,0;
#CREDIT:forcednature;
#NOTES:
0000
0000
0000
0000
,
0000
0000
0000
0000
,
0000
0000
0000
0000
,
0000
0000
0000
0000
,
0000
0000
0000
0000
,
0000
0000
0000
0000
,
1000
0001
0100
0010
,
1000
0001
1001
1001
,
0001
1000
0100
0010
,
0010
1001
0010
1001
,
1000
0000
0001
0000
0100
0001
0100
0000
,
0010
1000
0010
0000
1000
0000
0001
0000
,
0010
0000
0100
0000
1000
0001
1000
0000
,
0010
1001
0010
1001
,
1000
0000
0001
0000
0010
0001
0010
0000
,
0100
1000
0100
0000
1000
0000
0001
0000
,
1000
0000
0010
0000
0100
0001
0100
0000
,
0010
1001
0010
1001
,
2000
0000
3200
0000
,
0310
0010
0001
1000
,
0002
0000
0203
0000
,
0310
0010
1000
0001
,
2000
0000
3200
0000
,
0310
0010
0001
1000
,
0002
0000
0203
0000
,
0310
0010
1000
0001
,
0200
0000
0320
0000
,
2030
0000
3200
0320
,
0032
0000
0203
0000
,
0320
0000
2030
3002
,
0013
0010
0001
1000
,
0001
0100
0010
1000
,
0100
0100
0010
0010
,
0002
0000
1003
0010
,
1001
0000
1000
0000
0100
0010
0001
0000
,
1000
0001
0100
0000
0010
1000
0001
0000
,
1001
0000
1000
0000
0100
0010
0001
0000
,
0100
0010
1000
0000
1100
0000
0101
0000
,
1001
0000
0001
0000
0010
0100
1000
0000
,
0001
1000
0010
0000
1000
0001
0010
0000
,
0100
0000
1000
0000
0001
0100
0010
0000
,
0110
1000
0001
0010
,
0100
1000
0001
0000
0100
0010
1000
0000
,
0001
0010
0100
1000
0010
0000
0100
0000
,
0001
1000
0100
0000
1000
0001
0100
0000
,
0010
1000
0001
1000
0100
0000
0010
0000
,
0110
0000
0100
0000
1000
0001
0100
0000
,
0010
1000
0001
1000
0100
0000
0010
0000
,
0001
1000
0100
0000
1000
0001
0100
0000
,
0002
0010
1000
0013
,
0001
0100
1000
0100
,
0010
1000
0010
0000
0110
0000
1001
0000
,
1000
0100
0001
0100
,
0010
1001
0010
1001
,
1000
0010
0001
0010
,
0100
0001
0100
0000
0001
0100
0001
0000
,
0010
1000
0010
0001
,
0100
1001
0100
1001
,
0010
1001
0010
1001
,
0100
1001
0010
1001
,
0110
1001
0001
1000
,
0010
0000
0100
0001
,
2000
0000
0000
0000
3001
0000
0000
1001
,
0000
0000
0010
0010
0100
0000
0110
0000
,
1001
0000
1000
0000
0100
0010
0001
0000
,
1000
0001
0100
0000
0110
0000
1001
0000
,
1000
0000
0001
0000
0100
0010
1000
0000
,
0001
0010
0100
0000
0110
0000
1001
0000
,
1000
0100
0010
0000
0100
1000
0001
0000
,
0010
0100
0110
1001
,
1000
0100
1000
0000
0001
0100
0001
0000
,
0010
0100
1000
0001
0100
0000
1001
0000
,
0001
0010
0001
0000
1000
0010
1000
0000
,
0100
1001
0100
1001
,
1000
0010
1000
0000
0001
0010
0001
0000
,
0100
0010
1000
0100
0010
0000
1001
0000
,
1000
0010
1000
0000
0001
0010
0001
0000
,
0100
1001
0100
1001
,
0110
0000
0000
0000
;

//--------------- dance-single - forcednature ----------------
#NOTEDATA:;
#STEPSTYPE:dance-single;
#DESCRIPTION:forcednature;
#DIFFICULTY:Hard;
#METER:14;
#RADARVALUES:0,0,0,0,0;
#CREDIT:forcednature;
#NOTES:
0000
0000
0000
0000
,
0000
0000
0000
0000
,
0000
0000
0000
0000
,
0000
0000
0000
0000
,
0000
0000
0000
0000
,
0000
0000
0000
0000
,
0001
0100
0010
1000
0100
0001
0100
1000
,
0100
0010
0001
1000
1100
0000
0011
0000
,
0001
0100
0010
1000
0100
0001
0100
1000
,
1100
0101
1100
0101
,
1001
0000
0000
0000
0001
0100
0000
0010
0000
0000
1000
0000
0000
0001
0000
1000
,
0100
0000
0000
0010
0000
0001
1000
0000
0001
0000
0000
0100
0000
0010
1000
0000
,
0001
0000
0000
0000
1000
0100
0000
1000
0000
0000
0010
0000
0100
0001
0000
0000
,
0011
1010
0011
1010
,
1001
0000
0000
0000
0001
0100
0000
0010
0000
0000
1000
0000
0000
0100
0000
0010
,
0100
0000
0000
1000
0000
0001
0100
0000
0001
0000
0000
1000
0000
0010
1000
0000
,
0100
0000
0000
0000
0010
0001
0000
1000
0000
0000
0010
0000
1000
0100
0000
0000
,
1100
0101
1100
0101
,
1010
0010
0100
0001
1000
0100
0001
0100
,
1000
0010
0100
0001
0011
0000
1010
0000
,
0001
0100
0010
1000
0010
0001
0010
1000
,
0100
0010
0001
1000
1010
0000
0011
0000
,
1001
0001
1000
0100
0001
1000
0010
0001
,
1000
0010
0100
1000
0100
0010
1000
0000
,
0001
0010
0100
1000
0010
0001
0010
0100
,
0101
0000
1100
0010
0101
0000
1100
0000
,
2001
0000
3002
0000
,
0203
0000
0320
2030
,
3002
0000
2003
0000
,
3200
0000
0320
0032
,
0103
1000
0100
1000
0100
0001
0100
0001
,
0010
0001
0010
0001
0010
1000
0010
1000
,
0010
0100
1000
0001
1000
0010
0100
0001
,
0010
0010
0100
1000
0020
0000
0130
0000
,
1001
0000
0000
0000
0001
0100
0000
0001
0000
1000
0010
1000
0001
0000
0200
0000
,
0000
0301
0010
0001
0100
1000
0100
0001
,
0010
0000
0000
0000
0100
1000
0000
0001
0000
0010
0100
0010
0001
0000
0200
0000
,
0000
0310
1000
0001
0020
0000
0130
0000
,
1001
0000
0000
0000
1000
0100
0000
0010
0000
0100
1000
0001
0100
0000
0020
0000
,
0000
0130
0001
0010
0100
0001
0100
1000
,
0010
0000
0000
0000
0100
0001
0000
1000
0000
0100
1000
0010
1000
0000
0001
0000
,
0101
0100
0010
1000
0200
0000
0310
0000
,
1100
0000
0000
0000
0001
0100
0000
0010
0000
1000
0100
0010
0001
0000
0200
0000
,
0000
1300
0100
0001
1000
0100
0001
0100
,
0010
0000
0000
0000
0100
1000
0000
0010
0000
0100
0010
1000
0001
0000
0020
0000
,
0000
0130
1000
0010
0200
0000
0301
0000
,
0011
0000
0000
0000
0010
0100
0000
1000
0000
0001
0100
0010
1000
0000
0200
0000
,
0000
0301
0100
0010
0001
0100
1000
0100
,
0001
0000
0000
0000
0010
0100
0000
1000
0000
0001
0100
0010
0100
0000
0001
0000
,
0011
1010
0011
1010
,
0001
0010
0001
0100
0010
0001
0010
1000
,
0100
0010
0001
0100
0101
0000
1100
0000
,
0001
1000
0010
1000
0100
0001
0100
0010
,
0011
1010
0011
1010
,
0001
1000
0010
1000
0001
0100
1000
0100
,
0010
1000
0100
0010
0100
1000
0010
0000
,
1000
0001
0100
1000
0100
0001
0010
0100
,
0101
1100
0101
1100
,
1010
0011
1010
0011
,
0101
1100
0011
1010
,
0101
1100
1010
0011
,
0001
1000
0010
0100
0001
0000
1000
1000
,
1000
0000
0000
0000
0010
0100
0000
0001
0000
0010
0001
1000
0100
0000
2001
0000
,
0000
0000
3001
0000
1000
0010
1000
0010
1000
0000
0100
0000
0010
0000
0001
0000
,
0101
0000
0000
0000
0010
1000
0000
0001
0000
1000
0100
0010
0001
0000
0200
0000
,
0000
0310
0001
0010
1010
0000
0101
0000
,
1001
0000
0000
0000
1000
0100
0000
1000
0000
0010
0100
0001
0010
0000
0021
0000
,
0000
1030
0010
0001
0101
0010
1100
0010
,
1001
0000
0000
0000
0001
1000
0000
0100
0000
1000
0010
0100
0001
0000
0010
0000
,
0011
1010
0101
1100
,
1001
0000
0001
0000
0100
0010
0000
1000
0000
0001
1000
0100
0010
0000
0011
0000
,
0001
0100
0010
1000
1100
0010
0101
0010
,
1001
0000
0001
0000
0100
0010
0000
1000
0000
0100
0010
0100
1000
0000
0001
0000
,
0101
1000
1100
0001
0011
0000
1010
0000
,
1001
0000
1000
0000
0010
0100
0000
0001
0000
0010
0100
1000
0010
0000
0110
0000
,
0100
1000
0100
0001
0011
0100
1010
0100
,
1001
0000
1000
0000
0001
0100
0000
0010
1000
0001
1000
0100
0010
0000
1001
0000
,
0101
1100
0011
1010
,
1001
0000
0000
0000
;

//--------------- dance-double - forcednature ----------------
#NOTEDATA:;
#STEPSTYPE:dance-double;
#DESCRIPTION:forcednature;
#DIFFICULTY:Easy;
#METER:6;
#RADARVALUES:0,0,0,0,0;
#CREDIT:forcednature;
#NOTES:
00000000
00000000
00000000
00000000
,
00000000
00000000
00000000
00000000
,
00000000
00000000
00000000
00000000
,
00000000
00000000
00000000
00000000
,
00000000
00000000
00000000
00000000
,
00000000
00000000
00000000
00000000
,
00001000
00000000
00010000
00000000
,
00000100
00000000
00001000
00001000
,
00000001
00000000
00000100
00000000
,
00000010
00000010
00000010
00000010
,
00001000
00000000
00000100
00000000
,
00010000
00000000
00001000
00001000
,
01000000
00000000
00010000
00000000
,
10000000
10000000
10000000
10000000
,
01000000
00000000
00100000
00000000
,
00010000
00000000
00100000
00000000
,
00001000
00000000
00010000
00000000
,
00000010
00000010
00000010
00000010
,
00002000
00000000
00000000
00000000
,
00003001
00000000
00000010
00000010
,
00000200
00000000
00020300
00000000
,
00032000
00000000
01003000
01000000
,
00020000
00000000
20030000
00000000
,
32000000
00000000
03100000
00010000
,
02000000
00000000
03002000
00000000
,
00013000
00010000
00001000
00001000
,
00020000
00000000
00030020
00000000
,
00002030
00000000
00003100
00000010
,
00000200
00000000
00002300
00000000
,
00003002
00000000
00000103
00000010
,
00000200
00000000
00000320
00000000
,
00010030
00001000
00010000
00001000
,
00100000
00010000
00100000
00010000
,
20000000
00000000
30100000
01000000
,
01100000
00000000
00100000
10000000
,
00010000
10000000
01000000
00100000
,
00001000
00000000
00010000
00000100
,
00001000
00000100
00000010
00000001
,
00001001
00000000
00001000
00000010
,
00010000
00001000
00100000
00001000
,
00010000
00000000
00100000
10000000
,
00010000
10000000
01000000
00100000
,
01100000
00000000
01000000
10000000
,
01000000
00100000
00010000
00100000
,
00001000
00000000
00010000
00000010
,
00001000
00000010
00000100
00000001
,
00001001
00000000
00001000
00000100
,
00010000
00001000
01000000
00010000
,
10000000
00000000
01000000
00100000
,
00010000
00010000
00010000
00010000
,
01000000
00000000
01000000
00000000
,
00001000
00010000
00001000
00001000
,
00010000
00000000
00010000
00000000
,
00000100
00000100
00000100
00000100
,
00001000
00000000
00001000
00000000
,
00000001
00000100
00000001
00000100
,
00000010
00000000
00000010
00000000
,
00010000
00010000
00010000
00010000
,
00001000
00001000
00001000
00001000
,
00100000
00100000
00010000
00010000
,
01000000
00100000
01000000
00100000
,
10000000
00000000
10000000
01000000
,
00100000
00000000
00000000
00000000
00010000
00000000
00000000
10010000
,
00000000
00000000
00001000
00010000
,
00011000
00000000
00001000
00010000
,
00000100
00001000
00000100
00000010
,
00000110
00000000
00000100
00001000
,
00000001
00001000
00000010
00010000
,
00011000
00000000
00001000
01000000
,
00010000
00010000
00010000
00010000
,
10010000
00000000
10000000
01000000
,
10000000
00010000
01000000
00001000
,
00011000
00000000
00010000
00000100
,
00010000
00001000
01000000
00001000
,
00011000
00000000
00010000
00000010
,
00010000
00001000
00100000
00001000
,
00011000
00000000
00010000
00000100
,
00001000
00001000
00001000
00001000
,
00000001
00000000
00000000
00000000
;

//--------------- dance-double - forcednature ----------------
#NOTEDATA:;
#STEPSTYPE:dance-double;
#DESCRIPTION:forcednature;
#DIFFICULTY:Medium;
#METER:9;
#RADARVALUES:0,0,0,0,0;
#CREDIT:forcednature;
#NOTES:
00000000
00000000
00000000
00000000
,
00000000
00000000
00000000
00000000
,
00000000
00000000
00000000
00000000
,
00000000
00000000
00000000
00000000
,
00000000
00000000
00000000
00000000
,
00000000
00000000
00000000
00000000
,
00001000
00010000
00000100
00001000
,
00000100
00010000
00011000
00011000
,
00001000
01000000
00010000
01000000
,
00100000
10010000
01000000
10010000
,
10000000
00000000
00010000
00000000
01000000
00010000
01000000
00000000
,
00001000
00010000
00001000
00000000
00010000
00000000
00000100
00000000
,
00001000
00000000
00000100
00000000
00000010
00000001
00000010
00000000
,
00000100
00001001
00000010
00001001
,
00001000
00000000
00000100
00000000
00010000
00001000
00010000
00000000
,
00001000
01000000
00001000
00000000
01000000
00000000
00010000
00000000
,
10000000
00000000
00100000
00000000
10000000
01000000
10000000
00000000
,
00100000
10010000
01000000
10010000
,
00020000
00000000
02030000
00000000
,
03001000
00001000
00010000
00000100
,
00002000
00000000
00003002
00000000
,
00000103
00000100
00000010
00001000
,
00000020
00000000
00020030
00000000
,
00031000
00001000
00010000
00001000
,
02000000
00000000
03020000
00000000
,
10030000
10000000
01000000
10000000
,
00020000
00000000
00230000
00000000
,
00302000
00000000
00023000
00030020
,
00002030
00000000
00003200
00000000
,
00000320
00000000
00000032
00002003
,
00003010
00000010
00010000
00001000
,
00100000
00010000
00100000
01000000
,
10000000
10000000
00010000
00010000
,
02000000
00000000
03001000
00010000
,
00011000
00000000
00001000
00000000
00010000
00000100
00001000
00000000
,
00000001
00001000
00000010
00000000
00010000
00001000
01000000
00000000
,
00010000
00000000
10000000
00000000
01000000
00100000
00010000
00000000
,
00100000
00001000
00010000
00000000
00010010
00000000
00001010
00000000
,
00000110
00000000
00000100
00000000
00000001
00001000
00000100
00000000
,
00010000
00001000
01000000
00000000
00010000
10000000
00100000
00000000
,
10000000
00000000
01000000
00000000
00100000
00001000
00010000
00000000
,
00011000
00001000
00010000
00000100
,
00001000
00000001
00000100
00000000
00000010
00001000
00000001
00000000
,
00000010
00000100
00001000
00000100
00010000
00000000
00001000
00000000
,
01000000
00010000
10000000
00000000
01000000
00100000
00010000
00000000
,
00100000
00001000
00010000
00000010
00001000
00000000
00000100
00000000
,
00000110
00000000
00000010
00000000
00000001
00001000
00000010
00000000
,
00010000
00001000
00100000
00001000
00010000
00000000
00001000
00000000
,
01000000
00010000
10000000
00000000
01000000
10000000
00010000
00000000
,
02000000
00100000
00010000
03001000
,
01000000
00010000
00100000
00001000
,
00010000
00001000
00010000
00000000
00000010
00000000
00001001
00000000
,
00000001
00000100
00001000
00010000
,
00001000
00010010
00001000
00010100
,
00010000
00001000
01000000
00010000
,
10000000
00100000
10000000
00000000
01000000
10000000
01000000
00000000
,
00100000
00010000
00100000
01000000
,
00100000
00011000
01000000
00011000
,
00000010
00011000
00000100
00011000
,
00100000
00011000
00000010
00011000
,
01000000
00011000
00000100
00001000
,
00000100
00000000
00000010
00000001
,
00002000
00000000
00000000
00000000
00003010
00000000
00000000
00001001
,
00000000
00000000
00000100
00000100
00000010
00000000
00000110
00000000
,
00001001
00000000
00001000
00000000
00000100
00010000
00001000
00000000
,
01000000
00001000
00010000
00000000
00100000
00000000
01100000
00000000
,
01000000
00000000
00010000
00000000
10000000
01000000
00100000
00000000
,
01000000
00100000
00001000
00000000
00010000
00000000
00011000
00000000
,
00001000
00010000
00000010
00000000
00001000
00000100
00000010
00000000
,
00000001
00000100
00000110
00001001
,
00001000
00000100
00010000
00000000
00001000
01000000
00010000
00000000
,
00100000
01000000
10000000
00010000
01000000
00000000
01100000
00000000
,
00100000
10000000
00010000
00000000
10000000
01000000
00100000
00000000
,
00001000
00010100
00001000
00010010
,
00000010
00001000
00000100
00000000
00000010
00000001
00001000
00000000
,
00000010
00010000
00001000
01000000
00010000
00000000
00100000
00000000
,
01000000
10000000
01000000
00000000
00100000
00010000
00100000
00000000
,
00001000
00010100
00001000
00010010
,
00001001
00000000
00000000
00000000
;

//--------------- dance-double - forcednature ----------------
#NOTEDATA:;
#STEPSTYPE:dance-double;
#DESCRIPTION:forcednature;
#DIFFICULTY:Hard;
#METER:14;
#RADARVALUES:0,0,0,0,0;
#CREDIT:forcednature;
#NOTES:
00000000
00000000
00000000
00000000
,
00000000
00000000
00000000
00000000
,
00000000
00000000
00000000
00000000
,
00000000
00000000
00000000
00000000
,
00000000
00000000
00000000
00000000
,
00000000
00000000
00000000
00000000
,
00010000
00001000
00000100
00000010
00001000
00000100
00000010
00000001
,
00000100
00000010
00000001
00000010
00000110
00000000
00011000
00000000
,
00010000
01000000
00100000
10000000
00100000
00001000
00010000
00100000
,
10100000
01001000
00010100
00000011
,
00001001
00000000
00000000
00000000
00001000
00000100
00000000
00010000
00000000
00000000
00001000
00000000
00000000
01000000
00000000
00010000
,
10000000
00000000
00000000
01000000
00000000
00100000
00010000
00000000
01000000
00000000
00000000
00001000
00000000
00010000
00000100
00000000
,
00001000
00000000
00000000
00000000
00000001
00000100
00000000
00000010
00000000
00000000
00001000
00000000
00000100
00010000
00000000
00000000
,
01001000
00010010
01001000
00010010
,
00011000
00000000
00000000
00000000
00010000
00000100
00000000
00001000
00000000
00000000
00000001
00000000
00000000
00000100
00000000
00001000
,
00010000
00000000
00000000
01000000
00000000
10000000
00010000
00000000
00100000
00000000
00000000
01000000
00000000
00010000
00001000
00000000
,
01000000
00000000
00000000
00000000
00100000
00010000
00000000
00001000
00000000
00000000
00000010
00000000
00000100
00001000
00000000
00000000
,
00010100
00101000
00010100
00101000
,
00001000
00100000
01000000
00010000
00001000
00000100
00000010
00010000
,
00001000
00000010
00000001
00000100
00000110
00000000
00011000
00000000
,
00100000
00001000
00010000
00100000
01000000
00001000
00010000
01000000
,
10000000
00100000
00010000
00001000
00101000
00000000
00010010
00000000
,
00010000
00001000
00000010
00000001
00001000
00000100
00010000
00001000
,
00000100
00001000
00010000
01000000
00100000
00001000
00010000
00000000
,
00100000
10000000
00100000
00010000
00001000
00100000
01000000
00010000
,
01010000
00000000
00011000
00000100
00001010
00000000
00000101
00000000
,
00012000
00000000
00003200
00000000
,
00000320
00000000
00020030
00230000
,
20300000
00000000
32000000
00000000
,
03020000
00000000
00032000
00003200
,
00000301
00000010
00001000
00010000
00100000
10000000
01000000
00010000
,
00001000
00000100
00000001
00000010
00001000
00010000
00100000
10000000
,
01000000
00010000
00001000
00000100
00001000
00010000
01000000
10000000
,
00100000
00100000
00010000
00001000
00000020
00000000
00000130
00000000
,
00001001
00000000
00000000
00000000
00000001
00000100
00000000
00001000
00000000
00010000
00001000
01000000
00010000
00000000
00200000
00000000
,
00000000
10300000
00100000
00010000
00001000
00000010
00000001
00000010
,
00000100
00000000
00000000
00000000
00001000
00010000
00000000
01000000
00000000
00100000
00010000
10000000
00100000
00000000
00020000
00000000
,
00000000
00130000
01000000
00001000
00020000
00000000
00030100
00000000
,
00001010
00000000
00000000
00000000
00010000
00001000
00000000
00000010
00000000
00000100
00010000
00001000
00100000
00000000
02000000
00000000
,
00000000
03010000
01000000
10000000
00100000
00010000
00001000
00100000
,
00010000
00000000
00000000
00000000
01000000
00001000
00000000
00010000
00000000
00000100
00001000
00000001
00000010
00000000
00000100
00000000
,
00010100
00010000
00001000
01000000
00200000
00000000
00310000
00000000
,
01100000
00000000
00000000
00000000
10000000
01000000
00000000
00100000
00000000
00001000
00010000
00000100
00010000
00000000
00002000
00000000
,
00000000
00003100
00000001
00000010
00001000
00000010
00000100
00010000
,
00001000
00000000
00000000
00000000
01000000
10000000
00000000
01000000
00000000
00010000
10000000
01000000
00100000
00000000
00002000
00000000
,
00000000
00003010
00000001
00000100
00000020
00000000
00010030
00000000
,
00101000
00000000
00000000
00000000
10000000
00010000
00000000
00100000
00000000
00001000
00010000
00000010
00001000
00000000
00000200
00000000
,
00000000
00000301
00000100
00010000
00001000
00000100
00001000
00010000
,
01000000
00000000
00000000
00000000
00100000
00010000
00000000
10000000
00000000
00100000
01000000
00100000
00010000
00000000
00001000
00000000
,
00101000
00010010
00101000
00010010
,
00010000
00001000
00000010
00000100
00001000
00000001
00000100
00001000
,
00010000
00000100
00010000
00001000
01001000
00000000
00010010
00000000
,
00010000
00100000
01000000
00010000
10000000
01000000
00010000
00001000
,
00101000
00010100
00101000
00010100
,
00000100
00000001
00000100
00001000
00000010
00010000
00100000
00010000
,
00001000
00100000
01000000
00100000
00001000
00010000
00100000
00000000
,
10000000
01000000
00010000
00001000
00000100
00001000
00010000
00001000
,
00101000
00010100
00101000
00010100
,
01001000
00010010
01001000
00010010
,
00101000
00010100
01001000
00010010
,
00101000
00010010
01001000
00010100
,
00010000
00000000
00001000
00000000
00000010
00000000
00000001
00000000
00000100
00000000
00000000
00000000
00000010
00001000
00000010
00001000
,
00000010
00000000
00000000
00000000
00000100
00001000
00000000
00010000
00000000
00000100
00010000
00001000
00100000
00000000
00120000
00000000
,
00000000
00000000
10030000
00000000
00010000
00100000
00010000
00100000
00010000
00000000
01000000
00000000
00001000
00000000
00010000
00000000
,
00010100
00000000
00000000
00000000
00000010
00001000
00000000
00000001
00000000
00000010
00000100
00001000
00000010
00000000
00000200
00000000
,
00000000
00001300
00010000
00001000
01001000
00000000
00010010
00000000
,
01001000
00000000
00000000
00000000
10000000
01000000
00000000
00100000
00000000
00001000
00010000
00000010
00001000
00000000
00001002
00000000
,
00000000
00000013
00001000
00010000
00010010
00001000
01001000
00010000
,
00011000
00000000
00000000
00000000
01000000
00001000
00000000
00010000
00000100
00010000
00001000
01000000
00010000
00000000
00100000
00000000
,
00101000
00010100
00101000
00010100
,
00011000
00000000
00010000
00000000
01000000
00100000
00000000
00010000
00000000
10000000
00100000
01000000
00010000
00000000
00110000
00000000
,
00100000
00001000
00010000
00000010
00010010
00001000
01001000
00010000
,
00011000
00000000
00001000
00000000
00000010
00000100
00000000
00001000
00000000
00000001
00000100
00000010
00001000
00000000
00000100
00000000
,
00010100
00001000
00101000
00010000
00010010
00000000
01001000
00000000
,
00011000
00000000
00001000
00000000
01000000
00010000
00000000
10000000
00000000
01000000
00100000
00010000
01000000
00000000
01001000
00000000
,
00001000
00010000
00000100
00001000
00010010
00010000
01001000
00001000
,
00011000
00000000
00001000
00000000
00010000
00000100
00000000
00001000
00000000
00000001
00000100
00001000
00010000
00000000
00011000
00000000
,
01001000
00010010
01001000
00010010
,
00011000
00000000
00000000
00000000
;
