#VERSION:0.83;
#TITLE:ディッシュウォッシャー◎彡おいわちゃん;
#SUBTITLE:;
#ARTIST:ARM×狐夢想 feat. 山本椛;
#TITLETRANSLIT:Dish washer Oiwa-chan;
#SUBTITLETRANSLIT:;
#ARTISTTRANSLIT:ARMxKomso feat. Momiji Yamamoto;
#GENRE:ネオスカ電波;
#CREDIT:;
#MUSIC:Dish washer Oiwa-chan.ogg;
#BANNER:Dish washer Oiwa-chan.png;
#BACKGROUND:Dish washer Oiwa-chan-bg.png;
#CDTITLE:./CDTitles/bm IIDX 24 SINOBUZ.png;
#SAMPLESTART:78.719;
#SAMPLELENGTH:15.000;
#SELECTABLE:YES;
#OFFSET:0.120;
#BPMS:0.000=210.000
,36.000=105.000
,48.000=210.000
,248.000=105.000
,254.000=210.000
,334.000=105.000
,336.000=210.000
,348.000=105.000
,349.000=210.000
;
#STOPS:348.000=0.571
,357.000=0.857
;
#TIMESIGNATURES:0.000=4=4,
252.000=6=4,
258.000=4=4,
334.000=2=4,
336.000=4=4,
344.000=5=4,
349.000=4=4,
353.000=5=4,
358.000=4=4
;
#BGCHANGES:0.000=Dish washer Oiwa-chan.mp4=1.000=0=0=0=StretchNoLoop====,
99999.000=-nosongbg-=1.000=0=0=0=StretchNoLoop====
;
#FGCHANGES:;

//--------------- dance-single - forcednature ----------------
#NOTEDATA:;
#STEPSTYPE:dance-single;
#DESCRIPTION:forcednature;
#DIFFICULTY:Beginner;
#METER:3;
#RADARVALUES:0,0,0,0,0;
#CREDIT:forcednature;
#NOTES:
0000
0000
0000
0000
,
0000
0000
0000
0000
,
0000
0000
0000
0000
,
0000
0000
0000
0000
,
0000
0000
0000
0000
,
0000
0000
0000
0000
,
0000
0000
0000
0000
,
1001
0000
0000
0000
,
0000
0000
0000
0000
,
0110
0000
0000
0000
,
0001
0000
0000
0000
,
1000
0000
0000
0000
,
0100
0000
0000
0000
,
0010
0000
0000
0000
,
1001
0000
0000
0000
,
0000
0000
0000
0000
,
0001
0000
0000
0000
,
0000
0000
0000
0000
,
0100
0000
0000
0000
,
0000
0000
0000
0000
,
0010
0000
0000
0000
,
0000
0000
0000
0000
,
1000
0000
0000
0000
,
0000
0000
0000
0000
,
0100
0000
0000
0000
,
0000
0000
0000
0000
,
0010
0000
0000
0000
,
0010
0000
0000
0000
,
0001
0000
0000
0000
,
0100
0000
0000
0000
,
0010
0000
0000
0000
,
0000
0000
0000
0000
,
1000
0000
0000
0000
,
0000
0000
0000
0000
,
0001
0000
0000
0000
,
0000
0000
0000
0000
,
0010
0000
0000
0000
,
0010
0000
0000
0000
,
0100
0000
0000
0000
,
0000
0000
0000
0000
,
1000
0000
0000
0000
,
1000
0000
0000
0000
,
0001
0000
0000
0000
,
0000
0000
0000
0000
,
0100
0000
0100
0000
,
0100
0000
0000
0000
,
0010
0000
0000
0000
,
0000
0000
0010
0000
,
1000
0000
0000
0000
,
0000
0000
1000
0000
,
0100
0000
0000
0000
,
0000
0000
0100
0000
,
0001
0000
0000
0000
,
0001
0000
0000
0000
,
0010
0000
0000
0000
,
0010
0000
1000
0000
,
1000
0000
0000
0000
,
1000
0000
0100
0000
,
0100
0000
0000
0000
,
0100
0000
0001
0000
,
0001
0000
0000
0000
,
0010
0000
0000
0000
,
0220
0000
0000
0000
,
0000
0000
0330
0000
,
0000
0000
1001
0000
,
0000
0000
1000
0000
,
0000
0000
0100
0000
,
0000
0000
0000
0000
,
0000
0000
1000
0000
,
0000
0000
0010
0000
,
0010
0000
0010
0000
,
0000
0000
0100
0000
,
0000
0000
1001
0000
,
0000
0000
0001
0000
,
0000
0000
0100
0000
,
0000
0000
0000
0000
,
0000
0000
0001
0000
,
0000
0000
0010
0000
,
0010
0000
0010
0000
,
0000
0000
0100
0000
,
0000
0000
1000
0000
,
0000
1000
0001
0000
,
0000
1000
0001
0000
,
0000
1000
0001
0000
,
0100
0100
0000
0000
,
0100
0100
0000
0000
,
0100
0100
0000
0000
,
0010
1000
1000
0000
,
0000
1000
1000
0000
,
0000
0000
2002
0000
,
0000
0000
0000
0000
,
0000
0000
0000
0000
,
3003
0000
0000
0000
;

//--------------- dance-single - forcednature ----------------
#NOTEDATA:;
#STEPSTYPE:dance-single;
#DESCRIPTION:forcednature;
#DIFFICULTY:Easy;
#METER:7;
#RADARVALUES:0,0,0,0,0;
#CREDIT:forcednature;
#NOTES:
0000
0000
0000
0000
,
0000
0000
0000
0000
,
0000
0000
0000
0000
,
0000
0000
0000
0000
,
0000
0000
0000
0000
,
0000
0000
0000
0000
,
0000
0000
0000
0000
,
0100
0100
0010
0000
,
0220
0000
0330
0000
,
1001
0000
1000
0000
,
0100
0100
0010
0000
,
0110
0000
1001
0000
,
0220
0000
0330
0000
,
0001
0001
0001
0000
,
1000
0000
0010
0000
,
0100
0000
0001
0000
,
2000
0000
3000
0000
,
0200
0000
0300
0000
,
0010
0000
0001
0000
,
1000
0000
0001
0000
,
0020
0000
0030
0000
,
0200
0000
0300
0000
,
1000
0000
0001
0000
,
0100
0000
0001
0000
,
2000
0000
3000
0000
,
0020
0000
0030
0000
,
0220
0000
0330
0000
,
2002
0000
3003
0000
,
0110
0000
1001
0000
,
1000
1000
1000
0000
,
0010
0000
0100
0000
,
0001
0000
0000
0000
,
0010
0001
0000
0000
,
0010
0100
0000
0000
,
1000
0000
0010
0000
,
0100
0000
0000
0000
,
0001
1000
0000
0000
,
0010
1000
0000
0000
,
0001
0000
0010
0000
,
0100
0000
1000
0000
,
1001
0000
0000
0000
,
0010
0010
0010
0000
,
1001
0000
0000
0000
,
0110
0000
0000
0000
,
1000
0000
0001
0000
,
2002
0000
3003
0000
,
1000
0100
1000
0000
,
0100
0000
0010
0000
,
0001
0100
0001
0000
,
0100
0000
0010
0000
,
1000
0100
1000
0000
,
0100
0000
0010
0000
,
0002
0000
1000
0000
,
2003
0000
3020
0000
,
0130
0100
0100
0000
,
0001
0000
0010
0000
,
0100
0100
0100
0000
,
1000
0000
0010
0000
,
0100
0100
0100
0000
,
0001
0000
1000
0000
,
0200
0000
0010
0000
,
0320
0000
0230
0300
,
2002
0000
0000
0000
,
3003
0000
0000
0000
0000
0220
0000
0000
0000
0000
0000
0000
,
0000
0330
0001
0001
,
0001
0000
1000
0000
,
0010
0000
0100
0000
,
0001
0000
0100
0000
,
0000
0000
0010
0000
,
1000
0000
0001
0000
,
0010
0000
0000
0110
,
0000
0110
0000
0000
,
0000
0000
1000
1000
,
1000
0000
0010
0000
,
0100
0000
0001
1000
,
0001
0000
0010
0000
,
0100
0000
0210
0000
,
0000
0000
1000
0000
,
1300
0000
0001
0001
,
0010
0000
0100
1000
,
0100
0000
1000
1000
,
0000
0010
1000
1000
,
0000
0010
1000
1000
,
0000
0010
0200
0300
,
0001
1000
0001
1000
,
0001
1000
0001
1000
,
0001
1000
0001
1000
,
0002
0003
0000
0000
0010
0000
0000
0000
0100
0000
0000
0000
0010
0000
0000
0000
,
0100
0010
0100
0010
,
0100
0000
2002
0000
,
0000
0000
0000
0000
,
0000
0000
0000
0000
,
3003
0000
0000
0000
;

//--------------- dance-single - forcednature ----------------
#NOTEDATA:;
#STEPSTYPE:dance-single;
#DESCRIPTION:forcednature;
#DIFFICULTY:Medium;
#METER:12;
#RADARVALUES:0,0,0,0,0;
#CREDIT:forcednature;
#NOTES:
0000
0000
0000
0000
,
0000
0000
0000
0000
,
0000
0000
0000
0000
,
0000
0000
0000
0000
,
0000
0000
0000
0000
,
0000
0000
0000
0000
,
0000
0000
0000
0000
,
1001
0000
1001
0000
0100
0010
0000
0220
,
0000
0000
0330
0000
,
1002
0000
0203
0000
,
0320
2030
3002
0003
,
1100
0000
0011
0000
,
2002
0000
3003
0000
,
0101
0101
1000
0010
,
0000
1000
0000
0100
1000
0100
0000
0020
,
0000
0032
0000
2003
0000
3020
0000
0230
,
0000
0001
0000
0010
,
0000
0001
0300
1010
,
0000
0001
0000
0010
0001
0010
0000
0200
,
0000
2300
0000
3002
0000
0203
0000
0320
,
0000
0000
0000
0000
0000
0000
0000
0000
0000
0000
0000
0000
0000
0000
0000
0000
0000
0000
0000
0000
0000
0000
0000
0000
0000
0000
0000
0000
0000
0000
0000
0000
0000
0000
0000
0000
0000
0000
0000
0000
0000
0000
0000
0000
0000
0000
0000
0000
0100
0000
0000
0000
0000
0000
0000
0000
0000
0000
0000
0000
0000
0000
0000
0000
0000
0000
0000
0000
0000
0000
0000
0000
0000
0000
0000
0000
0000
0000
0000
0000
0000
0000
0000
0000
0000
0000
0000
0000
0000
0000
0000
0000
0000
0000
0000
0000
2000
0030
0000
0000
0000
0000
0000
0000
0000
0000
0000
0000
0000
0000
0000
0000
0000
0000
0000
0000
0000
0000
0000
0000
0000
0000
0000
0000
0000
0000
0000
0000
0000
0000
0000
0000
0000
0000
0000
0000
0000
0000
0000
0000
0000
0000
0000
0000
0000
0000
0000
0000
0000
0000
0000
0000
0000
0000
0000
0000
0000
0000
0000
0000
0000
0000
0000
0000
0000
0000
0000
0000
0000
0000
0000
0000
0000
0000
0000
0000
0000
0000
0000
0000
0000
0000
0000
0000
0000
0000
0000
0000
0000
0000
0000
0000
,
0100
0100
3001
0011
,
0000
0001
0100
0001
0100
0001
0000
2000
,
0000
3020
0000
0230
0000
0000
0001
0000
,
0000
0000
0010
0000
0302
0000
0000
2003
,
0000
0100
3010
0110
,
0001
0000
0100
0010
0000
0010
1000
0000
,
0001
0000
0010
0100
0000
0100
1000
0000
,
2002
3003
0220
0330
,
0002
0203
0320
2030
,
3000
0001
0000
0010
0001
0000
0010
0000
,
0100
0000
1000
0200
0000
0000
0300
0000
,
1000
0010
1000
0020
0000
0000
0030
0000
,
0100
0001
0100
0002
0000
0000
0003
0000
,
1000
0100
0010
0100
,
0010
0000
0001
2000
0000
0000
3000
0000
,
0001
0100
0001
0200
0000
0000
0300
0000
,
0010
1000
0010
2000
0000
0000
3000
0000
,
0001
0010
0001
0100
,
0010
1000
0001
0000
,
0010
0100
1000
0010
,
0110
0100
2002
3003
,
2000
0100
0200
3300
,
0002
0010
0020
0033
,
0001
0000
0001
0000
0100
0000
0010
0000
0010
0000
1000
0000
,
2002
0000
3003
0000
,
1000
0100
1100
0000
,
0001
0010
0000
0022
0000
0000
0033
0000
,
0001
0100
0101
0000
,
1000
0010
0000
2020
0000
0000
3030
0000
,
0001
0000
0010
0100
0000
0010
0001
0000
,
1000
0100
0220
0330
,
0001
0000
0001
0000
0001
0000
0100
0000
0100
0000
0100
0000
,
0010
0000
1000
0000
0001
0000
0100
0000
0001
0000
1000
0000
,
0010
0100
0010
0100
0001
0000
0010
0100
,
0010
0100
1000
0000
0220
0000
0330
0000
,
0001
0100
0001
0100
0010
0000
1000
0100
,
1000
0100
0010
0000
2002
0000
3003
0000
,
0001
0100
0001
0100
0010
0000
1000
0100
,
1000
0000
1000
0000
0001
0000
0100
0000
0100
0000
0010
0000
,
2000
3200
0320
0032
,
0203
0300
2002
3003
,
0210
0000
0000
0302
0000
0000
2003
0000
0000
3010
0000
0220
,
0000
0330
0000
0100
0000
2002
0000
0000
0000
0000
0000
0000
,
0000
3003
1000
1100
,
0011
0000
0001
0100
,
0010
0100
0010
0000
1000
0000
0001
0000
,
0010
0000
0001
0000
1000
0100
0010
0000
,
0001
1000
0020
0100
,
0100
0030
0001
1000
,
0001
0010
0001
0000
0100
0000
0101
0000
,
0010
1010
2000
3200
,
0320
0031
1001
0110
,
2002
3003
0001
0100
,
0010
1000
0010
0000
0200
0000
0001
0000
,
0001
0300
0020
1000
,
1000
0030
2100
0000
,
0001
0000
0010
0000
,
3001
0000
1000
0000
0001
0000
0001
0100
,
0000
0100
0010
0000
1000
0000
0001
0000
,
1001
0000
0000
0000
1000
0100
1000
0100
,
0000
0000
1100
0000
0001
0010
0001
0010
,
0000
0000
0011
0000
1000
0010
1000
0010
,
0000
1010
0110
0000
,
0001
1000
0001
1000
0001
1000
0001
1000
,
0001
1000
0001
1000
0001
1000
0001
1000
,
0001
1000
0001
1000
0001
1000
0001
1000
,
0002
0003
0000
0000
0010
0000
0100
0000
0010
0000
0100
0000
0010
0000
0100
0000
,
0010
0100
0010
0100
0010
0100
0010
0100
,
0010
0100
0000
0000
2002
0000
0000
0000
,
0000
0000
0000
0000
,
0000
0000
0000
0000
,
3003
0000
0000
0000
;

//--------------- dance-single - forcednature ----------------
#NOTEDATA:;
#STEPSTYPE:dance-single;
#DESCRIPTION:forcednature;
#DIFFICULTY:Hard;
#METER:16;
#RADARVALUES:0,0,0,0,0;
#CREDIT:forcednature;
#NOTES:
0000
0000
0000
0000
,
0000
0000
0000
0000
,
0000
0000
0000
0000
,
0000
0000
0000
0000
,
0000
0000
0000
0000
,
0000
0000
0000
0000
,
0000
0000
0000
0000
,
1001
0000
1001
0000
0100
0010
0000
0220
,
0000
0000
0330
0000
,
1002
0000
2003
0000
,
3200
0000
0320
0000
0032
0000
1003
0010
,
0101
0000
1100
0000
,
2002
0000
3003
0000
,
0110
0000
0110
0000
0001
0010
0100
1000
,
0000
0001
0100
1000
0100
0001
0000
0011
,
0000
0110
0000
1100
0000
1010
0000
0210
,
0000
0000
1000
0000
0010
0010
0000
0001
,
0000
0010
0010
0000
1300
0100
0001
1000
,
0000
1000
0100
0001
0100
1000
0000
1010
,
0000
0110
0000
0101
0000
0011
0000
0210
,
0000
0000
1300
0001
0200
0000
0001
0001
,
0000
0010
0010
0000
1300
0100
0001
1000
,
0000
0100
0010
0001
0100
0010
0000
1010
,
0000
1000
0100
0020
0001
0001
0001
0000
,
0100
0000
1000
0000
0230
0000
1300
0002
,
0000
0100
0100
0000
1003
0001
1001
0000
,
1000
0100
0010
0002
0000
1003
1100
0000
,
0001
0100
0010
2000
0000
3001
0101
0000
,
2010
3100
0012
0103
,
1000
0001
0010
0010
0001
1000
0010
0100
,
0000
0001
0010
0100
1000
0000
0100
0010
,
0001
1000
0010
0100
0000
0001
1000
0000
,
0001
0100
1000
0200
0000
0010
0310
0000
,
1000
0100
0001
0200
0000
0010
0310
0000
,
0001
0010
0100
1000
0010
0100
0001
1000
,
0100
0010
0001
2000
0000
0010
3001
0000
,
1000
0100
0001
0200
0000
0010
1300
0001
,
0000
0100
0010
1000
0001
0010
0100
1000
,
0010
0210
1000
0320
,
2030
0000
0100
0000
3001
0010
0100
1000
,
0010
0100
0110
0000
1000
0001
0010
0100
,
0110
1100
0011
0100
,
1002
0000
0000
0100
0000
0000
0010
0000
0010
0000
0003
0000
,
2001
0000
0000
0100
0000
0000
0010
0000
0010
0000
3000
0000
,
1100
0000
1001
0000
1010
0000
0101
0000
1001
0000
0011
0000
,
0220
0000
0330
0000
,
1000
1000
0100
0010
0002
0000
1003
1000
,
0100
0010
0002
0000
1003
0010
1001
0000
,
0001
0001
0100
0010
2000
0000
3001
0001
,
0100
0010
2000
0000
3100
0010
1001
0000
,
1000
0100
0001
0100
2000
0000
3001
0100
,
1000
0100
0002
0000
1003
1000
0100
0100
,
0020
0000
0001
0000
0001
0000
0032
0000
0100
0000
0100
0000
,
2003
0000
0100
0000
0010
0000
3002
0000
0100
0000
0010
0000
,
1003
0100
1000
0100
1000
0000
0001
0000
0020
0000
0000
0000
0130
1000
0100
1000
,
0100
0010
0002
0000
0103
0010
0110
0000
,
0001
0100
0001
0100
0001
0000
1000
0000
0020
0000
0000
0000
0130
0001
0100
0001
,
0100
0010
1000
0001
2002
0000
3003
0000
,
1000
0001
1000
0001
1000
0000
0100
0000
0020
0000
0000
0000
0031
1000
0001
1000
,
0001
0000
0100
0000
0101
0000
1000
0000
0100
0000
1100
0000
,
0001
0010
0100
1000
0010
0100
0110
0000
,
0100
0001
1000
0200
0020
0000
0330
0000
,
1001
0000
0001
1000
0000
1000
0100
0000
0100
0010
0000
0002
,
0000
0000
0000
0000
0100
0000
0103
0000
0000
0000
2020
0000
0000
0000
0000
0000
0000
0000
0000
0000
0000
3030
0000
0000
,
0000
0001
0001
0000
0101
0000
1010
0000
,
0101
0000
0001
0010
0000
0100
0001
0100
,
1000
0001
0010
0100
2000
0000
3010
0100
,
0002
0000
0013
0100
2000
3002
0203
0320
,
1030
0000
1001
0000
1000
0010
0100
1000
,
0100
0010
1000
0001
0000
0010
0100
1000
,
0010
1000
0100
0010
0001
0100
0202
0303
,
1000
0000
0100
0000
2200
0000
3300
0000
0001
0000
1000
0001
1000
0000
0001
0000
,
0100
0100
0010
0000
0101
0000
1100
0000
,
0101
0000
1000
0010
0100
0001
1000
0010
,
0100
1000
0100
0001
2000
0000
0100
0000
,
3001
0100
0001
0010
0200
0302
0203
2300
,
3001
0000
1000
0001
1000
0000
0010
0000
1002
0000
0000
0000
0100
0000
0000
0000
,
1000
0010
2003
0100
,
0001
0001
0001
0000
3010
0100
0001
0010
,
0100
0000
1000
0000
0010
0000
0100
0000
0110
0000
0000
0001
1000
0000
0100
0000
,
0110
0000
0000
0000
0010
0000
0001
0000
1000
0010
1000
0010
1000
0000
0002
0000
,
0000
0000
0013
0000
0100
0000
1000
0000
0001
0010
0001
0010
0001
0000
2000
0000
,
0000
0000
3010
0000
0100
0000
0001
0000
0010
0100
0010
0100
0010
0000
0002
0000
,
0000
1003
0010
0100
1001
0000
0000
0000
,
1000
0001
1000
0001
1000
0001
1000
0001
1000
0001
1000
0001
1000
0001
1000
0001
,
1000
0001
1000
0001
1000
0001
1000
0001
1000
0001
1000
0001
1000
0001
1000
0001
,
1000
0001
1000
0001
1000
0001
1000
0001
1000
0001
1000
0001
1000
0001
1000
0001
,
2000
3000
0000
0000
0010
0100
0010
0100
0010
0100
0010
0100
0010
0100
0010
0100
,
0010
0100
0010
0100
0010
0100
0010
0100
0010
0100
0010
0100
0010
0100
0010
0100
,
0010
0100
0010
0100
0000
0000
0000
0000
2002
0000
0000
0000
0000
0000
0000
0000
,
0000
0000
0000
0000
,
0000
0000
0000
0000
,
3003
0000
0000
0000
;

//--------------- dance-double - forcednature ----------------
#NOTEDATA:;
#STEPSTYPE:dance-double;
#DESCRIPTION:forcednature;
#DIFFICULTY:Easy;
#METER:7;
#RADARVALUES:0,0,0,0,0;
#CREDIT:forcednature;
#NOTES:
00000000
00000000
00000000
00000000
,
00000000
00000000
00000000
00000000
,
00000000
00000000
00000000
00000000
,
00000000
00000000
00000000
00000000
,
00000000
00000000
00000000
00000000
,
00000000
00000000
00000000
00000000
,
00000000
00000000
00000000
00000000
,
00001000
00001000
00010000
00000000
,
00022000
00000000
00033000
00000000
,
01000000
00000000
00010000
00000000
,
00100000
00100000
01000000
00000000
,
01100000
00000000
10010000
00000000
,
02200000
00000000
03300000
00000000
,
00010000
00010000
00010000
00000000
,
00100000
00000000
00001000
00000000
,
00010000
00000000
00000100
00000000
,
00002000
00000000
00003000
00000000
,
00000002
00000000
00000003
00000000
,
00000100
00000000
00000010
00000000
,
00001000
00000000
00000001
00000000
,
00000200
00000000
00000300
00000000
,
00000020
00000000
00000030
00000000
,
00001000
00000000
00000100
00000000
,
00010000
00000000
00001000
00000000
,
00200000
00000000
00300000
00000000
,
00020000
00000000
00030000
00000000
,
02200000
00000000
03300000
00000000
,
20020000
00000000
30030000
00000000
,
01100000
00000000
10010000
00000000
,
00010000
00010000
00010000
00000000
,
00100000
00000000
00001000
00000000
,
00010000
00000000
00000000
00000000
,
00000100
00001000
00000000
00000000
,
00001000
00000010
00000000
00000000
,
00000100
00000000
00000001
00000000
,
00000010
00000000
00000000
00000000
,
00000100
00001000
00000000
00000000
,
00000100
00010000
00000000
00000000
,
00001000
00000000
00100000
00000000
,
00010000
00000000
01000000
00000000
,
10010000
00000000
00000000
00000000
,
00010000
00010000
00010000
00000000
,
01100000
00000000
00000000
00000000
,
10010000
00000000
00000000
00000000
,
00010000
00000000
01000000
00000000
,
00022000
00000000
00033000
00000000
,
00000100
00001000
00000100
00000000
,
00000010
00000000
00000001
00000000
,
00000100
00000001
00000100
00000000
,
00000010
00000000
00001000
00000000
,
00000100
00010000
00000100
00000000
,
00010000
00000000
00001000
00000000
,
00200000
00000000
00010000
00000000
,
00320000
00000000
20030000
00000000
,
30100000
00100000
00100000
00000000
,
01000000
00000000
00010000
00000000
,
00100000
00100000
00100000
00000000
,
00001000
00000000
00010000
00000000
,
00000100
00000100
00000100
00000000
,
00001000
00000000
00000010
00000000
,
00000200
00000000
00000001
00000000
,
00000302
00000000
00002003
00003000
,
00002002
00000000
00000000
00000000
,
00003003
00000000
00000000
00000000
00000000
00000220
00000000
00000000
00000000
00000000
00000000
00000000
,
00000000
00000330
00001000
00001000
,
00001000
00000000
00000100
00000000
,
00010000
00000000
00001000
00000000
,
00100000
00000000
00010000
00000000
,
00000000
00000000
01000000
00000000
,
00100000
00000000
10000000
00000000
,
00010000
00000000
00000000
01100000
,
00000000
01100000
00000000
00000000
,
00000000
00000000
10000000
10000000
,
10000000
00000000
00010000
00000000
,
00100000
00000000
00001000
00010000
,
00001000
00000000
00010000
00000000
,
00000100
00000000
00002002
00000000
,
00000000
00000000
00000000
00000000
,
00003003
00000000
00000001
00000001
,
00000100
00000000
00000001
00000000
,
00000010
00000000
00000100
00000100
,
00000000
00000100
00001000
00001000
,
00000000
00001000
00000010
00000010
,
00000000
00000010
00020000
00030000
,
00001000
00010000
00001000
00010000
,
00001000
00010000
00001000
00010000
,
00001000
00010000
00001000
00010000
,
00002000
00003000
00000000
00000000
00100000
00000000
00000000
00000000
01000000
00000000
00000000
00000000
00100000
00000000
00000000
00000000
,
01000000
00100000
01000000
00100000
,
01000000
00000000
20020000
00000000
,
00000000
00000000
00000000
00000000
,
00000000
00000000
00000000
00000000
,
30030000
00000000
00000000
00000000
;

//--------------- dance-double - forcednature ----------------
#NOTEDATA:;
#STEPSTYPE:dance-double;
#DESCRIPTION:forcednature;
#DIFFICULTY:Medium;
#METER:12;
#RADARVALUES:0,0,0,0,0;
#CREDIT:forcednature;
#NOTES:
00000000
00000000
00000000
00000000
,
00000000
00000000
00000000
00000000
,
00000000
00000000
00000000
00000000
,
00000000
00000000
00000000
00000000
,
00000000
00000000
00000000
00000000
,
00000000
00000000
00000000
00000000
,
00000000
00000000
00000000
00000000
,
00011000
00000000
00011000
00000000
00001000
00010000
00000000
00022000
,
00000000
00000000
00033000
00000000
,
00000200
00000000
00002300
00000000
,
00003002
00000203
00002300
00003000
,
00011000
00000000
01100000
00000000
,
20020000
00000000
30030000
00000000
,
11000000
11000000
00010000
00100000
,
00000000
00001000
00000000
00010000
00001000
00010000
00000000
00000200
,
00000000
00002300
00000000
00003002
00000000
00000023
00000000
00000230
,
00000000
00001000
00000000
00010000
,
00000000
00001000
00000300
00000110
,
00000000
00000010
00000000
00000001
00001000
00000001
00000000
00000200
,
00000000
00002300
00000000
00023000
00000000
00230000
00000000
02300000
,
00000000
00010000
03200000
00000000
,
10000000
10000000
01300000
10010000
,
00000000
10000000
01000000
10000000
00010000
00100000
00000000
00002000
,
00000000
00023000
00000000
00030020
00000000
00000000
00001000
00000000
,
00000000
00000000
00000100
00000000
00000230
00000000
00000000
00000302
,
00000000
00000010
00000013
00000110
,
00001000
00000000
00001000
00000100
00000000
00000100
00010000
00000000
,
00001000
00000000
00001000
00100000
00000000
00100000
00010000
00000000
,
20020000
30030000
02200000
03300000
,
20000000
32000000
03020000
00032000
,
00003000
00000010
00000000
00000100
00001000
00000000
00000100
00000000
,
00000010
00000000
00000001
00002000
00000000
00000000
00003000
00000000
,
00000010
00010000
00000010
00020000
00000000
00000000
00030000
00000000
,
00001000
01000000
00001000
02000000
00000000
00000000
03000000
00000000
,
00100000
10000000
00010000
10000000
,
01000000
00000000
00010000
00002000
00000000
00000000
00003000
00000000
,
00000010
00000100
00000010
00000200
00000000
00000000
00000300
00000000
,
00001000
00000001
00001000
00000002
00000000
00000000
00000003
00000000
,
00000100
00001000
00010000
00001000
,
00010000
00100000
10000000
00000000
,
01000000
00010000
00001000
00000010
,
00000110
00000100
00002002
00003003
,
00020000
00001000
00002000
00033000
,
02000000
00010000
00020000
03030000
,
10000000
00000000
01000000
00000000
00010000
00000000
00001000
00000000
00000010
00000000
00000001
00000000
,
00002002
00000000
00003003
00000000
,
00001000
00000100
00001100
00000000
,
00010000
00001000
00000000
00022000
00000000
00000000
00033000
00000000
,
01000000
00010000
01010000
00000000
,
10000000
00100000
00000000
20200000
00000000
00000000
30300000
00000000
,
00010000
00000000
00100000
00001000
00000000
00010000
00001000
00000000
,
00010000
00000100
00002200
00003300
,
00000001
00000000
00000001
00000000
00000100
00000000
00001000
00000000
00001000
00000000
00010000
00000000
,
00100000
00000000
10000000
00000000
00010000
00000000
01000000
00000000
00010000
00000000
10000000
00000000
,
01000000
00100000
01000000
00100000
00001000
00000000
00010000
00000100
,
00010000
00000100
00001000
00000000
00002002
00000000
00003003
00000000
,
00000001
00000100
00000001
00000100
00001000
00000000
00010000
00100000
,
00010000
00100000
10000000
00000000
20020000
00000000
30030000
00000000
,
00010000
00100000
00010000
00100000
00001000
00000000
00010000
00000100
,
00001000
00000000
00001000
00000000
00000001
00000000
00000100
00000000
00000100
00000000
00000010
00000000
,
00002000
00003200
00020300
00032000
,
00203000
00300000
20020000
30030000
,
20000000
00000000
00000000
32000000
00000000
00000000
03020000
00000000
00000000
00031000
00000000
00022000
,
00000000
00033000
00000000
00000010
00000000
00002002
00000000
00000000
00000000
00000000
00000000
00000000
,
00000000
00003003
00000001
00000101
,
00001010
00000000
00000001
00000010
,
00000100
00001000
00000100
00000000
00010000
00000000
00001000
00000000
,
00100000
00000000
00010000
00000000
10000000
00100000
10000000
00000000
,
00010000
00100000
00002000
00010000
,
00010000
00003000
00010000
00000100
,
00001000
00000100
00001000
00000000
00000010
00000000
00001001
00000000
,
00000100
00001001
00000002
00000203
,
00002300
00013000
00011000
00101000
,
00220000
00330000
00010000
01000000
,
00100000
10000000
00100000
00000000
20000000
00000000
01000000
00000000
,
01000000
30000000
00020000
00100000
,
00100000
00030000
00002000
00000000
,
01000000
00000000
00010000
00000000
,
00100000
00000000
00003000
00000000
00001000
00000000
00001000
00010000
,
00000000
00010000
00000100
00000000
00001000
00000000
00000010
00000000
,
00000110
00000000
00000000
00000000
00000001
00001000
00000001
00001000
,
00000000
00000000
00001100
00000000
00010000
00001000
00010000
00001000
,
00000000
00000000
00110000
00000000
10000000
00100000
10000000
00100000
,
00000000
01100000
10010000
00000000
,
00010000
10000000
00010000
10000000
00010000
10000000
00010000
10000000
,
00010000
10000000
00010000
10000000
00010000
10000000
00010000
10000000
,
00010000
10000000
00010000
10000000
00010000
10000000
00010000
10000000
,
00020000
00030000
00000000
00000000
00001000
00000000
00000001
00000000
00001000
00000000
00000001
00000000
00001000
00000000
00000001
00000000
,
00001000
00000001
00001000
00000001
00001000
00000001
00001000
00000001
,
00001000
00000001
00000000
00000000
00002002
00000000
00000000
00000000
,
00000000
00000000
00000000
00000000
,
00000000
00000000
00000000
00000000
,
00003003
00000000
00000000
00000000
;

//--------------- dance-double - forcednature ----------------
#NOTEDATA:;
#STEPSTYPE:dance-double;
#DESCRIPTION:forcednature;
#DIFFICULTY:Hard;
#METER:17;
#RADARVALUES:0,0,0,0,0;
#CREDIT:forcednature;
#NOTES:
00000000
00000000
00000000
00000000
,
00000000
00000000
00000000
00000000
,
00000000
00000000
00000000
00000000
,
00000000
00000000
00000000
00000000
,
00000000
00000000
00000000
00000000
,
00000000
00000000
00000000
00000000
,
00000000
00000000
00000000
00000000
,
00011000
00000000
00011000
00000000
01000000
00010000
00000000
00220000
,
00000000
00030000
02000000
03300000
,
20010000
00000000
32000000
03020000
00032000
00000000
00000000
00000000
,
00003020
00000000
00000032
00002003
00003020
00000000
00000130
00000000
,
00002002
00003003
00022000
00033000
,
20020000
00000000
30030000
00000000
,
01100000
00000000
01100000
00000000
10000000
00100000
01000000
00010000
,
00000000
10000000
01000000
00010000
00001000
00010000
00000000
00010100
,
00000000
00001100
00000000
00001010
00000000
00000110
00000000
00000102
,
00000000
00000000
00000010
00000000
00001000
00001000
00000000
00000100
,
00000000
00001000
00001000
00000000
00000013
00000001
00000100
00001000
,
00000000
00010000
00001000
00010000
00100000
10000000
00000000
10100000
,
00000000
11000000
00000000
01100000
00000000
00110000
00000000
02010000
,
00000000
00000000
03100000
10000000
00020000
00000000
01000000
01000000
,
00000000
10000000
10000000
00000000
00130000
00010000
00001000
00000100
,
00000000
00000010
00000001
00000100
00001000
00000100
00000000
00000110
,
00000000
00000010
00001000
00000002
00000010
00000010
00000010
00000000
,
00001000
00000000
00000100
00000000
00000023
00000000
00001030
00020000
,
00000000
00000100
00000100
00000000
00031000
00010000
00011000
00000000
,
01000000
00001000
00010000
00000020
00000000
00001030
00001100
00000000
,
00000100
00010000
00001000
00200000
00000000
00310000
01010000
00000000
,
00102000
01003000
00020010
00030100
,
00010000
00001000
00000010
00000010
00000100
00001000
00000001
00000100
,
00000000
00001000
00010000
00100000
01000000
00000000
00100000
00010000
,
00001000
01000000
00010000
01000000
00000000
00100000
10000000
00000000
,
01000000
00010000
00001000
00000020
00000000
00000031
00000001
00000000
,
00000100
00001000
00010000
00200000
00000000
10300000
10000000
00000000
,
01000000
00010000
00001000
00010000
00000100
00001000
00000010
00000100
,
00000001
00000010
00001000
00020000
00000000
00031000
00000010
00000000
,
00000001
00000100
00001000
00020000
00000000
00130000
01000000
00020000
,
00000000
10030000
00100000
10000000
01000000
00010000
00001000
00000000
,
00011000
00000200
00001000
00000320
,
00000032
00000000
00000100
00000000
00001003
00000001
00000010
00001000
,
00020000
00000000
01000000
00000000
00031000
00100000
00010000
01000000
,
01100000
10100000
11000000
00010000
,
10020000
00000000
00000000
01000000
00000000
00000000
10000000
00000000
00100000
00000000
00000000
00000000
,
00032000
00000000
00000000
00000100
00000000
00000000
00000001
00000000
00000010
00000000
00000000
00000000
,
00003001
00000000
00000100
00000000
00001000
00000000
00010000
00000000
01000000
00000000
10000000
00000000
,
02200000
00000000
03300000
00000000
,
10000000
10000000
01000000
00010000
00002000
00000000
10003000
10000000
,
01000000
00010000
00002000
00000000
00003010
00000100
00001001
00000000
,
00000001
00000001
00000100
00001000
00020000
00000000
00030001
00000001
,
00000100
00001000
00020000
00000000
00130000
01000000
10010000
00000000
,
10000000
10000000
01000000
00010000
00002000
00000000
10003000
10000000
,
01000000
00010000
00002000
00000000
00003010
00000010
00000100
00001000
,
00000002
00000000
00000100
00000000
00000100
00000000
00000203
00000000
00001000
00000000
00001000
00000000
,
00002300
00000000
00010000
00000000
00100000
00000000
00023000
00000000
00000010
00000000
00001000
00000000
,
00030100
00001000
00000100
00001000
00000100
00000000
00010000
00000000
00002000
00000000
00000000
00000000
01003000
00010000
01000000
00010000
,
01000000
00001000
00020000
00000000
00030010
00001000
00001001
00000000
,
00010000
00001000
00010000
00001000
00010000
00000000
00100000
00000000
02000000
00000000
00000000
00000000
03001000
00010000
00001000
00010000
,
00001000
00000010
00000100
00001000
00002002
00000000
00003003
00000000
,
00001000
00000100
00001000
00000100
00010000
00000000
00001000
00000000
00200000
00000000
00000000
00000000
00310000
01000000
00010000
01000000
,
00001000
00000000
00010000
00000000
00011000
00000000
00000010
00000000
00001000
00000000
00001010
00000000
,
00000001
00000100
00001000
00010000
00100000
10000000
10010000
00000000
,
10000000
01000000
00010000
00002000
00200000
00000000
00303000
00000000
,
00011000
00000000
00010000
00001000
00000000
00001000
00000010
00000000
00000010
00000001
00000000
00000200
,
00000000
00000000
00000000
00000000
00001000
00000000
00001300
00000000
00000000
00000000
00022000
00000000
00000000
00000000
00000000
00000000
00000000
00000000
00000000
00000000
00000000
00030000
00000000
00000000
,
00000000
00100000
00103000
00000000
00110000
00000000
00011000
00000000
,
00001100
00000000
00000010
00001000
00000001
00000100
00001000
00010000
,
00100000
01000000
00010000
10000000
00200000
00000000
10300000
01000000
,
00020000
00000000
00031000
00000010
00000200
00002300
00003002
00000023
,
00000130
00000000
00001001
00000000
00000001
00000100
00000010
00000100
,
00001000
00010000
00100000
01000000
00000000
00010000
10000000
00100000
,
10000000
01000000
00010000
00001000
00100000
00010000
02020000
03030000
,
00000010
00000000
00001000
00000000
00002200
00000000
00003300
00000000
00010000
00000000
00001000
00010000
00001000
00000000
00010000
00000000
,
00001000
00000010
00000100
00000000
00001100
00000000
00011000
00000000
,
00110000
00000000
10000000
00100000
10000000
01000000
00010000
00001000
,
00000010
00000100
00001000
00000001
00000020
00000000
00000001
00000000
,
00000130
00010000
00001000
00100000
00020000
02030000
23000000
32000000
,
03010000
00000000
10000000
00010000
10000000
00000000
00100000
00000000
10020000
00000000
00000000
00000000
01000000
00000000
00000000
00000000
,
10000000
00100000
00032000
00000100
,
00000001
00000001
00000001
00000000
00003010
00001000
00010000
01000000
,
00100000
00000000
10000000
00000000
00010000
00000000
00100000
00000000
01100000
00000000
00000000
01000000
10000000
00000000
01000000
00000000
,
00010000
00000000
00000000
00000000
00001000
00000000
00000010
00000000
00000001
00001000
00000001
00001000
00000001
00000000
00000200
00000000
,
00000000
00000000
00001300
00000000
00010000
00000000
00100000
00000000
10000000
00010000
10000000
00010000
10000000
00000000
02000000
00000000
,
00000000
00000000
03010000
00000000
00001000
00000000
00000010
00000000
00000001
00001000
00000001
00001000
00000001
00000000
00000200
00000000
,
00000000
00001300
00010000
00100000
01100000
00000000
00000000
00000000
,
01000000
00100000
01000000
00100000
01000000
00100000
01000000
00100000
01000000
00100000
01000000
00100000
01000000
00100000
01000000
00100000
,
01000000
00100000
01000000
00100000
01000000
00100000
01000000
00100000
01000000
00100000
01000000
00100000
01000000
00100000
01000000
00100000
,
01000000
00100000
01000000
00100000
01000000
00100000
01000000
00100000
01000000
00100000
01000000
00100000
01000000
00100000
01000000
00100000
,
02000000
03000000
00000000
00000000
00000010
00000100
00000010
00000100
00000010
00000100
00000010
00000100
00000010
00000100
00000010
00000100
,
00000010
00000100
00000010
00000100
00000010
00000100
00000010
00000100
00000010
00000100
00000010
00000100
00000010
00000100
00000010
00000100
,
00000010
00000100
00000010
00000100
00000000
00000000
00000000
00000000
00002002
00000000
00000000
00000000
00000000
00000000
00000000
00000000
,
00000000
00000000
00000000
00000000
,
00000000
00000000
00000000
00000000
,
00003003
00000000
00000000
00000000
;
