#VERSION:0.83;
#TITLE:Devilz Staircase;
#SUBTITLE:;
#ARTIST:OSTER project;
#TITLETRANSLIT:;
#SUBTITLETRANSLIT:;
#ARTISTTRANSLIT:;
#GENRE:SYMPHONIC BREAK BEATS;
#CREDIT:;
#MUSIC:Devilz Staircase.ogg;
#BANNER:Devilz Staircase.png;
#BACKGROUND:Devilz Staircase-bg.png;
#CDTITLE:./CDTitles/bm IIDX 20 tricoro.png;
#SAMPLESTART:21.861;
#SAMPLELENGTH:15.000;
#SELECTABLE:YES;
#OFFSET:1.166;
#BPMS:0.000=185.000;
#STOPS:67.667=0.973;
#TIMESIGNATURES:0.000=4=4,
64.000=5=4,
69.000=4=4
;
#BGCHANGES:0.000=Devilz Staircase.mp4=1.000=0=0=0=StretchNoLoop====,
99999.000=-nosongbg-=1.000=0=0=0=StretchNoLoop====
;
#FGCHANGES:;

//--------------- dance-single - forcednature ----------------
#NOTEDATA:;
#STEPSTYPE:dance-single;
#DESCRIPTION:forcednature;
#CREDIT:forcednature;
#DIFFICULTY:Beginner;
#METER:3;
#RADARVALUES:0,0,0,0,0;
#NOTES:
0000
0000
0000
0000
,
0000
0000
0000
0000
,
0000
0000
0000
0000
,
0000
0000
0000
0000
,
0000
0000
0000
0000
,
0000
0000
0000
0000
,
0000
0000
0000
0000
,
0000
0000
0000
0000
,
0000
0000
0000
0000
,
1000
0000
0000
0000
,
0000
0000
0000
0000
,
0100
0000
0000
0000
,
0000
0000
0000
0000
,
0010
0000
0000
0000
,
0000
0000
0000
0000
,
0001
0000
0000
0000
,
0000
0000
0000
0000
,
0000
1001
0000
0000
,
0000
0000
0000
0110
,
0000
0000
0000
0000
,
0000
0001
0000
0000
,
0000
0000
0000
0000
,
0000
0100
0000
0000
,
0000
0000
0000
0000
,
0000
0010
0000
0000
,
0000
0000
0000
0000
,
0000
1000
0000
0000
,
0000
0000
0000
0000
,
0000
0001
0000
0000
,
0000
0000
0000
0000
,
0000
0010
0000
0000
,
0000
0000
0000
0000
,
0000
0001
0000
0000
,
0000
0000
0000
0000
,
0000
1000
0000
0000
,
0000
0100
0000
0000
,
0000
1000
0000
1000
,
0000
1000
0000
0001
,
0000
0100
0000
0000
,
0000
0010
0000
0000
,
0000
1001
0000
0000
,
0000
0000
0000
0000
,
0000
0000
0000
0000
,
0000
0000
0000
0000
,
0000
0000
0000
0000
,
0000
0000
0010
0000
,
0000
1001
0000
0000
,
0001
0000
0000
0100
,
0000
0000
0001
0000
,
0000
0010
0000
0000
,
0100
0000
0000
1000
,
0000
0001
0000
1000
,
0000
0001
0000
0000
,
0000
0100
0000
0000
,
0000
1001
0000
0000
,
0000
0000
0000
0000
,
0000
1000
0000
0100
,
0000
1000
0000
0000
,
0000
0001
0000
0001
,
0000
0010
0000
0000
,
0000
0001
0000
0001
,
0000
0100
0000
0000
,
0000
1001
0000
0000
,
0000
1000
0000
0000
,
0000
0010
0000
0100
,
0000
0001
0000
0000
,
0000
1001
0000
0000
,
0000
0100
0100
0000
,
0000
1001
0000
0000
,
0000
0100
0100
0000
,
0000
0110
0000
0000
,
0000
0001
0000
0000
,
0000
1000
0000
0100
,
0000
0010
0000
0000
,
0000
0001
0000
0001
,
0000
0001
0000
0100
,
0000
0010
0000
0010
,
0000
0010
0000
1000
,
0000
0001
0000
0000
,
0100
0000
2002
0000
,
0000
0000
0000
0000
,
0000
0000
0000
0000
,
0000
0000
0000
0000
,
0000
0000
3003
0000
;

//--------------- dance-single - forcednature ----------------
#NOTEDATA:;
#STEPSTYPE:dance-single;
#DESCRIPTION:forcednature;
#CREDIT:forcednature;
#DIFFICULTY:Easy;
#METER:4;
#RADARVALUES:0,0,0,0,0;
#NOTES:
0000
0000
0000
0000
,
0000
0000
0000
0000
,
0000
0000
0000
0000
,
0000
0000
0000
0000
,
0000
0000
0000
0000
,
0000
0000
0000
0000
,
0000
0000
0000
0000
,
0000
0000
0000
0000
,
0000
0000
0000
0000
,
1001
0000
0000
1000
,
0000
1000
1000
0000
,
1001
0000
0000
0001
,
0000
0001
0001
0000
,
0110
0000
0000
0100
,
0000
0100
0100
0000
,
0110
0000
0000
0010
,
0000
0010
0010
0000
,
0000
1001
0000
1000
,
0000
1000
1000
0001
,
0000
0001
0000
0001
,
0001
0100
0000
0000
,
0000
0010
0000
0000
,
0000
1000
0000
0000
,
0000
0001
0000
0000
,
0000
0010
0000
0000
,
0000
0100
0000
0000
,
0000
1000
0000
0000
,
0000
0001
0000
0000
,
0000
1001
0000
0000
,
0000
0000
0000
0000
,
0000
1000
0000
0000
,
0000
0100
0000
0000
,
0000
1000
0000
0000
,
0000
0000
0000
0000
,
0000
0010
0000
0000
,
0000
0100
0000
0000
,
0000
0001
0000
0001
,
0000
0001
0000
0010
,
0000
0100
0000
0000
,
0000
1000
0000
0000
,
0000
1001
0000
0000
,
0000
0000
0000
0001
,
0000
0000
0000
0000
,
0000
0100
0000
0000
,
0000
0000
0000
0010
,
0000
0000
1000
0000
,
0000
1001
0000
0000
,
0001
0010
0000
1001
,
0000
0000
1000
0010
,
0000
0110
0000
0000
,
0001
1000
0000
0010
,
0000
0100
0000
0001
,
0000
2002
0000
3003
,
0000
0200
0000
0300
,
0000
0110
0000
0001
,
0000
0010
0000
0001
,
0000
1000
0000
0100
,
0000
1000
0000
0000
,
0000
0010
0000
0010
,
0000
0100
0000
0100
,
0000
0001
0000
1000
,
0000
0010
0000
0000
,
0000
1001
0000
0000
,
0000
1000
0000
0100
,
0000
0010
0000
0001
,
0000
0100
0000
0010
,
0000
0110
0000
0001
,
0000
0001
0001
0000
,
0000
0110
0000
1000
,
0000
1000
1000
0000
,
0000
1001
0000
0001
,
0000
0010
0000
0100
,
0000
2002
0000
0000
,
0000
3003
0000
0000
,
0000
1000
1000
1000
,
0000
0001
0001
0001
,
0000
0100
0100
0100
,
0000
0010
0010
0010
,
0000
0220
0000
0000
,
0330
0100
2002
0000
,
0000
0000
0000
0000
,
0000
0000
0000
0000
,
0000
0000
0000
0000
,
0000
0000
3003
0000
;

//--------------- dance-single - forcednature ----------------
#NOTEDATA:;
#STEPSTYPE:dance-single;
#DESCRIPTION:forcednature;
#CREDIT:forcednature;
#DIFFICULTY:Medium;
#METER:12;
#RADARVALUES:0,0,0,0,0;
#NOTES:
0000
0000
0000
0000
,
0000
0000
0000
0000
,
0000
0000
0000
0000
,
0000
0000
0000
0000
,
0000
0000
0000
0000
,
0000
0000
0000
0000
,
0000
0000
0000
0000
,
0000
0000
0000
0000
,
0000
0000
0000
0000
,
1001
0000
0001
0000
0000
0001
0000
0001
,
0000
1000
0001
0000
0100
0000
0010
0000
,
1001
0000
1000
0000
0000
1000
0000
1000
,
0000
0001
1000
0000
0100
0000
0010
0000
,
1001
0001
0010
0100
,
1000
0100
0010
0001
,
1001
0000
1000
0000
0000
1000
0000
1000
,
0000
0010
1000
0000
0100
0000
0010
0000
,
0000
0000
0000
0000
0000
0000
0001
0000
1000
0000
0001
0000
1000
0000
0000
0000
0000
0000
0010
0000
0000
0100
0000
0000
,
0000
0000
0000
0000
0000
0000
0010
0000
0100
0000
0010
0000
0100
0000
0000
0010
0000
0000
1000
0000
0001
0000
1000
0000
,
0001
0000
0000
0000
0000
0000
0010
0000
0000
0100
0000
0000
0000
0000
0000
0000
0000
0000
0010
0000
0100
0000
0010
0000
,
0100
0010
0001
1000
0010
0000
1000
0001
,
0010
0000
0100
0000
1000
0010
0000
0100
,
0001
0000
0010
0100
1000
0000
0010
0100
,
0001
0000
0010
0000
0001
1000
0000
0010
,
0100
0000
0001
0010
0100
0000
1000
0010
,
0100
0000
0001
0000
1000
0100
0000
1000
,
0010
0000
0100
0001
0010
0000
0100
1000
,
0010
0000
1000
0001
0100
0001
0000
1000
,
0010
0000
0110
0000
0001
0000
0010
0100
,
1000
0000
0100
0010
0001
1000
0000
0010
,
1000
0000
0001
0100
0010
1000
0010
0100
,
0001
0000
1000
0100
0010
0100
0000
1000
,
0001
0000
0020
0000
0030
0001
0200
0000
,
0300
0010
2000
0000
3000
0200
0000
0300
,
0020
0000
0031
0000
1000
0010
1000
0001
,
0100
0000
0010
0000
1000
0000
0001
0010
,
0100
0000
1000
1010
0000
0000
0001
0101
,
0000
0000
1000
1100
0000
0000
0011
0000
,
2000
0000
3100
0000
1000
0010
0100
0000
,
0100
0001
0010
0000
0010
0100
1000
0001
,
0010
2001
0000
0000
,
0000
3010
0100
0002
,
0000
0000
0000
0013
,
0100
2000
0000
0000
,
0000
3001
0100
0020
,
0000
2030
3002
0000
,
0013
0000
1001
0000
0000
1000
0100
0000
,
0010
0000
0110
0000
1000
0001
0001
0000
,
0000
0001
0100
0000
0110
0000
1001
0000
,
1000
0100
0020
0000
0001
0000
0100
0100
,
0130
1001
0010
0110
,
1001
1100
1001
0101
,
1001
0000
1020
0000
1000
0000
0000
0100
,
0230
0000
0301
0001
1000
0001
0020
0000
,
0000
0000
0130
0000
1000
0010
0000
0100
,
0001
0000
0000
0001
0010
0000
0000
0000
0100
0000
1000
0000
0000
0000
0001
0000
,
0100
0000
0020
0000
0000
1030
2000
0000
,
0000
3001
0010
0000
0100
0010
0001
0000
,
0011
0000
0001
0100
0010
1000
0010
0100
,
0001
0000
1000
0100
0010
0001
0010
0100
,
1000
0000
0010
0100
0001
0010
0100
1000
,
0010
0000
1000
0001
0001
0010
0001
0000
,
1000
0100
0001
0000
0100
0000
1100
0000
,
0001
0100
1000
0000
0100
0000
0101
0000
,
1000
1100
0110
0011
,
0101
2002
3003
0220
,
0330
0000
0000
1001
0000
0000
1000
0100
1000
0001
0000
0000
,
1000
0100
1000
0001
0000
0000
0011
0000
0000
0000
0000
0000
,
0000
0000
0000
1001
0000
0000
0001
0100
0001
1000
0000
0000
,
0001
0100
0001
1000
0000
0000
1010
0000
0000
0000
0000
0000
,
0000
0000
0110
0000
0100
0001
0010
0001
,
1000
0000
0100
0010
0001
0000
0100
0010
,
1000
1002
0000
0023
,
0230
2300
0000
0000
,
0000
0000
3001
0100
0010
1000
0001
0100
,
0010
1000
0001
0100
0010
1000
0002
0000
,
0000
0000
1003
0100
0010
0001
1000
0100
,
0010
0001
1000
0100
0010
0001
1000
0100
,
0010
0001
0200
0000
0000
0000
0000
0000
,
0301
1000
0010
0100
0000
0000
2002
0000
0000
0000
0000
0000
,
0000
0000
0000
0000
,
0000
0000
0000
0000
,
0000
0000
0000
0000
,
0000
0000
3003
0000
;

//--------------- dance-single - forcednature ----------------
#NOTEDATA:;
#STEPSTYPE:dance-single;
#DESCRIPTION:forcednature;
#CREDIT:forcednature;
#DIFFICULTY:Hard;
#METER:16;
#RADARVALUES:0,0,0,0,0;
#NOTES:
0000
0000
0000
0000
,
0000
0000
0000
0000
,
0000
0000
0000
0000
,
0000
0000
0000
0000
,
0000
0000
0000
0000
,
0000
0000
0000
0000
,
0000
0000
0000
0000
,
0000
0000
0000
0000
,
0000
0000
0000
0000
,
1000
0000
0001
0000
1000
0000
0010
0000
0000
0000
0000
0000
0000
0000
0000
0010
0000
0000
0000
0000
0000
0010
0000
0000
,
0000
0000
0000
0010
0000
0000
0100
0000
0001
0000
1000
0000
0010
0000
0000
0000
0000
0000
0110
0000
0000
0000
0000
0000
,
0001
0000
1000
0000
0001
0000
0010
0000
0000
0000
0000
0000
0000
0000
0000
0010
0000
0000
0000
0000
0000
0010
0000
0000
,
0000
0000
0000
0010
0000
0000
0100
0000
0010
0000
0001
0000
2000
0000
0000
0000
0000
0000
3002
0000
0000
0000
0000
0000
,
0103
0010
1000
0002
0000
0000
0023
0000
0000
0230
0000
0000
,
2300
3002
0203
0320
,
1030
0000
0001
0000
1000
0000
0100
0000
0000
0000
0000
0000
0000
0000
0000
0100
0000
0000
0000
0000
0000
0100
0000
0000
,
0000
0000
0000
0100
0000
0000
1000
0000
0010
0000
0100
0000
0001
0000
0010
0000
0100
0000
1000
0000
0010
0000
0100
0000
,
0000
0000
0000
0000
0000
0000
0001
0000
1000
0000
0001
0000
1001
0000
0000
0000
0000
0000
1000
0000
0000
1100
0000
0000
,
0000
0000
0000
0010
0000
0000
0001
0000
0100
0000
0010
0000
1000
0000
0000
0100
0000
0000
1000
0000
0001
0000
1000
0000
,
1001
0000
0000
0000
0000
0000
0001
0000
0000
0101
0000
0000
0000
0000
0000
0010
0000
0000
1000
0000
0100
0000
0010
0000
,
0001
0000
0100
0000
1001
0000
0000
0000
1000
0000
0100
0000
0010
0000
0100
1000
,
0100
0000
0010
0000
0001
0000
1000
0000
0010
0000
1000
0000
0001
0000
0100
0010
,
0100
0000
0000
0000
0001
0000
0010
0000
0100
0000
0010
0000
0001
0000
1000
0100
,
1000
0001
0100
0020
2030
3200
0320
0032
,
0203
0000
0320
0000
1030
0001
1000
0001
1000
0000
0000
0000
0001
0000
0010
0000
,
0100
0000
0010
0000
0001
0000
1000
0100
1000
0000
0001
0000
0100
0000
0010
0000
,
1000
0000
0000
0000
0001
0000
0010
0100
0010
0000
0001
0000
1000
0000
0010
0000
,
0001
0000
0010
0000
0000
0000
0110
0000
0000
0000
0001
0000
1000
0100
1000
0100
,
0010
0000
0001
0000
1001
0000
0000
0000
1000
0000
0010
0100
0001
0000
0100
0000
,
0010
0000
0000
0000
1000
0000
1000
0000
0100
0000
1000
0000
0010
0000
0010
0100
,
0001
0000
0000
1000
0000
0000
0010
0000
0100
0000
0001
0000
0100
0000
0010
0000
1000
0000
0001
0000
0010
0000
0100
0000
,
1000
0000
0000
0000
0100
0000
0000
0000
0010
0000
0000
0000
0001
0000
0000
0000
0000
0000
1000
0000
0000
0000
0000
0000
0010
0000
0000
0000
0000
0000
1000
0000
0000
0000
0000
0000
0001
0000
0000
0000
0000
0000
0010
0000
0000
0100
0000
0000
,
1000
0000
0000
0000
0001
0100
0010
0100
0001
0000
0000
1000
0020
0000
0000
0000
,
0000
0000
0130
0001
2000
0000
0000
0000
0100
0000
3200
0000
0000
0000
0310
0000
,
0001
0000
0000
1000
0000
0000
0010
0000
0100
0000
0001
0000
0010
0000
0100
0000
1000
0000
0001
0000
0010
0000
0001
0000
,
0100
0000
0000
0000
0010
0000
0000
0000
1000
0000
0000
0000
0100
0000
0000
0000
0000
0000
1000
0000
0000
0000
0000
0000
0010
0000
0000
0000
0000
0000
0100
0000
0000
0001
0000
0000
1000
0000
0000
0000
0000
0000
0010
0000
0000
0000
0000
0000
,
0110
0000
0101
0011
0000
0000
1100
1010
,
0000
0000
1001
1001
0000
0000
0110
0000
,
0001
1000
0001
1000
0010
0000
0100
0000
0001
0000
0100
0000
0010
0000
1000
0000
,
0001
0000
1000
0000
0100
0000
0010
0001
0010
0000
0100
1000
0001
0100
0001
0100
,
0010
1000
0001
0100
0010
0000
0000
0000
2000
0000
0000
0000
3200
0000
0000
0000
,
0310
0010
0020
0000
0032
0000
2003
0000
,
3020
0000
0230
0000
0301
0001
2000
0000
,
3200
0000
0000
0000
0310
0000
0001
0010
0001
0000
0010
0000
0100
0000
1000
0000
,
0020
0000
0000
0000
0130
0000
0001
0000
1000
0000
0010
0000
1000
0000
0001
0010
,
0001
0000
0010
0100
0010
0000
0000
0000
0220
0000
0000
0000
0330
0000
1000
0100
,
0010
0001
0100
0000
1001
0000
0000
0000
0000
0000
1000
0000
1000
0000
0010
0100
,
0001
0000
0011
0000
1000
0100
1001
0000
,
0001
0100
0001
1000
0010
0000
1010
0000
0000
1100
0000
0000
,
0001
0010
0011
0000
0001
0100
1000
0001
,
0010
1010
0100
1001
,
1100
0011
0101
1010
,
1100
0000
0120
0000
0001
0000
0000
0001
,
0001
0000
0000
0000
0130
0000
0100
0000
1000
0000
0100
0000
1000
0001
1000
0001
,
0010
0100
1000
0001
0100
0000
0010
0000
1000
0000
0010
0000
0100
0000
0001
1000
,
0001
0000
0000
0010
0100
0000
1000
0000
0010
0000
1000
0000
0001
0010
0100
0010
,
0001
0000
0000
0000
0101
0000
1000
0000
0010
0000
0100
0010
0100
0000
0001
0000
,
0010
0000
0000
0000
0100
0000
1000
0000
0010
0000
1000
0001
1000
0000
0100
0000
,
0010
0001
0010
0001
2000
0000
3020
0000
0230
0000
0302
0000
0203
0000
0320
0000
,
2030
3002
2003
3200
0320
0032
0023
0230
,
2300
3002
0203
2300
3200
0302
0023
2030
,
3020
0032
0203
2300
3020
0032
0203
0300
,
1000
0100
0010
0001
1000
0000
0010
0100
0001
0000
0100
0010
1000
0000
0001
0000
,
0010
0000
0110
0000
0001
0000
0010
0100
1000
0000
0010
0100
0001
0000
1000
0000
,
1001
0002
0023
0230
,
2300
3020
0030
0220
,
0330
0000
0000
1001
0000
0000
1000
0100
0010
0001
0000
0000
,
1000
0100
0010
0011
0000
0000
1002
0000
0000
0100
0000
0000
,
0013
0000
0000
1001
0000
0000
0001
0100
0010
1000
0000
0000
,
0001
0100
0010
1010
0000
0000
2001
0000
0000
0100
0000
0000
,
3010
0000
1001
0000
1000
0100
0001
0100
,
1000
0010
1000
0001
0010
0001
0100
0010
,
1000
0001
1002
0000
0000
0000
0203
0000
,
0320
0000
0000
1030
0001
0100
0001
1000
0010
1000
0100
0010
,
0001
0000
0000
0000
0010
0000
0000
0000
0100
0000
0000
0000
1000
0000
0000
0000
0000
0000
0010
0000
0000
1000
0000
0000
0100
0000
0000
0000
0000
0000
0010
0000
0000
0001
0000
0000
0100
0000
0000
0000
0000
0000
0010
0000
0000
1000
0000
0000
,
0100
0000
0010
0001
0100
0000
0010
1000
0100
0000
0010
0001
0200
0000
0320
0000
,
2030
0000
3002
0000
1003
0100
0010
0001
1000
0100
0010
0001
1000
0100
0010
0001
,
1000
0100
0010
0001
2000
3200
0320
0032
0203
0320
2030
3200
0320
0032
0203
0320
,
2030
3200
0320
0032
0203
0000
0000
0000
0000
0000
0000
0000
0000
0000
0000
0000
,
0301
0010
0100
1000
0000
0000
2002
0000
0000
0000
0000
0000
,
0000
0000
0000
0000
,
0000
0000
0000
0000
,
0000
0000
0000
0000
,
0000
0000
3003
0000
;

//--------------- dance-double - forcednature ----------------
#NOTEDATA:;
#STEPSTYPE:dance-double;
#DESCRIPTION:forcednature;
#CREDIT:forcednature;
#DIFFICULTY:Easy;
#METER:5;
#RADARVALUES:0,0,0,0,0;
#NOTES:
00000000
00000000
00000000
00000000
,
00000000
00000000
00000000
00000000
,
00000000
00000000
00000000
00000000
,
00000000
00000000
00000000
00000000
,
00000000
00000000
00000000
00000000
,
00000000
00000000
00000000
00000000
,
00000000
00000000
00000000
00000000
,
00000000
00000000
00000000
00000000
,
00000000
00000000
00000000
00000000
,
00011000
00000000
00000000
00010000
,
00000000
00010000
00010000
00000000
,
00000100
00000000
00000000
00000100
,
00000000
00000100
00000100
00000000
,
00001000
00000000
00000000
00001000
,
00000000
00001000
00001000
00000000
,
00000001
00000000
00000000
00000001
,
00000000
00000001
00000001
00000000
,
00000000
00001001
00000000
00001000
,
00000000
00001000
00000100
00010000
,
00000000
00010000
00000000
00010000
,
00001000
00100000
00000000
00000000
,
00000000
00010000
00000000
00000000
,
00000000
10000000
00000000
00000000
,
00000000
00100000
00000000
01000000
,
00000000
00010000
00000000
00000000
,
00000000
00100000
00000000
00000000
,
00000000
00001000
00000000
00000000
,
00000000
00010000
00000000
00000100
,
00000000
00011000
00000000
00000000
,
00000000
00000010
00000000
00000000
,
00000000
00001000
00000000
00000000
,
00000000
00000100
00000000
00000010
,
00000000
00000001
00000000
00000000
,
00000000
00000100
00000000
00000000
,
00000000
00001000
00000000
00001000
,
00000000
00010000
00000000
00001000
,
00000000
01000000
00000000
01000000
,
00000000
01000000
00000000
00010000
,
00000000
00100000
00000000
01000000
,
00000000
10000000
00000000
01000000
,
00000000
10010000
00000000
00000000
,
00000000
00000000
00000000
00010000
,
00000000
00000000
00000000
00000000
,
00000000
00100000
00000000
00000000
,
00000000
00000000
00000000
00001000
,
00000000
00000000
00010000
00000000
,
00000000
00011000
00000000
00000000
,
00000100
00001000
00000000
00001001
,
00000000
00000000
00000001
00000010
,
00000000
00000110
00000000
00000000
,
00001000
00000100
00000000
00010000
,
00000000
00010000
00000000
00001000
,
00000000
00022000
00000000
00033000
,
00000000
02000000
00000000
03000000
,
00000000
10010000
00000000
10000000
,
00000000
00100000
00000000
10000000
,
00000000
01000000
00000000
00010000
,
00000000
00001000
00000000
00000000
,
00000000
00100000
00100000
00100000
,
00000000
00001000
00001000
00001000
,
00000000
00010000
00010000
00010000
,
00000000
00000100
00000000
00001000
,
00000000
00001001
00000000
00000000
,
00000000
00000001
00000000
00000100
,
00000000
00001000
00000000
00010000
,
00000000
00011000
00000000
00100000
,
00000000
01100000
00000000
10000000
,
00000000
00100000
00100000
00000000
,
00000000
01100000
00000000
00010000
,
00000000
00100000
00100000
00000000
,
00000000
00011000
00000000
00000100
,
00000000
00001000
00000000
00000010
,
00000000
00002002
00000000
00000000
,
00000000
00003003
00000000
00000000
,
00000000
00000001
00000001
00000001
,
00000000
00000100
00000100
00000100
,
00000000
00001000
00001000
00001000
,
00001000
00010000
00010000
00010000
,
00010000
00200000
00000000
00000000
,
00300000
01000000
20020000
00000000
,
00000000
00000000
00000000
00000000
,
00000000
00000000
00000000
00000000
,
00000000
00000000
00000000
00000000
,
00000000
00000000
30030000
00000000
;

//--------------- dance-double - forcednature ----------------
#NOTEDATA:;
#STEPSTYPE:dance-double;
#DESCRIPTION:forcednature;
#CREDIT:forcednature;
#DIFFICULTY:Medium;
#METER:13;
#RADARVALUES:0,0,0,0,0;
#NOTES:
00000000
00000000
00000000
00000000
,
00000000
00000000
00000000
00000000
,
00000000
00000000
00000000
00000000
,
00000000
00000000
00000000
00000000
,
00000000
00000000
00000000
00000000
,
00000000
00000000
00000000
00000000
,
00000000
00000000
00000000
00000000
,
00000000
00000000
00000000
00000000
,
00000000
00000000
00000000
00000000
,
00011000
00000000
00010000
00000000
00000000
00010000
00000000
00010000
,
00000000
00001000
01000000
00000000
00010000
00000000
00100000
00000000
,
10010000
00000000
10000000
00000000
00000000
10000000
00000000
10000000
,
00000000
01000000
00010000
00000000
00001000
00000000
00000010
00000000
,
00001001
00000001
00000100
00001000
,
00010000
01000000
10000000
00100000
,
10010000
00000000
10000000
00000000
00000000
10000000
00000000
10000000
,
00000000
00010000
00100000
00000000
00001000
00000000
00010000
00000000
,
00000000
00000000
00000000
00000000
00000000
00000000
00000010
00000000
00001000
00000000
00000010
00000000
00001000
00000000
00000000
00000000
00000000
00000000
00000001
00000000
00000000
00000100
00000000
00000000
,
00000000
00000000
00000000
00000000
00000000
00000000
00001000
00000000
00010000
00000000
00001000
00000000
00010000
00000000
00000000
00001000
00000000
00000000
00100000
00000000
00010000
00000000
00100000
00000000
,
00010000
00000000
00000000
00000000
00000000
00000000
00100000
00000000
00000000
01000000
00000000
00000000
00000000
00000000
00000000
00000000
00000000
00000000
10000000
00000000
00100000
00000000
10000000
00000000
,
00100000
01000000
00010000
00000000
00100000
00000000
00010000
00100000
,
00001000
00000000
00010000
00000000
00000100
00001000
00000000
00000100
,
00000010
00000000
00000001
00000100
00001000
00000000
00010000
00100000
,
10000000
00000000
00010000
00000000
00100000
01000000
00000000
10000000
,
01000000
00000000
00010000
00001000
00000010
00000000
00000100
00001000
,
00000010
00000000
00000100
00000000
00001000
00000100
00000000
00000001
,
00001000
00000000
00000010
00010000
00001000
00000000
00100000
00001000
,
00010000
00000000
00100000
10000000
00010000
10000000
00000000
01000000
,
00010000
00000000
00011000
00000000
00001000
00000000
00100000
00010000
,
01000000
00000000
00001000
00010000
00100000
00010000
00000000
00001000
,
00010000
00000000
00000100
00001000
00000010
00000100
00000001
00000010
,
00000100
00000000
00000001
00000100
00001000
00000100
00000000
00010000
,
00001000
00000000
00200000
00000000
00300000
00010000
02000000
00000000
,
03000000
00100000
20000000
00000000
30000000
02000000
00000000
03000000
,
00020000
00000000
00031000
00000000
00100000
00010000
00100000
00001000
,
00010000
00000000
00000010
00000000
00001000
00000000
00000001
00000100
,
00001000
00000000
00010000
00011000
00000000
00000000
00010000
00010100
,
00000000
00000000
00010000
00010010
00000000
00000000
00011000
00000000
,
00200000
00000000
00310000
00000000
01000000
00100000
10000000
00000000
,
01000000
00100000
00010000
00000000
00010000
01000000
00001000
00010000
,
00000010
00001002
00000000
00000000
,
00000000
00000103
00001000
00020000
,
00000000
00000000
00000000
00130000
,
10000000
02000000
00000000
00000000
,
00000000
03010000
00001000
00000020
,
00000000
00000032
00000203
00000000
,
00001300
00000000
00011000
00000000
00000000
01000000
00010000
00000000
,
00100000
00000000
01100000
00000000
10000000
00010000
00010000
00000000
,
00000000
00010000
00100000
00000000
00011000
00000000
00010100
00000000
,
00000100
00001000
00000020
00000000
00000100
00000000
00001000
00001000
,
00001030
00000110
00000001
00001001
,
00010100
00011000
01001000
10010000
,
01100000
00000000
10020000
00000000
00100000
00000000
00000000
00100000
,
00230000
00000000
00301000
00001000
00010000
00000100
00002000
00000000
,
00000000
00000000
00003010
00000000
00000100
00000001
00000000
00000010
,
00001000
00000000
00000000
00001000
00010000
00000000
00000000
00000000
00100000
00000000
10000000
00000000
00000000
00000000
00010000
00000000
,
01000000
00000000
20000000
00000000
00000000
31000000
02000000
00000000
,
00000000
03010000
00100000
00000000
01000000
00010000
00001000
00000000
,
00011000
00000000
00000100
00001000
00000010
00010000
00001000
00100000
,
00010000
00000000
01000000
00100000
00010000
00001000
00100000
01000000
,
00010000
00000000
00001000
00000010
00000100
00010000
00001000
00000100
,
00000010
00000000
00001000
00000001
00000001
00000010
00000001
00000000
,
00000100
00001000
00010000
00000000
00000010
00000000
00011000
00000000
,
00100000
00010000
01000000
00000000
00100000
00000000
10010000
00000000
,
00010000
11000000
01100000
00110000
,
00011000
00000220
00000330
00002002
,
00003003
00000000
00000000
00000110
00000000
00000000
00000001
00000100
00000010
00001000
00000000
00000000
,
00010000
01000000
00100000
10000000
00000000
00000000
10010000
00000000
00000000
00000000
00000000
00000000
,
00000000
00000000
00000000
10010000
00000000
00000000
10000000
01000000
00100000
00010000
00000000
00000000
,
00001000
00000100
00000010
00000001
00000000
00000000
00001001
00000000
00000000
00000000
00000000
00000000
,
00000000
00000000
00000110
00000000
00001000
00000001
00000010
00000100
,
00001000
00000000
00000010
00010000
00001000
00000000
00100000
00001000
,
00010000
00012000
00000000
02003000
,
03020000
20030000
00000000
00000000
,
00000000
00000000
30010000
01000000
00001000
00100000
00010000
01000000
,
00001000
00100000
00010000
01000000
00001000
00100000
00020000
00000000
,
00000000
00000000
10030000
01000000
00100000
00010000
01000000
00100000
,
00010000
00001000
00100000
00010000
00001000
00000100
00010000
00001000
,
00000100
00000010
00002000
00000000
00000000
00000000
00000000
00000000
,
00003001
00000100
00001000
00010000
00000000
00000000
00022000
00000000
00000000
00000000
00000000
00000000
,
00000000
00000000
00000000
00000000
,
00000000
00000000
00000000
00000000
,
00000000
00000000
00000000
00000000
,
00000000
00000000
00033000
00000000
;

//--------------- dance-double - forcednature ----------------
#NOTEDATA:;
#STEPSTYPE:dance-double;
#DESCRIPTION:forcednature;
#CREDIT:forcednature;
#DIFFICULTY:Hard;
#METER:17;
#RADARVALUES:0,0,0,0,0;
#NOTES:
00000000
00000000
00000000
00000000
,
00000000
00000000
00000000
00000000
,
00000000
00000000
00000000
00000000
,
00000000
00000000
00000000
00000000
,
00000000
00000000
00000000
00000000
,
00000000
00000000
00000000
00000000
,
00000000
00000000
00000000
00000000
,
00000000
00000000
00000000
00000000
,
00000000
00000000
00000000
00000000
,
00001000
00000000
00010000
00000000
00001000
00000000
00100000
00000000
00000000
00000000
00000000
00000000
00000000
00000000
00000000
00100000
00000000
00000000
00000000
00000000
00000000
00100000
00000000
00000000
,
00000000
00000000
00000000
00100000
00000000
00000000
00010000
00000000
10000000
00000000
00100000
00000000
01000000
00000000
00000000
00000000
00000000
00000000
00011000
00000000
00000000
00000000
00000000
00000000
,
00010000
00000000
00001000
00000000
00010000
00000000
00000010
00000000
00000000
00000000
00000000
00000000
00000000
00000000
00000000
00000010
00000000
00000000
00000000
00000000
00000000
00000010
00000000
00000000
,
00000000
00000000
00000000
00000010
00000000
00000000
00001000
00000000
00000001
00000000
00000010
00000000
00000200
00000000
00000000
00000000
00000000
00000000
00020300
00000000
00000000
00000000
00000000
00000000
,
00031000
00100000
00010000
02000000
00000000
00000000
03200000
00000000
00000000
20300000
00000000
00000000
,
32000000
03020000
00032000
00003200
,
00000301
00000000
00001000
00000000
00000001
00000000
00000010
00000000
00000000
00000000
00000000
00000000
00000000
00000000
00000000
00000010
00000000
00000000
00000000
00000000
00000000
00000010
00000000
00000000
,
00000000
00000000
00000000
00000010
00000000
00000000
00000100
00000000
00010000
00000000
00001000
00000000
00100000
00000000
00001000
00000000
00010000
00000000
00100000
00000000
01000000
00000000
00010000
00000000
,
00000000
00000000
00000000
00000000
00000000
00000000
10000000
00000000
01000000
00000000
10000000
00000000
11000000
00000000
00000000
00000000
00000000
00000000
00010000
00000000
00000000
00110000
00000000
00000000
,
00000000
00000000
00000000
00001000
00000000
00000000
00000000
00000000
00000100
00000000
00001000
00000000
00000010
00000000
00000000
00000100
00000000
00000000
00000001
00000000
00000100
00000000
00000001
00000000
,
00000101
00000000
00000000
00000000
00000000
00000000
00001000
00000000
00000000
00001010
00000000
00000000
00000000
00000000
00000000
00010000
00000000
00000000
00001000
00000000
00100000
00000000
00010000
00000000
,
01000000
00000000
00100000
00000000
10010000
00000000
00000000
00000000
10000000
00000000
01000000
00000000
00010000
00000000
00001000
00010000
,
00001000
00000000
00000010
00000000
00000100
00000000
00010000
00000000
00000010
00000000
00000100
00000000
00000001
00000000
00000010
00000100
,
00000010
00000000
00000000
00000000
00000100
00000000
00010000
00000000
00001000
00000000
00100000
00000000
01000000
00000000
10000000
00010000
,
10000000
00000000
00100000
20000000
32000000
03200000
00320000
00032000
,
00003200
00000000
00000320
00000000
00000031
00001000
00000001
00001000
00000001
00000000
00000000
00000000
00000100
00000000
00001000
00000000
,
00010000
00000000
00001000
00000000
00000100
00000000
00000010
00000100
00000010
00000000
00001000
00000000
00000001
00000000
00000010
00000000
,
00001000
00000000
00000000
00000000
00010000
00000000
00001000
00010000
00001000
00000000
00100000
00000000
00010000
00000000
01000000
00000000
,
10000000
00000000
01000000
00000000
00000000
00000000
01100000
00000000
00000000
00000000
00010000
00000000
10000000
00100000
10000000
00100000
,
01000000
00000000
00000000
00000000
10010000
00000000
00000000
00000000
10000000
00000000
01000000
00010000
00001000
00000000
00100000
00000000
,
00001000
00000000
00000000
00000000
00010000
00000000
00010000
00000000
00000100
00000000
00010000
00000000
00001000
00000000
00000010
00001000
,
00000010
00000000
00000000
00000000
00000000
00000000
00000001
00000000
00000000
00000010
00000000
00000000
00000001
00000000
00000000
00000000
00000100
00000000
00000000
00000000
00000010
00000000
00000000
00000000
00001000
00000000
00000000
00000000
00000100
00000000
00000000
00000000
00000010
00000000
00000000
00000000
00000001
00000000
00000000
00000000
00000100
00000000
00000000
00000000
00001000
00000000
00000000
00000000
,
00010000
00000000
00000000
00000000
00100000
00000000
00000000
00000000
10000000
00000000
00000000
00000000
00010000
00000000
00000000
00000000
00000000
00000000
01000000
00000000
00000000
00000000
00000000
00000000
00100000
00000000
00000000
00000000
00000000
00000000
01000000
00000000
00000000
00000000
00000000
00000000
00010000
00000000
00000000
00000000
00000000
00000000
10000000
00000000
00000000
01000000
00000000
00000000
,
00010000
00000000
00000000
00000000
00001000
00100000
00010000
00100000
00001000
00000000
00000000
00010000
00000200
00000000
00000000
00000000
,
00000000
00000000
00001300
00000001
00000020
00000000
00000000
00000000
00000031
00000000
00000002
00000000
00000000
00000000
00000103
00000000
,
00002000
00000000
00000000
00013000
00100000
01000000
00010000
00100000
01000000
00010000
00001000
00000010
,
00000100
00000000
00000000
00000000
00001000
00000000
00000000
00000000
00000010
00000000
00000000
00000000
00000100
00000000
00000000
00000000
00000000
00000000
00000001
00000000
00000000
00000000
00000000
00000000
00000010
00000000
00000000
00000000
00000000
00000000
00000001
00000000
00000000
00001000
00000000
00000000
00000100
00000000
00000000
00000000
00000000
00000000
00010000
00000000
00000000
00000000
00000000
00000000
,
00001000
00000000
00101000
00011000
00000000
00000000
00010010
00011000
,
00000000
00000000
01001000
00011000
00000000
00000000
00010100
00000000
,
00000100
00001000
00000100
00001000
00000010
00000000
00000100
00000000
00000001
00000000
00000100
00000000
00001000
00000000
00010000
00000000
,
01000000
00000000
10000000
00000000
00100000
00000000
10000000
00100000
10000000
00000000
00010000
00100000
00001000
00010000
00001000
00010000
,
00000100
00001000
00000010
00000100
00000001
00000000
00000000
00000000
00000020
00000000
00000000
00000000
00002030
00000000
00000000
00000000
,
00013000
00010000
00020000
00000000
02030000
00000000
23000000
00000000
,
30200000
00000000
00320000
00000000
00031000
00001000
00002000
00000000
,
00003200
00000000
00000000
00000000
00000301
00000000
00000010
00000001
00000010
00000000
00001000
00000000
00010000
00000000
01000000
00000000
,
20000000
00000000
00000000
00000000
30100000
00000000
00010000
00000000
00001000
00000000
00010000
00000000
00000100
00000000
00001000
00000100
,
00001000
00000000
00000001
00000010
00000001
00000000
00000000
00000000
00000202
00000000
00000000
00000000
00000303
00000000
00001000
00000100
,
00010000
00001000
00100000
00000000
00011000
00000000
00000000
00000000
00000000
00000000
01000000
00000000
01000000
00000000
00010000
10000000
,
00100000
00000000
01100000
00000000
00010000
00100000
00011000
00000000
,
00100000
00010000
00001000
00000100
00000100
00000000
00000110
00000000
00000000
00000011
00000000
00000000
,
00000001
00000100
00001100
00000000
00001000
00010000
00100000
10000000
,
00100000
00110000
00001000
00011000
,
00010100
00101000
01010000
00001010
,
00000110
00000000
00002001
00000000
00000100
00000000
00000000
00000100
,
00000100
00000000
00000000
00000000
00003010
00000000
00000010
00000000
00010000
00000000
00001000
00000000
00100000
00010000
00100000
00010000
,
10000000
01000000
00100000
00010000
10000000
00000000
00100000
00000000
10000000
00000000
01000000
00000000
00010000
00000000
00001000
00010000
,
00001000
00000000
00000000
00000010
00000001
00000000
00000100
00000000
00000001
00000000
00000010
00000000
00001000
00010000
00000100
00010000
,
00001000
00000000
00000000
00000000
00011000
00000000
00100000
00000000
00010000
00000000
01000000
00010000
01000000
00000000
00100000
00000000
,
10000000
00000000
00000000
00000000
01000000
00000000
00010000
00000000
00001000
00000000
00100000
00010000
00100000
00000000
00001000
00000000
,
00010000
00001000
00010000
00001000
00200000
00000000
00320000
00000000
00032000
00000000
00003200
00000000
00020300
00000000
00032000
00000000
,
00003200
00000320
00002030
00003200
00000320
00000032
00000023
00000230
,
00002300
00023000
00230000
02300000
23000000
32000000
03200000
00320000
,
00032000
00003200
00000320
00002030
00023000
02030000
03200000
00300000
,
00010000
00000000
10000000
00000000
10010000
00000000
00010000
00100000
00001000
00000000
00010000
00000100
00001000
00000000
00000010
00000000
,
00000100
00000000
00000110
00000000
00000001
00000000
00000010
00000100
00001000
00000000
00000100
00010000
00001000
00000000
00100000
00000000
,
00011000
02000000
03200000
00320000
,
00032000
00003200
00000300
00000220
,
00000330
00000000
00000000
00001001
00000000
00000000
00000001
00000100
00000010
00001000
00000000
00000000
,
00010000
01000000
00100000
10100000
00000000
00000000
20010000
00000000
00000000
01000000
00000000
00000000
,
30100000
00000000
00000000
10010000
00000000
00000000
10000000
01000000
00100000
00010000
00000000
00000000
,
00001000
00000100
00000010
00000011
00000000
00000000
00001002
00000000
00000000
00000100
00000000
00000000
,
00000013
00000000
00001001
00000000
00000001
00000100
00001000
00010000
,
00000010
00001000
00010000
01000000
00001000
00010000
00100000
01000000
,
00010000
10000000
10020000
00000000
00000000
00000000
00230000
00000000
,
02300000
00000000
00000000
13000000
00010000
00100000
00001000
00010000
00000100
00001000
00000010
00000100
,
00000001
00000000
00000000
00000000
00000010
00000000
00000000
00000000
00000100
00000000
00000000
00000000
00010000
00000000
00000000
00000000
00000000
00000000
00001000
00000000
00000000
00010000
00000000
00000000
00000100
00000000
00000000
00000000
00000000
00000000
00010000
00000000
00000000
00001000
00000000
00000000
01000000
00000000
00000000
00000000
00000000
00000000
00001000
00000000
00000000
00010000
00000000
00000000
,
00000010
00000000
00010000
00001000
00100000
00000000
00001000
00010000
00100000
00000000
00010000
00001000
00000020
00000000
00000032
00000000
,
00000203
00000000
00000000
00000000
00000301
00000010
00000100
00001000
00000010
00000100
00001000
00010000
00000100
00001000
00010000
00100000
,
00001000
00010000
00100000
01000000
00020000
20030000
32000000
03200000
00320000
02030000
03200000
00320000
00032000
00203000
00320000
00032000
,
00003200
00020300
00032000
00003200
00000320
00000000
00000000
00000000
00000000
00000000
00000000
00000000
00000000
00000000
00000000
00000000
,
00000130
00001000
00010000
00100000
00000000
00000000
00022000
00000000
00000000
00000000
00000000
00000000
,
00000000
00000000
00000000
00000000
,
00000000
00000000
00000000
00000000
,
00000000
00000000
00000000
00000000
,
00000000
00000000
00033000
00000000
;
