#VERSION:0.83;
#TITLE:Despair of ELFERIA;
#SUBTITLE:;
#ARTIST:猫叉Master;
#TITLETRANSLIT:;
#SUBTITLETRANSLIT:;
#ARTISTTRANSLIT:Nekomata Master;
#GENRE:HARD IRISH SYMPHONIC;
#CREDIT:;
#MUSIC:Despair of ELFERIA.ogg;
#BANNER:Despair of ELFERIA.png;
#BACKGROUND:Despair of ELFERIA-bg.png;
#CDTITLE:./CDTitles/bm IIDX 22 PENDUAL.png;
#SAMPLESTART:57.462;
#SAMPLELENGTH:15.000;
#SELECTABLE:YES;
#OFFSET:-0.102;
#BPMS:0.000=205.000;
#STOPS:;
#TIMESIGNATURES:4.000=6=4;
#BGCHANGES:0.000=Despair of ELFERIA.mp4=1.000=0=0=0=StretchNoLoop====,
99999.000=-nosongbg-=1.000=0=0=0=StretchNoLoop====
;
#FGCHANGES:;

//--------------- dance-single - forcednature ----------------
#NOTEDATA:;
#STEPSTYPE:dance-single;
#DESCRIPTION:forcednature;
#DIFFICULTY:Beginner;
#METER:6;
#RADARVALUES:0,0,0,0,0;
#CREDIT:forcednature;
#NOTES:
0000
0000
0000
0000
,
0000
0000
0000
0000
,
0000
0000
0000
0000
,
0000
0000
0000
0000
,
0000
0000
0000
0000
,
0000
0000
0000
0000
,
0000
0000
0000
0000
,
1001
0000
0000
0000
,
0001
0000
0100
0000
,
0000
0000
0001
0000
,
0010
0000
0000
0000
,
0100
0000
1000
0000
,
0000
0010
0000
0000
,
2002
0000
0000
0000
,
0000
0000
3003
0000
,
0000
0000
0000
0000
,
2002
0000
0000
0000
,
0000
0000
3003
0000
,
0000
0000
0000
0000
,
0220
0000
0000
0000
,
0330
0000
2002
0000
,
0000
0000
3003
0000
,
1001
0000
0000
0110
,
0000
0000
1000
0000
,
1000
0000
1000
0000
,
0001
0000
0001
0100
,
0001
0000
0010
0000
,
0100
0000
1000
0000
,
0010
0000
0010
1000
,
0010
0000
0100
0000
,
0001
0000
1000
0000
,
0100
0000
0100
1000
,
0100
0000
0010
0000
,
0001
0000
1000
0000
,
0010
0000
0010
0100
,
0010
0000
1000
0000
,
0001
0000
0010
0000
,
1001
0000
0000
0100
,
0000
0000
1001
0000
,
0000
0010
0100
0000
,
1001
0000
0000
0010
,
0000
0000
1000
0000
,
0100
0000
0010
0000
,
1001
0000
0000
0110
,
0000
0000
1001
0000
,
0000
0010
0100
0000
,
1001
0000
0000
0110
,
0000
0000
0001
0000
,
1000
0000
0010
0000
,
1000
0000
0100
1000
,
0100
0000
0010
0000
,
0001
0000
1000
0000
,
0001
0000
0100
0001
,
0100
0000
0010
0000
,
1000
0000
0001
0000
,
0010
0000
0100
0010
,
0100
0000
1000
0000
,
0001
0000
0100
0000
,
0010
0000
0100
0010
,
0100
0000
0001
0000
,
1000
0000
0100
0000
,
0010
0010
0000
0000
,
0000
0000
0100
0100
,
0000
0000
0000
0000
,
1001
1001
1001
0000
,
0000
0000
0000
0000
0010
0000
0000
0010
,
0000
0000
0100
0000
0000
0100
0000
0000
,
0010
0010
0000
0000
,
0000
0000
0100
0100
,
0000
0000
0000
0000
,
0110
0110
0110
0000
,
0000
0000
1001
0000
,
0000
1000
0001
0000
,
1000
1000
0001
1000
,
1000
0001
0000
0100
,
0010
0000
0100
0000
,
0001
0001
1000
0001
,
0001
1000
0000
0010
,
0100
0000
0010
0000
,
1000
1000
0001
1000
,
1000
0001
0000
0010
,
0100
0000
0010
0000
,
0001
0000
0000
0100
,
0000
0000
0010
0000
,
0000
1000
0001
1000
,
0001
0001
0100
0001
,
0001
0100
0000
0001
,
0010
0100
1000
0000
,
1000
1000
0100
1000
,
1000
0100
0000
1000
,
0010
0100
0001
0000
,
0001
0001
0010
0001
,
0001
0010
0000
0001
,
0100
0010
1000
0000
,
1000
1000
0010
1000
,
1000
0010
0000
1000
,
0100
0010
0001
0000
,
1001
1001
0000
0000
,
0000
0000
0110
0110
,
0000
0000
0000
0000
,
1001
1001
0000
0000
,
0000
0000
0000
0000
1001
0000
0000
1001
,
0000
0000
1001
0000
0000
1001
0000
0000
,
2002
0000
0000
0000
,
0000
0000
0000
0000
,
0000
0000
0000
0000
,
3003
0000
0000
0000
;

//--------------- dance-single - forcednature ----------------
#NOTEDATA:;
#STEPSTYPE:dance-single;
#DESCRIPTION:forcednature;
#DIFFICULTY:Easy;
#METER:10;
#RADARVALUES:0,0,0,0,0;
#CREDIT:forcednature;
#NOTES:
0000
0000
0000
0000
,
0000
0000
0000
0000
,
0000
0000
0000
0000
,
0000
0000
0000
0000
,
0000
0000
0000
0000
,
0000
0000
0000
0000
,
0000
0000
0000
0000
,
1001
0000
0000
1000
,
0100
1000
0010
0000
,
0000
0100
0001
0010
,
0001
0000
0000
0100
,
0010
1000
0001
0000
,
0000
0010
0100
0100
,
2002
0000
0000
0000
,
0000
0000
3003
0000
,
0000
0000
0000
0000
,
0220
0000
0000
0000
,
0000
0000
0330
0000
,
0000
0000
0000
0000
,
1001
0000
0100
0100
,
0000
0001
0001
0000
,
0010
0010
0000
1000
,
1000
0000
0100
0110
,
0000
0000
0001
0000
1001
0000
0000
0110
,
0000
1000
0001
0010
,
0001
0100
0100
0001
,
1000
0010
1000
0100
,
1000
0001
0010
0000
,
0100
1000
1000
0010
,
0100
0001
0010
0001
,
0100
0010
1000
0100
,
0010
0001
0001
1000
,
0010
0100
0001
1000
,
0100
1000
0010
0000
,
0100
0001
0001
0010
,
0100
1000
0010
0100
,
0001
0010
0001
0000
,
2001
0100
3100
2000
,
0010
3010
2000
0100
,
3100
1000
0010
0100
,
1002
0100
0103
0002
,
0010
0013
0001
0100
,
0010
0000
1000
0000
0001
1000
0001
0000
,
2001
0010
3010
2000
,
0010
3010
2000
0100
,
3100
1000
0001
0010
,
1002
0010
0013
0002
,
0010
0013
0001
0100
,
0010
0000
1000
0001
1000
0000
0001
0000
,
1000
0100
0010
0110
,
0001
1000
0010
0100
,
0001
1001
1000
0010
,
0100
0001
0010
0110
,
1000
0001
0100
0010
,
1000
1001
0001
0010
,
0110
1000
0001
0101
,
1000
0010
0100
0001
,
0010
1100
0001
0010
,
0001
1000
0010
0110
,
1000
0000
0001
0000
0010
0100
0010
0000
,
0100
0000
1000
0001
1000
0000
0010
0000
,
1001
2002
0000
0000
,
3003
0000
0110
0220
,
0000
0000
0330
0000
,
1001
1001
2002
0000
,
3003
0000
0000
0000
1001
0000
0000
0100
,
0000
0000
1001
0000
0000
0010
0000
0000
,
0110
0220
0000
0000
,
0330
0000
1001
2002
,
0000
0000
3003
0000
,
0110
0110
0220
0000
,
0330
0000
1001
1000
,
0100
0020
0001
0031
,
0010
0100
0010
0000
0001
0000
0010
0100
,
0010
0001
1000
0010
,
0100
0001
0010
0100
,
1000
0001
1000
0000
0010
0000
1000
0001
,
1000
0020
0000
0130
,
0001
0000
0010
0100
0010
0000
0100
0000
,
1000
0001
1000
0000
0010
0000
1000
0001
,
1000
0010
0100
0001
,
0011
0000
1000
0000
0010
0100
0010
0000
,
2000
0100
3100
0002
,
0100
0103
0020
0100
,
0130
0010
0110
1001
,
1000
0100
0010
0000
0001
0000
1000
0100
,
0010
0001
1000
0001
,
0100
0010
1000
0001
,
0010
0100
1000
0000
0001
0000
0010
0100
,
1000
0002
0000
0103
,
0010
1000
1001
0110
,
0001
1000
0010
0000
0100
0000
0001
1000
,
0010
0100
0001
0010
,
0100
0000
1000
0000
0010
0100
0010
0000
,
1000
0100
0010
0000
0001
0000
0001
0100
,
0010
1000
0001
0010
,
0001
1000
0001
0000
0100
0000
0010
0000
,
0110
0110
0000
0000
,
0000
0000
1001
1001
,
0000
0000
0000
0000
,
0110
0110
0000
0000
,
0000
0000
0000
0000
1001
0000
0000
0110
,
0000
0000
1001
0000
0000
0110
0000
0000
,
2002
0000
0000
0000
,
0000
0000
0000
0000
,
0000
0000
0000
0000
,
3003
0000
0000
0000
;

//--------------- dance-single - forcednature ----------------
#NOTEDATA:;
#STEPSTYPE:dance-single;
#DESCRIPTION:forcednature;
#DIFFICULTY:Medium;
#METER:14;
#RADARVALUES:0,0,0,0,0;
#CREDIT:forcednature;
#NOTES:
0000
0000
0000
0000
,
0000
0000
0000
0000
,
0000
0000
0000
0000
,
0000
0000
0000
0000
,
0000
0000
0000
0000
,
0000
0000
0000
0000
,
0000
0000
0000
0000
,
0001
0000
0100
0001
0000
0100
0010
0000
,
1000
0000
0001
0000
1000
0000
0100
1000
,
0000
0100
0010
0000
0001
0000
1000
0000
,
0010
0000
0100
0001
0000
0010
0001
0000
,
1000
0000
0100
0000
0010
0000
0100
1000
,
0000
0010
1000
0000
0001
0100
0001
0000
,
2002
0000
0000
0000
,
0000
0000
3003
0000
,
0000
0000
0000
0000
,
0220
0000
0000
0000
,
0000
0000
0330
0000
,
0000
0000
0000
0000
,
2001
0000
0100
0100
,
0001
3010
1002
0000
,
0100
0100
1000
0013
,
0210
1000
0310
0120
,
0001
0000
0130
0000
1001
0000
0001
0100
,
0000
0010
1000
0000
0002
0023
0230
2300
,
3001
0100
0010
0100
1000
0000
0100
0000
,
0001
1000
0010
0000
1000
0100
1000
0001
,
0010
0000
0001
0100
0001
1000
0010
0000
,
1000
0100
0010
0100
0001
0000
0100
0000
,
1000
0001
0010
0000
0001
0100
0001
1000
,
0100
1000
0010
0100
0001
0100
0010
0000
,
1000
0010
0100
0010
0001
0000
0010
0000
,
1000
0001
0100
0000
0001
0010
0001
1000
,
0100
0000
1000
0010
1000
0001
0100
0000
,
0001
0010
0100
0010
1000
0000
0010
0000
,
0001
1000
0100
0000
1000
0010
0100
0001
,
0010
0000
0001
0100
0010
1000
0100
0000
,
0110
0000
0010
0001
0100
0000
0110
0000
,
0001
0001
0001
0000
0110
0000
1000
1000
,
1000
0000
0001
0010
0100
1000
0010
0000
,
0110
0000
1000
0100
1000
0000
0110
0000
,
0001
0100
0001
0000
1000
0100
0001
0000
,
0001
0100
1000
0000
0001
0010
0001
0100
,
0010
0000
1000
0100
0001
0000
0110
0000
,
1000
1000
1000
0000
0110
0000
0001
0001
,
0001
0000
1000
0010
1000
0001
0100
0000
,
0110
0000
0001
0010
0100
0000
0110
0000
,
1000
0010
0100
0000
0001
0001
0010
0000
,
1000
1000
0010
0000
0100
0000
1001
0000
,
0001
0100
0010
0100
0001
0000
0011
0000
,
1000
0100
1000
0000
0010
0100
0001
0010
,
0001
0000
0100
0010
1000
0100
1000
0000
,
1000
0010
0100
0010
1000
0000
1100
0000
,
0001
0010
0001
0000
0200
0000
0310
1000
,
0001
1000
0200
0000
0310
0001
1000
0000
,
0001
0010
0100
0010
0001
0000
0011
0000
,
1000
0100
1000
0000
0010
0100
0001
1000
,
0010
0000
1000
0001
0100
0001
1000
0000
,
0100
0010
0001
0010
0100
0000
1100
0000
,
0001
0010
0001
0000
0200
0000
0310
1000
,
0001
0010
0200
0000
1300
0001
0100
0000
,
1001
2002
0000
0000
,
0000
3003
0000
0000
0110
0000
0220
0000
,
0000
0000
0000
0330
0000
0000
1000
0001
,
0010
0110
2002
0000
,
0000
0000
3003
0000
0001
0100
0100
0001
,
1000
0010
1000
0100
0100
1000
0001
0010
,
0100
2002
0000
0000
,
0000
3003
0000
0000
1100
0000
0022
0000
,
0000
0000
0000
0033
0000
0000
0000
0000
,
0101
1010
2002
0000
,
0000
0000
3003
0000
0110
0000
1000
0001
,
1000
0001
0010
0010
0010
0000
1001
0000
,
1000
0100
0001
0100
1000
0000
1000
0010
,
0001
0010
2000
0000
3001
0010
0001
0100
,
0010
1000
0100
1000
0010
0100
0110
0000
,
0001
0100
1000
0100
0001
0000
0001
0010
,
1000
0010
0002
0000
0010
0000
0013
0001
,
1000
0010
0100
1000
0100
0010
1000
0000
,
0001
0100
1000
0100
0001
0000
0001
0010
,
1000
0010
0002
0000
1003
0010
1000
0100
,
0010
0001
0100
0001
0010
0100
0110
0000
,
0002
0000
0100
0000
0013
0001
2000
0000
,
0100
0000
3010
1000
0002
0000
0010
0000
,
0103
0001
1000
0000
1001
0000
0110
0000
,
0001
0100
1000
0100
0001
0010
0001
0100
,
1000
0100
0002
0000
1003
0010
1000
0100
,
0010
0001
0100
0001
0010
0100
0110
0000
,
1000
0100
0001
0100
1000
0010
1000
0100
,
0001
0100
2000
0000
0010
0000
3010
0100
,
0001
0010
0100
0001
0100
0010
0001
1000
,
0001
0010
1000
0010
0001
0100
0001
0010
,
1000
0010
0002
0000
1003
0100
1000
0010
,
0100
0001
0010
0001
0100
0010
0110
0000
,
1000
0010
0001
0010
1000
0100
1000
0010
,
0001
0010
2000
0000
3100
0010
0001
0100
,
1000
0100
0001
0010
0110
0100
1001
0000
,
0110
1001
0000
0000
,
0000
0000
0110
1001
,
0000
0000
0000
0000
,
0110
1001
0000
0000
,
0000
0000
0000
0000
1001
0000
0000
0110
,
0000
0000
1001
0000
0000
0110
0000
0000
,
2002
0000
0000
0000
,
0000
0000
0000
0000
,
0000
0000
0000
0000
,
3003
0000
0000
0000
;

//--------------- dance-single - forcednature ----------------
#NOTEDATA:;
#STEPSTYPE:dance-single;
#DESCRIPTION:forcednature;
#DIFFICULTY:Hard;
#METER:17;
#RADARVALUES:0,0,0,0,0;
#CREDIT:forcednature;
#NOTES:
0000
0000
0000
0000
,
0000
0000
0000
0000
,
0000
0000
0000
0000
,
0000
0000
0000
0000
,
0000
0000
0000
0000
,
0000
0000
0000
0000
,
0000
0000
0000
0000
,
1000
0000
1000
0100
0000
0100
0010
0000
,
0001
0000
1000
0000
0001
0000
0001
0100
,
0000
0100
0010
0000
1000
0000
0001
0000
,
0010
0000
0010
0100
0000
0100
1000
0000
,
0001
0000
0100
0000
0010
0000
0010
0100
,
0000
0100
0001
0010
0001
0100
0010
1000
,
2002
0000
0000
0000
,
0000
0000
3003
0000
,
0000
0000
0000
0000
,
0220
0000
0000
0000
,
0000
0000
0330
0000
,
0000
0000
0000
0000
0000
0000
0000
0000
0000
0000
0001
0000
1000
0001
1000
0000
,
0002
0000
0100
0100
0100
0000
1000
0000
,
0010
0010
0013
0000
2001
0000
0100
0100
,
0100
0000
0001
0000
0010
0010
3010
0000
,
0210
0000
0001
0001
0301
0000
0120
0000
,
1000
1000
1030
0000
1001
0000
0100
0110
,
0000
0010
1001
0000
2000
3200
0320
0032
,
1003
0000
0010
0000
0010
0000
1000
0001
0100
0000
0010
0000
0100
0000
0001
0000
,
0010
0001
1000
0000
0100
0010
0001
0100
,
1000
0100
0001
0001
1000
0010
0100
0000
,
0001
0000
0010
0000
0010
0000
0001
1000
0100
0000
0010
0000
0100
0000
1000
0000
,
0010
1000
0001
0010
0001
0100
1000
0100
,
0001
0000
1000
0010
0100
0000
0001
0000
0010
0000
0100
0010
0001
0000
0000
0000
,
1000
0000
0100
0000
0100
0000
1000
0001
0010
0000
0100
0000
0010
0000
0001
0000
,
0100
0001
1000
0000
0010
0100
0001
0010
,
1000
0010
0001
0001
1000
0100
0010
0000
,
0001
0000
0100
0000
0100
0000
0001
1000
0010
0000
0100
0000
0010
0000
1000
0000
,
0100
1000
0001
0010
1000
0010
0001
0100
,
0001
0000
1000
0100
0010
0000
0001
0000
0100
0000
0010
0100
0001
0000
1000
0000
,
1200
0000
0301
0100
1000
0000
1020
0000
,
0130
0001
1000
0001
0100
0000
0000
0000
0021
0000
0000
0000
0130
1000
0001
1000
,
0100
0000
1000
0010
0100
0001
0010
0001
,
0201
0000
1300
0100
0001
0000
1020
0000
,
0031
0000
0010
0000
1000
0000
0000
0000
0100
0000
1000
0100
0010
0000
0100
0000
,
0010
0000
0001
1000
0100
0000
1000
0000
0001
0100
0001
0100
0010
1000
0010
1000
,
0002
0000
1003
0010
0001
0000
2010
0000
,
3001
0100
0010
0100
0001
0000
0000
0000
0012
0000
0000
0000
1003
0100
0010
0100
,
1000
0000
0001
0010
0100
1000
0010
1000
,
1200
0000
0301
0100
1000
0000
0021
0000
,
1030
0000
0010
0000
0001
0000
0000
0000
0100
0000
0001
0100
0010
0000
0100
0000
,
0010
0000
1000
0001
0100
0000
0001
0000
0010
0100
0010
0100
2000
0000
0000
0000
,
3001
0000
0100
0001
0100
0000
0010
0100
0010
0000
1000
0000
1100
0000
0100
0000
,
0010
0001
0100
0000
1000
0100
0001
1000
,
0001
0000
0010
0000
0110
0000
0100
0000
1000
0000
0001
0010
0001
0000
0000
0000
,
1000
0000
0100
1000
0100
0000
0010
0100
0010
0000
0001
0000
0101
0000
0100
0000
,
0010
1000
0001
0010
1000
0010
0001
0100
,
0010
0000
1000
0100
0010
0000
0001
0000
0100
0010
0100
0010
1000
0000
0000
0000
,
0001
0000
0010
0001
0010
0000
0100
0010
0100
0000
1000
0000
1010
0000
0010
0000
,
0100
0001
0010
0000
1000
0010
0001
1000
,
0001
0000
0100
0000
0110
0000
0010
0000
1000
0000
0001
0100
0001
0000
0000
0000
,
1000
0000
0010
1000
0010
0000
0100
0010
0100
0000
0001
0000
0011
0000
0010
0000
,
0100
1000
0001
0100
1000
0100
0010
1000
,
0001
0000
0010
0001
0100
0000
0010
0000
1000
0001
1000
0001
0100
0000
0010
0000
,
0110
0220
0000
0000
,
0000
0330
0000
0000
1001
0000
2002
0000
,
0000
0000
0000
0000
0000
0000
3003
0000
0000
0000
0000
0000
1000
0100
0010
0001
,
1000
1001
0220
0000
,
0000
0000
0000
0000
0330
0000
0000
0000
0001
0100
0010
0000
1000
0000
0001
0010
,
0100
0000
1000
0000
0010
0100
0001
0000
0010
0000
0100
1000
0010
0000
0100
0000
,
0110
2002
0000
0000
,
0000
3003
0000
0000
1100
0000
0022
0000
,
0000
0000
0000
0000
0000
0000
0033
0000
0000
0000
0000
0000
0001
0100
0010
1000
,
0001
0101
2020
0000
,
0000
0000
3030
0000
1001
0000
1000
0010
,
0100
0000
0001
0000
0010
0001
0010
0001
1000
0100
1000
0100
0010
0000
0010
0000
,
0001
0100
0010
0100
0001
0000
1000
0010
0100
0000
0000
0000
0001
0100
0010
0100
,
0001
0000
1000
0010
0200
0000
0000
0000
0301
0000
1000
0001
0010
0000
0100
0010
,
0100
0000
1000
0100
1000
0000
0001
1000
0010
0000
0100
0000
0101
0000
0000
0000
,
1000
0100
0010
0100
1000
0000
0001
0010
0100
0000
0000
0000
1000
0100
0010
0100
,
1000
0000
0001
0010
0200
0000
0000
0000
1000
0000
0000
0000
1300
0000
0100
1000
,
0001
0000
0010
0001
1000
0000
0010
0100
0001
0000
0010
0100
1000
0000
0100
0000
,
0010
0001
1000
0001
0010
0000
0001
1000
0100
0000
0000
0000
0010
0001
1000
0001
,
0010
0000
0001
1000
0200
0000
0000
0000
0310
0000
0001
1000
0010
0000
0100
0010
,
0100
0000
0001
0100
0001
0000
1000
0100
0010
0000
0001
0100
0010
0000
1000
0000
,
0002
0000
0013
0100
0010
0001
2000
0000
,
3010
0100
0010
1000
0200
0000
0310
0001
,
1000
0010
0100
0000
0110
0000
1001
0000
,
1000
0010
0100
0010
1000
0000
0001
0100
0010
0000
1000
0000
0001
0010
0100
0010
,
0001
0000
1000
0100
0020
0000
0000
0000
0031
0000
0010
0100
1000
0000
0010
1000
,
0100
0000
0010
0001
1000
0000
0010
0100
0001
0000
0010
0000
1001
0000
0000
0000
,
1000
0100
0010
0100
1000
0000
0001
0010
0100
0000
1000
0000
0001
0100
0010
0100
,
0001
0000
1000
0010
0200
0000
0000
0000
1000
0000
0000
0000
1300
0000
0100
0001
,
1000
0000
0010
1000
0001
0000
0010
0001
0100
0000
0010
1000
0100
0000
0010
0000
,
0001
1000
0100
1000
0001
0000
0010
0001
1000
0000
0010
0000
1000
0001
0100
0001
,
1000
0000
0010
1000
0002
0000
0000
0000
0013
0000
0100
1000
0001
0000
0010
0001
,
1000
0000
0100
1000
0010
0000
0100
0001
0010
0000
0100
0000
1001
0000
0000
0000
,
1000
0001
0010
0001
1000
0000
0100
1000
0001
0000
0100
0000
0001
1000
0010
1000
,
0001
0000
0100
0001
2000
0000
0000
0000
3100
0000
0010
0001
0100
0000
0010
1000
,
0100
0000
0001
0100
1000
0000
0100
0010
0001
0000
1000
0010
1000
0010
0100
0000
,
0110
2002
0000
0000
,
0000
3003
0000
0000
0110
0000
2002
0000
,
0000
0000
0000
0000
0000
3003
0000
0000
,
1000
0001
1000
0000
0001
1000
0002
0000
0000
0000
0103
0000
0010
0000
1000
0000
,
0100
0000
0010
0000
0001
0000
0000
0000
1000
0100
1000
0100
1000
0000
0001
0100
,
0001
0100
0001
0000
1000
0010
0100
0010
1000
0000
0001
0010
0100
0010
0001
0000
,
2002
0000
0000
0000
,
0000
0000
0000
0000
,
0000
0000
0000
0000
,
3003
0000
0000
0000
;

//--------------- dance-double - forcednature ----------------
#NOTEDATA:;
#STEPSTYPE:dance-double;
#DESCRIPTION:forcednature;
#DIFFICULTY:Easy;
#METER:10;
#RADARVALUES:0,0,0,0,0;
#CREDIT:forcednature;
#NOTES:
00000000
00000000
00000000
00000000
,
00000000
00000000
00000000
00000000
,
00000000
00000000
00000000
00000000
,
00000000
00000000
00000000
00000000
,
00000000
00000000
00000000
00000000
,
00000000
00000000
00000000
00000000
,
00000000
00000000
00000000
00000000
,
00011000
00000000
00001000
00000000
,
00010000
00000000
00000100
00000000
,
00001000
00000000
00000100
00000000
,
00000010
00000000
00000001
00000000
,
00001000
00000000
00000010
00000000
,
00010000
00000000
00001000
00000000
,
00022000
00000000
00000000
00000000
,
00000000
00000000
00033000
00000000
,
00000000
00000000
00000000
00000000
,
00022000
00000000
00000000
00000000
,
00000000
00000000
00033000
00000000
,
00000000
00000000
00000000
00000000
,
01000000
00000000
00010000
00010000
,
00010000
00000000
00001000
00000000
,
00010000
00010000
00010000
00000000
,
00011000
00000000
00000100
00001001
,
00000000
00000000
00000010
00000000
00000110
00000000
00000000
00000110
,
00000000
00000001
00001000
00000001
,
00000100
00001000
00010000
00001000
,
00100000
00010000
00000000
10000000
,
01000000
10000000
00100000
01000000
,
00010000
00100000
00001000
00010000
,
00001000
01000000
00010000
00100000
,
01000000
10000000
01000000
00010000
,
00001000
00100000
00010000
00100000
,
00001000
00010000
00000000
00000010
,
00001000
00000001
00000100
00000001
,
00001000
00000100
00000010
00000001
,
00000100
00000010
00001000
00000100
,
00010000
00001000
01000000
00010000
,
00200000
01000000
01300000
00020000
,
01000000
01030000
00200000
01000000
,
01300000
00010000
01000000
00001000
,
00020000
00001000
00031000
00000020
,
00001000
00001030
00010000
00000100
,
00001000
00000001
00000100
00000010
,
00002000
00000100
00003100
00000020
,
00000100
00000130
00002000
00000100
,
00003100
00010000
00001000
00100000
,
00020000
01000000
01030000
00200000
,
01000000
01300000
00010000
10000000
,
01000000
00010000
00001000
00011000
,
00010000
00000100
00001000
00000010
,
00001000
00000100
00000000
00000010
,
00000001
00000100
00000001
00000010
,
00000100
00001000
00000100
00010000
,
00001000
01000000
00010000
00100000
,
01000000
10000000
00100000
01000000
,
00010000
00100000
00001000
00010000
,
00000010
00001000
00000000
00000100
,
00000010
00000001
00000100
00000010
,
00001000
00000100
00010000
00001000
,
01000000
00010000
00100000
01000000
,
10000000
00100000
01000000
00010000
,
10010000
10010000
00000000
00000000
,
00000000
00000000
01100000
01100000
,
00000000
00000000
00000000
00000000
,
00011000
00011000
00011000
00000000
,
00000000
00000000
00000000
00000000
00000100
00000000
00000000
00011000
,
00000000
00000000
01000000
00000000
00000000
00011000
00000000
00000000
,
00011000
00011000
00000000
00000000
,
00000000
00000000
00000110
00000110
,
00000000
00000000
00000000
00000000
,
00001001
00001001
00001001
00000000
,
00000000
00000000
00000110
00000000
,
00000001
00000100
00001000
00010000
,
00001000
00100000
00100000
00001000
,
00100000
00100000
00001000
00010000
,
00000010
00001000
00000100
00000010
,
00000001
00000100
00000100
00000001
,
00000100
00000200
00000000
00000310
,
00001000
00000100
00010000
00001000
,
01000000
00010000
00010000
01000000
,
00010000
00010000
00100000
01000000
,
10000000
00100000
10000000
01000000
,
00200000
00000000
00001000
00302000
,
00000000
00010000
00023000
00000000
,
00000010
00030010
00001000
00000001
,
00000010
00000000
00000100
00000010
00000100
00000000
00000010
00000000
,
00000100
00000010
00000100
00000000
00000010
00000000
00000001
00000000
,
00001000
00000010
00010000
00001000
,
01000000
00000000
00010000
01000000
00010000
00000000
01000000
00000000
,
00010000
01000000
00020000
00000000
00000000
00000000
00130000
00000000
,
01000000
10000000
00100000
10000000
,
01000000
00000000
00100000
01000000
00100000
00000000
01000000
00000000
,
00100000
01000000
00100000
00000000
00010000
00000000
01000000
00000000
,
00001000
00010000
00000100
00001000
,
00000001
00000000
00000100
00000001
00000100
00000000
00000001
00000000
,
00000100
00000001
00000100
00000000
00000010
00000000
00001000
00000000
,
00000100
00000010
00001000
00010000
,
00011000
00011000
00000000
00000000
,
00000000
00000000
01001000
01001000
,
00000000
00000000
00000000
00000000
,
00011000
00011000
00000000
00000000
,
00000000
00000000
00000000
00000000
00010100
00000000
00000000
00001100
,
00000000
00000000
00010100
00000000
00000000
00001100
00000000
00000000
,
00002002
00000000
00000000
00000000
,
00000000
00000000
00000000
00000000
,
00000000
00000000
00000000
00000000
,
00003003
00000000
00000000
00000000
;

//--------------- dance-double - forcednature ----------------
#NOTEDATA:;
#STEPSTYPE:dance-double;
#DESCRIPTION:forcednature;
#DIFFICULTY:Medium;
#METER:15;
#RADARVALUES:0,0,0,0,0;
#CREDIT:forcednature;
#NOTES:
00000000
00000000
00000000
00000000
,
00000000
00000000
00000000
00000000
,
00000000
00000000
00000000
00000000
,
00000000
00000000
00000000
00000000
,
00000000
00000000
00000000
00000000
,
00000000
00000000
00000000
00000000
,
00000000
00000000
00000000
00000000
,
00011000
00000000
00001000
01000000
00000000
00001000
00010000
00000000
,
00000010
00000000
00001000
00000000
00000100
00000000
00010000
00001000
,
00000000
00100000
00010000
00000000
01000000
00000000
00001000
00000000
,
00010000
00000000
00000100
00001000
00000000
00000010
00000100
00000000
,
00000001
00000000
00000010
00000000
00000001
00000000
00000100
00001000
,
00000000
00010000
00001000
00010000
00100000
10000000
00010000
00000000
,
20020000
00000000
00000000
00000000
,
00000000
00000000
30030000
00000000
,
00000000
00000000
00000000
00000000
,
00022000
00000000
00000000
00000000
,
00000000
00000000
00033000
00000000
,
00000000
00000000
00000000
00000000
00000000
00010000
00001000
01000000
,
00020000
01000000
01000000
10000000
,
10000000
00100000
00032000
00000100
,
00000100
00000001
00000001
00000010
,
00023000
01000000
00100000
00032000
,
00000100
00000000
00000010
00000000
00013000
00000000
00010000
01000000
,
00000000
01000000
00100000
00000000
01100000
00000000
10010000
00000000
,
10000000
01000000
00100000
00001000
00010000
01000000
00100000
00001000
,
00010000
00000100
00001000
00000000
00000001
00000100
00001000
00000100
,
00000001
00000010
00000001
00001000
00000010
00010000
00001000
00000000
,
00000010
00000001
00000100
00001000
00000100
00000001
00000010
00000100
,
00010000
00001000
00000010
00000000
00000001
00000100
00001000
00010000
,
00001000
00000000
00010000
00100000
10000000
00010000
01000000
00000000
,
00100000
10000000
01000000
00010000
00001000
00100000
01000000
00010000
,
00001000
00100000
00001000
00000000
00010000
00000010
00001000
00000100
,
00010000
00001000
01000000
00010000
00100000
01000000
00010000
00000000
,
00001000
00000010
00000100
00010000
00001000
00000010
00000001
00000100
,
00001000
00000100
00000001
00000000
00000010
00000100
00010000
00001000
,
00100000
01000000
00010000
00000000
00011000
00000000
00001000
00000010
,
00000002
00000000
00000103
00001000
00010000
00000000
00200000
00000000
,
00310000
00001000
00000100
00000000
00000020
00000000
00000130
00001000
,
00010000
00000000
00100000
10000000
00010000
10000000
01000000
00000000
,
00200000
00000000
00301000
00010000
00000100
00000000
00000020
00000000
,
00000130
00000000
00010000
00000000
00001000
00000000
00000000
00000000
01000000
00000000
00010000
01000000
00010000
00000000
00000000
00000000
,
10000000
00000000
00100000
10000000
00100000
00000000
00000000
00000000
01000000
00000000
00010000
00000000
00100000
00000000
01000000
00000000
,
00020000
00000000
00030100
00001000
00000010
00000000
00020000
00000000
,
00030010
00001000
00000100
00000000
00000020
00000000
00000130
00010000
,
00001000
00000000
00000010
00000001
00000100
00001000
00000100
00000001
,
00000020
00000000
00000130
00010000
00001000
00000000
00200000
00000000
,
00301000
00000000
00010000
00000000
00000100
00000000
00000000
00000000
00000010
00000000
00000001
00000010
00000001
00000000
00000000
00000000
,
00001000
00000000
00000100
00001000
00000100
00000000
00000000
00000000
00010000
00000000
00001000
00000000
01000000
00000000
00010000
00000000
,
00100000
01000000
00010000
01000000
00100000
00001000
00010000
01000000
,
00100000
00001000
00010000
00000000
00000010
00000100
00001000
00010000
,
00001000
00100000
00010000
01000000
00100000
10000000
01000000
00000000
,
00010000
00000100
00001000
00000001
00000010
00001000
00000010
00000001
,
00000100
00001000
00010000
00001000
00010000
01000000
10000000
00100000
,
10000000
01000000
00010000
00001000
00000010
00000001
00001000
00000000
,
00000010
00000100
00001000
00010000
00001000
00100000
00010000
01000000
,
00001000
00010000
00100000
00000000
10000000
01000000
00010000
01000000
,
00100000
00001000
00010000
00000100
00001000
00000001
00000010
00000000
,
00000001
00000100
00001000
00000100
00000001
00001000
00000010
00010000
,
00001000
01000000
00010000
00100000
01000000
00010000
00001000
00010000
,
00001000
00000010
00000001
00001000
00000001
00000100
00001000
00010000
,
00100000
02200000
00000000
00000000
,
00000000
03300000
00000000
00000000
00010000
00000000
00022000
00000000
,
00000000
00000000
00000000
00000000
00000000
00033000
00000000
00000000
,
00000010
00000110
00002002
00000000
,
00000000
00003003
00000000
00000000
00000001
00000001
00000100
00001000
,
00001000
00000100
00000001
00000010
00001000
00010000
01000000
10000000
,
00100000
02200000
00000000
00000000
,
00000000
03300000
00000000
00000000
00010000
00000000
00022000
00000000
,
00000000
00000000
00000000
00000000
00000000
00033000
00000000
00000000
,
00000010
00000110
00002002
00000000
,
00000000
00003003
00000000
00000000
00000110
00000000
00000001
00000100
,
00001000
00010000
00002000
00000000
00100000
00100000
00100000
00000000
,
00013000
01000000
10000000
01000000
00010000
00000000
00010000
01000000
,
10000000
01000000
00010000
00000000
00010000
00000100
00001000
00000100
,
00000010
00000001
00000100
00000001
00000010
00001000
00010000
00000000
,
00001000
00000100
00000001
00000100
00001000
00000000
00001000
00000100
,
00000001
00000100
00002000
00000000
00010000
00000000
00013000
00001000
,
00100000
00010000
01000000
10000000
01000000
00010000
00100000
01000000
,
00010000
01000000
10000000
01000000
00010000
00000000
00010000
01000000
,
10000000
01000000
00010000
00000000
00001000
00000010
00000100
00010000
,
00001000
00000010
00000001
00000100
00000001
00000010
00001000
00010000
,
00000200
00000000
00001000
00000000
00000310
00000100
00020000
00000000
,
00001000
00000000
00030010
00010000
00002000
00000000
01000000
00000000
,
00013000
00001000
00100000
00000000
01100000
00000000
10010000
00000000
,
10000000
01000000
00100000
00001000
01000000
00100000
10000000
01000000
,
00100000
00001000
01000000
00000000
00010000
00100000
01000000
00010000
,
00001000
00000010
00000100
00010000
00001000
00000010
00000001
00000000
,
00000001
00000100
00000010
00010000
00000100
00000010
00000001
00000100
,
00000010
00010000
00000200
00000000
00000001
00000000
00000301
00000100
,
00001000
00000010
00001000
00010000
01000000
00010000
00100000
01000000
,
10000000
00100000
01000000
00001000
00100000
01000000
10000000
00100000
,
01000000
00001000
00100000
00000000
01000000
00010000
00001000
00100000
,
01000000
00010000
00000100
00001000
00000001
00000100
00000010
00000000
,
00010000
00000100
00000010
00000001
00000100
00000010
00010000
00000100
,
00000010
00000001
00000100
00000000
00001000
00010000
00001000
00100000
,
01000000
00010000
00001000
00000010
00000100
00010000
00001000
00000010
,
00000110
00000220
00000000
00000000
,
00000000
00000330
00000000
00000000
00011000
00000000
00022000
00000000
,
00000000
00000000
00000000
00000000
00000000
00033000
00000000
00000000
,
01100000
02200000
00000000
00000000
,
00000000
03300000
00000000
00000000
10010000
00000000
00000000
01100000
,
00000000
00000000
00011000
00000000
00000000
00000110
00000000
00000000
,
00002002
00000000
00000000
00000000
,
00000000
00000000
00000000
00000000
,
00000000
00000000
00000000
00000000
,
00003003
00000000
00000000
00000000
;

//--------------- dance-double - forcednature ----------------
#NOTEDATA:;
#STEPSTYPE:dance-double;
#DESCRIPTION:forcednature;
#DIFFICULTY:Hard;
#METER:17;
#RADARVALUES:0,0,0,0,0;
#CREDIT:forcednature;
#NOTES:
00000000
00000000
00000000
00000000
,
00000000
00000000
00000000
00000000
,
00000000
00000000
00000000
00000000
,
00000000
00000000
00000000
00000000
,
00000000
00000000
00000000
00000000
,
00000000
00000000
00000000
00000000
,
00000000
00000000
00000000
00000000
,
00001000
00000000
00001000
00010000
00000000
00010000
00100000
00000000
,
10000000
00000000
01000000
00000000
00010000
00000000
00010000
00001000
,
00000000
00001000
00000010
00000000
00000001
00000000
00000100
00000000
,
00001000
00000000
00001000
00010000
00000000
00010000
01000000
00000000
,
10000000
00000000
00100000
00000000
00010000
00000000
00010000
00001000
,
00000000
00001000
00000100
00000001
00000010
00000001
00000100
00001000
,
00020000
00000000
00000000
00000000
,
00000000
00000000
00030000
00000000
,
00000000
00000000
00000000
00000000
,
02200000
00000000
00000000
00000000
,
00000000
00000000
03300000
00000000
,
00000000
00000000
00000000
00000000
00000000
00000000
00000000
00000000
00000000
00000000
00010000
00000000
10000000
00010000
10000000
00000000
,
00020000
00000000
01000000
01000000
01000000
00000000
10000000
00000000
,
00100000
00100000
00100000
00000000
00032000
00000000
00000100
00000100
,
00000100
00000000
00000001
00000000
00000010
00000010
00000010
00000000
,
00023000
01000000
00100000
00032000
,
00003100
00001000
00000010
00001000
00000001
00000000
00000100
00001000
,
00000000
00010000
00100000
00000000
01100000
00000000
10010000
00000000
,
10000000
00000000
01000000
00000000
01000000
00000000
10000000
00010000
00100000
00000000
01000000
00000000
00010000
00000000
00001000
00000000
,
00100000
01000000
00010000
00000000
00001000
00000010
00000001
00000100
,
00001000
00000100
00000001
00000010
00001000
00010000
00000100
00000000
,
00000010
00000000
00000001
00000000
00000001
00000000
00001000
00000100
00000010
00000000
00000001
00000000
00000100
00000000
00000001
00000000
,
00000010
00001000
00010000
00000010
00000100
00001000
00010000
01000000
,
00100000
00000000
00010000
00100000
00001000
00000000
00010000
00000000
00000100
00000000
00001000
00000100
00000010
00000000
00000000
00000000
,
00000001
00000000
00000100
00000000
00000100
00000000
00000001
00001000
00000010
00000000
00000100
00000000
00001000
00000000
00010000
00000000
,
00000010
00000100
00001000
00000000
00010000
00100000
10000000
01000000
,
00010000
01000000
10000000
00100000
00010000
00001000
01000000
00000000
,
00100000
00000000
10000000
00000000
10000000
00000000
00010000
01000000
00100000
00000000
10000000
00000000
01000000
00000000
10000000
00000000
,
00100000
00010000
00001000
00100000
01000000
00010000
00001000
00000100
,
00000010
00000000
00001000
00000010
00010000
00000000
00001000
00000000
01000000
00000000
00010000
01000000
00100000
00000000
10000000
00000000
,
02000000
00000000
13000000
00100000
00010000
00000000
00012000
00000000
,
00103000
00010000
00100000
00001000
00010000
00000000
00000000
00000000
00021000
00000000
00000000
00000000
00030010
00001000
00000010
00010000
,
00001000
00000000
00000010
00000001
00000100
00001000
00010000
01000000
,
20000000
00000000
30100000
00010000
00001000
00000000
02000000
00000000
,
03001000
00000000
00010000
00000000
00100000
00000000
00000000
00000000
10000000
00000000
01000000
10000000
00010000
00000000
00100000
00000000
,
00001000
00000000
00010000
00000100
00001000
00000000
00000001
00000000
00000100
00000010
00000100
00000010
00001000
00000001
00001000
00000001
,
00000200
00000000
00000301
00000010
00001000
00000000
00021000
00000000
,
00030100
00001000
00000100
00010000
00001000
00000000
00000000
00000000
00012000
00000000
00000000
00000000
01003000
00010000
01000000
00001000
,
00010000
00000000
00100000
10000000
01000000
00010000
00001000
00000100
,
00000002
00000000
00000013
00001000
00010000
00000000
00000200
00000000
,
00010300
00000000
00001000
00000000
00000010
00000000
00000000
00000000
00000001
00000000
00000100
00000001
00001000
00000000
00000010
00000000
,
00010000
00000000
00001000
01000000
00010000
00000000
10000000
00000000
01000000
00100000
01000000
00100000
00020000
00000000
00000000
00000000
,
10030000
00000000
01000000
10000000
01000000
00000000
10000000
00010000
00100000
00000000
01000000
00000000
00010000
00000000
00000100
00000000
,
00001000
00000010
00010000
00000000
00000001
00000100
00001000
00010000
,
00000010
00010000
00001000
00000010
00000001
00001000
00000100
00000000
,
00000010
00000000
00000001
00000010
00000001
00000000
00001000
00000100
00000010
00000000
00000001
00000000
00000100
00000000
00000001
00000000
,
00001000
00000010
00010000
00100000
01000000
00010000
10000000
00100000
,
10000000
00000000
01000000
10000000
00010000
00000000
00100000
00000000
00001000
00000000
00010000
00000100
00001000
00000000
00000000
00000000
,
00000001
00000000
00000100
00000001
00000100
00000000
00000001
00001000
00000010
00000000
00000100
00000000
00001000
00000000
01000000
00000000
,
00010000
00100000
00001000
00000000
10000000
01000000
00010000
00001000
,
00100000
00001000
00010000
00100000
10000000
00010000
01000000
00000000
,
00100000
00000000
10000000
00100000
10000000
00000000
00010000
01000000
00100000
00000000
10000000
00000000
01000000
00000000
10000000
00000000
,
00010000
00100000
00001000
00000010
00000100
00001000
00000001
00000010
,
00000001
00000000
00000100
00000001
00001000
00000000
00000010
00000000
00010000
00001000
00010000
00001000
01000000
00000000
00010000
00000000
,
00100000
20010000
00100000
00010000
,
31000000
00010000
00001000
00000000
00000010
00000000
00001002
00000000
,
00000010
00000000
00000000
00000000
00001000
00000000
00000000
00000000
00000103
00000000
00001000
00000000
00010000
00001000
00100000
00010000
,
00100000
01100000
00012000
00100000
,
00013000
00000000
01000000
00000000
10000000
00000000
00000000
00000000
00010000
00100000
00010000
10000000
01000000
00000000
00010000
00000000
,
00001000
00000000
00000010
00000000
00000001
00001000
00000100
00001000
00000001
00000000
00000010
00000001
00001000
00000000
00000010
00000000
,
00000100
00000001
00001000
00000000
00002001
00000000
00000000
00000000
00000010
00000000
00000000
00000000
00003001
00000000
00000100
00000000
,
00001000
00010000
00100000
00000000
01100000
00000000
10020000
00000000
,
00100000
00000000
00000000
00000000
10030000
00000000
01000000
00000000
00010000
00000000
00001000
00000000
00010000
00000100
00001000
00000100
,
00000010
00000000
00000110
00000000
00021000
00000000
00000010
00000010
,
00001000
00001000
00030100
00010000
00011000
00000000
00001000
00010000
,
00001000
00000000
01000000
00000000
00010000
01000000
00010000
01000000
00100000
10000000
00100000
10000000
00010000
00000000
00010000
00000000
,
10000000
01000000
10000000
00010000
00100000
00000000
00001000
00010000
00001000
00000000
00000000
00000000
00010000
00001000
00010000
00000100
,
00001000
00000000
00000001
00000010
00000002
00000000
00000000
00000000
00000103
00000000
00000001
00000100
00000010
00000000
00001000
00000010
,
00001000
00000000
00000010
00010000
00001000
00000000
00010000
00000100
00001000
00000000
00000001
00000000
00000011
00000000
00000000
00000000
,
00000001
00000100
00000001
00001000
00000010
00000000
00010000
00001000
00010000
00000000
00000000
00000000
00001000
00010000
00001000
01000000
,
00010000
00000000
10000000
00100000
20000000
00000000
00000000
00000000
00010000
00000000
00000000
00000000
31000000
00000000
10000000
00010000
,
00100000
00000000
01000000
00100000
00010000
00000000
00100000
00001000
00010000
00000000
00001000
00010000
00000100
00000000
00001000
00000000
,
00000001
00000100
00000001
00001000
00000010
00000000
00010000
00001000
00010000
00000000
00000000
00000000
00001000
00010000
00001000
01000000
,
00010000
00000000
10000000
00100000
20000000
00000000
00000000
00000000
31000000
00000000
10000000
01000000
00100000
00000000
00010000
00100000
,
00001000
00000000
00010000
00001000
01000000
00000000
00010000
01000000
00100000
00000000
10000000
00000000
01000000
00000000
10000000
00000000
,
00020000
00000000
00130000
01000000
00010000
00000100
00002000
00000000
,
00003010
00000100
00001000
01000000
00020000
00000000
00130000
00010000
,
00001000
00000100
00000110
00000000
00011000
00000000
01100000
00000000
,
10000000
01000000
00100000
00010000
00100000
00000000
00001000
00010000
00000100
00000000
00001000
00000000
00000001
00000010
00000100
00001000
,
00000100
00000000
00000010
00000001
00002000
00000000
00000000
00000000
00003001
00000000
00000100
00000010
00001000
00000000
00000100
00010000
,
00001000
00000000
00100000
00001000
00010000
00000000
00000010
00001000
00000001
00000000
00000010
00000000
00001100
00000000
00000000
00000000
,
00000001
00000100
00000010
00001000
00000010
00000000
00010000
00001000
01000000
00000000
00010000
00000000
10000000
00100000
01000000
00010000
,
01000000
00000000
00100000
10000000
02000000
00000000
00000000
00000000
00010000
00000000
00000000
00000000
03010000
00000000
01000000
10000000
,
00010000
00000000
00100000
00001000
00010000
00000000
00000100
00001000
00000010
00000000
00000100
00000001
00000010
00000000
00000100
00001000
,
00000001
00000100
00000010
00001000
00000100
00000000
00010000
00001000
01000000
00000000
00010000
00000000
10000000
00100000
01000000
00010000
,
00100000
00000000
01000000
10000000
00020000
00000000
00000000
00000000
10030000
00000000
01000000
00100000
00010000
00000000
01000000
00001000
,
00010000
00000000
00000010
00010000
00001000
00000000
00100000
00010000
10000000
00000000
00100000
00000000
01010000
00000000
00000000
00000000
,
10000000
01000000
00100000
00010000
01000000
00000000
00001000
00010000
00000100
00000000
00001000
00000000
00000001
00000010
00000100
00001000
,
00000010
00000000
00000100
00000001
00000020
00000000
00000000
00000000
00000130
00000000
00000010
00000001
00001000
00000000
00000010
00000100
,
00001000
00000000
00000100
00001000
00010000
00000000
00001000
00010000
00100000
00000000
01000000
00010000
10000000
00100000
01000000
00010000
,
10000000
02200000
00000000
00000000
,
00000000
03300000
00000000
00000000
00011000
00000000
00000220
00000000
,
00000000
00000000
00000000
00000000
00000000
00000330
00000000
00000000
,
00000110
00022000
00000000
00000000
,
00000000
00000000
00000000
00000000
00033000
00000000
00000000
00000000
00000010
00001000
00000100
00010000
00001000
00000000
00100000
00010000
,
01000000
00001000
00010000
00000000
00000100
00001000
00000010
00010000
00001000
00000000
01000000
00010000
00100000
00001000
00010000
00000000
,
00022000
00000000
00000000
00000000
,
00000000
00000000
00000000
00000000
,
00000000
00000000
00000000
00000000
,
00033000
00000000
00000000
00000000
;
