#VERSION:0.83;
#TITLE:Dance With The Dead;
#SUBTITLE:;
#ARTIST:BEMANI Sound Team "SYUNN";
#TITLETRANSLIT:;
#SUBTITLETRANSLIT:;
#ARTISTTRANSLIT:SYUNN;
#GENRE:;
#CREDIT:;
#MUSIC:Dance With The Dead.ogg;
#BANNER:Dance With The Dead.png;
#BACKGROUND:Dance With The Dead-bg.png;
#CDTITLE:./CDTitles/jb Ave.png;
#SAMPLESTART:27.200;
#SAMPLELENGTH:15.000;
#SELECTABLE:YES;
#OFFSET:0.000;
#BPMS:0.000=150.000
,192.000=75.000
,194.000=150.000
;
#STOPS:;
#TICKCOUNTS:0.000=4;
#TIMESIGNATURES:0.000=4=4,
192.000=2=4,
194.000=4=4
;
#BGCHANGES:0.000=../BGAs/19cy.mp4=1.000=0=0=0=StretchNoLoop====,
99999.000=-nosongbg-=1.000=0=0=0=StretchNoLoop====
;
#FGCHANGES:;

//--------------- dance-single - Hell yeah dude inc. (2023) ----------------
#NOTEDATA:;
#STEPSTYPE:dance-single;
#DESCRIPTION:Hell yeah dude inc. (2023);
#DIFFICULTY:Beginner;
#METER:4;
#RADARVALUES:0.114683,0.267011,0.130888,0.034903,0,92,77,15,4,0,0,0,0,0,0.114683,0.267011,0.130888,0.034903,0,92,77,15,4,0,0,0,0,0;
#CHARTNAME:Hell yeah dude inc. (2023);
#CHARTSTYLE:;
#CREDIT:Hell yeah dude inc. (2023);
#NOTES:
0000
0000
0000
0000
,
0000
0000
0000
0000
,
0000
0000
0000
0000
,
0000
0000
0000
0000
,
0000
0000
0000
0000
,
0010
0000
0000
0000
,
0000
0000
0000
0000
,
0000
0000
0000
0000
,
0000
0000
0000
0000
,
1001
0000
0000
0000
,
0001
0000
0100
0000
,
0001
0000
0000
0000
,
0001
0000
0010
0000
,
0001
0000
0001
0000
,
1000
0000
1000
0000
,
0010
0000
0100
0000
,
0110
0000
0000
0000
,
1001
0000
0001
0000
,
0001
0000
0000
0000
,
1000
0000
1000
0000
,
1000
0000
0010
0000
,
0100
0000
0000
0000
,
0100
0000
0100
0000
,
0010
0000
0010
0000
,
1000
0000
0000
0000
,
0010
0000
1001
0000
,
0100
0000
1001
0000
,
1000
0000
0110
0000
,
0001
0000
0110
0000
,
1000
0000
0010
0000
,
0010
0000
0010
0000
,
0100
0100
0000
0000
,
0001
0001
0000
0000
,
1000
0000
0000
0000
,
1000
0000
0000
0000
,
1000
0000
0000
0000
,
1000
0000
0000
0000
,
0001
0000
0000
0000
,
0001
0000
0000
0000
,
0001
0000
0000
0000
,
0001
0000
0000
0000
,
1001
0000
0001
0000
,
1000
0000
1000
0000
,
0100
0000
0100
0000
,
0010
0000
0010
0000
,
0001
0000
0001
0000
,
0001
0000
0001
0000
,
1000
1000
1000
0000
,
1001
0000
0100
0000
,
1001
0000
0110
0000
,
1001
0000
0010
0010
,
0010
0000
0100
0100
,
0100
0000
0010
0000
,
0010
0000
0010
0010
,
0010
0000
0100
0000
,
0100
0000
0100
0000
,
0001
0000
1000
0000
,
0100
0000
0000
0100
0000
0000
0100
0000
,
0000
0000
0010
0000
,
0220
0000
0000
0000
,
0000
0330
0001
0000
,
0100
0000
0010
0000
,
1000
0000
0100
0000
,
1001
0000
0000
0010
0000
0000
0100
0000
,
0000
0000
2002
0000
,
0000
0000
0000
0000
,
0000
0000
0000
0000
,
0000
0000
3003
0000
;

//--------------- dance-single - Hell yeah dude inc. (2023) ----------------
#NOTEDATA:;
#STEPSTYPE:dance-single;
#DESCRIPTION:Hell yeah dude inc. (2023);
#DIFFICULTY:Easy;
#METER:8;
#RADARVALUES:0.164545,0.318057,0.130888,0.287953,0,132,117,15,33,0,0,0,0,0,0.164545,0.318057,0.130888,0.287953,0,132,117,15,33,0,0,0,0,0;
#CHARTNAME:Hell yeah dude inc. (2023);
#CHARTSTYLE:;
#CREDIT:Hell yeah dude inc. (2023);
#NOTES:
0000
0000
0000
0000
,
0000
0000
0000
0000
,
0000
0000
0000
0000
,
0000
0000
0000
0000
,
0000
0000
0000
0000
,
2002
0000
0000
3003
,
0001
0000
0000
0001
0000
0000
0010
0000
,
0100
0000
0000
0100
0000
0000
1000
0000
,
0020
0100
0200
0330
,
0001
0010
0100
0100
,
1000
0010
0100
0100
,
0001
0020
0031
2000
,
3010
0100
0220
0330
,
1000
0000
0100
0100
0010
0000
0010
0000
,
0001
0000
0100
0100
0010
0000
2000
0000
,
3001
1000
0001
1000
,
0120
0000
0000
0130
,
1001
0000
0001
0100
,
0001
1000
0001
0010
,
1001
0000
1000
0100
,
0010
0110
2002
3003
,
0001
0000
0000
0000
0100
0100
0000
0000
,
1001
1000
0001
0000
,
1000
0000
0100
0000
0000
0100
0000
0000
,
0010
0001
1000
1001
,
0101
0000
2000
3010
,
0002
0013
2000
3002
,
1003
0000
0002
0013
,
2000
3010
0002
1003
,
1001
0000
0002
0103
,
2000
3100
0002
0103
,
0110
0020
2030
3002
,
0003
0000
0020
0000
0130
0010
0100
0000
,
2000
0000
0000
3000
,
0002
0000
0000
0003
,
0200
0000
0000
0300
,
0020
0000
0000
0030
,
1000
0200
0000
0000
0300
0000
0000
0000
,
0010
0002
0000
0000
0003
0000
0000
0000
,
1000
0020
0000
0000
0030
0000
0000
0000
,
0100
0002
0000
0000
0003
0000
0110
0000
,
2000
0000
0100
3000
,
0002
0000
0100
0003
,
2000
0000
0010
3000
,
0002
0000
0010
0003
,
1000
1000
0010
0010
,
0100
0100
0001
0001
,
2000
3200
0320
0032
,
0203
0000
0020
0330
1001
0000
0000
0000
,
1100
0000
1001
0000
,
0101
0000
0000
0000
1000
0000
0100
0010
,
0100
0000
1000
0000
0001
0000
0100
0010
,
0100
0000
0001
0000
1000
0000
0100
0100
,
0100
1000
0010
0010
,
0200
0000
0300
0000
1001
0000
0000
0010
,
0000
0000
1001
0000
0000
0010
0000
0000
,
1000
0001
1000
0000
0001
0000
0100
0000
,
1001
0000
1000
0100
0000
1000
0001
0000
,
1000
0010
0110
0000
,
1002
0100
1000
0010
,
1000
0000
0103
0000
0001
0000
0010
0100
,
0010
0000
0001
1000
0000
0010
1000
0000
,
0001
1000
0001
0000
1000
0000
0100
0000
,
2100
0000
0001
0001
0000
0010
0010
0000
,
3001
1000
2002
0000
,
0000
0000
0000
0000
,
0000
0000
0000
0000
,
0000
0000
3003
0000
;

//--------------- dance-single - Hell yeah dude inc. (2023) ----------------
#NOTEDATA:;
#STEPSTYPE:dance-single;
#DESCRIPTION:Hell yeah dude inc. (2023);
#DIFFICULTY:Medium;
#METER:11;
#RADARVALUES:0.248063,0.504354,0.261776,0.418841,0.034903,199,169,30,48,0,0,0,0,0,0.248063,0.504354,0.261776,0.418841,0.034903,199,169,30,48,0,0,0,0,0;
#CHARTNAME:Hell yeah dude inc. (2023);
#CHARTSTYLE:;
#CREDIT:Hell yeah dude inc. (2023);
#NOTES:
0000
0000
0000
0000
,
0000
0000
0000
0000
,
0000
0000
0000
0000
,
0000
0000
0000
0000
,
0000
0000
0000
0000
,
2002
0000
3003
0000
,
0001
0000
0000
0001
0000
0000
0100
0000
,
0010
0000
0000
0010
0000
0000
1000
0000
,
2002
0000
0000
0000
0000
3003
0000
1000
,
0001
0100
0001
0000
2000
0000
3100
0000
,
1000
0010
0100
0000
0020
0000
1030
0000
,
0001
0020
0000
0230
0000
2300
0000
3020
,
0000
0130
0001
1000
0002
0000
0013
0000
,
0001
0100
0001
0000
1000
0100
1000
0000
,
0001
0010
1000
0000
1000
0010
0001
0000
,
1000
0000
1000
0010
0000
0010
0200
0000
0000
0301
0000
0000
,
2002
0000
0000
3003
,
2000
0000
0000
0000
3100
0000
0010
0000
0001
0000
0000
0001
0000
0000
0100
0000
,
0010
0000
0010
0000
0000
1000
0000
0000
0001
0000
0000
0010
0000
0000
0010
0000
,
0002
0000
0000
0000
0103
0000
0010
0000
1000
0000
0000
1000
0000
0000
0001
0000
,
0010
0100
1000
0000
0010
0100
0001
1000
,
1002
0000
0010
0000
1003
0100
0001
0100
,
0000
1000
0001
0010
0110
0000
0100
1000
,
0002
0000
0103
0010
1000
0010
0100
0000
,
1001
0000
0001
0010
0200
0000
1300
1000
,
0020
0000
0000
0130
0000
0100
0001
0000
0000
0101
0000
0000
,
1000
0000
1000
0200
0000
0000
0310
0000
0010
0002
0000
0000
,
1003
0000
0010
0000
0010
0000
0200
0000
0000
0310
0000
0000
,
0110
0101
2002
3003
,
0001
0000
0100
0000
0100
0000
0001
0000
1000
0000
1000
0000
,
0001
1000
0001
0000
1000
0000
0010
0100
0010
0000
0100
0000
,
0001
0000
0010
0000
0001
0000
0000
0100
0000
0000
1000
0000
0000
0100
0000
0000
,
0001
0010
1000
0000
0010
0001
0100
0001
,
1002
0000
0000
0000
,
0203
0000
0000
0000
,
0320
0000
0000
0000
,
2030
0000
0000
3000
,
1002
0010
1000
0000
,
0203
0010
0001
0000
,
0320
1000
0100
0000
,
2030
0100
3001
1001
,
2100
0000
3100
0010
0001
0000
0100
0000
,
0102
0000
0013
0100
1000
0000
0010
0000
,
2010
0000
3010
0100
0001
0000
0010
0000
,
0012
0000
0013
0100
1000
0001
0100
0001
,
2000
0100
0001
0000
3002
0100
1000
0000
,
2003
0010
0001
0000
3002
0010
1000
0000
,
1003
0000
1000
0100
0000
0100
0010
0000
0010
0001
1000
0001
,
0200
0010
0000
0301
2000
0100
0000
3001
1002
0000
0000
0000
0100
0000
0103
0000
,
2001
3100
1002
0103
,
2001
0000
3100
0000
1000
0010
0100
0000
,
0201
0000
0301
0000
0001
0010
0100
0000
,
1200
0000
1300
0000
1001
0000
0100
0010
,
0120
0000
0130
0000
1002
0000
0103
1000
,
0100
0001
1000
1000
0010
0000
0100
0110
,
0000
0010
1001
0000
1000
1100
0000
0001
,
0201
0000
0310
0010
1000
0100
0001
0100
,
0200
0000
1300
0002
0000
0103
2000
0000
,
3100
0001
1000
0100
0020
0000
0032
0000
,
0203
0000
1000
1000
0000
0010
0010
0000
,
0301
0000
1000
0000
2010
0000
3001
0010
,
0100
0000
1000
0020
0000
0031
0020
0000
,
1030
0001
2200
3300
,
0101
0000
1000
0100
0000
0100
0020
0000
,
0000
0000
0031
1000
2002
0000
0000
0000
,
0000
0000
0000
0000
,
0000
0000
0000
0000
,
0000
0000
3003
0000
;

//--------------- dance-single - Hell yeah dude inc. (2023) ----------------
#NOTEDATA:;
#STEPSTYPE:dance-single;
#DESCRIPTION:Hell yeah dude inc. (2023);
#DIFFICULTY:Hard;
#METER:15;
#RADARVALUES:0.402636,0.742134,0.174517,0.322857,0.397026,323,303,20,37,0,0,0,0,0,0.402636,0.742134,0.174517,0.322857,0.397026,323,303,20,37,0,0,0,0,0;
#CHARTNAME:Hell yeah dude inc. (2023);
#CHARTSTYLE:;
#CREDIT:Hell yeah dude inc. (2023);
#NOTES:
0000
0000
0000
0000
,
0000
0000
0000
0000
,
0000
0000
0000
0000
,
0000
0000
0000
0000
,
0000
0000
0000
0000
,
2010
0000
0000
0000
0000
0000
0001
0000
0000
0000
0000
0000
3100
0000
0000
1000
,
0002
0000
0000
0000
0000
0000
0010
0000
0000
0000
0000
0000
1003
0000
0000
0001
,
0200
0000
0000
0000
0000
0000
1000
0000
0000
0000
0000
0000
0301
0000
0000
1000
,
0200
0000
0310
0010
0010
0001
1000
0010
,
1000
0000
0100
0000
0010
0000
0001
0000
0200
0000
0000
1000
0000
0000
0010
0000
,
0301
0010
0100
1000
0200
0000
0001
0000
,
0310
0000
0001
0100
0000
0001
1000
0000
0010
0000
1000
0100
0000
1000
0001
0000
,
0010
0000
0001
0000
0100
0000
0010
1000
0002
0000
0000
0010
0000
0000
1003
0000
,
0001
0100
0001
0100
0010
1000
0010
1000
0001
0000
0010
0100
0000
1000
0001
0000
,
1000
0010
1000
0010
0100
0001
0100
0001
1000
0000
0100
0010
0000
0001
1000
0000
,
0010
0000
0000
0000
0100
0000
0000
0000
0001
0000
0000
0000
0010
0000
0000
0000
0100
0000
0000
0000
1000
0000
0000
0000
0010
0000
0000
0100
0000
0000
0010
0000
0000
0100
0000
0000
0001
0000
0000
1000
0000
0000
0001
0000
0000
1000
0000
0000
,
0100
0000
0200
0000
0001
0000
0310
0001
1000
0000
0010
0000
0110
0000
0000
0000
,
1002
0000
0000
0000
0103
0000
1000
0000
0100
0000
0001
0010
0000
0100
0010
0100
,
1000
0000
0010
1000
0000
0010
0100
0001
0100
0000
0001
0010
0000
0001
0000
0100
,
1000
0000
0100
0000
0001
0010
0000
0100
1000
0000
0010
1000
0000
0010
0100
0001
,
0100
0000
0010
0000
1000
0100
0000
1000
0001
0000
0010
0001
1000
0000
0010
0000
,
0100
0010
0100
0010
1000
0001
0000
0000
1000
0100
0020
0000
0000
0000
0031
0000
,
0101
0000
1000
0010
0000
0100
0001
1000
0001
0000
1000
0100
0000
0010
0001
0000
,
1000
0000
0001
0010
0100
1000
0000
0001
0100
0000
0100
1000
0000
1000
0100
0000
,
0002
0000
0013
0000
0100
1000
0001
1000
0010
0000
0220
0000
0000
0000
0330
0000
,
0102
0000
0000
1003
0010
0100
1000
0100
0010
1000
0100
0010
,
1000
0001
0100
0010
0001
0100
0010
0001
0010
0100
0001
0010
,
0100
1000
0001
0000
1001
0000
0001
0010
0100
0001
0100
0010
,
0001
0100
0010
0001
1000
0100
0010
1000
0001
0010
0001
1000
,
0001
0000
0000
0000
0000
0000
0010
0000
0000
0100
0000
0000
1000
0000
0000
0100
0000
0000
0000
0000
0000
0000
0000
0000
1000
0000
0000
0000
0010
0000
0000
0000
0001
0000
0000
0000
0000
0000
0000
0000
0011
0000
0000
0000
0000
0000
0000
0000
,
0001
0010
1000
0000
1010
0000
1000
0100
0001
0000
0101
0000
,
0100
0000
1000
0000
0001
0100
0000
0010
0100
0000
0010
1000
0000
0001
1000
0000
,
0100
0000
0001
0000
0100
0010
0000
0001
0020
0000
0230
0000
2300
0000
3000
0000
,
0002
0200
0000
0000
0000
0000
0303
0000
,
2000
0200
0000
0000
0000
0000
3300
0000
,
0002
0020
0000
0000
0000
0000
0033
0000
,
2000
0020
0000
0000
0000
0000
3030
0000
,
1000
0200
0001
0000
1300
0000
0000
0000
,
0001
0200
1000
0000
0301
0000
0000
0000
,
1000
0020
0001
0000
1030
0000
0000
0000
,
0001
0020
1000
0000
0031
0000
1001
0000
,
1200
0000
0301
0100
1000
0001
0010
0000
,
0201
0000
1300
0100
0001
1000
0010
0000
,
2100
0000
3010
0100
1000
0100
0001
0000
,
0102
0000
0013
0100
0001
0100
1000
0001
,
0010
0001
0010
0000
0100
0000
1000
0000
0010
1000
0010
0000
0100
0000
0001
0000
,
1000
0100
1000
0000
0100
0010
0001
0000
1000
0010
1000
0000
0010
0100
0001
0000
,
1000
0100
1000
0100
0010
0100
0010
0001
0100
0010
0100
0001
,
0020
0000
0000
0130
2100
0000
3010
0100
0201
0000
0000
0301
0100
0000
0001
1000
,
0002
0000
0000
0103
0001
0000
1000
0001
2000
0000
0000
3010
1000
0000
0100
0000
,
0020
0000
0000
0031
0100
0000
0100
0000
0001
0010
0001
1000
0001
0000
1000
0000
,
0200
0010
0000
0000
1300
0000
0001
0000
1000
0010
1000
0001
1000
0000
0001
0000
,
0200
0010
0000
0000
0301
0000
1000
0001
2000
0000
0000
0000
3001
0000
0100
0000
,
0201
0310
2001
3100
,
1002
0000
0000
0000
1003
0010
0100
0001
1000
0000
0100
0000
0010
0000
0110
0000
,
0001
0100
0110
1000
0001
1001
1000
0010
,
1000
0100
0010
0001
0100
0010
1000
0001
1000
0000
0001
0010
0200
0000
2300
0000
,
3001
0100
0010
0100
0001
0000
1000
0100
0010
0100
1000
0000
0001
0100
0010
0100
,
0001
0000
1000
0001
0010
0000
0100
0000
0110
0000
0000
0000
2000
0000
3000
0000
,
0001
0100
0001
0100
0010
0100
0010
0100
0010
1000
0001
1000
0010
1000
0001
1000
,
0010
0100
0001
1000
0010
0000
0000
0000
2000
0100
0000
3001
1000
0001
0000
0001
,
1000
0100
1000
0100
1000
0001
1000
0010
1000
0010
1000
0001
1000
0100
1000
0100
,
0010
0001
1000
0001
0100
0000
0010
0000
0200
0000
0000
0000
1000
0000
0000
0000
,
0310
1000
0001
1000
0020
0000
1030
0001
0010
0001
2000
0000
3001
0010
0001
1000
,
0020
0000
0000
0000
0000
0000
0130
0000
0000
0001
0000
0000
1000
0000
0000
0000
0100
0000
0000
0000
0010
0000
0000
0000
0002
0000
0000
0000
0000
0000
0000
0000
0000
0000
0000
0000
0000
0000
0000
0000
0000
0000
0000
0000
0000
0000
0000
0000
,
0000
0000
0000
0000
,
0000
0000
0000
0000
,
0000
0000
0003
0000
;

//--------------- dance-single - Hell yeah dude inc. (2023) ----------------
#NOTEDATA:;
#STEPSTYPE:dance-single;
#DESCRIPTION:Hell yeah dude inc. (2023);
#DIFFICULTY:Challenge;
#METER:17;
#RADARVALUES:0.517318,0.949373,0.130888,0.750423,0.994747,415,400,15,86,32,0,0,0,0,0.517318,0.949373,0.130888,0.750423,0.994747,415,400,15,86,32,0,0,0,0;
#CHARTNAME:Hell yeah dude inc. (2023);
#CHARTSTYLE:;
#CREDIT:Hell yeah dude inc. (2023);
#NOTES:
0000
0000
0000
0000
,
0000
0000
0000
0000
,
0000
0000
0000
0000
,
0000
0000
0000
0000
,
0000
0000
0000
0000
,
2002
0000
0000
0000
,
0000
0000
0000
0000
,
3003
0000
0000
0000
,
0010
0000
0100
0100
0100
0001
1000
0000
,
0001
0100
1000
0100
0101
0000
0011
0000
,
1000
0100
0001
0100
1100
0000
1010
0000
,
1000
0000
0100
0000
0010
0000
0100
0010
0001
0000
1000
0000
0010
0000
0100
0010
,
1000
0000
0001
0000
0010
0000
0100
1000
0002
0000
0000
0000
0000
0000
0003
0000
,
1000
0010
1000
0010
0100
0010
0100
0010
1000
0001
0100
0001
1000
0010
1000
0000
,
0001
0010
0001
0010
0100
0010
0100
0010
0001
1000
0100
1000
0001
0010
0001
0000
,
1000
0000
0000
0000
0010
0000
0000
0000
0001
0000
0000
0000
1000
0000
0000
0000
0100
0000
0000
0000
0001
0000
0000
0000
1000
0000
0000
0010
0000
0000
1000
0000
0000
0001
0000
0000
0100
0000
0000
0001
0000
0000
1000
0000
0000
0100
0000
0000
,
2000
0000
0000
0000
3010
0000
1000
0100
0001
0000
0000
0000
MMMM
0000
0000
0000
,
2002
0000
0000
0000
0000
0000
0000
0000
3003
0000
0000
0000
0000
0000
0000
0000
0002
0000
0000
0000
0000
0000
0000
0000
0203
0000
0000
0000
0000
0000
0000
0000
0310
0000
0000
0000
0000
0000
0000
0000
1000
0000
0000
0000
0200
0300
0000
0000
0000
0000
0000
0000
0200
0300
0000
0000
0001
0000
0000
0000
1000
0000
0000
0000
,
0001
0000
0000
0000
0000
0000
0000
0000
0100
0000
0000
0000
0000
0000
0000
0000
0001
0000
0000
0000
0200
0300
0000
0000
0200
0300
0000
0000
0010
0000
0000
0000
0001
0000
0000
0000
0000
0000
0000
0000
1000
0000
0000
0000
0200
0300
0000
0000
0000
0000
0000
0000
0200
0300
0000
0000
0001
0000
0000
0000
0000
0000
0000
0000
,
0020
0000
0000
0000
0000
0000
0000
0000
0130
0000
0000
0000
0000
0000
0000
0000
1000
0000
0000
0000
0020
0030
0000
0000
0000
0000
0000
0000
0020
0030
0000
0000
0001
0000
0000
0000
0000
0000
0000
0000
1000
0000
0000
0000
0200
0300
0000
0000
0000
0000
0000
0000
0200
0300
0000
0000
0010
0000
0000
0000
0000
0000
0000
0000
,
1000
0000
0000
0000
0000
0000
0000
0000
0001
0000
0000
0000
0000
0000
0000
0000
1000
0000
0000
0000
0200
0300
0000
0000
0200
0300
0000
0000
0001
0000
0000
0000
0020
0000
0000
0000
0000
0000
0000
0000
0130
0000
0000
0000
1000
0000
0000
0000
0001
0000
0000
0000
0100
0000
0000
0000
0010
0000
0000
0000
1000
0000
0000
0000
,
0100
0000
0000
0000
0000
0000
0000
0000
0000
0000
0000
0000
0010
0000
0000
0000
0000
0000
0000
0000
0000
0000
0000
0000
0100
0000
0000
0000
0000
0000
0000
0000
0000
0000
0000
0000
0001
0000
0000
0000
0000
0000
0000
0000
0000
0000
0000
0000
0100
0000
0000
0000
0000
0000
0000
0000
0000
0000
0000
0000
0020
0000
0000
0030
0000
0000
0000
0000
0000
0000
0000
0000
0000
0000
0000
0000
0000
0000
0000
0000
0000
0000
0000
0000
0020
0000
0000
0030
0000
0000
0000
0000
0000
0000
0000
0000
1000
0000
0000
0000
0000
0000
0000
0000
0001
0000
0000
0000
0000
0000
0000
0000
1000
0000
0000
0000
0000
0000
0000
0000
0010
0000
0000
0000
0000
0000
0000
0000
0000
0000
0000
0000
0000
0000
0000
0000
0000
0000
0000
0000
0000
0000
0000
0000
0001
0000
0000
0000
0000
0000
0000
0000
0000
0000
0000
0000
0010
0000
0000
0000
0000
0000
0000
0000
0000
0000
0000
0000
0100
0000
0000
0000
0000
0000
0000
0000
0000
0000
0000
0000
0010
0000
0000
0000
0000
0000
0000
0000
0000
0000
0000
0000
,
1000
0000
0000
0000
0000
0000
0000
0000
0100
0000
0000
0000
0000
0000
0000
0000
1000
0000
0000
0000
0000
0000
0000
0000
0001
0000
0000
0000
0000
0000
0000
0000
0000
0000
0000
0000
0000
0000
0000
0000
0000
0000
0000
0000
0000
0000
0000
0000
0010
0000
0000
0000
0000
0000
0000
0000
0000
0000
0000
0000
0200
0000
0000
0300
0000
0000
0000
0000
0000
0000
0000
0000
0000
0000
0000
0000
0000
0000
0000
0000
0000
0000
0000
0000
0200
0000
0000
0300
0000
0000
0000
0000
0000
0000
0000
0000
0001
0000
0000
0000
0000
0000
0000
0000
0000
0000
0000
0000
0000
0000
0000
0000
0000
0000
0000
0000
0000
0000
0000
0000
1000
0000
0000
0000
0000
0000
0000
0000
0000
0000
0000
0000
0100
0000
0000
0000
0000
0000
0000
0000
0000
0000
0000
0000
2000
0000
0000
0000
0000
0000
0000
0000
0000
0000
0000
0000
3020
0000
0000
0000
0000
0000
0000
0000
0000
0000
0000
0000
0230
0000
0000
0000
0000
0000
0000
0000
0000
0000
0000
0000
0302
0000
0000
0000
0000
0000
0000
0000
0000
0000
0000
0000
,
2003
0000
0000
0000
0000
0000
0000
0000
0100
0000
0000
0000
0000
0000
0000
0000
3001
0000
0000
0000
0020
0030
0000
0000
0000
0000
0000
0000
0020
0030
0000
0000
1000
0000
0000
0000
0000
0000
0000
0000
0100
0000
0000
0000
0020
0030
0000
0000
0000
0000
0000
0000
0020
0030
0000
0000
1000
0000
0000
0000
0000
0000
0000
0000
,
0002
0000
0100
0000
1003
0010
0100
0001
2000
0000
0100
0000
3002
0203
0320
1030
,
2001
0000
0000
0000
0000
0000
0000
0000
0000
0000
0000
0000
0000
0000
0000
0000
0000
0000
0000
0000
0000
0000
0000
0000
0000
0000
0000
0000
0000
0000
0000
0000
0000
0000
0000
0000
0000
0000
0000
0000
0000
0000
0000
0000
0000
0000
0000
0000
3200
0000
0000
0300
0000
0000
0000
0000
0000
0000
0000
0000
0000
0000
0000
0000
0200
0000
0000
0300
0000
0000
0000
0000
0000
0000
0000
0000
0000
0000
0000
0000
0001
0000
0000
0000
0000
0000
0000
0000
0000
0000
0000
0000
0000
0000
0000
0000
0020
0000
0000
0000
0000
0000
0000
0000
0000
0000
0000
0000
0000
0000
0000
0000
0000
0000
0000
0000
0000
0000
0000
0000
0000
0000
0000
0000
0000
0000
0000
0000
1030
0000
0000
0000
0000
0000
0000
0000
0000
0000
0000
0000
0000
0000
0000
0000
0010
0000
0000
0000
0000
0000
0000
0000
0000
0000
0000
0000
0000
0000
0000
0000
0001
0000
0000
0000
0000
0000
0000
0000
0000
0000
0000
0000
0000
0000
0000
0000
0100
0000
0000
0000
0000
0000
0000
0000
0000
0000
0000
0000
0000
0000
0000
0000
,
0020
0000
0031
0010
1000
0100
0020
0000
1030
0010
0001
0100
,
0010
0000
0000
0000
0000
0000
0000
0000
0000
0000
0000
0000
0000
0000
0000
0000
0002
0000
0000
0003
0000
0000
0000
0000
0000
0000
0000
0000
0000
0000
0000
0000
0002
0000
0000
0003
0000
0000
0000
0000
0000
0000
0000
0000
0000
0000
0000
0000
0000
0000
0000
0000
0000
0000
0000
0000
0000
0000
0000
0000
0000
0000
0000
0000
0101
0000
0000
0000
0000
0000
0000
0000
0000
0000
0000
0000
0000
0000
0000
0000
0000
0000
0000
0000
0000
0000
0000
0000
0000
0000
0000
0000
0000
0000
0000
0000
0100
0000
0000
0000
0000
0000
0000
0000
0010
0000
0000
0000
0000
0000
0000
0000
1000
0000
0000
0000
0000
0000
0000
0000
0000
0000
0000
0000
0000
0000
0000
0000
0001
0000
0000
0000
0000
0000
0000
0000
0000
0000
0000
0000
0000
0000
0000
0000
0010
0000
0000
0000
0000
0000
0000
0000
0100
0000
0000
0000
0000
0000
0000
0000
1000
0000
0000
0000
0000
0000
0000
0000
0000
0000
0000
0000
0000
0000
0000
0000
0001
0000
0000
0000
0000
0000
0000
0000
0000
0000
0000
0000
0000
0000
0000
0000
,
0100
0010
1000
0000
0001
0000
0010
0100
1000
0000
0001
0000
0100
0000
0010
0000
1000
0000
0100
0000
0010
0000
0001
0000
,
2000
0000
0000
0000
3001
0000
0100
0000
1000
0000
0100
0000
0001
0010
0001
0010
0000
0000
0000
0000
0110
0000
0000
0000
,
1000
0010
0100
0000
0110
0000
0001
0010
0100
0000
0110
0000
,
2000
0000
0000
0000
0000
0000
0000
0000
3002
0000
0000
0000
0000
0000
0000
0000
1003
0000
0000
0000
0200
0300
0000
0000
0000
0000
0000
0000
0200
0300
0000
0000
0010
0000
0000
0000
0000
0000
0000
0000
1000
0000
0000
0000
0200
0300
0000
0000
0000
0000
0000
0000
0200
0300
0000
0000
0010
0000
0000
0000
0000
0000
0000
0000
,
1000
0000
0001
0000
1000
0100
0010
0001
0200
0000
0302
0000
2000
0000
3003
0000
,
1001
MMMM
MMMM
MMMM
,
0010
MMMM
MMMM
MMMM
,
0100
MMMM
MMMM
MMMM
,
0001
MMMM
MMMM
MMMM
,
0010
MMMM
0001
MMMM
0100
MMMM
1000
MMMM
,
0100
MMMM
0001
MMMM
0010
MMMM
1000
MMMM
,
0010
MMMM
0001
MMMM
0100
MMMM
1000
MMMM
,
0100
MMMM
0001
MMMM
0010
MMMM
0001
MMMM
,
0201
0000
1300
0100
0001
0010
0100
0000
,
1200
0000
0301
0100
1000
0010
0100
0000
,
0001
0100
1000
0100
0010
0010
0010
0000
,
1000
0100
0001
0100
0010
0010
0010
0000
,
0001
0010
MMMM
1000
MMMM
0020
0000
0031
,
1000
0010
MMMM
0001
MMMM
0020
0000
1030
,
0001
0000
0000
0000
0000
0000
0000
0000
0000
0000
0000
0000
0000
0000
0000
0000
0010
0000
0000
0000
0000
0000
0000
0000
0000
0000
0000
0000
0000
0000
0000
0000
0001
0000
0000
0000
0000
0000
0000
0000
0000
0000
0000
0000
0000
0000
0000
0000
1000
0000
0000
0000
0000
0000
0000
0000
0000
0000
0000
0000
0000
0000
0000
0000
0010
0000
0000
0000
0000
0000
0000
0000
0000
0000
0000
0000
0000
0000
0000
0000
1000
0000
0000
0000
0000
0000
0000
0000
0000
0000
0000
0000
0000
0000
0000
0000
0200
0000
0000
0300
0000
0000
0000
0000
0000
0000
0000
0000
0000
0000
0000
0000
0200
0000
0300
0000
0000
0000
0000
0000
0000
0000
0000
0000
0000
0000
0000
0000
0200
0000
0300
0000
0000
0000
0000
0000
0000
0000
0000
0000
0000
0000
0000
0000
0200
0000
0300
0000
0000
0000
0000
0000
0000
0000
0000
0000
0000
0000
0000
0000
0200
0000
0300
0000
0000
0000
0000
0000
0000
0000
0000
0000
0000
0000
0000
0000
0200
0000
0300
0000
0000
0000
0000
0000
0000
0000
0000
0000
0000
0000
0000
0000
,
0001
0000
0000
0000
0000
0000
0000
0000
0000
0000
0000
0000
0000
0000
0000
0000
2002
0000
0000
0000
0000
0000
0000
0000
3003
0000
0000
0000
1000
0000
0000
0000
1010
0000
0000
0000
0000
0000
0000
0000
0010
0000
0000
0000
1000
0000
0000
0000
0200
0300
0000
0000
0000
0000
0000
0000
0200
0300
0000
0000
0001
0000
0000
0000
,
1000
0100
0010
0001
0100
0000
MMMM
0000
1000
0010
0100
0001
0010
0000
MMMM
0000
,
1000
0000
0000
0000
0000
0000
0000
0000
0000
0000
0000
0000
0100
0000
0000
0000
0000
0000
0000
0000
0000
0000
0000
0000
0010
0000
0000
0000
0000
0000
0000
0000
0000
0000
0000
0000
0001
0000
0000
0000
0000
0000
0000
0000
0000
0000
0000
0000
0200
0000
0000
0300
0000
0000
0000
0000
0000
0000
0000
0000
0000
0000
0000
0000
0000
0000
0000
0000
0000
0000
0000
0000
0200
0000
0000
0300
0000
0000
0000
0000
0000
0000
0000
0000
1000
0000
0000
0000
0000
0000
0000
0000
0000
0000
0000
0000
0001
0000
0000
0000
0000
0000
0000
0000
0000
0000
0000
0000
0010
0000
0000
0000
0000
0000
0000
0000
0000
0000
0000
0000
1000
0000
0000
0000
0000
0000
0000
0000
0000
0000
0000
0000
0010
0000
0000
0000
0000
0000
0000
0000
0000
0000
0000
0000
0000
0000
0000
0000
0100
0000
0000
0000
0000
0000
0000
0000
0000
0000
0000
0000
0000
0000
0000
0000
0000
0000
0000
0000
0000
0000
0000
0000
1000
0000
0000
0000
0000
0000
0000
0000
0000
0000
0000
0000
0000
0000
0000
0000
0000
0000
0000
0000
,
0002
0000
0000
0000
0100
0000
0000
0000
0000
0000
0000
0000
0000
0010
0000
0003
0000
0000
0000
0001
0000
0000
0000
0000
1000
0000
0000
0010
0000
0000
0001
0000
0000
0010
0000
0000
0000
0100
0000
0000
0000
0000
0000
0001
0000
0000
0000
0000
,
2000
0000
0000
0000
0000
0000
0000
0000
0000
0000
0000
0000
0000
0000
0000
0000
0100
0000
0000
0000
0000
0000
0000
0000
0000
0000
0000
0000
0000
0000
0000
0000
0000
0000
0000
0000
0000
0000
0000
0000
0000
0000
0000
0000
0000
0000
0000
0000
0000
0000
0000
0000
0010
0000
0000
0000
0000
0000
0000
0000
3000
0000
0000
0000
0000
0000
0000
0000
0000
0000
0000
0000
0000
0000
0000
0000
1000
0000
0000
0000
0000
0000
0000
0000
0000
0000
0000
0000
0000
0000
0001
0000
0000
0000
0000
0000
2000
0000
0000
0000
0000
0000
0000
0000
0000
0000
0000
0000
0100
0000
0000
0000
0000
0000
0000
0000
0000
0000
0000
0000
0000
0000
0000
0000
0000
0000
0000
0000
0000
0000
0000
0000
0000
0000
0000
0000
0000
0000
0000
0000
0000
0000
0000
0000
3002
0000
0000
0003
0000
0000
0000
0000
0000
0000
0000
0000
0000
0000
0000
0000
0000
0000
0000
0000
0000
0000
0000
0000
0002
0000
0000
0003
0000
0000
0000
0000
0000
0000
0000
0000
0000
0000
0000
0000
0000
0000
0000
0000
0000
0000
0000
0000
,
0200
1000
0000
0000
0310
0000
0000
0000
0002
0100
0000
0000
0013
0000
0000
0000
,
0100
0000
0000
0000
0001
0000
0000
0000
0100
0000
0000
0000
1000
0000
0000
0000
0020
0030
0000
0000
0020
0030
0000
0000
0001
0000
0000
0000
1000
0000
0000
0000
0001
0000
0000
0000
0100
0000
0000
0000
0010
0000
0000
0000
0001
0000
0000
0000
1000
0000
0000
0000
0100
0000
0000
0000
0001
0000
0000
0000
1000
0000
0000
0000
,
0001
0010
0100
0001
1000
0010
0001
1000
0001
0100
0010
1000
0100
0010
0001
0100
,
0001
0000
1000
0100
1000
0000
0001
0000
1000
0000
0001
0000
0100
0000
0010
0000
1000
0000
0010
0000
0100
0000
0001
0000
2000
0000
0000
0000
3020
0000
0000
0000
,
1030
0000
0000
0000
0200
0300
0000
0000
0200
0300
0000
0000
0001
0000
0000
0000
1000
0000
0000
0000
0000
0000
0000
0000
0001
0000
0000
0000
0200
0300
0000
0000
0200
0300
0000
0000
1000
0000
0000
0000
0001
0000
0000
0000
0000
0000
0000
0000
1000
0000
0000
0000
0200
0300
0000
0000
0200
0300
0000
0000
0001
0000
0000
0000
,
1000
0000
0001
0010
0100
0000
1000
0000
0001
0200
0000
0000
0310
0000
0000
0000
,
2020
0000
0000
0000
0000
0000
0000
0000
0000
0000
0000
0000
0000
0000
0000
0000
3030
0000
0000
0000
0000
0000
0000
0000
1000
0000
0000
0000
0001
0000
0000
0000
0200
0300
0000
0000
0200
0300
0000
0000
0200
0300
0000
0000
0200
0300
0000
0000
0200
0300
0000
0000
0200
0300
0000
0000
0200
0300
0000
0000
0200
0300
0000
0000
,
1000
0000
0000
0000
0010
0000
0000
0000
0100
0000
0000
0000
0001
0000
0000
0000
2000
0000
0000
0000
0000
0000
0000
0000
0000
0000
0000
0000
0000
0000
0000
0000
3001
0000
0000
0000
0010
0000
0000
0000
0100
0000
0000
0000
1000
0000
0000
0000
0001
0000
0000
0000
0200
0300
0000
0000
0000
0000
0000
0000
0200
0300
0000
0000
,
1000
0000
0000
0000
0010
0000
0000
0000
1000
0000
0000
0000
0200
0300
0000
0000
0200
0300
0000
0000
0001
0000
0000
0000
1000
0000
0000
0000
0100
0000
0000
0000
1000
0000
0000
0000
0020
0030
0000
0000
0020
0030
0000
0000
0001
0000
0000
0000
1000
0000
0000
0000
0100
0000
0000
0000
1000
0000
0000
0000
0001
0000
0000
0000
,
0010
0000
0000
1000
0000
0000
0010
0000
0000
0001
0000
0000
1000
0000
0000
0010
0000
0000
0100
0000
0000
0001
0000
0000
0020
0000
0000
0000
0030
0000
0000
0000
0000
0000
0000
0000
MMMM
0000
0000
0000
0000
0000
0000
0000
0000
0000
0000
0000
,
1000
0000
0100
0000
0010
0000
0001
0000
0000
0010
0000
0000
0100
0000
0000
1000
0000
0000
0001
0000
0100
0000
0010
0000
1000
0000
0000
0010
0000
0000
0100
0000
0000
0001
0000
0000
1000
0000
0100
0000
0010
0000
0001
0000
0000
0010
0000
0000
,
0100
0000
0000
0000
0000
0000
0000
0000
0000
0000
0000
0000
1000
0000
0000
0000
0000
0000
0000
0000
0000
0000
0000
0000
0001
0000
0000
0000
0000
0000
0000
0000
0000
0000
0000
0000
1000
0000
0000
0000
0000
0000
0000
0000
0000
0000
0000
0000
0020
0000
0000
0030
0000
0000
0000
0000
0000
0000
0000
0000
0000
0000
0000
0000
0020
0000
0000
0030
0000
0000
0000
0000
0000
0000
0000
0000
0000
0000
0000
0000
0001
0000
0000
0000
0000
0000
0000
0000
0000
0000
0000
0000
0000
0000
0000
0000
0200
0000
0000
0000
0000
0000
0000
0000
0000
0000
0000
0000
0000
0000
0000
0000
0000
0000
0000
0000
0000
0000
0000
0000
0000
0000
0000
0000
0000
0000
0000
0000
0000
0000
0000
0000
0000
0000
0000
0000
0000
0000
0000
0000
0000
0000
0000
0000
0000
0000
0000
0000
0000
0000
0000
0000
0000
0000
0000
0000
0000
0000
0000
0000
0000
0000
0000
0000
0000
0000
0000
0000
0000
0000
0000
0000
0000
0000
0000
0000
0000
0000
0000
0000
0000
0000
0000
0000
0000
0000
0000
0000
0000
0000
0000
0000
,
0000
0000
0000
0000
,
0000
0000
0000
0000
,
0000
0000
0300
0000
;

//--------------- dance-double - Hell yeah dude inc. (2023) ----------------
#NOTEDATA:;
#STEPSTYPE:dance-double;
#DESCRIPTION:Hell yeah dude inc. (2023);
#DIFFICULTY:Easy;
#METER:8;
#RADARVALUES:0.162052,0.292752,0.113436,0.340308,0,130,117,13,39,0,0,0,0,0,0.162052,0.292752,0.113436,0.340308,0,130,117,13,39,0,0,0,0,0;
#CHARTNAME:Hell yeah dude inc. (2023);
#CHARTSTYLE:;
#CREDIT:Hell yeah dude inc. (2023);
#NOTES:
00000000
00000000
00000000
00000000
,
00000000
00000000
00000000
00000000
,
00000000
00000000
00000000
00000000
,
00000000
00000000
00000000
00000000
,
00000000
00000000
00000000
00000000
,
00022000
00000000
00033000
00010000
,
00001000
00000000
00000000
00001000
00000000
00000000
00100000
00000000
,
00001000
00000000
00000000
00001000
00000000
00000000
00010000
00000000
,
00001000
01000000
00200000
00300000
,
10000000
01000000
00100000
00100000
,
00001000
00010000
00000010
00000010
,
00001000
00000200
00001300
00000002
,
00000103
00001000
00021000
00000000
,
00031000
01000000
00100000
00100000
,
10000000
01000000
00010000
00010000
,
00001000
00001000
00010000
00001000
,
00200000
00000000
00000000
00301000
,
00011000
00000000
00010000
01000000
,
10000000
01000000
00010000
00001000
,
00011000
00000000
00010000
00001000
,
00000100
00000001
00002002
00003003
,
00000001
00000000
00000010
00000000
00000100
00000200
00000000
00000000
,
00010300
00010000
00001000
00000000
,
00100000
00010000
10000000
00100000
,
01000000
00000000
00001000
00020000
00000000
00000000
00030000
00000000
,
00011000
00000000
00002000
01003000
,
00020000
10030000
00200000
00320000
,
00031000
00000000
00020000
00030100
,
00002000
00003001
00000020
00000130
,
00000110
00000000
00000002
00000103
,
00001000
00010000
02000000
13000000
,
10010000
00020000
00230000
02300000
,
03000000
00000000
00200000
00000000
00301000
00010000
00001000
00000000
,
02000000
00000000
03000000
00000000
,
00002000
00000000
00003000
00000000
,
00020000
00000000
00030000
00000000
,
00000020
00000000
00000030
00000000
,
00020000
00000200
00030300
00000000
,
00020000
00002000
00033000
00000000
,
00002000
02000000
03003000
00000000
,
00002000
00020000
00033000
00000100
,
00000100
00000000
00011000
00000000
,
01000000
00000000
00011000
00000000
,
00000010
00000000
00011000
00000000
,
00100000
00000000
00011000
00000000
,
00001000
01000000
00010000
01000000
,
00001000
00100000
00010000
00100000
,
00002000
00023000
00030200
00002300
,
00003020
00000000
00000200
00000330
00001001
00000000
00000000
00000000
,
00000101
00000000
00001001
00000000
,
00001100
00000000
00000000
00000000
00000100
00000000
00010000
00001000
,
00010000
00000000
00001000
00000000
01000000
00000000
00001000
00010000
,
00001000
00000000
00010000
00000000
00002000
00000000
00013000
00010000
,
00000010
00000010
00000100
00000100
,
00000001
00000000
00000000
00000000
00001001
00000000
00000000
00010000
,
00000000
00000000
00011000
00000000
00000000
00001000
00000000
00000000
,
00200000
00300000
00011000
00000000
,
00001000
00000000
00010000
01000000
00000000
00100000
01000000
00000000
,
10000000
00000000
00100000
01000000
00100000
00000000
00000000
00000000
,
20000000
32000000
03020000
00032000
,
00003200
00000000
00000302
00000000
00001003
00000000
00000100
00001000
,
00000100
00000000
00010000
00001000
00000000
00010000
00100000
00000000
,
01000000
00000000
00010000
10000000
00010000
00000000
10000000
00000000
,
02000000
00000000
03010000
00020000
00000000
00031000
00002000
00000000
,
00003010
00000001
00002002
00000000
,
00000000
00000000
00000000
00000000
,
00000000
00000000
00000000
00000000
,
00000000
00000000
00003003
00000000
;

//--------------- dance-double - Hell yeah dude inc. (2023) ----------------
#NOTEDATA:;
#STEPSTYPE:dance-double;
#DESCRIPTION:Hell yeah dude inc. (2023);
#DIFFICULTY:Medium;
#METER:12;
#RADARVALUES:0.258036,0.504354,0.244324,0.401389,0.047992,207,179,28,46,0,0,0,0,0,0.258036,0.504354,0.244324,0.401389,0.047992,207,179,28,46,0,0,0,0,0;
#CHARTNAME:Hell yeah dude inc. (2023);
#CHARTSTYLE:;
#CREDIT:Hell yeah dude inc. (2023);
#NOTES:
00000000
00000000
00000000
00000000
,
00000000
00000000
00000000
00000000
,
00000000
00000000
00000000
00000000
,
00000000
00000000
00000000
00000000
,
00000000
00000000
00000000
00000000
,
00022000
00000000
00033000
00000000
,
00010000
00000000
00000000
00010000
00000000
00000000
01000000
00000000
,
10000000
00000000
00000000
10000000
00000000
00000000
00100000
00000000
,
20020000
00000000
00000000
00000000
00000000
30030000
00000000
00010000
,
01000000
00100000
01000000
00000000
00002000
00000000
00023000
00000000
,
00030100
00000010
00000002
00000000
00002003
00000000
00003020
00000000
,
00000130
00000002
00000000
00000023
00000000
00002030
00000000
00023000
,
00000000
01030000
00100000
00010000
02000000
00000000
03002000
00000000
,
00013000
00000100
00010000
00000100
00010000
00001000
00010000
00000000
,
00001000
01000000
00001000
01000000
00001000
00010000
00001000
00000000
,
00010000
00000000
00010000
00000010
00000000
00000010
00000200
00000000
00000000
00000310
00000000
00000000
,
00002002
00000000
00003003
00000110
,
00002001
00000000
00000000
00000000
00003001
00000000
00000100
00000000
00001000
00000000
00000000
00001000
00000000
00000000
00010000
00000000
,
00001000
00000000
00001000
00000000
00000000
00010000
00000000
00000000
01000000
00000000
00000000
01000000
00000000
00000000
10000000
00000000
,
00200000
00000000
00000000
00000000
01300000
00000000
00010000
00000000
10000000
00000000
00000000
10000000
00000000
00000000
01000000
00000000
,
00010000
00001000
00000100
00000000
00000010
00001000
00000100
00010000
,
00001000
00010000
00100000
00000000
10000000
01000000
00010000
01000000
,
00000000
00010000
00001000
00000010
00001000
00000000
00010000
00000010
,
00002000
00000000
00003001
00000100
00001000
00010000
01000000
10000000
,
00200000
00000000
01300000
10000000
02000000
00000000
03010000
00010000
,
00200000
00000000
00000000
00301000
00010000
00001000
00010000
00000000
00010000
00000010
00000000
00000000
,
00001000
00000000
00001000
00000100
00000000
00000000
00000010
00000000
00000010
00000001
00000000
00000000
,
00001000
00000000
00000010
00000000
00000010
00000000
00010000
00000000
00010000
00001000
00000000
00001000
,
00100000
01100000
20020000
30030000
,
10000000
00000000
01000000
00000000
01000000
00000000
00010000
00000000
00001000
00000000
00001000
00000000
,
00010000
00001000
00010000
00000000
00001000
00000000
00000100
00000000
00000001
00000000
00001000
00000000
,
00000001
00000000
00000010
00000000
00000001
00000000
00000000
00000000
00000100
00000000
00000000
00001000
00000000
00000000
00010000
00000000
,
00100000
00000000
10000000
00000000
01000000
00010000
00001000
00000000
,
00012000
00000000
00000000
00000000
,
00003020
00000000
00000000
00000000
,
00000032
00000000
00000000
00000000
,
00000203
00000000
00000000
00000300
,
00002001
00000100
00000001
00000000
,
00023000
01000000
10000000
00000000
,
00032000
00000010
00000001
00000000
,
00023000
00100000
10030000
10010000
,
11000000
00000000
10000000
01000000
00100000
00000000
00010000
00000000
,
00001000
00000000
00000001
00000100
00000010
00000000
00001000
00000000
,
00010000
00000000
00100000
01000000
10000000
00000000
00100000
00000000
,
00010000
00000000
00001000
00000010
00000100
00000000
00000010
00000000
,
00000002
00000103
00002000
00013000
,
00000200
00001300
00000002
00000023
,
00001030
00000000
00001000
01000000
00000000
01000000
00010000
00000000
00010000
10000000
00000000
10000000
,
00200000
01000000
00000000
10300000
00020000
01000000
00000000
10030000
20010000
00000000
00000000
00000000
30100000
00000000
00010000
00000000
,
00002000
00003200
00000302
00000023
,
00002030
00000000
00003010
00000100
00001000
00001000
00000010
00000000
,
00010010
00000000
00010000
00001000
00100000
00100000
00010000
00000000
,
01010000
00000000
10000000
00000000
11000000
00000000
01000000
00010000
,
00012000
00000000
00003010
00000000
00000210
00000000
00000301
00000100
,
00001000
00000010
00000100
00001000
00011000
00000000
00010000
00110000
,
00000000
00100000
10100000
00000000
10000000
11000000
00000000
01000000
,
00020000
00000000
00031000
00001000
00000200
00000000
00000301
00000010
,
00000200
00000000
00010300
00002000
00000000
01003000
00020000
00000000
,
10030000
00100000
01000000
00010000
20000000
00000000
31000000
00000000
,
00020000
00000000
01000000
01000000
00000000
00001000
00001000
00000000
,
00030100
00000000
00001000
00000000
00001002
00000000
00000103
00000010
,
00001010
00000000
00000000
00010100
00000000
00000000
01001000
00000000
,
20010000
00000000
30100000
01000000
00020000
00000000
00030000
00000000
,
00101000
00000000
00000000
00011000
00000000
00000000
00010010
00000000
,
00010000
00001000
00000100
00000001
00002002
00000000
00000000
00000000
,
00000000
00000000
00000000
00000000
,
00000000
00000000
00000000
00000000
,
00000000
00000000
00003003
00000000
;

//--------------- dance-double - Hell yeah dude inc. (2023) ----------------
#NOTEDATA:;
#STEPSTYPE:dance-double;
#DESCRIPTION:Hell yeah dude inc. (2023);
#DIFFICULTY:Hard;
#METER:15;
#RADARVALUES:0.382691,0.689124,0.191969,0.331582,0.353397,307,285,22,38,0,0,0,0,0,0.382691,0.689124,0.191969,0.331582,0.353397,307,285,22,38,0,0,0,0,0;
#CHARTNAME:Hell yeah dude inc. (2023);
#CHARTSTYLE:;
#CREDIT:Hell yeah dude inc. (2023);
#NOTES:
00000000
00000000
00000000
00000000
,
00000000
00000000
00000000
00000000
,
00000000
00000000
00000000
00000000
,
00000000
00000000
00000000
00000000
,
00000000
00000000
00000000
00000000
,
00012000
00000000
00000000
10000000
00000000
00000000
00010000
00000000
,
00023000
00000000
00000000
00000001
00000000
00000000
00001000
00000000
,
00032000
00000000
00000000
00000100
00000000
00000000
00013000
00000000
,
00021000
00000000
00031000
00010000
01000000
10000000
00010000
01000000
,
00010000
00000000
00100000
00000000
01000000
00000000
10000000
00000000
00200000
00000000
00000000
00010000
00000000
00000000
01000000
00000000
,
10300000
01000000
00100000
00010000
00002000
00000000
00003002
00000000
,
00000103
00000000
00000001
00000010
00000000
00000100
00001000
00000000
00000100
00000000
00010000
00001000
00000000
01000000
00010000
00000000
,
10000000
00000000
00010000
00100000
00000000
00010000
10000000
00000000
01000000
00000000
00000000
00010000
00000000
00000000
00001000
00000000
,
00000100
00000010
00000100
00000010
00000100
00000001
00000100
00000001
00001000
00000000
00000001
00000010
00000000
00001000
00010000
00000000
,
01000000
10000000
01000000
10000000
00010000
10000000
00010000
10000000
00100000
00000000
00010000
00001000
00020000
00000000
00000000
00000000
,
00031000
00000000
00000000
00000000
00000100
00000000
00000000
00000000
00000010
00000000
00000000
00000000
00001000
00000000
00000000
00000000
00000100
00000000
00000000
00000000
00010000
00000000
00000000
00000000
00001000
00000000
00000000
00010000
00000000
00000000
00001000
00000000
00000000
00000000
00000000
00000000
01000000
00000000
00000000
00010000
00000000
00000000
01000000
00000000
00000000
00010000
00000000
00000000
,
10000000
00000000
01000000
00000000
00100000
00000000
00010000
10000000
00010000
00000000
00100000
00000000
00001000
00000000
00000000
00000000
,
00021000
00000000
00000000
00000000
00030100
00000000
00000010
00000000
00001000
00000000
00000010
00000100
00000000
00001000
00000100
00010000
,
00001000
00000000
00100000
00010000
00000000
00100000
00001000
00010000
00001000
00000000
01000000
00010000
00000000
00100000
00000000
00100000
,
01000000
00000000
00010000
00000000
01000000
10000000
00000000
00100000
10000000
00000000
00100000
01000000
00000000
00010000
01000000
00001000
,
00010000
00000000
00100000
00000000
01000000
00100000
00000000
10000000
01000000
00000000
00010000
00000000
00001000
00000000
00000010
00000000
,
00000001
00000000
00000100
00000010
00000100
00000010
00000000
00000000
00001000
00000100
00001000
00000000
00000000
00000000
00000100
00000000
,
00010000
00000000
00001000
01000000
00000000
00001000
01000000
00000000
00010000
00000000
10000000
01000000
00000000
10000000
01000000
00000000
,
00100000
00000000
00010000
00000000
10000000
00100000
00000000
00100000
00010000
00000000
00010000
00001000
00000000
00001000
00000100
00000000
,
00000001
00000000
00001000
00000000
00000001
00000010
00000100
00000000
00001000
00000000
00002200
00000000
00000000
00000000
00003300
00000000
,
00020100
00000000
00000000
00031000
00100000
00010000
10000000
01000000
00100000
00010000
00000000
00000000
,
01000000
00100000
00010000
00001000
00000000
00000000
00100000
00010000
00001000
00000100
00001000
00000000
,
00000001
00000100
00000100
00000000
00000110
00000000
00000001
00000010
00000100
00001000
00000000
00000000
,
00000010
00000100
00001000
00010000
00000000
00000000
00000100
00001000
00010000
00100000
00010000
00010000
,
01000000
00000000
00000000
00000000
00000000
00000000
00010000
00000000
00000000
00000000
00000000
00000000
00100000
00000000
00000000
00010000
00000000
00000000
00000000
00000000
00000000
00000000
00000000
00000000
10000000
00000000
00000000
00000000
01000000
00000000
00000000
00000000
00010000
00000000
00000000
00000000
00000000
00000000
00000000
00000000
00011000
00000000
00000000
00000000
00000000
00000000
00000000
00000000
,
00001000
00000010
00000001
00000000
00001001
00000000
00000001
00000100
00001000
00000000
00011000
00000000
,
00010000
00000000
00100000
00000000
01000000
00010000
00000000
01000000
00001000
00000000
00010000
00000100
00000000
00001000
00000100
00000000
,
00000010
00000000
00000001
00000000
00000100
00000010
00000000
00000100
00002000
00000000
00023000
00000000
00030020
00000000
00000030
00000000
,
00002000
00000200
00000000
00000000
00000000
00000000
00003300
00000000
,
00020000
00002000
00000000
00000000
00000000
00000000
00033000
00000000
,
02000000
00020000
00000000
00000000
00000000
00000000
03030000
00000000
,
20000000
02000000
00000000
00000000
00000000
00000000
33000000
00000000
,
10000000
00100000
00020000
00000000
00031000
00000000
00000000
00000000
,
00010000
00001000
00000020
00000000
00000031
00000000
00000000
00000000
,
00000001
00000100
00002000
00000000
00013000
00000000
00000000
00000000
,
00001000
00010000
02000000
00000000
13000000
00000000
01100000
00000000
,
10020000
00000000
00130000
01000000
00010000
00000100
00001000
00000000
,
00002001
00000000
00003010
00000100
00001000
01000000
00010000
00000000
,
10020000
00000000
01030000
00100000
00010000
00000010
00001000
00000000
,
00002001
00000000
00003100
00000010
00001000
00100000
00010000
00000000
,
10000000
00100000
10000000
00000000
01000000
00000000
10000000
00000000
01000000
00010000
01000000
00000000
00010000
00000000
00001000
00000000
,
00010000
00000100
00010000
00000000
00000100
00001000
00000100
00000000
00010000
00001000
00010000
00000000
00000010
00001000
00000010
00000000
,
00000100
00001000
00000100
00001000
00010000
00001000
00010000
01000000
00100000
01000000
10000000
01000000
,
00020000
00000000
00000000
00031000
00000020
00000000
00000030
00000110
00000020
00000000
00000000
00000031
00000010
00000000
00000100
00001000
,
00000020
00000000
00000000
00010030
00001000
00000000
00100000
00010000
00200000
00000000
00000000
01300000
10000000
00000000
00100000
00000000
,
02000000
00000000
00000000
03001000
00010000
00000000
00001000
00000000
00010000
00001000
01000000
00000000
00100000
00000000
10000000
00000000
,
02000000
00100000
00000000
00000000
13000000
00000000
00100000
00000000
00010000
00000100
00001000
00000000
00000010
00000000
00000100
00000000
,
00000002
00000010
00000000
00000000
00001003
00000000
00000001
00000000
00002100
00000000
00000000
00000000
00003001
00000000
00000100
00000000
,
00001001
00000000
00011000
00000000
10010000
00000000
00022000
00033000
,
00001001
00000000
00000000
00000000
00001000
00000100
00000010
00000001
00000200
00000000
00000000
00000000
00000310
00000000
00002010
00000000
,
00000000
00003100
00020100
00000000
00031000
02001000
00000000
03010000
,
00100000
00001000
00100000
00001000
00010000
00000010
00010000
00000000
00001000
00000000
00010000
00000000
02000000
00000000
03200000
00000000
,
00301000
00010000
00000100
00001000
00000100
00000000
00010000
00001000
01000000
00010000
01000000
00000000
00001000
00010000
00000010
00001000
,
00000010
00000000
00010000
00001000
00010000
00000000
00000100
00000000
00000010
00000000
00000000
00000000
00000002
00000000
00000003
00000000
,
00000100
00000010
00000100
00000010
00001000
00000010
00001000
00000010
00010000
00001000
00010000
00000100
00010000
00001000
00010000
00000100
,
00010000
00001000
00100000
00010000
00100000
00000000
00000000
00000000
00020000
01000000
00000000
10030000
00010000
10000000
00000000
00100000
,
10000000
01000000
10000000
01000000
10000000
00000000
01000000
00010000
01000000
00010000
01000000
00000000
00010000
00001000
00010000
00001000
,
00010000
00000000
00001000
00000100
00000001
00000010
00000100
00001000
00000002
00000000
00000000
00000000
00000023
00000000
00000000
00000000
,
00002030
00000000
00013000
01000000
20000000
00000000
30100000
00000000
01000000
00000000
00010000
00100000
00002000
00000000
00013000
00000000
,
00001000
00000000
00000000
00000000
00000000
00000000
00000100
00000000
00000000
00000001
00000000
00000000
00000010
00000000
00000000
00000000
00000100
00000000
00000000
00000000
00010000
00000000
00000000
00000000
00002000
00000000
00000000
00000000
00000000
00000000
00000000
00000000
00000000
00000000
00000000
00000000
00000000
00000000
00000000
00000000
00000000
00000000
00000000
00000000
00000000
00000000
00000000
00000000
,
00000000
00000000
00000000
00000000
,
00000000
00000000
00000000
00000000
,
00000000
00000000
00003000
00000000
;

//--------------- dance-double - Hell yeah dude inc. (2023) ----------------
#NOTEDATA:;
#STEPSTYPE:dance-double;
#DESCRIPTION:Hell yeah dude inc. (2023);
#DIFFICULTY:Challenge;
#METER:17;
#RADARVALUES:0.519811,0.949373,0.130888,0.663165,0.859496,417,402,15,76,92,0,0,0,0,0.519811,0.949373,0.130888,0.663165,0.859496,417,402,15,76,92,0,0,0,0;
#CHARTNAME:Hell yeah dude inc. (2023);
#CHARTSTYLE:;
#CREDIT:Hell yeah dude inc. (2023);
#NOTES:
00000000
00000000
00000000
00000000
,
00000000
00000000
00000000
00000000
,
00000000
00000000
00000000
00000000
,
00000000
00000000
00000000
00000000
,
00000000
00000000
00000000
00000000
,
00022000
00000000
00000000
00000000
,
00000000
00000000
00000000
00000000
,
00033000
00000000
00000000
00000000
,
00010000
00000000
00000100
00001000
00001000
00000001
00000100
00000000
,
00001000
00010000
01000000
10000000
00100000
00000000
00011000
00000000
,
00010000
00001000
00000100
00000001
00000010
00000000
00011000
00000000
,
00010000
01000000
00100000
01000000
00010000
00000100
00001000
00000010
,
00000100
00000000
00001000
00000000
01000000
00000000
00010000
10000000
00200000
00000000
00000000
00000000
00000000
00000000
00300000
00000000
,
10000000
01000000
10000000
01000000
00100000
01000000
00100000
01000000
00100000
00010000
00100000
00001000
00010000
00000000
00001000
00010000
,
00000010
00001000
00000010
00001000
00000010
00000100
00000010
00000100
00000001
00001000
00000100
00001000
00000001
00000010
00000001
00000000
,
00000100
00000000
00000000
00000000
00001000
00000000
00000000
00000000
00010000
00000000
00000000
00000000
00001000
00000000
00000000
00000000
00010000
00000000
00000000
00000000
00100000
00000000
00000000
00000000
10000000
00000000
00000000
00010000
00000000
00000000
01000000
00000000
00000000
00010000
00000000
00000000
10000000
00000000
00000000
00100000
00000000
00000000
01000000
00000000
00000000
00100000
00000000
00000000
,
20000000
00000000
00000000
00000000
31000000
00000000
10000000
00100000
0001MMMM
00000000
00000000
00000000
MMMM1000
00000100
00000001
00000000
,
00002002
00000000
00000000
00000000
00000000
00000000
00000000
00000000
00003003
00000000
00000000
00000000
00000000
00000000
00000000
00000000
00002000
00000000
00000000
00000000
00000000
00000000
00000000
00000000
00003200
00000000
00000000
00000000
00000000
00000000
00000000
00000000
00010300
00000000
00000000
00000000
00000000
00000000
00000000
00000000
00001000
00000000
00000000
00000000
00020000
00030000
00000000
00000000
00000000
00000000
00000000
00000000
00020000
00030000
00000000
00000000
01000000
00000000
00000000
00000000
00001000
00000000
00000000
00000000
,
00010000
00000000
00000000
00000000
00000000
00000000
00000000
00000000
00002000
00000000
00000000
00000000
00000000
00000000
00000000
00000000
00103000
00000000
00000000
00000000
01000000
00000000
00000000
00000000
10000000
00000000
00000000
00000000
00010000
00000000
00000000
00000000
10000000
00000000
00000000
00000000
00000000
00000000
00000000
00000000
00010000
00000000
00000000
00000000
02000000
03000000
00000000
00000000
00000000
00000000
00000000
00000000
02000000
03000000
00000000
00000000
10000000
00000000
00000000
00000000
00010000
00000000
00000000
00000000
,
02000000
00000000
00000000
00000000
00000000
00000000
00000000
00000000
03002000
00000000
00000000
00000000
00000000
00000000
00000000
00000000
00103000
00000000
00000000
00000000
00020000
00030000
00000000
00000000
00000000
00000000
00000000
00000000
00020000
00030000
00000000
00000000
00001000
00000000
00000000
00000000
00000000
00000000
00000000
00000000
00010000
00000000
00000000
00000000
00000200
00000300
00000000
00000000
00000000
00000000
00000000
00000000
00000200
00000300
00000000
00000000
00000010
00000000
00000000
00000000
00000000
00000000
00000000
00000000
,
00002000
00000000
00000000
00000000
00000000
00000000
00000000
00000000
00003002
00000000
00000000
00000000
00000000
00000000
00000000
00000000
00001003
00000000
00000000
00000000
00000200
00000300
00000000
00000000
00000200
00000300
00000000
00000000
00000001
00000000
00000000
00000000
00002000
00000000
00000000
00000000
00000000
00000000
00000000
00000000
00003001
00000000
00000000
00000000
00000010
00000000
00000000
00000000
00000100
00000000
00000000
00000000
00010000
00000000
00000000
00000000
00001000
00000000
00000000
00000000
00000000
00000000
00000000
00000000
,
00010000
00000000
00000000
00000000
00000000
00000000
00000000
00000000
00000000
00000000
00000000
00000000
00000000
00000000
00000000
00000000
00000000
00000000
00000000
00000000
00000000
00000000
00000000
00000000
01000000
00000000
00000000
00000000
00000000
00000000
00000000
00000000
00000000
00000000
00000000
00000000
10000000
00000000
00000000
00000000
00000000
00000000
00000000
00000000
00000000
00000000
00000000
00000000
00010000
00000000
00000000
00000000
00000000
00000000
00000000
00000000
00000000
00000000
00000000
00000000
00200000
00000000
00000000
00300000
00000000
00000000
00000000
00000000
00000000
00000000
00000000
00000000
00000000
00000000
00000000
00000000
00000000
00000000
00000000
00000000
00000000
00000000
00000000
00000000
00200000
00000000
00000000
00300000
00000000
00000000
00000000
00000000
00000000
00000000
00000000
00000000
10000000
00000000
00000000
00000000
00000000
00000000
00000000
00000000
00010000
00000000
00000000
00000000
00000000
00000000
00000000
00000000
10000000
00000000
00000000
00000000
00000000
00000000
00000000
00000000
00100000
00000000
00000000
00000000
00000000
00000000
00000000
00000000
00000000
00000000
00000000
00000000
00000000
00000000
00000000
00000000
00000000
00000000
00000000
00000000
00000000
00000000
00000000
00000000
00010000
00000000
00000000
00000000
00000000
00000000
00000000
00000000
00000000
00000000
00000000
00000000
00001000
00000000
00000000
00000000
00000000
00000000
00000000
00000000
00000000
00000000
00000000
00000000
00010000
00000000
00000000
00000000
00000000
00000000
00000000
00000000
00000000
00000000
00000000
00000000
00000010
00000000
00000000
00000000
00000000
00000000
00000000
00000000
00000000
00000000
00000000
00000000
,
00001000
00000000
00000000
00000000
00000000
00000000
00000000
00000000
00000001
00000000
00000000
00000000
00000000
00000000
00000000
00000000
00000100
00000000
00000000
00000000
00000000
00000000
00000000
00000000
00000001
00000000
00000000
00000000
00000000
00000000
00000000
00000000
00000000
00000000
00000000
00000000
00000000
00000000
00000000
00000000
00000000
00000000
00000000
00000000
00000000
00000000
00000000
00000000
00001000
00000000
00000000
00000000
00000000
00000000
00000000
00000000
00000000
00000000
00000000
00000000
00000200
00000000
00000000
00000300
00000000
00000000
00000000
00000000
00000000
00000000
00000000
00000000
00000000
00000000
00000000
00000000
00000000
00000000
00000000
00000000
00000000
00000000
00000000
00000000
00000200
00000000
00000000
00000300
00000000
00000000
00000000
00000000
00000000
00000000
00000000
00000000
00000001
00000000
00000000
00000000
00000000
00000000
00000000
00000000
00000000
00000000
00000000
00000000
00000000
00000000
00000000
00000000
00000000
00000000
00000000
00000000
00000000
00000000
00000000
00000000
00000010
00000000
00000000
00000000
00000000
00000000
00000000
00000000
00000000
00000000
00000000
00000000
00000100
00000000
00000000
00000000
00000000
00000000
00000000
00000000
00000000
00000000
00000000
00000000
00020000
00000000
00000000
00000000
00000000
00000000
00000000
00000000
00000000
00000000
00000000
00000000
00032000
00000000
00000000
00000000
00000000
00000000
00000000
00000000
00000000
00000000
00000000
00000000
02003000
00000000
00000000
00000000
00000000
00000000
00000000
00000000
00000000
00000000
00000000
00000000
03020000
00000000
00000000
00000000
00000000
00000000
00000000
00000000
00000000
00000000
00000000
00000000
,
20030000
00000000
00000000
00000000
00000000
00000000
00000000
00000000
01000000
00000000
00000000
00000000
00000000
00000000
00000000
00000000
30010000
00000000
00000000
00000000
00200000
00300000
00000000
00000000
00000000
00000000
00000000
00000000
00200000
00300000
00000000
00000000
10000000
00000000
00000000
00000000
00000000
00000000
00000000
00000000
01000000
00000000
00000000
00000000
00200000
00300000
00000000
00000000
00000000
00000000
00000000
00000000
00200000
00300000
00000000
00000000
10000000
00000000
00000000
00000000
00000000
00000000
00000000
00000000
,
01000000
00000000
00010000
00000000
00001000
00000000
00000200
00000000
00000010
00000000
00000000
00000000
00000301
00000010
00000100
00010000
,
00021000
00000000
00000000
00130000
10000000
01000000
0002MMMM
00000000
00031000
00000010
00000001
00000100
,
MMMM2000
00000000
00013000
00100000
10000000
01000000
0002MMMM
00000000
00031000
00000010
00000001
00000100
,
00001000
01000000
00001000
00000000
00021000
00000000
0013MMMM
00010000
00001000
MMMM0010
00001000
00010000
,
0100MMMM
00010000
00001000
MMMM0100
00001000
00010000
01000000
10000000
00010000
00100000
01000000
00010000
,
00002000
00000000
00000000
00000000
01003000
00000000
00100000
00000000
10000000
00000000
00010000
00000000
00100000
00001000
00100000
00001000
00000000
00000000
00000000
00000000
00021000
00000000
00000000
00000000
,
00130000
00010000
00001000
00000000
00012000
00000000
00003010
00001000
00010000
00000000
00021000
00000000
,
00030020
00000000
00000000
00000000
00000000
00000000
00000000
00000000
00000230
00000000
00000000
00000000
00000000
00000000
00000000
00000000
00000301
00000000
00000000
00000000
00000020
00000030
00000000
00000000
00000000
00000000
00000000
00000000
00000020
00000030
00000000
00000000
00002000
00003000
00000000
00000000
00000000
00000000
00000000
00000000
00002000
00003000
00000000
00000000
00020000
00030000
00000000
00000000
00000000
00000000
00000000
00000000
00020000
00030000
00000000
00000000
00100000
00000000
00000000
00000000
00000000
00000000
00000000
00000000
,
00020000
00000000
02030000
00000000
03100000
10000000
00010000
10000000
02000000
00000000
03200000
00000000
00301000
00000000
00000000
00000000
,
00011000
MMMMMMMM
MMMMMMMM
MMMMMMMM
,
10000000
MMMMMMMM
MMMMMMMM
MMMMMMMM
,
00010000
MMMMMMMM
MMMMMMMM
MMMMMMMM
,
00001000
MMMMMMMM
MMMMMMMM
MMMMMMMM
,
00000010
MMMMMMMM
00000001
MMMMMMMM
00000100
MMMMMMMM
00001000
MMMMMMMM
,
00010000
00001000
00100000
MMMMMMMM
,
01000000
MMMMMMMM
10000000
MMMMMMMM
00100000
MMMMMMMM
00010000
MMMMMMMM
,
00100000
00000000
00000000
00000000
00001000
00000000
00000000
00000000
00010000
00001000
01000000
00010000
10000000
00100000
01000000
00010000
,
20000000
00010000
31000000
00100000
00010000
00000010
00000100
00001000
,
00000002
00001000
00000103
00000010
00001000
00100000
01000000
00010000
,
10000000
02000000
03010000
00001000
00000010
00000001
00001000
00001000
,
00000001
00000000
00000200
00000000
00001300
00000000
00010000
00000100
00010000
00001000
00010000
00000000
00001000
00000000
00000000
00000000
,
00010000
00000010
00001000
00001010
0000MMMM
00010010
MMMM0000
00011000
,
00001000
00100000
00010000
00110000
MMMM0000
00101000
0000MMMM
00011000
,
00010000
00000010
00010000
00001000
00100000
00001000
00010000
00000010
00000100
00000001
00000010
00000100
,
00020000
00000000
00000000
00000000
00000000
00000000
00000000
00000000
00000000
00000000
00000000
00000000
00000000
00000000
00000000
00000000
00002000
00000000
00000000
00000000
00000000
00000000
00000000
00000000
00033000
00000000
00000000
00000000
00000000
00000000
00000000
00000000
00001000
00000000
00000000
00000000
00000000
00000000
00000000
00000000
00100000
00000000
00000000
00000000
00010000
00000000
00000000
00000000
02000000
03000000
00000000
00000000
00000000
00000000
00000000
00000000
02000000
03000000
00000000
00000000
10000000
00000000
00000000
00000000
,
0001MMMM
00100000
00010000
00001000
MMMM0100
00000000
00000000
00000000
MMMM1000
00000010
00001000
00010000
0100MMMM
00000000
00000000
00000000
,
0001MMMM
00000000
00000000
00100000
00000000
00000000
00010000
00000000
00000000
00001000
00000000
00000000
MMMM0200
00000300
00000000
00000000
00000000
00000000
00000200
00000300
00000000
00000001
00000000
00000000
00001000
00000000
00000000
00000100
00000000
00000000
00010000
00000000
00000000
00001000
00000000
00000000
00000000
00100000
00000000
00000000
00000000
00000000
00000000
01000000
00000000
00000000
00000000
00000000
,
MMMM1000
00000000
00000000
00000000
01000000
00000000
00000000
00000000
00000000
00000000
00000000
00000000
00000000
00100000
00000000
00000000
00000000
00000000
00000000
00100000
00000000
00000000
00000000
00000000
00010000
00000000
00000000
01000000
00000000
00000000
00001000
00000000
00000000
00010000
00000000
00000000
00000000
00000010
00000000
00000000
00000000
00000000
00000000
00000100
00000000
00000000
00000000
00000000
,
0001MMMM
00000000
00000000
00000000
00000000
00000000
00000000
00000000
00000000
00000000
00000000
00000000
00000000
00000000
00000000
00000000
00000100
00000000
00000000
00000000
00000000
00000000
00000000
00000000
00000000
00000000
00000000
00000000
00000000
00000000
00000000
00000000
00000000
00000000
00000000
00000000
00000000
00000000
00000000
00000000
00000000
00000000
00000000
00000000
00000000
00000000
00000000
00000000
00000000
00000000
00000000
00000000
00000010
00000000
00000000
00000000
00000000
00000000
00000000
00000000
00000000
00000000
00000000
00000000
00000000
00000000
00000000
00000000
00000000
00000000
00000000
00000000
00000000
00000000
00000000
00000000
00000010
00000000
00000000
00000000
00000000
00000000
00000000
00000000
00000000
00000000
00000000
00000000
00000000
00000000
00001000
00000000
00000000
00000000
00000000
00000000
00000001
00000000
00000000
00000000
00000000
00000000
00000000
00000000
00000000
00000000
00000000
00000000
00000100
00000000
00000000
00000000
00000000
00000000
00000000
00000000
00000000
00000000
00000000
00000000
00000010
00000000
00000000
00000000
00000000
00000000
00000000
00000000
00000000
00000000
00000000
00000000
00000000
00000000
00000000
00000000
00000000
00000000
00000000
00000000
00000000
00000000
00000000
00000000
00002000
00000000
00000000
00003000
00000000
00000000
00000000
00000000
00000000
00000000
00000000
00000000
00000000
00000000
00000000
00000000
00000000
00000000
00000000
00000000
00000000
00000000
00000000
00000000
00002000
00000000
00000000
00003000
00000000
00000000
00000000
00000000
00000000
00000000
00000000
00000000
00000000
00000000
00000000
00000000
00000000
00000000
00000000
00000000
00000000
00000000
00000000
00000000
,
00020000
00001000
00000000
00000000
01030000
00000000
00000000
00000000
20000000
00100000
00000000
00000000
30010000
00000000
00000000
00000000
,
10000000
01000000
00100000
00000000
00001000
00010000
00001000
00010000
00001000
00000100
00000010
00001000
00000001
00000010
00000100
00001000
,
00010000
00100000
01000000
00010000
00001000
00000100
00000001
00001000
00000100
00010000
00001000
00010000
01000000
10000000
00100000
01000000
,
00010000
00000000
00000000
00000000
02000000
03000000
00000000
00000000
02000000
03000000
00000000
00000000
10000000
00000000
00000000
00000000
00010000
00000000
00000000
00000000
00200000
00300000
00000000
00000000
00200000
00300000
00000000
00000000
00000000
00000000
00000000
00000000
10000000
00000000
00000000
00000000
01000000
00000000
00000000
00000000
00100000
00000000
00000000
00000000
00001000
00000000
00000000
00000000
00020000
00000000
00000000
00000000
00000000
00000000
00000000
00000000
00030200
00000000
00000000
00000000
00000000
00000000
00000000
00000000
,
00010300
00000000
00000000
00000000
00002000
00003000
00000000
00000000
00002000
00003000
00000000
00000000
00000100
00000000
00000000
00000000
00010000
00000000
00000000
00000000
00000000
00000000
00000000
00000000
00001000
00000000
00000000
00000000
00020000
00030000
00000000
00000000
00020000
00030000
00000000
00000000
01000000
00000000
00000000
00000000
00001000
00000000
00000000
00000000
00000000
00000000
00000000
00000000
00010000
00000000
00000000
00000000
00002000
00003000
00000000
00000000
00002000
00003000
00000000
00000000
00000100
00000000
00000000
00000000
,
00010000
00000000
00001000
00000100
00000002
00000000
00002003
00000000
00003200
00000000
00000000
00000000
00000310
00000000
00000000
00000000
,
00002002
00000000
00000000
00000000
00003003
00000000
00000001
00000100
00000010
00001000
00000010
00001000
00000001
00000010
00000001
00000010
,
00000200
00000300
00000000
00000000
00000200
00000300
00000000
00000000
00000200
00000300
00000000
00000000
00000200
00000300
00000000
00000000
00000200
00000000
00000000
00000000
00000000
00000000
00000000
00000000
00000000
00000000
00000000
00000000
00000000
00000000
00000000
00000000
00010300
00000000
00000000
00000000
00001000
00000000
00000000
00000000
01000000
00000000
00000000
00000000
00010000
00000000
00000000
00000000
10000000
00000000
00000000
00000000
02000000
03000000
00000000
00000000
00000000
00000000
00000000
00000000
02000000
03000000
00000000
00000000
,
00010000
00100000
00001000
00010000
01000000
00100000
00010000
01000000
00001000
00010000
00100000
01000000
00010000
00100000
00001000
00010000
,
00000010
00000000
00000000
00000100
00000000
00000000
00000010
00000000
00000000
00010000
00000000
00000000
00001000
00000000
00000000
00010000
00000000
00000000
00000100
00000000
00000000
00001000
00000000
00000000
MMMM0020
00000000
00000000
00000000
00000030
00000000
00000000
00000000
00000000
00000000
00000000
00000000
0002MMMM
00000000
00000000
00000000
00030000
00000000
00000000
00000000
00000000
00000000
00000000
00000000
,
00000001
00000100
00001000
00010000
00001000
00000100
00000001
00000010
00001000
00010000
00001000
00000010
00000001
00000100
00001000
00010000
,
00000010
00000000
00000000
00000100
00000000
00000000
00001000
00000000
00000000
00010000
00000000
00000000
00000010
00000000
00000000
00000000
00001000
00000000
00000000
00000000
00100000
00000000
00000000
00000000
02000000
00000000
00000000
00000000
00000000
00000000
00000000
00000000
00000000
00000000
00000000
00000000
00000000
00000000
00000000
00000000
00000000
00000000
00000000
00000000
00000000
00000000
00000000
00000000
,
00000000
00000000
00000000
00000000
,
00000000
00000000
00000000
00000000
,
00000000
00000000
03000000
00000000
;
