#VERSION:0.83;
#TITLE:抱きしめてモナムール;
#SUBTITLE:;
#ARTIST:冬色AMOUR☆Prim;
#TITLETRANSLIT:Dakishimete mon amour;
#SUBTITLETRANSLIT:;
#ARTISTTRANSLIT:Prim;
#GENRE:Hi-歌謡コア;
#CREDIT:;
#MUSIC:Dakishimete mon amour.ogg;
#BANNER:Dakishimete mon amour.png;
#BACKGROUND:Dakishimete mon amour-bg.png;
#CDTITLE:./CDTitles/bm IIDX 26 Rootage.png;
#SAMPLESTART:57.198;
#SAMPLELENGTH:15.000;
#SELECTABLE:YES;
#OFFSET:1.520;
#BPMS:0.000=190.000;
#STOPS:;
#TIMESIGNATURES:0.000=4=4;
#BGCHANGES:0.000=Dakishimete mon amour.mp4=1.000=0=0=0=StretchNoLoop====,
99999.000=-nosongbg-=1.000=0=0=0=StretchNoLoop====
;
#FGCHANGES:;

//--------------- dance-single - forcednature ----------------
#NOTEDATA:;
#STEPSTYPE:dance-single;
#DESCRIPTION:forcednature;
#DIFFICULTY:Beginner;
#METER:3;
#RADARVALUES:0,0,0,0,0;
#CREDIT:forcednature;
#NOTES:
0000
0000
0000
0000
,
0000
0000
0000
0000
,
0000
0000
0000
0000
,
0000
0000
0000
0000
,
0000
0000
0000
0000
,
0000
0000
0000
0000
,
0000
0000
0000
0000
,
0010
0000
0010
0000
,
0010
0000
0000
0000
,
0100
0000
0100
0000
,
0100
0000
0000
0000
,
1001
0000
0000
0000
,
1000
0000
0000
0000
,
0001
0000
0000
0000
,
0100
0000
0000
0000
,
1001
0000
0000
0000
,
0010
0000
0000
0000
,
1000
0000
0000
0000
,
0100
0000
0000
0000
,
0010
0000
0000
0000
,
0001
0000
0000
0000
,
0100
0000
0000
0000
,
0110
0000
0000
0000
,
1001
0000
0000
0000
,
0001
0000
0000
0000
,
0100
0000
0000
0000
,
0010
0000
0000
0000
,
1000
0000
0000
0000
,
0100
0000
0000
0000
,
0010
0000
0000
0000
,
0100
0000
0000
0000
,
1001
0000
0000
0000
,
0000
0000
0000
0000
,
1000
0000
0000
0000
,
0000
0000
0000
0000
,
0001
0000
0000
0000
,
0000
0000
0000
0000
,
0100
0000
0000
0000
,
0000
0000
0000
0000
,
0110
0000
0000
0000
,
0000
0000
0000
0000
,
1001
0000
0000
0000
,
0000
0000
0000
0000
,
0010
0000
0000
0000
,
0010
0000
0000
0000
,
0100
0000
0100
0000
,
0100
0000
0000
0000
,
1000
0000
0000
0000
,
0001
0000
0000
0000
,
0100
0000
0100
0000
,
0100
0000
0000
0000
,
0001
0000
0000
0000
,
1000
0000
0000
0000
,
0100
0000
0010
0000
,
0100
0000
0000
0000
,
1000
0000
0000
0000
,
0001
0000
0000
0000
,
0100
0000
0010
0000
,
0100
0000
0010
0000
,
0100
0000
0000
0000
,
0001
0000
0000
0000
,
1001
0000
0000
0000
,
0100
0000
0100
0000
,
0100
0000
0000
0000
,
0010
0000
0000
0000
,
0010
0000
0000
0000
,
0010
0000
0000
0000
,
1000
0000
0001
0000
,
1000
0000
0000
0000
,
0001
0000
1000
0000
,
0001
0000
0000
0000
,
1001
0000
0000
0000
,
1000
0000
0000
0000
,
0010
0000
0000
0000
,
0100
0000
0000
0000
,
0001
0000
0000
0000
,
0010
0000
0000
0000
,
0100
0000
0000
0000
,
1000
0000
0000
0000
,
1001
0000
0000
0000
,
0001
0000
0000
0000
,
0100
0000
0000
0000
,
0010
0000
0000
0000
,
1000
0000
1000
0000
,
0001
0000
0001
0000
,
0010
0010
0010
0000
,
0010
0000
0000
0000
,
0100
0000
1000
0000
,
0100
0000
1000
0000
,
0100
0000
0010
0000
,
0001
0000
0000
0000
,
0100
0000
0001
0000
,
0100
0000
0001
0000
,
0100
0000
0010
0000
,
1000
0000
0001
0000
,
1000
0000
0100
0000
,
0001
0000
0100
0000
,
1000
0000
0001
0000
,
0100
0000
1000
0000
,
0110
0000
0000
0000
,
0100
0000
0010
0000
,
1001
0000
0000
0000
,
0100
0000
0010
0000
,
0000
0100
0000
0000
0100
0000
0000
0100
;

//--------------- dance-single - forcednature ----------------
#NOTEDATA:;
#STEPSTYPE:dance-single;
#DESCRIPTION:forcednature;
#DIFFICULTY:Easy;
#METER:9;
#RADARVALUES:0,0,0,0,0;
#CREDIT:forcednature;
#NOTES:
0000
0000
0000
0000
,
0000
0000
0000
0000
,
0000
0000
0000
0000
,
0000
0000
0000
0000
,
0000
0000
0000
0000
,
0000
0000
0000
0000
,
0000
0000
0000
0000
,
1000
0001
0100
0010
,
1000
0000
0000
0000
,
0001
0010
0100
1000
,
0001
0000
0000
0000
,
1001
0000
0000
0100
,
0010
0000
0000
0100
,
0010
0000
0000
0100
,
0010
0000
1001
0000
,
1000
1000
1000
0000
,
0001
0100
0001
0000
,
1000
0100
0010
0001
,
0010
0100
1000
0000
,
0001
0001
0001
0000
,
1000
1000
0100
0000
,
1000
0010
0100
0001
,
1001
0000
0010
0100
,
1001
0000
1000
0000
,
0010
0100
0001
0010
,
0100
0000
0001
0000
,
0100
1000
0001
0100
,
1001
0000
0010
0100
,
0001
0100
1000
0100
,
0020
0000
0200
0330
,
0110
0000
0000
0000
,
1000
0000
0001
0101
,
0010
0000
1000
1100
,
0010
0000
0100
0011
,
0010
0000
0100
1010
,
0010
0000
1000
0101
,
0010
0000
0001
1100
,
0010
0000
1000
0011
,
0100
0000
0001
1010
,
0110
0000
1000
0110
,
0001
0000
0010
1001
,
0100
0000
0001
0110
,
1000
0000
0100
0010
,
1001
0000
0000
0100
0000
0000
1000
0000
,
1001
0000
0000
0100
0000
0000
0001
0000
,
1000
0000
0001
0000
1000
0000
0001
0000
0100
0000
0000
0010
0000
0000
0100
0000
,
0020
0030
0000
0000
,
1000
0000
0001
0100
0001
0000
1000
0000
,
0100
0010
0100
0000
,
1000
0000
0010
0000
0100
0000
0002
2000
,
0000
0000
3003
0000
,
1001
0000
0001
0000
0100
0001
0100
0000
,
1001
1000
0100
0010
,
0100
1000
0100
0000
0010
0001
0010
0000
,
0100
0000
0000
0100
0000
0000
0100
0000
0000
0000
0000
0000
0000
0000
0000
0000
,
1000
0001
1000
0000
0001
0000
0100
0000
,
0010
1000
0001
0000
,
0011
1000
0100
0001
,
1010
0001
0100
1000
,
0220
0330
0100
0010
,
1001
0000
0000
0000
0000
0000
0000
0000
0100
0000
0000
0100
0000
0000
0100
0000
,
0010
1000
0010
0001
,
0010
0010
0010
0010
,
0100
0000
0000
1000
0000
0000
0100
0000
,
0000
1000
0000
0000
0100
0000
0000
0000
,
0100
0000
0000
0001
0000
0000
0100
0000
,
0000
0001
0000
0000
0100
0000
0000
0000
,
1001
0000
0010
0000
,
0100
0010
0100
0000
,
1001
0000
1000
0001
,
1000
0000
0000
0000
,
0001
0000
0100
0110
,
1000
0000
0100
0110
,
0001
0000
0010
0110
,
1000
0000
0010
0110
,
0001
0000
1000
1001
,
0100
0000
0001
1001
,
0100
0000
1000
1001
,
0010
0000
0001
1001
,
0010
0000
1000
1100
,
0001
0000
0001
0101
,
1000
0000
1000
0011
,
0001
0000
0001
1010
,
0100
0000
0000
0001
0000
0000
0010
0000
,
0100
0000
0000
1000
0000
0000
0010
0000
,
1000
0001
1000
0001
0000
0100
0000
2002
,
0000
3003
0000
0000
0000
0000
0000
0000
,
0010
0000
1000
0000
0001
1000
0001
0000
,
0100
0000
0001
0100
0000
0000
0010
0000
,
1000
0000
0100
0000
0010
0000
0002
2000
,
0000
0000
3003
0010
,
1001
0000
0100
1000
,
0101
1000
0010
1000
,
0100
0010
0100
0000
1000
0001
1000
0000
,
0010
0000
0000
0010
0000
0000
0010
0000
0000
0000
0000
0000
0000
0000
0000
0000
,
0100
0001
0100
0000
0010
0000
1000
0000
,
0001
0000
0010
0001
0000
0000
0000
0000
,
0110
0001
1000
0000
,
0110
1000
0001
0000
,
1001
0000
0100
0100
,
1001
0000
0000
0000
0000
0000
0000
0000
0010
0000
0000
0010
0000
0000
0010
0000
,
1000
0001
0100
0010
,
1000
0100
1000
0000
0001
0100
0001
0000
,
0000
0110
0000
0000
1000
0001
1000
0001
;

//--------------- dance-single - forcednature ----------------
#NOTEDATA:;
#STEPSTYPE:dance-single;
#DESCRIPTION:forcednature;
#DIFFICULTY:Medium;
#METER:11;
#RADARVALUES:0,0,0,0,0;
#CREDIT:forcednature;
#NOTES:
0000
0000
0000
0000
,
0000
0000
0000
0000
,
0000
0000
0000
0000
,
0000
0000
0000
0000
,
0000
0000
0000
0000
,
0000
0000
0000
0000
,
0000
0000
0000
0000
,
0001
0100
0010
1000
0100
0000
0010
0001
,
0020
0000
0030
0000
0100
1000
0001
0000
,
0100
0100
0001
0000
0100
0100
1000
0000
,
0110
0000
0000
0000
1000
0001
1000
0000
,
1001
0000
0001
0000
0100
0000
0010
1000
,
0100
0000
0010
0000
0100
0000
1000
0001
,
0100
0000
0010
0000
1000
0001
0010
0000
,
1001
0000
0000
0000
0100
0100
0100
0000
,
1001
0010
1000
0001
,
0100
0001
0100
0000
0010
1000
0010
0000
,
1000
0100
0010
0100
,
1000
0001
0100
0000
0001
1000
0100
0010
,
0100
1000
0001
0100
,
0010
1000
0001
0000
1000
0100
0010
0000
,
0100
0000
1000
0000
0001
0001
0100
0000
,
1001
0000
0010
0100
,
1001
1000
0010
0000
,
0100
0001
0100
0000
0010
1000
0010
0000
,
0100
0001
0010
0000
,
0100
1000
0100
0010
,
1001
0001
0100
0010
,
1000
0100
0001
0100
,
0010
0000
0001
0100
0010
0000
0000
0000
,
1000
0001
1000
0000
,
0100
0000
0000
0010
0100
0000
1001
0000
,
0001
0000
0000
0100
0001
0000
1001
0000
,
0100
0000
0000
0010
0100
0000
1001
0000
,
1000
0000
0000
0100
1000
0000
1001
0000
,
0010
0000
0000
0100
0010
0000
1001
0000
,
0001
1000
0000
1000
0001
0000
1001
0000
,
0010
0000
0000
0100
0010
0000
1001
0000
,
1000
0001
0000
0001
1000
0000
1001
0000
,
1000
0010
0100
0000
,
0001
0010
0001
0000
0100
0000
0010
0000
,
1001
1000
0010
0000
,
0100
0001
0100
0000
0010
0000
1000
0000
,
1100
0000
0000
0001
0000
0000
0010
0000
,
0101
0000
0000
1000
0000
0000
0010
0000
,
1000
0000
0001
0000
1000
0000
0001
0000
0010
0000
0000
0100
0000
0000
0010
0000
,
0100
0000
0000
0000
0000
0000
1000
0001
,
1000
0000
0001
0000
0100
0000
0010
1000
,
0010
0000
0100
0001
0000
0000
1000
0000
,
0100
0000
0010
0000
0200
0000
1300
0002
,
0000
0000
0003
0000
0100
0010
0100
0000
,
1001
0001
0100
0010
,
1001
1000
0100
0010
,
1100
0000
0010
0001
0010
0000
0100
0000
,
1000
0000
0000
0001
0000
0000
1000
0000
0000
0000
0010
0000
0100
0000
0000
0000
,
0001
0000
0100
0000
0010
1000
0010
0000
,
0100
0000
0001
1000
0000
0001
1000
0000
,
1100
0010
0001
0100
,
0101
0010
1000
0100
,
2002
0000
3003
0000
0010
0010
0010
0000
,
0110
0000
0000
0000
0000
0000
0000
0000
1000
0000
0000
0001
0000
0000
1000
0000
,
0001
0100
0010
0000
,
1000
0001
1000
0001
1000
0100
1000
0100
,
0010
0000
0000
0100
0000
0000
1000
0000
,
0000
0001
0000
0000
0100
0000
0010
0000
,
1000
0000
0000
0001
0000
0000
0010
0000
,
0000
0001
0000
0000
0100
0000
0010
0000
,
1010
0100
0001
0000
,
0011
0100
1000
0000
,
0110
1000
0001
0000
,
1001
0000
0000
0000
,
0100
0000
0010
1001
,
0000
1000
0001
0110
,
0001
0000
0100
1010
,
0000
0100
1000
0011
,
1000
0000
0001
0110
,
0000
0001
1000
1100
,
0010
0000
0100
0101
,
0000
0100
1000
0100
,
1001
0000
0000
0100
0000
0000
0010
0000
,
1010
0000
0000
0100
0000
0000
0001
0000
,
1001
0000
0000
0010
0000
0000
0100
0000
,
0011
0000
0000
0001
0000
0000
0100
0000
,
1001
0000
0000
1100
0000
0000
0001
0000
,
1001
0000
0000
0101
0000
0000
1000
0000
,
0010
0100
0010
0100
0000
0110
0000
1001
,
0000
0000
0000
0000
,
1000
0100
1000
0000
0001
0100
0001
0000
,
0010
0000
0100
0010
0000
0100
0010
0000
,
0001
0100
0001
0000
2000
0000
3100
0020
,
0000
0000
0030
0000
0100
1000
0100
0000
,
1001
1000
0010
0100
,
0101
0001
1000
0010
,
0100
0001
0100
0001
0010
0000
0100
1000
,
0100
0000
0000
0100
0000
0000
0100
0000
0000
0000
0010
0000
0000
0000
0010
0000
,
0001
0000
0100
0000
0010
1000
0010
0000
,
0100
0000
0001
1000
0000
0001
1000
0000
,
0110
1000
0001
0100
,
0110
0001
1000
0100
,
2002
0000
3003
0000
0010
0010
0010
0000
,
0110
0000
0000
0000
0000
0000
0001
0000
1000
0000
0000
0001
0000
0000
1000
0000
,
0001
0000
0100
0000
0010
1000
0010
0000
,
0100
0001
0100
0001
1000
0100
1000
0100
,
0000
1001
0000
0000
0100
0100
0010
0100
;

//--------------- dance-single - forcednature ----------------
#NOTEDATA:;
#STEPSTYPE:dance-single;
#DESCRIPTION:forcednature;
#DIFFICULTY:Hard;
#METER:14;
#RADARVALUES:0,0,0,0,0;
#CREDIT:forcednature;
#NOTES:
0000
0000
0000
0000
,
0000
0000
0000
0000
,
0000
0000
0000
0000
,
0000
0000
0000
0000
,
0000
0000
0000
0000
,
0000
0000
0000
0000
,
0000
0000
0000
0000
,
0001
0100
0010
1000
0001
1000
0100
0010
,
0002
0000
0000
0000
0103
0001
1000
0100
,
1000
0000
0010
0000
1000
0000
0100
0000
0010
0001
0010
0000
0100
1000
0100
0000
,
0020
0000
0030
0000
0100
0100
0100
0000
,
1001
0000
1000
0000
0100
0000
0001
0100
,
0110
0000
0001
0000
0100
0000
1000
0100
,
0110
0000
0000
0000
1000
0000
0000
0000
0001
0000
0100
0000
0001
0000
1000
0010
,
1000
0000
0000
0000
0001
0001
0001
0000
,
0101
0000
1000
0010
2000
0000
0010
0000
,
3001
0000
1000
0000
0010
0000
0100
0001
,
0100
0000
0010
1000
0100
0000
0010
0001
,
0000
0000
0010
0000
0100
0000
0000
0000
1000
0000
0000
0001
0000
0000
1000
0000
,
0010
0000
0000
0001
0000
0000
0010
0000
0200
0000
0000
0000
1000
0000
0000
0000
,
0301
0000
0100
0000
0010
0000
1000
0000
0001
0000
0000
1000
0000
0000
0100
0000
,
0020
0000
0031
0100
0001
0001
1000
1000
,
1001
0000
0000
0000
0100
0100
0010
0000
,
1001
0000
0001
0100
0002
0000
1000
0000
,
0013
0001
0100
1000
,
0200
0000
0300
0001
0010
0000
1000
0010
,
0000
0000
0100
0000
1000
0000
0001
1000
,
1001
0000
0001
0100
0000
1000
0100
0010
,
2000
3200
0320
0032
,
0103
0000
0000
0000
0001
0000
1000
0000
0010
0000
0010
0000
0010
0000
1000
0001
,
1000
0100
0001
0100
,
0010
0000
0000
0001
0100
0000
1001
0000
,
0010
0010
0000
1000
0100
0000
1001
0000
,
1000
0000
0000
0100
0001
0000
0110
0000
,
0001
0001
0000
0100
1000
0000
0110
0000
,
1000
0000
0000
0001
0100
0000
1001
0000
,
0001
0001
0000
1000
0100
0000
1001
0000
,
0010
0000
0000
0100
0100
0000
0110
0000
,
0001
0100
0000
1000
0100
0010
0010
0010
,
1010
0000
0000
0100
0001
0000
0011
0000
,
0010
0010
0000
0001
1000
0000
0110
0000
,
0101
0000
0000
1000
0100
0000
0110
0000
,
0001
1000
0100
0001
0100
1000
0001
0100
,
1100
0000
0000
0101
0000
0000
1001
0000
,
0110
0000
0000
0011
0000
0000
1100
0000
,
1000
0000
0010
0000
0100
0000
0001
0000
0010
0000
0000
0100
0000
0000
0010
0000
,
0002
0000
0000
0000
0003
0000
0000
0000
0100
0000
0010
0000
1000
0001
1000
0001
,
1000
0010
0100
0001
0100
0000
0010
1000
,
0001
0000
0010
0100
0000
0001
0100
1000
,
0010
1000
0001
0010
0100
0000
1000
0020
,
0001
0000
0100
0000
1030
0010
0100
0001
,
1001
0000
0001
0010
0100
1000
0010
0100
,
0102
0203
0320
2030
,
3100
0000
0001
0000
0100
0000
0001
0000
0100
0000
1000
0000
0100
0000
1000
0100
,
1000
0000
0000
0001
0000
0000
1001
0000
0000
0000
0001
0000
0010
0000
0100
1000
,
0100
0010
0100
1000
0001
0100
0010
1000
,
0001
0000
0100
1000
0000
0100
0010
1000
,
0001
0010
0100
0001
0100
0000
1000
0010
,
0110
0000
0000
0000
1000
0000
0000
0000
0001
0100
0001
0100
0010
0000
0000
0000
,
0100
0000
0001
0000
1000
0000
0010
0000
1000
0001
1000
0001
1000
0000
0001
0010
,
0001
0000
0000
0000
0000
0000
0100
0000
0010
0000
0000
1000
0000
0000
0001
0000
,
1000
0100
0010
0100
0001
0100
0010
0100
,
1000
0100
1000
0000
0001
0100
0001
0000
1000
0010
1000
0000
0001
0010
0001
0000
,
0100
0000
1000
0100
0000
0001
0100
0000
,
1000
0100
0000
0001
0100
0000
0010
0000
,
1001
0000
0001
0010
0000
1000
0010
0000
,
0001
0010
0000
1000
0010
0100
0010
0100
,
1001
0000
0001
0100
0020
0000
1000
1030
,
1010
0000
0001
0010
0100
1000
0010
0100
,
0001
0000
0010
0000
0001
0000
0100
0000
0010
1000
0010
0000
0100
0000
0001
1000
,
0002
0023
0230
2300
,
3010
0000
0000
1000
0001
0000
0110
0000
,
0001
0100
0000
1000
0100
0000
1001
0000
,
0001
0000
0000
0010
0100
0000
1010
0000
,
1000
0100
0000
0010
1000
0000
0011
0000
,
0001
0000
0000
1000
0010
0000
0101
0000
,
0100
1000
0000
0100
0010
0000
1001
0000
,
1000
0000
0000
0100
0001
0000
0110
0000
,
0001
1000
0000
0010
0100
0001
0001
0001
,
1001
0000
0000
0001
0010
0000
1100
0000
,
0001
0010
0000
0100
0001
0000
0110
0000
,
1001
0000
0000
1000
0010
0000
1001
0000
,
0001
0000
0100
0000
0010
0000
0100
0000
1000
0000
0100
0000
0001
0000
1000
0001
,
1000
0000
0000
1100
0000
0000
0011
0000
,
1001
0000
0000
0101
0000
0000
1010
0000
,
0001
0100
1000
0100
0000
0110
0000
2002
,
0000
0000
3003
0000
0000
0000
0000
0000
1000
0000
0010
0000
0100
0000
0001
1000
,
0001
0010
0001
0100
0010
1000
0100
1000
,
0010
0000
0100
1000
0000
0100
0001
0010
,
0100
0001
0100
1000
0010
0000
1000
0200
,
0001
0000
1000
0000
0310
0100
1000
0001
,
0101
0000
0001
1000
0010
1000
0001
0010
,
0210
2300
3002
0203
,
0310
0000
0001
0000
0010
0000
0100
0000
0010
1000
0010
0000
0100
0000
0001
1000
,
0001
0000
0000
1000
0000
0000
1001
0000
0000
0000
1000
0100
1000
0000
0001
0000
,
0100
0010
0100
1000
0100
0001
0010
0100
,
0001
0000
0100
1000
0000
0100
0010
0001
,
1000
0010
0100
0010
0001
0010
0100
0001
,
1001
0000
0000
0000
0001
0000
0000
0000
1000
0100
1000
0100
0010
0000
0000
0000
,
0001
0000
0100
0000
0001
0000
1000
0000
0001
0010
0001
0000
1000
0000
0010
0100
,
0010
0000
0000
0000
0000
0000
0100
0000
0001
0000
0000
1000
0000
0000
0100
0000
,
0001
0100
0001
0100
1000
0100
1000
0100
,
0010
0001
0010
0000
0001
1000
0001
0000
1000
0010
1000
0000
0001
1000
0001
0000
,
0000
1001
0000
0000
0100
0100
0010
0100
;

//--------------- dance-single - forcednature ----------------
#NOTEDATA:;
#STEPSTYPE:dance-single;
#DESCRIPTION:forcednature;
#DIFFICULTY:Challenge;
#METER:17;
#RADARVALUES:0,0,0,0,0;
#CREDIT:forcednature;
#NOTES:
0000
0000
0000
0000
,
0000
0000
0000
0000
,
0000
0000
0000
0000
,
0000
0000
0000
0000
,
0000
0000
0000
0000
,
0000
0000
0000
0000
,
0000
0000
0000
0000
,
0001
0100
1000
0100
0001
0010
0100
1000
,
0020
0000
0130
0010
1000
0001
0010
0100
,
0001
0000
0100
0000
1000
0000
0100
0000
1000
0001
1000
0001
0100
0010
0100
0000
,
1001
0000
0000
0000
0000
0000
0000
0000
0001
0000
0010
0000
0100
1000
0100
1000
,
0001
0000
0100
0010
1000
0001
0100
0100
,
1001
0000
1000
0100
0010
0001
0100
0100
,
1001
0000
0000
0000
0001
0000
0010
0000
0001
0000
0100
0000
0010
0000
1000
0001
,
1000
0000
0000
0000
0100
0000
0000
0000
0010
0000
0001
0000
1000
0000
0001
0100
,
0001
0000
0010
0001
0100
0001
0010
0001
,
0100
0000
0010
0000
1000
0000
0100
0010
,
0001
0000
1000
0010
1000
0100
1000
0001
,
0100
0000
0000
0000
0010
0000
0000
0000
1000
0000
0000
0001
1000
0000
0100
0000
,
0010
0000
0000
0001
0010
0000
0001
0000
0200
0000
0000
0000
1000
0000
0000
0000
,
0310
0000
0100
0000
0001
0000
1000
0000
0100
0000
0000
0010
0001
0000
1000
0000
,
0001
0000
0101
0001
1000
1000
1000
1000
,
1001
0000
0000
0000
0110
0000
0000
0000
0001
0000
0010
0000
0100
0000
1000
0001
,
1000
0000
0010
0001
0010
1000
0010
0100
,
0010
0000
1000
0000
0001
0000
0010
0010
,
0210
0000
1300
0001
0100
0000
1000
0100
,
0001
0000
0011
0000
0110
0000
1100
1000
,
1001
0000
0000
0001
0100
0000
0010
0000
1000
0000
0001
0000
1000
0000
0100
0000
,
0020
0000
0032
0000
0203
0000
0310
0010
,
1000
0000
0000
0000
0001
0000
0010
0000
0100
0000
1000
0000
0001
0000
0100
0001
,
0100
0000
0000
0000
0010
0000
0000
0000
1000
0000
0001
0000
0010
0000
0100
1000
,
0100
0000
0010
0001
0100
0000
0110
0000
,
0001
1000
0000
0100
0010
0000
0011
0000
,
1000
0000
0000
0001
0100
0000
0110
0000
,
1000
0100
0000
0010
0100
0000
1001
0000
,
1000
0000
0001
0100
1000
0000
0101
0001
,
0010
0100
0000
1000
0010
0000
0101
0000
,
1000
0000
0010
1000
0100
0000
0110
0000
,
1000
0001
0000
0010
1000
0010
0010
0010
,
0110
0000
0100
1000
0001
0000
0110
0000
,
1000
0000
0001
0000
1000
0000
0010
0000
0001
0000
0000
0010
0000
0000
0100
0000
,
0101
0000
0001
1000
0100
0000
1010
0010
,
0100
0000
0100
0000
0001
0000
0001
0000
0010
0000
0100
0000
1000
0000
0001
0100
,
0001
0000
0010
0000
0100
0000
0001
0000
0100
0000
0000
0000
1000
0000
0010
0100
,
0010
0000
0000
0000
0100
0000
1000
0000
0100
0000
0001
0000
0010
0000
0100
1000
,
0100
0000
0001
0000
0100
0000
1000
0000
1010
0000
0000
0110
0000
0000
0101
0000
,
2002
0000
0000
0000
3003
0000
0000
0000
0001
0000
1000
0100
0010
0001
0010
0100
,
1000
0010
1000
0001
1000
0100
0001
0100
,
2000
0000
0010
0001
3000
1000
0001
0001
,
0100
0010
0001
0010
0100
0000
0001
0200
,
1000
0000
0010
0000
0301
0100
0100
0100
,
0010
0000
1000
0000
0001
0000
1000
0000
0100
0000
0010
0001
0010
0000
0100
0000
,
0110
0011
1001
1010
,
0001
0000
1000
0000
0010
0000
1000
0000
0100
0000
0010
0000
0001
0000
0100
0001
,
0100
0000
0000
0110
0000
0000
1001
0000
0000
0000
0001
0000
0100
0000
0001
1000
,
0001
0010
1000
0010
0100
1000
0010
0100
,
0002
0000
0100
1000
0003
0001
0100
0010
,
1000
0001
1000
0100
0001
0000
0100
0010
,
0011
0000
0000
0000
0101
0000
0000
0000
1000
0100
1000
0100
0010
0001
0010
0001
,
0100
0000
0010
0000
1000
0000
0001
0000
1000
0010
0100
0001
0010
0000
0100
1000
,
0002
0000
0000
0000
0003
0000
0001
0000
0101
0000
0000
1001
0000
0000
1010
0000
,
1000
0100
1000
0010
0100
0001
0010
0001
,
0100
0001
0100
0001
1000
0010
1000
0010
1000
0100
0010
0001
0100
0010
1000
0001
,
1000
0010
0001
1000
0100
0001
1000
0010
,
0001
1000
0100
0001
1000
0000
1000
1000
,
0001
0010
1000
0001
0100
1000
0001
0010
,
1000
0000
0001
0000
0100
0000
1000
0000
0001
0000
0001
0000
0001
0000
0001
0100
,
0001
0000
0010
0001
0010
0000
0100
1000
0200
0000
0000
0000
0010
0000
0010
0000
,
0310
0000
0000
0000
0100
1000
0001
0000
0100
0001
1000
0000
0010
1000
0010
0000
,
0100
0000
0100
0000
0100
0000
0100
0000
0100
0001
1000
0010
0100
0000
0001
0010
,
0200
1000
0010
0301
,
0110
0000
0000
0100
0000
0000
1000
0000
0002
0000
0000
0000
0100
0000
0000
0000
,
0013
0010
0001
0100
0001
0000
1010
0000
,
1000
0000
0001
0000
0010
0000
0001
0000
0100
0000
0000
0010
1000
0000
0001
0000
,
0010
0010
1000
0010
0010
0000
1001
0000
,
0001
0100
1000
0100
0010
0000
0110
0000
,
1000
0001
0010
1000
0010
0000
0110
0000
,
1002
0000
0100
1000
0010
0000
1003
0000
,
0001
0100
0000
0010
1000
0100
0100
0100
,
0110
0000
0000
1000
0000
0000
0001
0000
0200
0000
0000
0000
0010
0000
0000
0000
,
1300
1000
0100
0001
0001
0000
1001
0000
,
0101
0001
0010
0100
1000
0010
0001
0010
,
0100
0000
0001
0000
1000
0000
1000
0000
0100
0000
0010
0000
0001
0000
1000
0010
,
1000
0000
0100
0000
0010
0000
0001
0000
0100
0000
0100
0000
0010
0000
1000
0001
,
1000
0000
0000
0000
0100
0000
0000
0000
0010
0000
0001
0000
0100
0000
0001
1000
,
0001
0001
0010
0010
0000
0110
0000
2002
,
0000
0000
0000
0000
3003
0000
0000
0000
1000
0000
0001
0100
0010
1000
0001
1000
,
0100
0010
0001
0100
1000
0100
0010
1000
,
0200
0000
0001
1000
0300
0100
0010
0010
,
0001
0100
1000
0100
0010
0000
1000
0200
,
0010
0000
0001
0000
1300
0100
0100
0100
,
0010
0000
0001
0000
1000
0000
0010
0000
0100
0000
0001
1000
0001
0000
0010
0000
,
0110
0000
0000
0000
1100
0000
0000
0000
0001
0100
0001
0000
1000
0100
1000
0000
,
0010
0000
0010
0000
0100
0000
0100
0000
0001
0010
0100
1000
0010
0000
0100
0001
,
0100
0000
0000
0110
0000
0000
1001
0000
0000
0000
1000
0100
0010
0001
0100
0010
,
1000
0010
0001
0010
0100
1000
0100
0001
,
0020
0000
0000
0000
1000
0000
0001
0000
0030
0000
0010
0000
0001
1000
0001
1000
,
0001
0100
0010
1000
0100
0001
0100
1000
,
1010
0000
0000
0000
0101
0000
0000
0000
1000
0001
1000
0001
0010
0100
0010
0100
,
1000
0000
0010
0000
0100
0000
0001
0000
1000
0100
1000
0001
0100
0000
0010
1000
,
0002
0000
0000
0000
0003
0000
1000
0000
1100
0000
0000
0110
0000
0000
0011
0000
,
0001
0100
1000
0100
0001
0010
1000
0010
,
0100
1000
0100
1000
0001
0010
0001
0010
0001
0100
0001
0010
0100
1000
0010
1000
,
0000
1001
0000
0000
0101
1001
1100
1001
;

//--------------- dance-double - forcednature ----------------
#NOTEDATA:;
#STEPSTYPE:dance-double;
#DESCRIPTION:forcednature;
#DIFFICULTY:Easy;
#METER:7;
#RADARVALUES:0,0,0,0,0;
#CREDIT:forcednature;
#NOTES:
00000000
00000000
00000000
00000000
,
00000000
00000000
00000000
00000000
,
00000000
00000000
00000000
00000000
,
00000000
00000000
00000000
00000000
,
00000000
00000000
00000000
00000000
,
00000000
00000000
00000000
00000000
,
00000000
00000000
00000000
00000000
,
00011000
00000000
00000000
00000000
,
01010000
00000000
00000000
00000000
,
10010000
00000000
00100000
00000000
,
10010000
00000000
00000000
00000000
,
10000000
00000000
00010000
00000000
,
01000000
00000000
00001000
00000000
,
00010000
00000000
00000010
00000000
,
00001001
00000000
00000000
00000000
,
00000001
00000000
00000000
00000000
,
00000010
00000000
00000001
00000000
,
00000100
00000000
00001000
00000000
,
00010000
00000000
00100000
00000000
,
00010000
00000000
00001000
00000000
,
00000000
00000000
00010000
00000000
,
01000000
00000000
10000000
00000000
,
10010000
00000000
00010000
00000000
,
10010000
00000000
00000000
00000000
,
01000000
00000000
00001000
00000000
,
00010000
00000000
00000010
00000000
,
00001000
00000000
00000001
00000000
,
00001001
00000000
00000000
00000000
,
00000010
00000100
00001000
00000000
,
00010000
00000000
00001000
00000000
,
00022000
00000000
00000000
00033000
,
00001000
00000000
00010000
00100000
,
10000000
00000000
01000000
00100000
,
01000000
00000000
10000000
00010000
,
01000000
00000000
00001000
00010000
,
00000100
00000000
00001000
00000001
,
00000100
00000000
00000010
00001000
,
00000100
00000000
00000010
00001000
,
00010000
00000000
00100000
00010000
,
00001000
00000000
00010000
01000000
,
10000000
00000000
00010000
01000000
,
00001000
00000000
00010000
00000100
,
00001000
00000000
00000001
00000100
,
00000010
00000000
00000000
00000010
00000000
00000000
00000010
00000000
,
00000100
00000000
00000000
00000100
00000000
00000000
00001000
00000000
,
00001000
00000000
00000000
00000000
00010000
00000000
00000000
00000000
00001000
00000000
00000000
00010000
00000000
00000000
00001000
00000000
,
00010000
00000000
00000000
00000000
,
01000000
10000000
00010000
00000000
,
01000000
00000000
00100000
00000000
,
00010000
00001000
00100000
00001000
,
00010000
00000000
00000100
00000000
,
00001001
00000000
00000001
00000100
,
00000010
00001000
00000010
00000000
,
00011000
00000000
00100000
00001000
,
00010000
00000000
00000000
00010000
00000000
00000000
00010000
00000000
00000000
00000000
00000000
00000000
00000000
00000000
00000000
00000000
,
00000100
00000000
00001000
00000000
,
00000001
00000100
00000010
00001000
,
00000010
00000000
00010000
00000000
,
00001000
01000000
00010000
10000000
,
01000000
00000000
00100000
00001000
,
00010000
00000000
00000000
00000000
00000000
00000000
00000000
00000000
00001000
00000000
00000000
00010000
00000000
00000000
00001000
00000000
,
00010000
00000100
00001000
00000001
,
00000100
00000100
00000100
00000100
,
00001000
00010000
00000000
00100000
,
00000000
10000000
00000000
01000000
,
00000000
00010000
00000000
00001000
,
00000000
00000010
00000000
00000001
,
00000100
00000000
00001000
00000000
,
00011000
00000000
00000000
00000000
,
01000000
00000000
00010000
00000000
,
00022000
00000000
00000000
00033000
,
00001000
00000000
00010000
00001000
,
01000000
00000000
00010000
10000000
,
00100000
00000000
10000000
01000000
,
00100000
00000000
01000000
00100000
,
00010000
00000000
00100000
00001000
,
00010000
00000000
00000100
00001000
,
00000010
00000000
00000100
00000001
,
00001000
00000000
00000001
00001000
,
00000010
00000000
00000100
00001000
,
00010000
00000000
00100000
00010000
,
00001000
00000000
00010000
01000000
,
10000000
00000000
00010000
01000000
,
00100000
00000000
00000000
00100000
00000000
00000000
00100000
00000000
,
00010000
00000000
00000000
00010000
00000000
00000000
00010000
00000000
,
00001000
00000000
00010000
00000000
00000000
00011000
00000000
00022000
,
00000000
00000000
00033000
00000000
,
00000100
00000000
00001000
00000000
,
00000010
00000100
00000001
00001000
,
00000100
00000000
00000010
00000000
,
00001000
00010000
00100000
01000000
,
00010000
00000000
10000000
01000000
,
10000000
00000000
00010000
01000000
,
00010000
00000000
00100000
00001000
,
00010000
00000000
00000000
00010000
00000000
00000000
00010000
00000000
00000000
00000000
00000000
00000000
00000000
00000000
00000000
00000000
,
00000100
00000000
00001000
00000001
,
00000100
00000010
00001000
00000001
,
00000010
00000000
00000100
00010000
,
00001000
00100000
00001000
00010000
,
00100000
00000000
00010000
00001000
,
00011000
00000000
00000000
00000000
00000000
00000000
00000000
00000000
00000100
00000000
00000000
00000100
00000000
00000000
00000100
00000000
,
00001000
00000001
00001000
00000010
,
00010000
00001000
01000000
00010000
,
00000000
00011000
00000000
00000000
00011000
00000000
00000000
00011000
;

//--------------- dance-double - forcednature ----------------
#NOTEDATA:;
#STEPSTYPE:dance-double;
#DESCRIPTION:forcednature;
#DIFFICULTY:Medium;
#METER:10;
#RADARVALUES:0,0,0,0,0;
#CREDIT:forcednature;
#NOTES:
00000000
00000000
00000000
00000000
,
00000000
00000000
00000000
00000000
,
00000000
00000000
00000000
00000000
,
00000000
00000000
00000000
00000000
,
00000000
00000000
00000000
00000000
,
00000000
00000000
00000000
00000000
,
00000000
00000000
00000000
00000000
,
00011000
00000100
00001000
00000001
,
00000100
00001000
00010000
00100000
,
10010000
00000000
10000000
00000000
01000000
00010000
00001000
00000000
,
00011000
00000000
00000100
00001000
,
00001001
00000001
00000100
00000010
,
00011000
01000000
00010000
10000000
,
01100000
00010000
10000000
01000000
,
00011000
00000000
00000000
00000000
00000100
00010000
00000100
00000000
,
00001100
00001000
00000001
00000100
,
00000010
00000000
00000100
00000000
00001000
00010000
00100000
00000000
,
00010000
00001000
00010000
01000000
,
10000000
00000000
00010000
00000000
01000000
00100000
10000000
00000000
,
01000000
00010000
00001000
00000100
,
00000001
00000000
00001000
00000000
00000100
00000010
00000001
00000000
,
00000100
00001000
00010000
00100000
,
00011000
00000000
00000000
00000000
00000010
00010000
00000010
00000000
,
00011000
00100000
00001000
00010000
,
00100000
00000000
01000000
00000000
00010000
10000000
00010000
00000000
,
00100000
01000000
00010000
00001000
,
00000010
00000000
00000100
00000000
00001000
00000001
00001000
00000000
,
00001001
00001000
00000100
00010000
,
00001000
00100000
00010000
10000000
,
00100000
00000000
01000000
00010000
01000000
00000000
00100000
00000000
,
00011000
00000000
00000000
00000000
,
00000100
00000000
00001000
00000001
,
00000100
00000000
00001000
00010000
,
00100000
00000000
01000000
00001000
,
00010000
00000000
01000000
10000000
,
00010000
00000000
00001000
00000100
,
00000010
00000000
00000001
00000100
,
00000010
00000000
00001000
00010000
,
01000000
00000000
00100000
10000000
,
10010000
00000000
10000000
01000000
,
00010000
00000000
00001000
00000010
,
00000001
00000000
00000100
00001000
,
00010000
00000000
00100000
00010000
,
00011000
00000000
00000000
00010000
00000000
00000000
01000000
00000000
,
11000000
00000000
00000000
10000000
00000000
00000000
00010000
00000000
,
00110000
00000000
00000000
00000000
00100000
00000000
00000000
00000000
00001000
00000000
00000000
00010000
00000000
00000000
00001000
00000000
,
00010000
00000000
00001000
00001000
,
00011000
00000100
00001000
00000001
,
00000100
00000000
00000010
00001000
00000000
00000000
00000100
00000000
,
00010000
00001000
00100000
00010000
,
10000000
00000000
10000000
00000000
00010000
00100000
00010000
00000000
,
01100000
00001000
00010000
00000100
,
00001001
00000100
00000010
00010000
,
00011000
00000000
00000100
00000000
00010000
00001000
00100000
00000000
,
01000000
00000000
00000000
01000000
00000000
00000000
01000000
00000000
00000000
00000000
10000000
00000000
00010000
00000000
00000000
00000000
,
10010000
00010000
01000000
00001000
,
00010000
00000000
00000010
00001000
00000010
00000000
00000100
00000000
,
00001001
00000001
00000010
00000100
,
00001100
00010000
00001000
00100000
,
00010000
10000000
00010000
00000000
01000000
00010000
01000000
00000000
,
00011000
00000000
00000000
00000000
00000000
00000000
00000100
00000000
00001000
00000000
00000000
00000001
00000000
00000000
00001000
00000000
,
00000001
00000100
00001000
00010000
,
00011000
01001000
01010000
10010000
,
10000000
01000000
00000000
00010000
,
00000000
00001000
00000000
00000010
,
00000001
00000100
00000000
00001000
,
00000000
00010000
00000000
00100000
,
10010000
00010000
00010000
00000000
,
00001100
00001000
00001000
00000000
,
01010000
00001000
00010000
00000000
,
00001010
00001000
00000001
00000010
,
00000100
00000000
00000000
00000100
00000000
00000000
00001000
00000000
,
00000010
00000000
00000000
00000010
00000000
00000000
00010000
00000000
,
01000000
00000000
00000000
01000000
00000000
00000000
00100000
00000000
,
00010000
00000000
00000000
00010000
00000000
00000000
10000000
00000000
,
00100000
00000000
00000000
00100000
00000000
00000000
00010000
00000000
,
00001000
00000000
00000000
00001000
00000000
00000000
00000010
00000000
,
00000100
00000000
00000000
00000100
00000000
00000000
00001000
00000000
,
00000001
00000000
00000000
00000001
00000000
00000100
00000000
00000100
,
00000001
00000000
00000000
00000010
00000000
00000000
00000110
00000000
,
00000100
00000000
00000000
00001000
00000000
00000000
00001001
00000000
,
00000001
00000000
00000000
00000100
00000000
00000000
00011000
00000000
,
00100000
00000000
00000000
10000000
00000000
00000000
10010000
00000000
,
10000000
00000000
00000000
01000000
00000000
00000000
00010000
00000000
,
00001000
00000000
00000000
00000010
00000000
00000000
00000001
00000000
,
00000100
00000000
00001000
00000000
00000000
00011000
00000000
00022000
,
00000000
00000000
00033000
00000000
,
00001000
00010000
01000000
00100000
,
00010000
00000000
10000000
00000000
00100000
01000000
00100000
00000000
,
10000000
01000000
00010000
00001000
,
00000010
00000000
00000100
00000000
00001000
00000001
00001000
00000000
,
00001001
00000001
00000100
00000010
,
00001010
00010000
00001000
01000000
,
01010000
00000000
00010000
00000000
10000000
01000000
10000000
00000000
,
00100000
00000000
00000000
00100000
00000000
00000000
00100000
00000000
00000000
00000000
00000000
00000000
01000000
00000000
00000000
00000000
,
00010000
00100000
01000000
00010000
,
00001000
00000000
00000010
00000000
00000100
00001000
00000100
00000000
,
00000110
00000010
00000001
00000100
,
00001100
00001000
00010000
00100000
,
10100000
00000000
10000000
00000000
00010000
00100000
00010000
00000000
,
10010000
00000000
00000000
00000000
00000000
00000000
10000000
00000000
01000000
00000000
00000000
00100000
00000000
00000000
00010000
00000000
,
00100000
00000000
00001000
00010000
00001000
00000000
00000100
00000000
,
00000001
00000100
00000001
00000000
00001000
00000100
00001000
00000000
,
00000000
00000101
00000000
00000000
00010010
00000000
00000000
00011000
;

//--------------- dance-double - forcednature ----------------
#NOTEDATA:;
#STEPSTYPE:dance-double;
#DESCRIPTION:forcednature;
#DIFFICULTY:Hard;
#METER:15;
#RADARVALUES:0,0,0,0,0;
#CREDIT:forcednature;
#NOTES:
00000000
00000000
00000000
00000000
,
00000000
00000000
00000000
00000000
,
00000000
00000000
00000000
00000000
,
00000000
00000000
00000000
00000000
,
00000000
00000000
00000000
00000000
,
00000000
00000000
00000000
00000000
,
00000000
00000000
00000000
00000000
,
00001000
00010000
00100000
01000000
00010000
00100000
01000000
10000000
,
00200000
00000000
00000000
00000000
00310000
00001000
00000010
00000100
,
00001000
00000000
00000001
00000000
00000100
00000000
00001000
00000000
00010000
00000100
00010000
00000000
00001000
01000000
00001000
00000000
,
00022000
00000000
00033000
00000000
01000000
01000000
01000000
00000000
,
10100000
00000000
10000000
00000000
01000000
00000000
00010000
00001000
,
00011000
00000000
00001000
00000000
00000100
00000000
00000001
00000010
,
00000011
00000000
00000000
00000000
00000001
00000000
00000000
00000000
00000100
00000000
00001000
00000000
00010000
00000000
00100000
10000000
,
00100000
00000000
00000000
00000000
01000000
01000000
01000000
00000000
,
00011000
00000000
00000100
00001000
00000001
00000100
00000010
00000000
,
00010000
00000000
00001000
00000000
00100000
00000000
01000000
10000000
,
00100000
00000000
01000000
00001000
00010000
00000100
00010000
00001000
,
00000000
00000000
00000010
00000000
00000001
00000000
00000000
00000000
00000100
00000000
00000000
00000010
00000000
00000000
00000100
00000000
,
00001000
00000000
00000000
00010000
00000000
00000000
01000000
00000000
00200000
00000000
00000000
00000000
10000000
00000000
00000000
00000000
,
01300000
00000000
00100000
00000000
00001000
00000000
00010000
00000000
00000010
00000000
00000000
00001000
00000000
00000000
00000001
00000000
,
00000020
00000000
00000130
00010000
00001000
00001000
01000000
01000000
,
10010000
00000000
00000000
00000000
10000000
01000000
00010000
00000000
,
00011000
00000000
00001000
01000000
00020000
00000000
00100000
00000000
,
01030000
00010000
00001000
00000100
,
00002002
00000000
00003003
00000001
00000100
00000000
00001000
00010000
,
00000000
00000000
01000000
00000000
10000000
00000000
00100000
01000000
,
01100000
00000000
10000000
01000000
00000000
00010000
00001000
00000010
,
00000200
00002300
00003002
00000203
,
00001300
00000000
00000000
00000000
00010000
00000000
00100000
00000000
10000000
00000000
10000000
00000000
10000000
00000000
01000000
00100000
,
01000000
00010000
00001000
00000100
,
00000010
00000000
00000000
00001000
00000001
00000000
00000110
00000000
,
00000100
00000100
00000000
00010000
00001000
00000000
00011000
00000000
,
01000000
00000000
00000000
00010000
10000000
00000000
01100000
00000000
,
10000000
01000000
00000000
00010000
00001000
00000000
00011000
00000000
,
00000100
00000000
00000000
00001000
00000001
00000000
00000110
00000000
,
00000100
00000100
00000000
00010000
00001000
00000000
01001000
00000000
,
10000000
00000000
00000000
01000000
00010000
00000000
00011000
00000000
,
00000100
00010000
00000000
00001000
00000100
00000001
00000001
00000001
,
00001001
00000000
00000000
00001000
00000010
00000000
00011000
00000000
,
00100000
00100000
00000000
00001000
01000000
00000000
10100000
00000000
,
01010000
00000000
00000000
00001000
00010000
00000000
00001100
00000000
,
00000001
00000100
00001000
00000100
00000001
00000010
00001000
00010000
,
00010100
00000000
00000000
01001000
00000000
00000000
00010010
00000000
,
00101000
00000000
00000000
01010000
00000000
00000000
00001100
00000000
,
00010000
00000000
00001000
00000000
00100000
00000000
01000000
00000000
10000000
00000000
00000000
00100000
00000000
00000000
01000000
00000000
,
00020000
00000000
00000000
00000000
00030000
00000000
00000000
00000000
00001000
00000000
00000100
00000000
00000010
00000001
00000010
00000001
,
00000010
00000100
00000001
00000100
00001000
00000000
00000010
00010000
,
00001000
00000000
00100000
01000000
00000000
00100000
00010000
10000000
,
00100000
00010000
00100000
01000000
00001000
00000000
00010000
00000200
,
00001000
00000000
00000010
00000000
00000301
00000100
00001000
00000010
,
00010010
00000000
00010000
00001000
01000000
00100000
00010000
00100000
,
20100000
32000000
03020000
00032000
,
00003100
00000000
00000001
00000000
00000100
00000000
00000001
00000000
00000010
00000000
00000100
00000000
00001000
00000000
00000010
00001000
,
00000010
00000000
00000000
00010000
00000000
00000000
00011000
00000000
00000000
00000000
00001000
00000000
00010000
00000000
01000000
10000000
,
01000000
00100000
01000000
00010000
00001000
00000010
00000100
00001000
,
00000001
00000000
00000100
00001000
00000000
00010000
00100000
00010000
,
00001000
00010000
01000000
00100000
00010000
00000000
10000000
00100000
,
00010000
00000000
00000000
00000000
00001000
00000000
00000000
00000000
00000100
00000001
00000100
00000001
00000010
00000000
00000000
00000000
,
00000100
00000000
00010000
00000000
00001000
00000000
01000000
00000000
00001000
00010000
00001000
00010000
00001000
00000000
00100000
00010000
,
00100000
00000000
00000000
00000000
00000000
00000000
01000000
00000000
00010000
00000000
00000000
00001000
00000000
00000000
00000010
00000000
,
00000100
00000001
00000100
00000010
00000100
00001000
00000100
00010000
,
00001000
01000000
00001000
00000000
00010000
00000100
00010000
00000000
00001000
00100000
00001000
00000000
00010000
00000010
00010000
00000000
,
00001000
00000000
00000100
00001000
00000000
01000000
00001000
00000000
,
00000100
00001000
00000000
01000000
00001000
00000000
00010000
00000000
,
00011000
00000000
00010000
01000000
00000000
00010000
00000100
00000000
,
00010000
01000000
00000000
00010000
00000100
00000010
00000100
00000010
,
00000001
00000100
00000010
00001000
00020000
00000000
01000000
01030000
,
01010000
00000000
10000000
01000000
00100000
00010000
00001000
00000100
,
00000010
00000000
00000001
00000000
00000100
00000000
00000010
00000000
00001000
00000100
00001000
00000000
00000010
00000000
00010000
00001000
,
00020000
00230000
20300000
32000000
,
03010000
00000000
00000000
00001000
00000010
00000000
00000110
00000000
,
00000001
00000100
00000000
00010000
01000000
00000000
10010000
00000000
,
10000000
00000000
00000000
00100000
01000000
00000000
01010000
00000000
,
00010000
00100000
00000000
00001000
00000010
00000000
00000110
00000000
,
00001000
00000000
00000000
00000001
00000100
00000000
00001010
00000000
,
00010000
00001000
00000000
00100000
01000000
00000000
10010000
00000000
,
10000000
00000000
00000000
01000000
00010000
00000000
00011000
00000000
,
00000100
00001000
00000000
00000010
00000100
00000001
00000001
00000001
,
00000011
00000000
00000000
00000010
00000100
00000000
00011000
00000000
,
00000100
00010000
00000000
00001000
01000000
00000000
01010000
00000000
,
11000000
00000000
00000000
10000000
00010000
00000000
00110000
00000000
,
00001000
00000000
00010000
00000000
00001000
00000000
00000010
00000000
00001000
00000000
00010000
00000000
00001000
00000000
00000100
00000001
,
00000100
00000000
00000000
00001010
00000000
00000000
00011000
00000000
,
01100000
00000000
00000000
00110000
00000000
00000000
00011000
00000000
,
00000100
00001000
00000010
00010000
00000000
00010100
00000000
02002000
,
00000000
00000000
03003000
00000000
00000000
00000000
00000000
00000000
10000000
00000000
01000000
00000000
00010000
00000000
00001000
00010000
,
00001000
00000100
00000010
00010000
00001000
00000010
00000001
00001000
,
00000010
00000000
00000100
00001000
00000000
00010000
01000000
00100000
,
00010000
10000000
00100000
00010000
00001000
00000000
00000010
00000200
,
00010000
00000000
00000010
00000000
00000301
00000100
00001000
00000001
,
00000101
00000000
00000100
00001000
00010000
00100000
10000000
00010000
,
02000000
03002000
00003020
00000032
,
00000103
00000000
00000010
00000000
00000100
00000000
00001000
00000000
00010000
00100000
00010000
00000000
00001000
00000000
01000000
00010000
,
01000000
00000000
00000000
00100000
00000000
00000000
10010000
00000000
00000000
00000000
10000000
01000000
10000000
00000000
00100000
00000000
,
00010000
00100000
01000000
00001000
00000010
00000100
00001000
00000001
,
00000100
00000000
00001000
00010000
00000000
01000000
00100000
00010000
,
00001000
00000100
00000010
00000001
00000100
00001000
00010000
00000100
,
00010100
00000000
00000000
00000000
01001000
00000000
00000000
00000000
10000000
00100000
01000000
00000000
00010000
00000000
00000000
00000000
,
00100000
00000000
01000000
00000000
00010000
00000000
00001000
00000000
00000010
00000100
00000010
00000000
00000001
00000000
00000100
00000010
,
00000100
00000000
00000000
00000000
00000000
00000000
00001000
00000000
00010000
00000000
00000000
00100000
00000000
00000000
10000000
00000000
,
01000000
00010000
01000000
00010000
00001000
00000010
00001000
00000010
,
00000001
00001000
00000001
00000000
00000100
00000001
00000100
00000000
00000010
00001000
00000010
00000000
00010000
00001000
00010000
00000000
,
00000000
00101000
00000000
00000000
01000000
00010000
00001000
00000010
;

//--------------- dance-double - forcednature ----------------
#NOTEDATA:;
#STEPSTYPE:dance-double;
#DESCRIPTION:forcednature;
#DIFFICULTY:Challenge;
#METER:17;
#RADARVALUES:0,0,0,0,0;
#CREDIT:forcednature;
#NOTES:
00000000
00000000
00000000
00000000
,
00000000
00000000
00000000
00000000
,
00000000
00000000
00000000
00000000
,
00000000
00000000
00000000
00000000
,
00000000
00000000
00000000
00000000
,
00000000
00000000
00000000
00000000
,
00000000
00000000
00000000
00000000
,
00001000
00010000
00100000
00010000
00001000
00010000
01000000
10000000
,
00200000
00000000
01300000
00100000
00010000
00001000
00000010
00000100
,
00001000
00000000
00000010
00000000
00000001
00000000
00000010
00000000
00000100
00000001
00000100
00000001
00001000
00000100
00000010
00000000
,
00000220
00000000
00000000
00000000
00000330
00000000
00000000
00000000
00000100
00000000
00010000
00000000
00001000
01000000
00001000
01000000
,
00010000
00000000
10000000
01000000
00100000
00010000
01000000
01000000
,
01100000
00000000
00100000
00010000
00001000
00010000
00000010
00000010
,
00000110
00000000
00000000
00000000
00000100
00000000
00000001
00000000
00001000
00000000
00000001
00000000
00000010
00000000
00000100
00001000
,
00000200
00000000
00000000
00000000
00000300
00000000
00000000
00000000
00010000
00000000
00001000
00000000
01000000
00000000
00010000
10000000
,
00010000
00000000
00100000
01000000
10000000
01000000
00100000
00010000
,
01000000
00000000
00001000
00000000
00010000
00000000
00000100
00001000
,
00000010
00000000
00000100
00000001
00000100
00000010
00001000
00000010
,
00000100
00000000
00000000
00000000
00001000
00000000
00000000
00000000
00010000
00000000
00000000
00010000
00100000
00000000
01000000
00000000
,
00100000
00000000
00000000
00100000
10000000
00000000
00010000
00000000
20000000
00000000
00000000
00000000
01000000
00000000
00000000
00000000
,
30100000
00000000
10000000
00000000
00010000
00000000
10000000
00000000
01000000
00000000
00000000
01000000
00010000
00000000
00001000
00000000
,
00010000
00000000
00000100
00001000
00000010
00000100
00000010
00000100
,
00000220
00000000
00000000
00000000
00000330
00000000
00000000
00000000
00000001
00000000
00000100
00000000
00000010
00000000
00001000
00000001
,
00001000
00000000
00000100
00010000
00001000
01000000
00010000
10000000
,
01000000
00000000
00010000
00000000
00001000
00000000
00000010
00000100
,
00000020
00000000
00000031
00001000
00000010
00000000
00010000
00001000
,
00100000
00000000
01100000
00000000
11000000
00000000
00100000
01000000
,
10010000
00000000
00000000
00010000
01000000
00000000
00001000
00000000
00010000
00000000
00000100
00000000
00001000
00000000
00000100
00000000
,
00000020
00000000
00000032
00000000
00000203
00000000
00001300
00010000
,
00001000
00000000
00000000
00000000
01000000
00000000
00010000
00000000
10000000
00000000
00010000
00000000
00100000
00000000
01000000
10000000
,
01000000
00000000
00000000
00000000
00010000
00000000
00000000
00000000
00001000
00000000
00000100
00000000
00000001
00000000
00001000
00000010
,
00001000
00000000
00000100
00010000
00001000
00000000
00011000
00000000
,
01000000
00001000
00000000
00001000
00010000
00000000
00011000
00000000
,
00100000
00000000
00000000
00001000
00010000
00000000
00011000
00000000
,
00000010
00001000
00000000
00001000
00000100
00000000
00011000
00000000
,
01000000
00000000
00010000
00100000
01000000
00000000
10000000
00010000
,
01000000
00001000
00000000
00001000
00100000
00000000
00011000
00000000
,
00010000
00000000
00000010
00001000
00000100
00000000
00011000
00000000
,
01000000
00010000
00000000
00010000
00100000
01000000
00100000
01000000
,
00100000
00000000
01000000
00010000
00001000
00000000
00011000
00000000
,
00000100
00001000
00000010
00001000
00000100
00010000
00000000
00001000
,
00011000
00000000
01000000
00010000
00100000
00000000
01000000
10000000
,
00100000
00000000
00100000
00000000
01000000
00000000
01000000
00000000
00010000
00000000
00100000
00000000
00001000
00000000
00010000
00000010
,
00010000
00000000
00000000
00000000
00001000
00000000
01000000
00000000
00010000
00000000
00000000
00000000
10000000
00000000
01000000
00100000
,
00010000
00000000
00000000
00000000
01000000
00000000
00010000
00000000
01000000
00000000
00001000
00000000
00010000
00000000
00000100
00001000
,
00000100
00000000
00000010
00000000
00000001
00000000
00000010
00000000
00000100
00000000
00000000
00000110
00000000
00000000
00000010
00000000
,
00002002
00000000
00000000
00000000
00003003
00000000
00000000
00000000
00000001
00000100
00000001
00000100
00000010
00001000
00000010
00001000
,
00000100
00010000
00001000
01000000
00010000
00100000
10000000
00100000
,
02000000
00000000
10000000
10000000
00000000
03010000
01000000
00100000
,
00010000
01000000
00001000
00010000
00000100
00000000
00001000
00000020
,
00000001
00000000
00000100
00000000
00001030
00000010
00000010
00000010
,
00000110
00000000
00000000
00000000
00000100
00000000
00001000
00000000
00010000
00000000
00100000
01000000
00100000
00000000
10000000
00000000
,
10010000
11000000
00110000
00101000
,
00001000
00000000
00010000
00000000
00000010
00000000
00010000
00000000
00001000
00000000
00000010
00000000
00000100
00000000
00001000
00000001
,
00001000
00000000
00000000
00000110
00000000
00000000
00001001
00000000
00000000
00000000
00001000
00000000
00000100
00000000
00010000
00001000
,
00010000
00001000
01000000
00001000
00010000
00100000
01000000
00100000
,
20000000
00000000
01000000
01000000
00000000
30010000
10000000
00100000
,
01000000
10000000
01000000
00010000
00100000
00000000
00001000
00010000
,
00011000
00000000
00000000
00000000
00010100
00000000
00000000
00000000
00010000
00001000
00010000
00001000
01000000
00010000
01000000
00010000
,
10000000
00000000
01000000
00000000
10000000
00000000
01000000
00000000
00100000
00010000
00100000
00001000
00010000
00000000
00000010
00001000
,
00000020
00000000
00000000
00000000
00000030
00000000
00000100
00000000
00000010
00000000
00000000
00000110
00000000
00000000
00001001
00000000
,
00001000
00000100
00010000
00001000
01000000
00010000
00100000
01000000
,
10000000
00100000
10000000
00100000
01000000
00010000
01000000
00010000
01000000
00001000
00010000
00000100
00001000
00000100
00000010
00000001
,
00001000
00000100
00000001
00000100
00010000
00001000
01000000
10000000
,
01000000
00010000
00100000
00001000
00010000
00000000
00001000
00001000
,
00000010
00000100
00001000
00000010
00000100
00001000
00010000
01000000
,
00100000
00000000
00010000
00000000
01000000
00000000
00100000
00000000
10000000
00000000
10000000
00000000
10000000
00000000
10000000
01000000
,
00100000
00000000
00100000
00010000
00100000
00000000
00001000
00010000
00002000
00000000
00000000
00000000
00000010
00000000
00000010
00000000
,
00003010
00000000
00000000
00000000
00001000
00010000
00000100
00000000
00001000
00000100
00001000
00000000
00000010
00001000
00000010
00000000
,
00000100
00000000
00000100
00000000
00000100
00000000
00000100
00000000
00000100
00000001
00001000
00000001
00000010
00000000
00000100
00010000
,
00002000
01000000
00010000
00103000
,
00011000
00000000
00000000
00001000
00000000
00000000
01000000
00000000
00020000
00000000
00000000
00000000
10000000
00000000
00000000
00000000
,
00130000
00010000
01000000
00010000
00100000
00000000
00011000
00000000
,
00000010
00000000
00001000
00000000
00000001
00000000
00001000
00000000
00000100
00000000
00000000
00000100
00000010
00000000
00000001
00000000
,
00000100
00001000
00010000
00001000
00100000
00000000
01100000
00000000
,
01000000
10000000
00000000
10000000
00100000
00000000
01100000
00000000
,
01000000
00001000
00010000
00001000
00000010
00000000
00000110
00000000
,
00002001
00000000
00000000
00000100
00000100
00000000
00003010
00000000
,
00001000
00000100
00000000
00010000
00001000
01000000
00010000
01000000
,
00100000
00000000
00000000
10000000
00000000
00000000
00010000
00000000
20000000
00000000
00000000
00000000
01000000
00000000
00000000
00000000
,
30010000
10000000
01000000
00010000
00001000
00000000
00011000
00000000
,
00000100
00001000
00000010
00010000
00001000
01000000
00010000
00100000
,
01000000
00000000
10000000
00000000
00100000
00000000
00010000
00000000
00100000
00000000
01000000
00000000
00100000
00000000
10000000
00010000
,
10000000
00000000
00000000
00000000
01000000
00000000
00010000
00000000
00001000
00000000
00000000
00000000
00000100
00000000
00000001
00001000
,
00000001
00000000
00000000
00000000
00000000
00000000
00000110
00000000
00000000
00000000
00001000
00000000
00000100
00000000
00010000
00001000
,
00010000
00000100
00001000
00000010
00000000
00010100
00000000
02002000
,
00000000
00000000
00000000
00000000
03003000
00000000
00000000
00000000
01000000
00000000
00010000
10000000
01000000
00100000
00010000
10000000
,
00010000
01000000
00010000
00100000
00001000
00010000
00000010
00001000
,
00000200
00000000
00000001
00000010
00000000
00001300
00000100
00000010
,
00000001
00000100
00001000
00000100
00000010
00000000
00010000
00002000
,
00100000
00000000
00010000
00000000
01003000
00001000
00001000
00001000
,
00011000
00000000
00000000
00000000
00010000
00000000
00001000
00000000
01000000
00000000
00010000
10000000
00010000
00000000
00100000
00000000
,
01100000
00000000
00000000
00000000
10000000
00000000
00000000
00000000
00010000
00100000
00010000
00100000
01000000
10000000
01000000
10000000
,
00010000
00000000
00010000
00000000
01000000
00000000
01000000
00000000
00001000
00010000
00000100
00001000
00000100
00000000
00000010
00000001
,
00001000
00000000
00000000
00000110
00000000
00000000
00001001
00000000
00000000
00000000
00000001
00000100
00000010
00001000
00000001
00001000
,
00000100
00010000
00001000
01000000
00010000
10000000
01000000
00010000
,
00002000
00000000
00000000
00000000
01000000
00000000
00010000
00000000
00000000
00000000
00103000
00000000
00001000
00010000
00001000
00010000
,
00001000
00010000
00000100
00001000
00000100
00000001
00000100
00000010
,
00000001
00000000
00000000
00000000
00001001
00000000
00000000
00000000
00000001
00000100
00000001
00000100
00000010
00001000
00000010
00001000
,
00000100
00000000
00010000
00000000
00001000
00000000
01000000
00000000
00010000
10000000
00010000
10000000
00100000
00000000
01000000
00010000
,
02000000
00000000
00000000
00000000
03000000
00000000
00100000
00000000
01000000
00000000
00000000
01100000
00000000
00000000
10010000
00000000
,
10000000
01000000
00100000
00010000
00001000
00000100
00000010
00000001
,
00000100
00000001
00000100
00000001
00001000
00000100
00001000
00000100
00010000
00001000
01000000
00010000
01000000
00100000
10000000
00010000
,
00000000
10010000
00000000
00000000
10000000
00010000
00001000
00000001
;
