#VERSION:0.83;
#TITLE:Dahlia;
#SUBTITLE:;
#ARTIST:BlackY;
#TITLETRANSLIT:;
#SUBTITLETRANSLIT:;
#ARTISTTRANSLIT:;
#GENRE:HARD RENAISSANCE;
#CREDIT:;
#MUSIC:Dahlia.ogg;
#BANNER:Dahlia.png;
#BACKGROUND:Dahlia-bg.png;
#CDTITLE:./CDTitles/bm IIDX 31 EPOLIS.png;
#SAMPLESTART:85.737;
#SAMPLELENGTH:15.000;
#SELECTABLE:YES;
#OFFSET:2.452;
#BPMS:0.000=92.500
,16.000=185.000
,120.000=92.500
,134.000=185.000
,141.000=92.500
,147.500=185.000
,155.500=740.000
,172.000=370.000
,176.250=185.000
,178.000=92.500
,210.000=46.250
,211.750=185.000
,308.000=92.500
;
#STOPS:211.750=0.244;
#TIMESIGNATURES:0.000=4=4,
120.000=2=4,
134.000=4=4,
138.000=3=4,
141.000=4=4,
173.000=5=4,
178.000=4=4,
210.000=2=4,
212.000=4=4
;
#DISPLAYBPM:185.000;
#BGCHANGES:3.500=Dahlia.mp4=1.000=0=0=0=StretchNoLoop====,
99999.000=-nosongbg-=1.000=0=0=0=StretchNoLoop====
;
#FGCHANGES:;

//--------------- dance-single - forcednature ----------------
#NOTEDATA:;
#STEPSTYPE:dance-single;
#DESCRIPTION:forcednature;
#DIFFICULTY:Beginner;
#METER:6;
#RADARVALUES:0,0,0,0,0;
#CREDIT:forcednature;
#NOTES:
0000
0000
0000
0000
,
0000
0000
0000
0000
,
0000
0000
0000
0000
,
0001
0000
1000
0010
,
2002
0000
0000
0000
,
0000
0000
3003
0000
,
1000
0000
1000
0000
,
0100
0000
0000
0000
,
1000
0000
1000
0000
,
0010
0000
0000
0000
,
0001
0000
0001
0000
,
0100
0000
0000
0000
,
0001
0000
0001
0000
,
0020
0000
0000
0030
,
0100
0000
0000
0000
,
1000
0000
1000
0000
,
0010
0000
0000
0000
,
0100
0000
0000
0000
,
1001
0000
0000
0000
,
0001
0000
0001
0000
,
0010
0000
0000
0000
,
0110
0000
1000
0000
,
0001
0001
0001
0000
,
0100
0000
0000
0000
,
0001
0000
0001
0000
,
0010
0000
0000
0000
,
1001
0000
0000
0000
,
0110
0000
0000
0000
,
1000
0000
1000
0000
,
0002
0000
0000
0003
,
1001
0000
0000
0220
0000
0000
0330
0000
,
1000
1000
1000
0001
,
1001
0000
0001
0000
,
0010
0010
0200
0000
,
0000
0000
0300
0000
1000
0000
0000
0001
,
0000
0000
2002
0000
0000
0000
3003
0001
,
0000
0001
0000
1000
0000
1000
0000
0010
,
0000
0000
0000
0000
0000
0000
0000
0100
,
0000
0100
0000
0100
0000
0000
0000
2002
,
0000
0000
0000
0000
,
0000
0000
0000
0000
,
0000
0000
0000
0000
,
0000
0000
0000
0000
,
0000
0000
0000
0000
,
0000
0000
3003
0000
,
0000
0000
0000
0000
,
0000
0000
0000
0000
,
0000
0000
0000
0000
,
0000
0000
1000
1000
,
1000
0000
0001
0001
,
0001
0000
0100
0010
,
1000
0001
0020
0000
,
0100
0000
0000
0000
0100
0000
0000
0000
0130
0000
0000
0000
2002
0000
0000
3003
,
0000
0000
1000
0000
,
0001
0000
0100
0000
,
0001
0000
1000
0000
,
0010
0010
0010
0000
,
1000
0000
0001
0000
,
0100
0000
0001
0000
,
0010
0000
0100
0000
,
1000
1000
1000
0000
,
0010
0000
0100
0000
,
0001
0000
0010
0000
,
0001
1000
0001
0000
,
1000
1000
0010
0000
,
1001
0000
0001
0000
,
0100
0100
0001
0000
,
0010
0000
0100
0000
,
0010
0100
1000
0000
,
0000
1001
0000
0000
,
0001
0000
0010
0000
,
0001
0000
0000
0000
,
0100
0000
0010
0000
,
1000
0000
1000
0000
,
0001
0000
0001
0000
0001
0000
0000
2002
,
0000
0000
0000
0000
,
0000
0000
3003
0000
,
0020
0000
0000
0000
,
0130
0000
0000
0000
;

//--------------- dance-single - forcednature ----------------
#NOTEDATA:;
#STEPSTYPE:dance-single;
#DESCRIPTION:forcednature;
#DIFFICULTY:Easy;
#METER:10;
#RADARVALUES:0,0,0,0,0;
#CREDIT:forcednature;
#NOTES:
0000
0000
0000
0000
,
0000
0000
0000
0000
,
0000
0000
0000
0000
,
0002
0000
0000
0203
0000
0000
0320
0000
0000
0000
0000
0000
2030
0000
3000
0000
,
2002
0000
0000
0000
,
0000
0000
0000
3003
,
0001
0000
0010
0000
0100
0010
0100
0000
,
0010
0001
1000
0000
,
1000
0010
0100
0010
,
1000
0000
0001
1000
0001
0000
0010
0000
,
1001
1000
0100
1000
,
0010
0100
0100
0001
,
0010
0001
0010
0000
0100
0000
0010
0000
,
2002
0000
0000
3003
,
1000
0100
1100
0000
,
0001
0000
0000
0010
0000
0000
0001
0000
,
0100
0000
0001
0100
0001
0000
1000
0000
,
0010
0000
0100
0010
0000
0010
0100
0000
,
0001
1000
0100
1000
,
1010
0000
0001
0100
,
0110
0000
1001
0000
,
1000
0000
0100
1000
0000
1000
0001
0000
,
0020
0030
0110
1000
,
0001
0100
0001
1000
,
0010
0000
1000
0001
1000
0000
0100
0000
,
0010
0000
0010
0100
0000
0110
0000
0000
,
1000
0000
0100
1000
0100
0000
0010
0000
,
0001
0000
0100
0001
0100
0000
0010
0000
,
1000
1000
0001
0000
0010
0000
0100
0000
,
2002
0000
0000
3003
,
0220
0000
0330
0001
0001
0100
0001
0000
,
1010
0000
0101
0000
0001
0010
0100
1000
,
0010
0000
0110
0000
1000
1000
0001
0000
,
0100
0100
0001
0000
0020
0000
0000
0000
,
0130
0000
0100
0010
0100
0000
0000
1001
,
0000
0000
0000
0000
0220
0000
0000
0000
0330
0000
0001
1000
0001
0000
0100
0000
,
0010
1001
0000
1000
0100
1100
0000
0001
,
0000
0010
0000
0011
0000
0001
0000
1000
,
0000
1000
0000
0010
0000
0000
0000
0010
0000
0100
0000
0000
0000
0100
0000
0001
0000
0000
0000
0000
0000
2002
0000
0000
,
0000
0000
0000
0000
,
0000
0000
0000
0000
,
0000
0000
0000
0000
,
0000
0000
0000
0000
,
0000
0000
0000
0000
,
0000
0000
0000
0000
3003
0000
0000
0000
0001
0000
0000
0100
0000
0000
0010
0000
,
0000
1000
0000
0000
0000
0000
0000
0000
0100
0000
0000
0010
0000
0000
0001
0000
,
0000
0000
0000
0000
0000
0000
0000
0000
1000
0000
0000
0010
0000
0000
0100
0000
,
0000
0001
0000
0000
0000
0000
0000
0000
0010
0000
0000
0100
0000
0000
2000
0000
,
0000
0000
3001
0110
,
0010
1001
1000
0110
,
0100
0000
1001
0000
0001
0001
0010
0010
,
0001
0100
0001
1000
0010
0000
0100
0100
,
0100
0000
0000
0001
0000
0000
0001
0000
0010
0000
0000
0100
0000
0000
1000
0000
0001
0000
0000
0100
0000
0100
0000
0100
0000
0000
0010
0000
0100
0000
1001
0000
,
1000
0000
0100
0010
0100
0000
1000
0000
,
0001
0000
0100
0010
0100
0000
0001
0000
,
0010
0000
0001
1000
0001
0000
0100
0000
,
0110
0000
1000
0000
0001
0001
0000
0000
,
0010
0000
0001
1000
0001
0000
0100
0000
,
0010
0000
1000
0001
1000
0000
0100
0000
,
1001
0000
0010
0000
0110
0000
0100
0100
,
0000
0000
0001
0000
0000
0001
0000
0000
1000
0000
0000
1000
0000
0000
0010
0000
,
0100
0000
0001
0010
0100
0000
1000
0000
,
0010
0000
1000
0100
0010
0000
0001
0000
,
0100
0000
0010
1000
0001
0000
0010
0010
,
0000
0110
0000
0100
1000
0000
0001
0000
,
0010
0000
0000
0010
0000
0000
0001
0000
0000
0010
0000
0000
0001
0000
0000
0000
,
0100
0000
0000
0100
0000
0000
0001
0000
1000
0000
0000
0010
0000
0000
1000
0000
,
0001
0000
0010
0001
0010
0000
0100
0200
,
0000
0000
1000
1000
1300
0000
0110
0000
,
0000
0000
0001
1000
0001
0000
0100
0000
,
0010
1000
0100
0010
,
0011
0000
0100
0001
0100
0000
0010
0000
,
1000
0000
0100
0000
1000
0001
1000
0000
,
0010
0000
0010
0100
0010
0000
0010
1000
,
0010
0000
0100
0000
0001
0010
0000
2002
,
0000
0000
3003
0000
1000
0100
0010
0000
,
0001
0100
0010
0000
1000
0001
0010
0000
,
0200
0000
0000
1000
0000
0000
1000
0000
0000
0000
0000
0000
0300
0000
0100
0010
,
0002
0000
0000
0000
,
0000
0000
0000
0000
,
0003
0000
0000
0000
;

//--------------- dance-single - forcednature ----------------
#NOTEDATA:;
#STEPSTYPE:dance-single;
#DESCRIPTION:forcednature;
#DIFFICULTY:Medium;
#METER:14;
#RADARVALUES:0,0,0,0,0;
#CREDIT:forcednature;
#NOTES:
0000
0000
0000
0000
,
0000
0000
0000
0000
,
0000
0000
0000
0000
,
2000
0000
0000
3020
0000
0000
0230
0000
0000
0000
0000
0000
0302
0000
0003
0000
,
2002
0000
0000
0000
,
0000
0000
0000
3003
,
0001
0100
0010
0100
0001
1000
0000
1010
,
0000
0001
0010
0100
1000
0020
0000
0031
,
0010
1000
0001
0100
0001
1000
0010
0100
,
0001
0010
0000
0011
0000
1000
0100
0001
,
0101
0000
1100
0000
1000
0010
0100
1000
,
0000
0000
0100
0000
0001
1000
0000
1000
0001
0000
0010
0000
0100
0000
1000
0000
,
0010
0000
0010
0000
0010
0000
0000
0100
0010
0000
0000
1000
0001
0000
0010
0000
,
0220
0000
0000
0000
0030
0000
0000
0000
1000
0000
1000
0000
1300
0000
0100
1000
,
0100
0010
0001
0010
0011
0000
0001
1000
,
0010
0100
0001
0100
0110
0000
0010
1000
,
0001
0000
0000
0001
0010
0000
0100
0000
1000
0000
0000
1000
0010
0000
0100
0000
,
0110
0000
0000
0000
0001
0000
0001
0000
0010
0000
0001
0000
0010
0100
1000
0000
,
0100
1000
0001
0100
0001
2000
0000
3010
,
1000
0000
0100
0000
0010
0000
0100
0000
1000
0000
1001
0000
0000
0000
0001
0010
,
0002
0000
0000
0100
0000
0000
0103
0000
0001
0000
0000
0001
1000
0000
1000
0000
,
0010
0000
0100
0110
0000
1001
0000
0001
,
0101
0000
0000
1000
0010
0000
0010
0000
0100
0000
0001
0000
0010
0000
0001
0000
,
1000
0100
0010
1000
0010
0100
1100
0000
,
0001
0000
0010
0000
0001
0000
0100
0000
0010
0000
0000
0010
1000
0000
0001
0000
,
0101
0000
0000
0000
1000
0000
1010
0000
0000
0000
0001
0100
0001
0000
0001
0000
,
1000
0000
0000
0100
1000
0000
0001
0000
0000
1000
0100
0000
0010
0000
0010
0000
,
0001
0000
0000
0100
0001
0000
1000
0000
0000
0001
0100
0000
0000
0010
0000
0000
,
1000
0000
1000
0000
1000
0000
0000
0000
0001
0000
0010
0001
0010
0000
0100
0010
,
0200
0000
0000
1000
0000
0000
1300
0000
0001
0000
0000
0010
0100
0000
0000
0000
,
2002
0000
0000
0000
0000
0000
0000
0000
0000
0000
0000
0000
3003
0000
0000
0000
0000
0000
0001
0000
0000
0100
0000
0000
0100
0000
0000
0001
0000
0000
0100
0000
0000
0000
0001
0000
1000
0000
0000
0000
0000
0000
0020
0000
0000
0000
0000
0000
,
1030
0000
0100
1000
0000
0001
0010
0000
0010
0000
0000
0000
0001
0000
0100
0001
0000
1000
0020
0000
0000
0000
0000
0000
,
0230
0000
0000
0301
1000
0000
0200
0000
0000
0310
0001
0010
0001
0000
0100
0000
0001
1000
0002
0000
0000
0023
0000
0000
,
0130
0000
0000
0000
1100
0000
0000
0000
0011
0000
0000
0000
0001
0000
1000
0001
2000
0000
0000
0000
0000
0000
0000
0000
0000
0000
0000
0000
0000
0000
0000
0000
,
3010
0000
0100
0010
0100
0000
0001
0000
0022
0000
0000
0033
0000
0000
2200
0000
,
0000
0000
0000
3300
0000
0000
0000
0000
0000
0000
0000
0000
1001
0000
0000
0000
0000
0000
0001
0000
0000
0001
0000
0000
0100
0000
0000
0000
0100
0000
0010
0000
0000
0000
0010
0000
1000
0000
0000
0000
0000
0000
0001
0000
0000
0000
0010
0000
,
0100
0000
0010
0001
0000
1000
0100
0000
1000
0010
0000
0100
0001
0000
0010
0100
1000
0100
0020
0000
0000
0031
0000
0000
,
0000
0000
0000
0011
0000
0000
0000
0000
0000
0101
0000
0000
0000
0000
0000
1001
0000
0000
0000
0000
0000
1000
0000
0100
,
0000
1000
0000
0100
0000
0010
0000
0100
0000
0010
0000
0001
0000
0010
0000
0001
0000
0100
0000
0010
0000
2000
0000
0000
,
0000
0000
0000
0000
,
0000
0000
0000
0000
,
0000
0000
0000
0000
,
0000
0000
0000
0000
,
0000
0000
0000
0000
,
0000
0000
0000
0000
0000
0000
0000
0000
3002
0000
0000
0023
0000
0000
0230
0000
,
0000
2300
0000
0000
0000
0000
3000
0000
0002
0000
0000
0203
0000
0000
0320
0000
,
0000
0000
0000
0000
0000
0000
0030
0000
2000
0000
0000
3200
0000
0000
0320
0000
,
0000
0032
0000
0000
0000
0000
0003
0000
0200
0000
0000
0320
0000
0000
2030
0000
,
3002
0000
0000
0003
0011
0000
1100
0000
,
1010
0101
1001
0110
,
1100
0000
0000
0000
0101
0000
0000
0000
0001
0000
0010
0001
0010
0000
0100
0010
,
0100
0000
0000
0000
1000
0000
0100
0000
1000
0000
0000
0000
0001
0000
0001
0000
0200
0000
0000
0000
0000
0000
0010
0000
0000
0320
0000
0000
2030
0000
0000
0000
,
3001
0000
1000
0100
0000
1000
0001
0000
0010
0000
0000
0100
0010
0000
0001
0000
2000
0100
0000
0100
0000
0100
3000
0000
1000
0010
0100
0001
0010
0100
0110
0000
,
1000
0000
0100
0010
0000
0100
1000
0000
0001
0010
0000
0100
0010
0000
0001
0000
,
1000
0000
0010
0100
0000
0010
1000
0000
0001
0100
0000
0010
0100
0000
0001
0000
,
1000
0000
0100
0010
0000
0100
1000
0000
0001
0100
0000
0010
0100
0000
0001
0000
,
0010
0001
0010
0001
0010
0000
0100
0000
1000
0000
2000
0000
0000
0000
3010
0000
,
1001
0000
1000
0010
0000
0100
0010
0000
1000
0001
0000
0100
0001
0000
0010
0000
,
1001
0000
0000
1000
0100
0000
1000
0010
0000
1000
0100
0000
0010
0000
0001
0000
,
0101
0000
0100
0010
0000
1000
0100
0000
0010
0100
0000
1000
0001
0000
0011
0000
,
0000
0000
0101
0000
0000
0110
0000
0000
1010
0000
0000
1001
0000
0000
0011
0000
,
0010
0000
0100
1000
0000
0010
0100
0000
0001
0010
0000
0001
1000
0000
0010
0000
,
0100
0000
0001
0010
0000
0001
1000
0000
0010
1000
0000
0100
0010
0000
0001
0000
,
1000
0000
0100
1000
0000
0100
0010
0000
0100
0001
0000
0100
0010
0000
0011
0000
,
0000
0000
0101
0000
0000
0100
0010
0100
0020
0000
0000
1000
0000
0000
1030
0000
,
0001
0000
0100
1000
0000
0100
0001
0000
0100
1000
0000
0000
0100
0000
0001
0100
,
0002
0000
0000
0010
0000
0003
1000
0100
1000
0000
0000
1010
0000
0000
0110
0000
,
0201
0000
0000
0001
0000
0000
0010
0000
0300
0010
0100
0000
0001
0000
1000
0001
,
2000
0000
0000
3200
0000
0000
0320
0000
0031
0100
0000
0010
0100
0010
2000
0000
,
0000
0000
3100
0001
0100
1000
0001
0000
,
0010
0000
0001
0000
0100
0000
0000
0000
0010
0000
1000
0000
0100
0000
0000
1000
,
0020
0100
1000
0100
,
1030
0001
0001
0100
0001
0010
0011
0000
,
0001
1000
0100
1000
0010
1000
0100
1000
,
0001
0000
0010
0000
0000
0010
0000
0000
0001
0000
0101
0000
0000
0000
0220
0000
,
0000
0000
0330
0000
1000
0000
0001
1000
0001
0000
1000
0100
1000
0000
0100
0010
,
0001
0000
0100
0000
0010
0100
0010
0000
1000
0010
1000
0000
0001
0010
0100
0000
,
2000
0000
0000
0000
0000
0000
0001
0000
0000
0000
0000
0000
0010
0000
0000
0000
0000
0000
0000
0000
0000
0000
0000
0000
3000
0000
0000
0000
0001
1000
0100
0010
,
0002
0000
0000
0000
,
0000
0000
0000
0000
,
0003
0000
0000
0000
;

//--------------- dance-single - forcednature ----------------
#NOTEDATA:;
#STEPSTYPE:dance-single;
#DESCRIPTION:forcednature;
#DIFFICULTY:Hard;
#METER:17;
#RADARVALUES:0,0,0,0,0;
#CREDIT:forcednature;
#NOTES:
0000
0000
0000
0000
,
0000
0000
0000
0000
,
0000
0000
0000
0000
,
0002
0000
0000
0023
0000
0000
0230
0000
0000
0000
0000
0000
2300
0000
3000
0000
,
2002
0000
0000
0000
,
0000
0000
0000
3003
,
1000
0100
1000
0010
1000
0100
0001
0100
,
1000
0000
0001
0000
0010
0000
0001
0000
1000
0000
1010
0000
0000
0000
0001
0010
,
0001
0100
0001
0010
0001
0100
1000
0100
,
0001
1000
0010
0000
1000
0001
0100
0000
0010
1000
0010
1000
0001
0000
0100
0000
,
0110
0000
0000
0000
0010
0000
1000
0000
0100
0010
0100
0010
0001
0000
1000
0000
,
0010
0100
0010
0000
0100
0001
0000
0010
0001
0000
1000
0000
0100
0000
0001
0000
,
0100
0000
1000
0000
1100
0000
0000
0001
0010
0000
0100
0010
0100
1000
0001
0000
,
0200
0000
0010
0000
0000
0000
0310
0000
0100
0001
1000
0010
1000
0100
0010
0001
,
1000
0000
0010
0000
0100
0000
0010
1000
0001
0000
0010
0000
0100
0000
0010
0001
,
1000
0000
0010
0100
0000
0001
0100
0000
0010
1000
0000
0001
0010
0001
1000
0000
,
0010
0000
0100
0000
0001
0010
0100
0000
0010
0000
0001
1000
0100
0000
0100
0000
,
0110
0000
0000
0000
1001
0000
0001
0000
0100
0010
0100
0010
1000
0001
0100
0000
,
0010
0000
1000
0000
0001
0000
0100
1000
0000
0100
0001
0000
2000
0000
0000
0000
,
3100
0000
0010
0000
0001
0000
0010
0000
0100
0001
0100
2000
0000
0000
3010
0100
,
0002
0000
0000
0010
0000
0000
0013
0000
0100
1000
0001
1000
0100
0000
0010
0000
,
0110
0000
0000
0100
1000
0000
1001
0000
0000
0000
0110
0000
0001
0100
0010
1000
,
0001
0000
0000
0010
0100
1000
0100
0010
0100
0000
1000
0000
0001
0100
0001
0000
,
0010
0000
0100
0010
0001
0000
1000
0000
0010
0100
0000
0000
1001
0000
0000
0000
,
0001
0000
0100
0001
0010
0000
0100
0000
0010
0001
1000
0000
0010
0100
0001
0100
,
0010
0000
0000
0000
1000
0100
0010
0001
0000
0010
0100
1000
0001
0100
0001
1000
,
0010
0000
0100
0001
0000
0100
0010
0000
0100
0001
0000
1000
0010
0100
0010
0000
,
1001
0000
1000
0100
0000
0010
0100
0000
0010
0001
0010
0000
0100
1000
0001
0000
,
0100
0010
0100
0010
0100
0000
0010
1000
0001
1000
0010
0100
0001
0100
0010
1000
,
0002
0000
0000
0010
0000
0000
0013
0000
0001
1000
0001
1000
0100
0000
0000
0000
,
0220
0000
0000
0000
0000
0000
0000
0000
0000
0000
0000
0000
0000
0000
0000
0000
0000
0000
0000
0000
0000
0000
0000
0000
0330
0000
0000
0000
0000
0000
0000
0000
0000
0000
0000
0000
1000
0000
0000
0001
0000
0000
1000
0000
0000
0001
0000
0000
1000
0000
0000
0001
0000
0000
1000
0000
0000
0001
0000
0000
1000
0000
0000
0000
0010
0000
0000
0000
0100
0000
0000
0000
0001
0000
0000
0000
0100
0000
0000
0000
0010
0000
0000
0000
2000
0000
0000
0000
0000
0000
0000
0000
0000
0000
0000
0000
,
3001
0000
0000
0000
0010
0000
0000
0000
0100
0000
0000
0000
1000
0000
0000
0000
0100
0000
0000
0000
0010
0000
0000
0000
0001
0000
0000
0000
1000
0000
0000
0000
0010
0000
0000
0000
0000
0000
0000
0100
0000
0000
0001
0000
0000
0100
0000
0000
0001
0000
0000
0000
0010
0000
0000
0000
0100
0000
0000
0000
1000
0000
0000
0000
0010
0000
0000
0000
0100
0000
0000
0000
0002
0000
0000
0000
0000
0000
0000
0000
0000
0000
0000
0000
0000
0000
0000
0000
0000
0000
0000
0000
0000
0000
0000
0000
,
0023
0000
0000
0000
0000
0000
0000
0000
0000
0000
0000
0000
0130
0000
0000
0000
0010
0000
0000
0000
0001
0000
0000
0000
2000
0000
0000
0000
0000
0000
0000
0000
0000
0000
0000
0000
3001
0000
0000
0000
0100
0000
0000
0000
0010
0000
0000
0000
1000
0000
0000
0000
0100
0000
0000
0000
0010
0000
0000
0000
0001
0000
0000
0000
0100
0000
0000
0000
0001
0000
0000
0000
2000
0000
0000
0000
0000
0000
0000
0000
0000
0000
0000
0000
3010
0000
0000
0100
0000
0000
0010
0000
0000
0100
0000
0000
,
0001
0000
0000
0010
0001
0000
0000
1000
0100
0000
1000
0001
0010
0001
0010
0001
0020
0000
0000
0000
0000
0000
0100
0000
0000
0000
0000
0000
0031
0000
1000
0000
,
0001
0000
0010
0100
0000
1000
0010
0000
0220
0000
0330
0000
1000
0001
2002
0000
,
3003
0000
0000
0000
0000
0000
0000
0000
0000
0000
0000
0000
0000
0000
0000
0000
0000
0000
0000
0000
0000
0000
0000
0000
1000
0000
0000
0010
0000
0000
1000
0000
0000
0010
0000
0000
0100
0000
0000
0010
0000
0000
0100
0000
0000
0010
0000
0000
1000
0000
0000
0000
0001
0000
0000
0000
0010
0000
0000
0000
0100
0000
0000
0000
0010
0000
0000
0000
0001
0000
0000
0000
1000
0000
0000
0000
0010
0000
0000
0000
0100
0000
0000
0000
0001
0000
0000
0000
0010
0000
0000
0000
1000
0000
0000
0000
,
0010
0000
0000
0000
0001
0000
0000
0000
1000
0000
0000
0000
0001
0000
0000
0000
0100
0000
0000
0000
1000
0000
0000
0000
0100
0000
0000
0000
0000
0000
0001
0000
0000
1000
0000
0000
0001
0000
0000
0000
0010
0000
0000
0000
0100
0000
0000
0000
1000
0000
0000
0000
0100
0000
0000
0000
0001
0000
0000
0000
0100
0000
0000
0000
0010
0000
0000
0000
0001
0000
0000
0000
2000
0000
0000
0000
0000
0000
0000
0000
0000
0000
0000
0000
3010
0000
0000
0000
0000
0000
0000
0000
0100
0000
0000
0000
,
0000
0001
0000
0010
0000
0100
0000
1000
0000
0020
0000
0000
0000
0000
0000
1030
0000
0001
0000
0010
0000
0001
0000
0100
,
0000
1000
0000
0001
0000
0010
0000
1000
0000
0100
0000
0001
0000
1000
0000
0010
0000
0001
0000
0100
0000
2002
0000
0000
,
0000
0000
0000
0000
,
0000
0000
0000
0000
,
0000
0000
0000
0000
,
0000
0000
0000
0000
,
0000
0000
0000
0000
,
0000
0000
0000
0000
3003
0000
0000
0000
2100
0000
0000
3002
0000
0000
0023
0000
,
0000
0230
0000
0000
0000
0000
0300
0000
2000
0000
0000
3020
0000
0000
0230
0000
,
0001
0000
0001
0000
0001
0000
0300
0000
0020
0000
0000
2030
0000
0000
3002
0000
,
0000
0023
0000
0000
0000
0000
0030
0000
0200
0000
0000
2300
0000
0000
3020
0000
,
0100
0000
0100
0000
0100
0000
0030
0000
1001
0000
1000
0100
0110
0000
0001
0100
,
0110
0000
1000
0001
0101
0000
0001
1000
0110
0000
0001
0100
1010
0000
1000
0100
,
0011
0000
0001
1000
0110
0000
0010
0000
1001
1000
0100
0010
1100
0001
0100
0010
,
0101
0000
1000
0000
0010
0000
0100
0000
1001
0000
0001
0000
0010
0000
0100
0000
0110
0000
0001
0010
0000
0100
0010
0000
0100
1000
0000
0001
1000
0000
0100
0010
,
0001
0000
1000
0000
0001
0000
1000
0000
0001
0000
1000
0000
0001
0000
1000
0000
0010
0000
0100
0000
0001
0000
0100
0000
0010
0000
0100
0000
0001
0000
0100
0000
0020
0000
1000
0000
0000
0000
1000
0000
0030
0000
0101
0000
0000
0000
2000
0000
3200
0000
0302
0000
2003
0000
3020
0000
0031
1000
0001
1000
0010
0000
0000
0000
,
0100
0000
0001
0010
0000
0100
0010
0000
0001
1000
0000
0100
0010
0001
0010
0100
,
1000
0000
0010
0100
0000
0001
0010
0000
1000
0010
0000
0001
1000
0100
1000
0001
,
0010
0000
0100
1000
0000
0010
0100
0000
1000
0100
0000
0001
1000
0010
0100
0001
,
0010
0100
1000
0100
0010
0001
1000
0000
1010
0000
0110
0000
0000
0000
0001
0010
,
1000
0000
0010
0001
0000
1000
0100
0000
1000
0010
0100
0001
0010
0100
1000
0001
,
0010
0000
0001
0100
0000
1000
0100
0000
0001
0010
0000
0100
0010
0100
1000
0000
,
1010
0000
0010
0100
0001
0010
0100
0000
0011
0000
1000
0100
0010
0000
1100
0000
,
0000
0000
1001
0000
0000
0010
0100
0010
0100
0000
0110
0000
1000
0100
0010
0001
,
1000
0000
0010
0100
0000
0001
0010
0000
0100
0001
0100
1000
0001
0010
0100
0010
,
0001
0000
1000
0010
0000
0100
1000
0000
0100
0001
1000
0010
1000
0001
0010
0000
,
0110
0000
1000
0010
0000
0100
0001
0000
0010
0001
1000
0000
1010
0000
0010
0100
,
0001
0010
0100
1000
0100
0010
0001
1000
0010
0000
0100
0010
0100
0001
0010
0000
,
0110
0000
0100
1000
0000
0010
1000
0000
0100
0001
0100
1000
0010
1000
0001
0100
,
0010
0000
0010
1000
0000
0001
0010
0000
0011
0000
0000
1001
0000
0000
1100
0000
,
0120
0000
0000
0001
0000
0000
0001
0000
0130
1000
0001
0100
0010
0000
1000
0001
,
0010
0100
0010
0100
1000
0001
1000
0001
0100
0010
1000
0010
0100
0001
1000
0020
,
0000
0000
0130
0001
0010
0001
0100
0001
,
0010
0000
0100
0000
1000
0000
0010
0000
0100
0000
0001
0000
0010
0000
0100
1000
,
0002
0100
1000
0013
,
0001
0000
1000
0000
0100
0000
1000
0000
0010
0100
0010
0100
0001
0000
0010
0000
,
0002
0000
0103
0020
0000
1030
0200
0000
,
0310
0000
0001
0000
0000
0001
0000
0000
1100
0000
1100
0000
0000
0000
2002
0000
,
0000
0000
3003
0000
0001
0010
0001
0010
0100
1000
0100
1000
0010
0100
0010
0100
,
0001
0010
0100
1000
0001
0100
0010
1000
0100
0010
0001
0100
0010
1000
0100
0010
,
0002
0000
0000
0000
0000
0000
0100
0000
0000
0000
0000
0000
0010
0000
0000
0000
0000
0000
0000
0000
0000
0000
0000
0000
0003
0000
0000
0000
1000
0100
0010
0001
,
0020
0000
0000
0000
,
0000
0000
0000
0000
,
0030
0000
0000
0000
;

//--------------- dance-double - forcednature ----------------
#NOTEDATA:;
#STEPSTYPE:dance-double;
#DESCRIPTION:forcednature;
#DIFFICULTY:Easy;
#METER:10;
#RADARVALUES:0,0,0,0,0;
#CREDIT:forcednature;
#NOTES:
00000000
00000000
00000000
00000000
,
00000000
00000000
00000000
00000000
,
00000000
00000000
00000000
00000000
,
00020000
00000000
00000000
00032000
00000000
00000000
00203000
00000000
00000000
00000000
00000000
00000000
00320000
00000000
00030000
00000000
,
20020000
00000000
00000000
00000000
,
00000000
00000000
00000000
30030000
,
10000000
01000000
00010000
00001000
,
00000010
00000001
00001000
00000000
,
00000001
00000100
00001000
00010000
,
00100000
00000000
10000000
00100000
10000000
00000000
01000000
00000000
,
10010000
10000000
01000000
10000000
,
00100000
01000000
10000000
01000000
,
00010000
00100000
00010000
00000000
00001000
00000000
00000100
00000000
,
00002002
00000000
00000000
00003003
,
00000001
00000010
00000011
00000000
,
00001000
00000000
00000000
00000100
00000000
00000000
00010000
00000000
,
00001000
00000000
00010000
00001000
00010000
00000000
00001000
00000000
,
01000000
00000000
00010000
00100000
00000000
00100000
00010000
00000000
,
01000000
00100000
10000000
01000000
,
01100000
00000000
00010000
00001000
,
00011000
00000000
00000110
00000000
,
00000001
00000000
00000100
00000010
00000000
00000010
00001000
00000000
,
00000200
00000300
00011000
00100000
,
00010000
01000000
00010000
10000000
,
00100000
00000000
10000000
00010000
10000000
00000000
01000000
00000000
,
00010000
00000000
00010000
00001000
00000000
00011000
00000000
00000000
,
00000100
00000000
00001000
00000100
00001000
00000000
00000010
00000000
,
00000100
00000000
00000001
00000100
00000001
00000000
00000010
00000000
,
00000100
00000100
00010000
00000000
00001000
00000000
00100000
00000000
,
20020000
00000000
00000000
30030000
,
02200000
00000000
03300000
10000000
10000000
01000000
10000000
00000000
,
10100000
00000000
01010000
00000000
00010000
00100000
00001000
00010000
,
00000100
00000000
00000110
00000000
00000001
00000001
00000100
00000000
,
00000001
00000001
00000010
00000000
00002000
00000000
00000000
00000000
,
00013000
00000000
00001000
00010000
00001000
00000000
00000000
00011000
,
00000000
00000000
02200000
00000000
03300000
10000000
00010000
00100000
,
01000000
00010000
00000000
00001000
00000010
00000100
00000000
00001000
,
00000000
00001000
00000000
00000010
00000000
00001000
00000000
00010000
,
00000000
01000000
00000000
00010000
00000000
00000000
00000000
01000000
00000000
00100000
00000000
00000000
00000000
10000000
00000000
00100000
00000000
00000000
00000000
00000000
00000000
20020000
00000000
00000000
,
00000000
00000000
00000000
00000000
,
00000000
00000000
00000000
00000000
,
00000000
00000000
00000000
00000000
,
00000000
00000000
00000000
00000000
,
00000000
00000000
00000000
00000000
,
00000000
00000000
00000000
00000000
30030000
00000000
00000000
00000000
00010000
00000000
00000000
00100000
00000000
00000000
00001000
00000000
,
00000000
00010000
00000000
00000000
00000000
00000000
00000000
00000000
00000010
00000000
00000000
00001000
00000000
00000000
00000001
00000000
,
00000000
00000000
00000000
00000000
00000000
00000000
00000000
00000000
00000010
00000000
00000000
00000100
00000000
00000000
00010000
00000000
,
00000000
00001000
00000000
00000000
00000000
00000000
00000000
00000000
01000000
00000000
00000000
00010000
00000000
00000000
00200000
00000000
,
00000000
00000000
01300000
10010000
,
00100000
00011000
00000100
00001001
,
00000010
00000000
00011000
00000000
00100000
00100000
00010000
00010000
,
01000000
00010000
01000000
00010000
10000000
00000000
01000000
01000000
,
01000000
00000000
00000000
00010000
00000000
00000000
00010000
00000000
00001000
00000000
00000000
00010000
00000000
00000000
00001000
00000000
00000010
00000000
00000000
00000100
00000000
00000100
00000000
00000100
00000000
00000000
00001000
00000000
00000001
00000000
00001001
00000000
,
00001000
00000000
00000100
00010000
00001000
00000000
00100000
00000000
,
00010000
00000000
01000000
00010000
01000000
00000000
00100000
00000000
,
10000000
00000000
01000000
00100000
00010000
00000000
01000000
00000000
,
01100000
00000000
00000000
00000000
00010000
00010000
00000000
00000000
,
00100000
00000000
00001000
00010000
00000100
00000000
00001000
00000000
,
00000010
00000000
00000100
00000001
00000100
00000000
00001000
00000000
,
00011000
00000000
00100000
00000000
00011000
00000000
01000000
01000000
,
00000000
00000000
00010000
00000000
00000000
00010000
00000000
00000000
10000000
00000000
00000000
10000000
00000000
00000000
00100000
00000000
,
01000000
00000000
00010000
00100000
00001000
00000000
00010000
00000000
,
00000010
00000000
00001000
00000100
00001000
00000000
00000001
00000000
,
00000100
00000000
00000001
00001000
00000010
00000000
00010000
00010000
,
00000000
00011000
00000000
00001000
00100000
00000000
00010000
00000000
,
01000000
00000000
00000000
01000000
00000000
00000000
00010000
00000000
00000000
01000000
00000000
00000000
00010000
00000000
00000000
00000000
,
10000000
00000000
00000000
10000000
00000000
00000000
00100000
00000000
10000000
00000000
00000000
01000000
00000000
00000000
00100000
00000000
,
00010000
00000000
00100000
00001000
00010000
00000000
00000100
00000200
,
00000000
00000000
00001000
00001000
00001300
00000000
00000110
00000000
,
00000000
00001001
00000001
00000100
,
00001000
00010000
01000000
10000000
,
10010000
00010000
00100000
01000000
,
00010000
00000000
00001000
00000000
00010000
00001000
00010000
00000000
,
00000100
00000000
00000100
00001000
00000100
00000000
00000100
00000010
,
00000001
00000000
00000001
00000000
00000100
00000010
00000000
00002002
,
00000000
00000000
00003003
00000000
00001000
00000100
00010000
00000000
,
00001000
00100000
00010000
00000000
01000000
00000000
00100000
00000000
,
20000000
00000000
00000000
01000000
00000000
00000000
01000000
00000000
00000000
00000000
00000000
00000000
30000000
00000000
01000000
00010000
,
00002000
00000000
00000000
00000000
,
00000000
00000000
00000000
00000000
,
00003000
00000000
00000000
00000000
;

//--------------- dance-double - forcednature ----------------
#NOTEDATA:;
#STEPSTYPE:dance-double;
#DESCRIPTION:forcednature;
#DIFFICULTY:Medium;
#METER:14;
#RADARVALUES:0,0,0,0,0;
#CREDIT:forcednature;
#NOTES:
00000000
00000000
00000000
00000000
,
00000000
00000000
00000000
00000000
,
00000000
00000000
00000000
00000000
,
00020000
00000000
00000000
00032000
00000000
00000000
00003020
00000000
00000000
00000000
00000000
00000000
00000230
00000000
00000300
00000000
,
00002002
00000000
00000000
00000000
,
00000000
00000000
00000000
00003003
,
00000001
00000100
00000010
00000100
00000001
00001000
00000000
00001010
,
00000000
00010000
00001000
00100000
00010000
00200000
00000000
01300000
,
10000000
00100000
10000000
01000000
00010000
00001000
00100000
00000000
,
00001000
00000010
00000000
00000110
00000000
00000100
00001000
00001000
,
00000010
00000000
00001001
00000000
00000001
00000100
00000001
00000010
,
00000000
00000000
00001000
00000000
00010000
00001000
00000000
00001000
00010000
00000000
00000100
00000000
00001000
00000000
00000010
00000000
,
00010000
00000000
00010000
00000000
00010000
00000000
00000000
00100000
01000000
00000000
00000000
00010000
10000000
00000000
00100000
00000000
,
02000000
00000000
00000000
00000000
13000000
01000000
00010000
00100000
,
01000000
00010000
00001000
00100000
00110000
00000000
00001000
00010000
,
00000010
00010000
00001000
00000010
00000110
00000000
00000100
00001000
,
00000010
00000000
00000000
00000010
00000100
00000000
00000001
00000000
00000010
00000000
00000000
00000010
00001000
00000000
00010000
00000000
,
00011000
00000000
00100000
00110000
00000000
00010000
01000000
10000000
,
01000000
00010000
00100000
00010000
10000000
00200000
00000000
10300000
,
01000000
00000000
00010000
00000000
00001000
00000000
00000100
00000000
00000001
00000000
00000002
00000000
00000000
00000000
00000013
00000100
,
00002000
00000000
00000000
00000000
00000000
00000000
00003100
00000000
00010000
00000000
00000000
00010000
00001000
00000000
00001000
00000000
,
00100000
00000000
01000000
01100000
00000000
10010000
00000000
00010000
,
00100000
00000000
00000000
01000000
10000000
00000000
10000000
00000000
00100000
00000000
00010000
00000000
00100000
00000000
10000000
00000000
,
01000000
00010000
00001000
00100000
00001000
00000000
00011000
00000000
,
00010000
00000000
00001000
00000000
00000010
00000000
00000001
00000000
00001000
00000000
00000000
00001000
00000100
00000000
00010000
00000000
,
00011000
00000000
00000000
00000000
00100000
00000000
00110000
00000000
00000000
00000000
00010000
01000000
00010000
00000000
01000000
00000000
,
00100000
00000000
00000000
00100000
10000000
00000000
01000000
00000000
00000000
01000000
10000000
00000000
00100000
00000000
00100000
00000000
,
00010000
00000000
00000000
00010000
00001000
00000000
00100000
00000000
00000000
00100000
00010000
00000000
00000000
00001000
00000000
00000000
,
00000100
00000000
00000100
00000000
00000100
00000000
00000000
00000000
00000010
00000000
00000001
00000010
00000001
00000000
00000100
00000001
,
00000200
00000000
00000000
00000010
00000000
00000000
00000310
00000000
00001000
00000000
00000000
00000001
00000010
00000000
00000000
00000000
,
00000220
00000000
00000000
00000000
00000000
00000000
00000000
00000000
00000000
00000000
00000000
00000000
00000330
00000000
00000000
00000000
00000000
00000000
00001000
00000000
00000000
00000100
00000000
00000000
00000100
00000000
00000000
00010000
00000000
00000000
00001000
00000000
00000000
00000000
00100000
00000000
00010000
00000000
00000000
00000000
00000000
00000000
02000000
00000000
00000000
00000000
00000000
00000000
,
13000000
00000000
10000000
00100000
00000000
00100000
01000000
00000000
01000000
00000000
00000000
00000000
00010000
00000000
00010000
00100000
00000000
00100000
00002000
00000000
00000000
00000000
00000000
00000000
,
00023000
00000000
00000000
00030100
00001000
00000000
00000020
00000000
00000000
00000130
00000001
00000100
00000001
00000000
00000010
00000000
00000100
00001000
00000200
00000000
00000000
00020300
00000000
00000000
,
00031000
00000000
00011000
00000000
00101000
00000000
00100000
00010000
20000000
00000000
00000000
00000000
00000000
00000000
00000000
00000000
,
30100000
00000000
01000000
00100000
01000000
00000000
00010000
00000000
00220000
00000000
00000000
00330000
00000000
00000000
00022000
00000000
,
00000000
00000000
00000000
00033000
00000000
00000000
00000000
00000000
00000000
00000000
00000000
00000000
00000100
00000000
00000000
00000100
00000000
00000000
00001000
00000000
00000000
00001000
00000000
00000000
00000001
00000000
00000000
00000000
00000001
00000000
00000100
00000000
00000000
00000000
00000100
00000000
00001000
00000000
00000000
00000000
00000000
00000000
00010000
00000000
00000000
00000000
00100000
00000000
,
01000000
00000000
00100000
10000000
00000000
00100000
01000000
00000000
00000000
00010000
00000000
00100000
00001000
00000000
00010000
00000100
00000000
00001000
00000020
00000000
00000000
00000130
00000000
00000000
,
00000000
00000000
00000000
00000110
00000000
00000000
00000000
00000000
00000000
00001001
00000000
00000000
00000000
00000000
00000000
00001000
00000000
00000000
00000100
00000000
00000000
00010000
00000000
00001000
,
00000000
00010000
00000000
00001000
00000000
00100000
00000000
00001000
00000000
00100000
00000000
00010000
00000000
00100000
00000000
00010000
00000000
01000000
00000000
00100000
00000000
20000000
00000000
00000000
,
00000000
00000000
00000000
00000000
,
00000000
00000000
00000000
00000000
,
00000000
00000000
00000000
00000000
,
00000000
00000000
00000000
00000000
,
00000000
00000000
00000000
00000000
,
00000000
00000000
00000000
00000000
00000000
00000000
00000000
00000000
32000000
00000000
00000000
03020000
00000000
00000000
00032000
00000000
,
00000000
00003020
00000000
00000000
00000000
00000000
00000030
00000000
00000002
00000000
00000000
00000203
00000000
00000000
00002300
00000000
,
00000000
00000000
00000000
00000000
00000000
00000000
00003000
00000000
00020000
00000000
00000000
00230000
00000000
00000000
20300000
00000000
,
00000000
32000000
00000000
00000000
00000000
00000000
03000000
00000000
00020000
00000000
00000000
00032000
00000000
00000000
00003200
00000000
,
00000320
00000000
00000000
00000030
00000110
00000000
00011000
00000000
,
01100000
00011000
00001001
00011000
,
10010000
00000000
00000000
00000000
00011000
00000000
00000000
00000000
00100000
00000000
00010000
01000000
00001000
00000000
00010000
00000100
,
00001000
00000000
00000000
00000000
00000010
00000000
00010000
00000000
00001000
00000000
00000000
00000000
00100000
00000000
00100000
00000000
02000000
00000000
00000000
00000000
00000000
00000000
10000000
00000000
00000000
23000000
00000000
00000000
30200000
00000000
00000000
00000000
,
01300000
00000000
00000000
00000000
00010000
00000000
01000000
00000000
00000000
00000000
00010000
00000000
00100000
00000000
00000000
00000000
00001000
00000000
00000000
00000000
00000000
00000000
00000010
00000000
00000000
00000000
00000000
00000000
00000001
00000000
00000000
00000000
00000200
00000000
00000010
00000000
00000000
00000000
00000310
00000000
00000000
00000000
00000110
00000000
00000000
00000000
00000001
00000000
00000010
00000000
00000100
00000000
00001000
00000000
00000010
00000000
00010000
00000000
00001000
00010000
00001000
00000000
00000000
00000000
,
00100000
00000000
00010000
00100000
00000000
01000000
00100000
00000000
01000000
10000000
00000000
00010000
00100000
00000000
00001000
00000000
,
00010000
00000000
00000010
00001000
00000000
00000010
00000100
00000000
00000001
00001000
00000000
00000010
00001000
00000000
00000001
00000000
,
00000010
00000000
00000100
00001000
00000000
00000100
00010000
00000000
00001000
00100000
00000000
00010000
00100000
00000000
01000000
00000000
,
10000000
00000000
00010000
10000000
00010000
00000000
00100000
00000000
01000000
00000000
02000000
00000000
00000000
00000000
03010000
00000000
,
00001000
00000000
00100000
00010000
00000000
00100000
00001000
00000000
00010000
00001000
00000000
00010000
00000100
00000000
00001000
00000000
,
00000010
00000100
00000000
00000001
00000100
00000000
00000010
00001000
00000000
00000010
00000100
00000000
00000001
00000000
00000010
00000000
,
00000110
00000000
00000000
00001000
00000100
00000000
00010000
00000000
00001000
00100000
00000000
00010000
00100000
00000000
00110000
00000000
,
00000000
00000000
01010000
00000000
00000000
10000000
00000000
00000000
10100000
00000000
00000000
11000000
00000000
00000000
01000000
00000000
,
00100000
00000000
00010000
00100000
00000000
00001000
00010000
00000000
00000010
00001000
00000000
00000010
00000100
00000000
00000001
00000000
,
00000010
00000000
00000100
00001000
00000000
00000100
00010000
00000000
00001000
01000000
00000000
00010000
01000000
00000000
00100000
00000000
,
10000000
00000000
01000000
00100000
00000000
00010000
00100000
00000000
00001000
00010000
00000000
00000010
00001000
00000000
00001010
00000000
,
00000000
00000000
00000101
00000000
00000000
00000001
00000010
00000001
00000020
00000000
00000000
00000100
00000000
00000000
00000130
00000000
,
00000001
00000000
00001000
00000001
00000000
00000100
00000010
00000000
00001000
00000001
00000000
00000000
00000100
00000000
00001000
00000000
,
00020000
00000000
00000000
00100000
00000000
00000000
00031000
00000000
01000000
00000000
00000000
01100000
00000000
00000000
00100000
00000000
,
20010000
00000000
00000000
00000000
00000000
00000000
31000000
00000000
00000000
10000000
01000000
00000000
00010000
00000000
00001000
00010000
,
00002000
00000000
00000000
00003020
00000000
00000000
00000032
00000000
00001003
00000010
00000000
00000100
00000010
00000100
00000002
00000000
,
00000000
00000000
00000013
00000100
00010000
00000010
00000100
00000000
,
00001000
00000000
00010000
00000000
00100000
00000000
00000000
00000000
00010000
00000000
00001000
00000000
00000010
00000000
00000000
00000001
,
00000200
00001000
00000010
00000301
,
00000100
00001000
00001000
00010000
00100000
00000000
01100000
00000000
,
00010000
10000000
01000000
10000000
00100000
10000000
01000000
00010000
,
00001000
00000000
00000010
00000000
00000000
00000010
00000000
00000000
00000001
00000000
00000100
00000000
00000000
00000000
00000220
00000000
,
00000000
00000000
00000330
00000000
00001000
00000000
00000001
00001000
00000001
00000000
00000010
00000000
00001000
00000000
00010000
00000000
,
00001000
00100000
00001000
00000000
00100000
00000000
00010000
00000000
01000000
00010000
01000000
00000000
00100000
00000000
10000000
00000000
,
02000000
00000000
00000000
00000000
00000000
00000000
03020000
00000000
00000000
00000000
00000000
00000000
00032000
00000000
00000000
00000000
00000000
00000000
00000000
00000000
00000000
00000000
00000000
00000000
00003000
00000000
00000000
00000000
00000010
00000100
00000010
00000100
,
00000020
00000000
00000000
00000000
,
00000000
00000000
00000000
00000000
,
00000030
00000000
00000000
00000000
;

//--------------- dance-double - forcednature ----------------
#NOTEDATA:;
#STEPSTYPE:dance-double;
#DESCRIPTION:forcednature;
#DIFFICULTY:Hard;
#METER:18;
#RADARVALUES:0,0,0,0,0;
#CREDIT:forcednature;
#NOTES:
00000000
00000000
00000000
00000000
,
00000000
00000000
00000000
00000000
,
00000000
00000000
00000000
00000000
,
00002000
00000000
00000000
00023000
00000000
00000000
02030000
00000000
00000000
00000000
00000000
00000000
03200000
00000000
00300000
00000000
,
20020000
00000000
00000000
00000000
,
00000000
00000000
00000000
30030000
,
10000000
01000000
10000000
00100000
10000000
01000000
00010000
00001000
,
00000100
00000000
00000001
00000000
00000010
00000000
00000001
00000000
00001000
00000000
00001010
00000000
00000000
00000000
00000001
00000010
,
00000001
00000100
00000001
00000010
00000001
00000100
00001000
00010000
,
01000000
00100000
01000000
00000000
00100000
00010000
10000000
00000000
00100000
00000000
01000000
00010000
00100000
00000000
00001000
00000000
,
00011000
00000000
00000000
00000000
00010000
00000000
01000000
00000000
10000000
01000000
10000000
01000000
00100000
00000000
00010000
00000000
,
00100000
00010000
00100000
00000000
00001000
00010000
00000000
00000100
00001000
00000000
00000010
00000000
00000001
00000000
00000010
00000000
,
00001000
00000000
00000001
00000000
00001001
00000000
00000000
00001000
00000100
00000000
00010000
00001000
00100000
00000000
00100000
00000000
,
00020000
00000000
01000000
00000000
00000000
00000000
01030000
00000000
00010000
10000000
00010000
10000000
00100000
01000000
00010000
00100000
,
01000000
00000000
00010000
00000000
00001000
00000000
00010000
00000100
00001000
00000000
00000010
00000000
00001000
00000000
00000001
00000010
,
00000100
00000000
00000010
00000001
00000000
00000100
00000001
00000000
00001000
00000010
00000000
00010000
00001000
00010000
00001000
00000000
,
00100000
00000000
00010000
00000000
00100000
01000000
10000000
00000000
01000000
00000000
00010000
00001000
00100000
00000000
00001000
00000000
,
00011000
00000000
00000000
00000000
00001100
00000000
00001100
00000000
00000000
00000001
00000010
00000001
00000010
00000100
00001000
00000000
,
00000001
00000000
00000100
00000000
00001000
00000000
00000100
00000001
00000000
00001000
00000010
00000000
00020000
00000000
00000000
00000000
,
00130000
00000000
01000000
00000000
00010000
00000000
01000000
00000000
00100000
10000000
00100000
20000000
00000000
00000000
31000000
00010000
,
00002000
00000000
00000000
00100000
00000000
00000000
00103000
00000000
00001000
00010000
00000100
00001000
00000100
00000000
00000010
00000000
,
00000110
00000000
00000000
00000001
00001000
00000000
00001001
00000000
00000000
00000000
00000110
00000000
00001000
00000100
00010000
00001000
,
00100000
00000000
00000000
00001000
00010000
00001000
00010000
00001000
00000010
00000000
00000100
00000000
00000010
00000100
00001000
00000000
,
00000001
00000000
00000100
00000000
00001000
00000000
00010000
00000000
00100000
01000000
00000000
00000000
10010000
00000000
00000000
00000000
,
10000000
00000000
01000000
00100000
00010000
00000000
00100000
00000000
00001000
00000000
00010000
00000000
00000010
00001000
00000010
00001000
,
00000001
00000000
00000000
00000000
00000011
00000000
00000001
00000010
00000000
00000100
00001000
00000100
00010000
00001000
00100000
00010000
,
00100000
00000000
01000000
10000000
00000000
00100000
10000000
00000000
01000000
10000000
00000000
01000000
00010000
00000000
00001000
00000000
,
00011000
00000000
00010000
00001000
00000000
00000010
00001000
00000000
00000010
00000001
00000010
00000000
00000100
00001000
00000001
00000000
,
00000100
00000000
00000100
00000000
00000100
00000000
00000001
00000010
00000001
00000010
00000100
00001000
00000100
00010000
00001000
01000000
,
00020000
00000000
00000000
00100000
00000000
00000000
00130000
00000000
00010000
10000000
00010000
10000000
01000000
00000000
00000000
00000000
,
02200000
00000000
00000000
00000000
00000000
00000000
00000000
00000000
00000000
00000000
00000000
00000000
00000000
00000000
00000000
00000000
00000000
00000000
00000000
00000000
00000000
00000000
00000000
00000000
03300000
00000000
00000000
00000000
00000000
00000000
00000000
00000000
00000000
00000000
00000000
00000000
00010000
00000000
00000000
00100000
00000000
00000000
00010000
00000000
00000000
00100000
00000000
00000000
00010000
00000000
00000000
00100000
00000000
00000000
00010000
00000000
00000000
00100000
00000000
00000000
00001000
00000000
00000000
00000000
00010000
00000000
00000000
00000000
00000100
00000000
00000000
00000000
00010000
00000000
00000000
00000000
00001000
00000000
00000000
00000000
00000010
00000000
00000000
00000000
00000002
00000000
00000000
00000000
00000000
00000000
00000000
00000000
00000000
00000000
00000000
00000000
,
00000103
00000000
00000000
00000000
00000010
00000000
00000000
00000000
00001000
00000000
00000000
00000000
00000100
00000000
00000000
00000000
00000010
00000000
00000000
00000000
00000001
00000000
00000000
00000000
00000100
00000000
00000000
00000000
00001000
00000000
00000000
00000000
00010000
00000000
00000000
00000000
00000000
00000000
00000000
00001000
00000000
00000000
00010000
00000000
00000000
00001000
00000000
00000000
00010000
00000000
00000000
00000000
00001000
00000000
00000000
00000000
00100000
00000000
00000000
00000000
00010000
00000000
00000000
00000000
01000000
00000000
00000000
00000000
00100000
00000000
00000000
00000000
20000000
00000000
00000000
00000000
00000000
00000000
00000000
00000000
00000000
00000000
00000000
00000000
00000000
00000000
00000000
00000000
00000000
00000000
00000000
00000000
00000000
00000000
00000000
00000000
,
32000000
00000000
00000000
00000000
00000000
00000000
00000000
00000000
00000000
00000000
00000000
00000000
03010000
00000000
00000000
00000000
00001000
00000000
00000000
00000000
00010000
00000000
00000000
00000000
00002000
00000000
00000000
00000000
00000000
00000000
00000000
00000000
00000000
00000000
00000000
00000000
00003010
00000000
00000000
00000000
00000001
00000000
00000000
00000000
00000100
00000000
00000000
00000000
00000010
00000000
00000000
00000000
00001000
00000000
00000000
00000000
00000100
00000000
00000000
00000000
00001000
00000000
00000000
00000000
00000010
00000000
00000000
00000000
00010000
00000000
00000000
00000000
00002000
00000000
00000000
00000000
00000000
00000000
00000000
00000000
00000000
00000000
00000000
00000000
00103000
00000000
00000000
00010000
00000000
00000000
00100000
00000000
00000000
00010000
00000000
00000000
,
10000000
00000000
00000000
01000000
00010000
00000000
00000000
00001000
00000010
00000000
00000001
00001000
00000010
00001000
00000010
00001000
00000002
00000000
00000000
00000000
00000000
00000000
00000100
00000000
00000000
00000000
00000000
00000000
00001003
00000000
00000010
00000000
,
00001000
00000000
00000100
00010000
00000000
00001000
00100000
00000000
02200000
00000000
00000000
03300000
00000000
00000000
00022000
00000000
,
00000000
00000000
00000000
00000000
00000000
00000000
00033000
00000000
00000000
00000000
00000000
00000000
00000000
00000000
00000000
00000000
00000000
00000000
00000000
00000000
00000000
00000000
00000000
00000000
00000010
00000000
00000000
00001000
00000000
00000000
00000010
00000000
00000000
00001000
00000000
00000000
00000100
00000000
00000000
00001000
00000000
00000000
00000100
00000000
00000000
00001000
00000000
00000000
00000001
00000000
00000000
00000000
00000010
00000000
00000000
00000000
00000100
00000000
00000000
00000000
00001000
00000000
00000000
00000000
00000100
00000000
00000000
00000000
00010000
00000000
00000000
00000000
00001000
00000000
00000000
00000000
00100000
00000000
00000000
00000000
00010000
00000000
00000000
00000000
01000000
00000000
00000000
00000000
10000000
00000000
00000000
00000000
01000000
00000000
00000000
00000000
,
00010000
00000000
00000000
00000000
10000000
00000000
00000000
00000000
00100000
00000000
00000000
00000000
10000000
00000000
00000000
00000000
01000000
00000000
00000000
00000000
00010000
00000000
00000000
00000000
00000000
00000000
00000000
00000000
00000000
00000000
00001000
00000000
00000000
00010000
00000000
00000000
00001000
00000000
00000000
00000000
00010000
00000000
00000000
00000000
00001000
00000000
00000000
00000000
00000010
00000000
00000000
00000000
00000001
00000000
00000000
00000000
00001000
00000000
00000000
00000000
00000100
00000000
00000000
00000000
00001000
00000000
00000000
00000000
00000001
00000000
00000000
00000000
00000200
00000000
00000000
00000000
00000000
00000000
00000000
00000000
00000000
00000000
00000000
00000000
00001300
00000000
00000000
00000000
00000000
00000000
00000000
00000000
00010000
00000000
00000000
00000000
,
00000000
00100000
00000000
00010000
00000000
00001000
00000000
00000010
00000000
00002000
00000000
00000000
00000000
00000000
00000000
00013000
00000000
01000000
00000000
10000000
00000000
00100000
00000000
00010000
,
00000000
00001000
00000000
00000100
00000000
00000001
00000000
00000010
00000000
00001000
00000000
00010000
00000000
00100000
00000000
10000000
00000000
01000000
00000000
00010000
00000000
00002000
00000000
00000000
,
00000000
00000000
00000000
00000000
,
00000000
00000000
00000000
00000000
,
00000000
00000000
00000000
00000000
,
00000000
00000000
00000000
00000000
,
00000000
00000000
00000000
00000000
,
00000000
00000000
00000000
00000000
00003000
00000000
00000000
00000000
00000020
00000000
00000000
00000032
00000000
00000000
00000203
00000000
,
00000000
00002300
00000000
00000000
00000000
00000000
00003000
00000000
00020000
00000000
00000000
00230000
00000000
00000000
20300000
00000000
,
01000000
00000000
01000000
00000000
01000000
00000000
30000000
00000000
00020000
00000000
00000000
00230000
00000000
00000000
00302000
00000000
,
00000000
00003020
00000000
00000000
00000000
00000000
00000030
00000000
00000002
00000000
00000000
00000203
00000000
00000000
00002300
00000000
,
00010000
00000000
00010000
00000000
00013000
00000000
00000000
00000000
00011000
00000000
00010000
00100000
00010000
00000000
00001000
00000010
,
00001000
00000000
00010000
01000000
00010000
00000000
00001000
00000100
00001000
00000000
00010000
00100000
10000000
00000000
10000000
01000000
,
00010000
00000000
00001000
00000010
00000001
00000000
00000001
00000100
00001000
00010000
00001000
00100000
01000000
00010000
00001000
00000010
,
00000100
00000000
00010000
00000000
00000010
00000000
00001000
00000000
00010000
00000000
01000000
00000000
00100000
00000000
10000000
00000000
01000000
00000000
00010000
00001000
00000000
00100000
00001000
00000000
00010000
00000100
00000000
00010000
00001000
00000000
00000010
00000000
,
00000001
00000000
00000100
00000000
00000001
00000000
00000100
00000000
00000001
00000000
00000100
00000000
00000001
00000000
00000100
00000000
00000010
00000000
00001000
00000000
00000001
00000000
00001000
00000000
00000010
00000000
00001000
00000000
00000001
00000000
00001000
00000000
00000100
00000000
00010000
00000000
00000000
00000000
00011000
00000000
00000000
00000000
00101000
00000000
00000000
00000000
20000000
00000000
32000000
00000000
03020000
00000000
00032000
00000000
00003020
00000000
00000031
00001000
00000001
00001000
00000100
00000000
00000000
00000000
,
00000010
00000000
00000001
00000100
00000000
00000010
00000100
00000000
00000001
00001000
00000000
00000010
00010000
00001000
00010000
00001000
,
01000000
00000000
00010000
00100000
00000000
01000000
00100000
00000000
00010000
10000000
00000000
01000000
00010000
01000000
00010000
00001000
,
00010000
00000000
00001000
00000010
00000000
00000001
00000010
00000000
00000100
00001000
00000000
00000010
00001000
00000010
00000100
00000001
,
00000010
00000100
00001000
00000100
00010000
00001000
00100000
00000000
00010000
00000000
01010000
00000000
00000000
00000000
10000000
00100000
,
00010000
00000000
00100000
10000000
00000000
01000000
10000000
00000000
00010000
01000000
00001000
00010000
00000010
00001000
00000010
00000100
,
00000001
00000000
00000010
00000100
00000000
00000001
00000100
00000000
00010000
00001000
00000000
00100000
00010000
00100000
01000000
00000000
,
01100000
00000000
10000000
00010000
00000000
00100000
00010000
00000000
10000000
00000000
01000000
00010000
00001000
00000000
00011000
00000000
,
00000000
00000000
00000110
00000000
00000000
00000001
00000010
00000100
00001000
00000000
00001100
00000000
00010000
00001000
00010000
00001000
,
01000000
00000000
00010000
00100000
00000000
01000000
00100000
00000000
01000000
10000000
00010000
00100000
00001000
00010000
00100000
00010000
,
00001000
00000000
00010000
00000010
00000000
00001000
00000010
00000000
00010000
00001000
00000010
00000100
00000010
00000001
00001000
00000000
,
00001100
00000000
00000100
00010000
00000000
00001000
00100000
00000000
00010000
01000000
10000000
00000000
01000000
00000000
01100000
00000000
,
00000000
00100000
10000000
01000000
00100000
00010000
00100000
00001000
00010000
00000000
00000010
00001000
00000010
00001000
00000001
00000000
,
00000100
00000000
00001000
00010000
00000000
00001000
00000010
00000000
00001000
00010000
00000000
00001000
00100000
00010000
00100000
01000000
,
10000000
00000000
10000000
00100000
00000000
00100000
00010000
00000000
00011000
00000000
00000000
00010100
00000000
00000000
00001100
00000000
,
00000021
00000000
00000000
00000100
00000000
00000000
00000100
00000000
00000031
00001000
00000100
00001000
00000001
00000000
00000100
00001000
,
00010000
00001000
00010000
00001000
00010000
00100000
10000000
00010000
01000000
00100000
10000000
01000000
00100000
00010000
00100000
00002000
,
00000000
00000000
00003010
00000100
00010000
00000100
00000010
00000100
,
00001000
00000000
00000010
00000000
00000001
00000000
00000010
00000000
00001000
00000000
00010000
00000000
01000000
00000000
00100000
10000000
,
00020000
01000000
10000000
00100000
,
00031000
00000000
00000100
00000000
00001000
00000000
00000010
00000000
00000100
00000001
00000100
00000001
00000010
00000000
00001000
00000000
,
00020000
00000000
01030000
20000000
00000000
30100000
00020000
00000000
,
00031000
00000000
00100000
00000000
00000000
00100000
00000000
00000000
00110000
00000000
00110000
00000000
00000000
00000000
00002200
00000000
,
00000000
00000000
00003300
00000000
00000001
00000100
00000001
00000100
00000010
00001000
00000010
00001000
00000100
00010000
00000100
00010000
,
00001000
00100000
00010000
00100000
01000000
10000000
00100000
01000000
00010000
00100000
00001000
00010000
00000010
00001000
00000001
00000100
,
00002000
00000000
00000000
00000000
00000000
00000000
00010000
00000000
00000000
00000000
00000000
00000000
00100000
00000000
00000000
00000000
00000000
00000000
00000000
00000000
00000000
00000000
00000000
00000000
00003000
00000000
00000000
00000000
10000000
01000000
00010000
00001000
,
00200000
00000000
00000000
00000000
,
00000000
00000000
00000000
00000000
,
00300000
00000000
00000000
00000000
;
