#VERSION:0.83;
#TITLE:DOMINION;
#SUBTITLE:;
#ARTIST:L.E.D.-G;
#TITLETRANSLIT:;
#SUBTITLETRANSLIT:;
#ARTISTTRANSLIT:;
#GENRE:HARDCORE;
#CREDIT:;
#MUSIC:DOMINION.ogg;
#BANNER:DOMINION.png;
#BACKGROUND:DOMINION-bg.png;
#CDTITLE:./CDTitles/bm IIDX 17 SIRIUS.png;
#SAMPLESTART:29.711;
#SAMPLELENGTH:15.000;
#SELECTABLE:YES;
#OFFSET:0.888;
#BPMS:0.000=196.000;
#STOPS:;
#BGCHANGES:0.000=DOMINION.mp4=1.000=0=0=0=StretchNoLoop====,
99999.000=-nosongbg-=1.000=0=0=0=StretchNoLoop====
;
#FGCHANGES:;

//--------------- dance-single - ----------------
#NOTEDATA:;
#STEPSTYPE:dance-single;
#DESCRIPTION:;
#DIFFICULTY:Beginner;
#METER:5;
#RADARVALUES:0,0,0,0,0;
#OFFSET:0.888;
#BPMS:0.000=196.000;
#STOPS:324.000=1.224;
#CREDIT:forcednature;
#NOTES:
0000
0000
0000
0000
,
0000
0000
0000
0000
,
0000
0000
0000
0000
,
0000
0000
0000
0000
,
0000
0000
0000
0000
,
0000
0000
0000
0000
,
0000
0000
0000
0000
,
0000
0000
0000
0000
,
0000
0000
0000
0000
,
1001
0000
0000
0000
,
1000
0000
0000
0000
,
0001
0000
0000
0000
,
0100
0000
0000
0000
,
0110
0000
0000
0000
,
1000
0000
0001
0000
,
1000
0000
0000
0000
,
0010
0010
0100
0100
,
0001
0000
0000
0000
,
0000
0000
0000
0000
,
0000
0000
0000
0000
,
0000
0000
0000
0000
,
1001
0000
0000
0000
,
1000
0000
0100
0000
,
1001
0000
0001
0000
,
0100
0000
0000
0000
,
0110
0000
0000
0000
,
0010
0000
1000
0000
,
0001
0000
0000
0000
,
0010
0000
0100
0000
,
1000
0000
0000
0000
,
0001
0000
0100
0000
,
0010
0000
0000
0000
,
1000
1000
0000
0001
,
0001
0000
0000
0000
,
0010
0000
0100
0000
,
1000
0000
0000
0000
,
0010
0000
0100
0000
,
0001
0000
0000
0000
,
1000
0000
0001
0000
,
0010
0000
0100
0100
,
1000
0000
0000
0000
,
1001
0000
0000
0000
,
0001
0000
0000
0000
,
0100
0000
0000
0000
,
0010
0000
1000
0000
,
0001
0000
0000
0000
,
0010
0000
0100
0000
,
1000
0000
0000
0000
,
0010
0010
0000
0100
,
0100
0000
0000
0000
,
0001
0000
1000
0000
,
0100
0000
0000
0000
,
0010
0000
0001
0000
,
1000
0000
0000
0000
,
0010
0000
0100
0000
,
0001
0000
0001
0000
,
1000
0000
1000
0000
,
0100
0100
0010
0010
,
0100
0100
0010
0010
,
0001
1000
0001
1000
,
0010
0000
0100
0100
,
0001
0001
1000
1000
,
0100
0010
0100
0010
,
0001
0001
1000
1000
,
0010
0100
0010
0100
,
0001
0000
0000
0000
,
1000
0000
0000
0000
,
0100
0000
0000
0000
,
0010
0000
0000
0000
,
0001
0000
0000
0000
,
0100
0000
0000
0000
,
0010
0000
0010
0000
,
1000
1000
0001
0001
,
0010
0000
0000
0000
,
0000
0000
0000
0000
,
0000
0000
0000
0000
,
0000
0000
0000
0000
,
1001
0000
0000
0000
,
0100
0000
0100
0000
,
0010
0000
0010
0000
,
1000
1000
0001
0001
,
0010
0000
0000
0000
,
1001
0000
0000
0000
,
1000
0000
0000
0000
,
0001
0000
0000
0000
,
0100
0000
0010
0000
,
0100
0000
0000
0000
,
0001
0000
0000
0000
,
1000
0000
0000
0000
,
0100
0100
0010
0010
,
0001
0000
0000
0000
,
1000
0000
0000
0000
,
0010
0000
0000
0000
,
0100
0000
0100
0000
,
0001
0000
0000
0000
,
1000
0000
1000
0000
,
0100
0000
0010
0000
,
0001
0001
1000
1000
,
0010
0000
0000
0000
;

//--------------- dance-single - ----------------
#NOTEDATA:;
#STEPSTYPE:dance-single;
#DESCRIPTION:;
#DIFFICULTY:Easy;
#METER:9;
#RADARVALUES:0,0,0,0,0;
#OFFSET:0.888;
#BPMS:0.000=196.000;
#STOPS:324.000=1.224;
#CREDIT:forcednature;
#NOTES:
0000
0000
0000
0000
,
0000
0000
0000
0000
,
0000
0000
0000
0000
,
0000
0000
0000
0000
,
0000
0000
0000
0000
,
0000
0000
0000
0000
,
0000
0000
0000
0000
,
0000
0000
0000
0000
,
0000
0000
0000
0000
,
1000
0000
0000
0100
0000
0000
0010
0000
,
0001
0000
0001
0000
0000
0100
0000
0000
,
0001
0000
0000
0100
0000
0000
0010
0000
,
1000
0000
1000
0000
0000
0100
0000
0000
,
1100
0000
0000
1001
0000
0000
0101
0000
,
0010
0000
1001
0000
0000
0110
0000
0000
,
0001
0100
0010
1000
,
0001
1000
0001
0000
0020
0000
0230
0000
,
2300
0000
0000
0000
,
0000
0000
0000
0000
,
0000
0000
0000
0000
,
0000
0000
0000
3000
,
1001
0000
0000
1001
0000
0000
0001
0000
,
0100
0000
1000
0000
0000
0100
0000
0000
,
0110
0000
0000
0110
0000
0000
0010
0000
,
0200
0000
0000
0300
,
1001
0001
0100
0020
,
0000
0030
1000
0000
0100
0000
0010
0000
,
0001
0100
0010
2000
,
0000
3000
0001
0000
0010
0000
0100
0000
,
0110
0010
0001
2000
,
0000
3000
0010
0000
0100
0000
0001
0000
,
1000
0100
1000
0010
,
0100
0000
0100
0000
0000
0001
0000
0001
,
1000
0001
0010
0200
,
0000
0300
0010
0000
0001
0000
1000
0000
,
0010
0100
0001
2000
,
0000
3000
0100
0000
0010
0000
0001
0000
,
1001
1000
0010
0200
,
0000
0300
0001
0000
0010
0000
0100
0000
,
0110
0000
0000
0100
0000
0000
1000
0001
,
2000
0000
0000
0000
3000
0000
0001
0100
,
0001
0010
0001
0100
,
0010
1000
0100
0010
,
0001
0100
0010
1000
,
0100
0010
0001
0100
,
0110
0010
1000
0001
,
0010
0100
1000
0010
,
0110
0100
0001
1000
,
0100
0000
0100
0010
0000
0010
0000
0010
,
0001
1000
0010
1000
,
0001
0100
1000
0100
,
0001
1000
0001
0010
,
1000
0010
0001
1000
,
1001
0001
0100
0010
,
1000
0100
0001
0100
,
0110
0010
0001
1000
,
0010
0010
0100
0100
,
0002
2003
3002
2003
,
3001
0100
0001
0000
1000
0100
1000
0000
,
0010
0010
0100
0001
,
0101
0000
1000
0100
0000
0100
0000
0000
,
2000
3002
2003
3002
,
0013
0010
0010
0000
0100
0100
0100
0000
,
2000
3002
2003
3002
,
0103
0100
0100
0000
0010
0010
0020
0000
,
1030
0001
0010
0001
,
0100
0010
1000
0100
,
0110
0010
0001
1000
,
0001
0100
0010
1000
,
1001
0001
0010
0001
,
1001
1000
0010
0100
,
0110
0100
0001
1000
,
0100
0010
0100
0000
0010
0100
0010
0000
,
2002
0000
0000
0000
,
0000
0000
0000
0000
,
3003
0000
0000
0000
,
0000
0000
0000
0000
,
1001
0000
0000
1001
0000
0000
0100
0000
,
0010
0000
0110
0000
0000
1000
0000
0000
,
0001
0001
0100
0100
,
0010
1000
0200
0320
,
0031
0000
0000
0000
,
1001
0000
0001
0000
0100
0000
0010
2000
,
0000
3000
0100
0000
0010
0000
0001
0000
,
1000
0000
0010
0000
0100
0000
0001
2000
,
0000
3000
0100
0000
0010
0000
0001
0000
,
1001
0000
1000
0000
0010
0000
0100
0002
,
0000
0003
1000
0000
0100
0000
1000
0000
,
0010
0000
0100
0000
0001
0000
0010
0200
,
1000
0300
1000
0000
0000
0001
0000
0001
,
1000
0000
0010
0000
0100
0000
0001
2000
,
0000
3000
0100
0000
0010
0000
0001
0000
,
1000
0000
0010
0000
0100
0000
0001
0020
,
0000
0030
0100
0000
1000
0000
0001
0000
,
1001
0000
1000
0000
0010
0000
0100
0002
,
0000
0003
1000
0000
0100
0000
0010
0000
,
0110
0000
0000
1001
0000
0000
1000
0000
,
0001
0000
0100
0000
0010
0010
0010
0000
,
2002
0000
0000
0000
,
3003
0000
0000
0000
;

//--------------- dance-single - ----------------
#NOTEDATA:;
#STEPSTYPE:dance-single;
#DESCRIPTION:;
#DIFFICULTY:Medium;
#METER:13;
#RADARVALUES:0,0,0,0,0;
#OFFSET:0.888;
#BPMS:0.000=196.000;
#STOPS:324.000=1.224;
#CREDIT:forcednature;
#NOTES:
0000
0000
0000
0000
,
0000
0000
0000
0000
,
0000
0000
0000
0000
,
0000
0000
0000
0000
,
0000
0000
0000
0000
,
0000
0000
0000
0000
,
0000
0000
0000
0000
,
0000
0000
0000
0000
,
0000
0000
0000
0000
,
1001
0000
0000
1100
0000
0000
1010
0000
,
0001
0000
1000
0000
0000
0100
0100
0000
,
1001
0000
0000
0101
0000
0000
0011
0000
,
0100
0100
0100
0000
0010
1000
0001
0000
,
1100
0000
0000
1010
0000
0000
0101
0000
,
0011
0000
0110
0000
0000
1000
0001
0000
,
0100
0001
0100
0001
1000
0100
1000
0100
,
0010
0010
0001
0001
2000
0000
3020
0000
,
0230
0000
0000
0000
,
0000
0000
0000
0000
,
0000
0000
0000
0000
,
0000
0000
0000
0300
,
0101
0000
0000
0011
0000
0000
1000
0000
,
1010
0000
1010
0000
0000
0100
0000
0001
,
0011
0000
0001
1000
0000
0010
0100
0100
,
0002
0000
0000
0003
,
0011
0000
0001
0100
0001
0100
0010
1000
,
0000
0100
0010
0000
0001
0100
0000
0100
,
0001
0000
1000
0100
1000
0100
0010
0001
,
0000
0100
0001
0000
0010
0000
0100
1000
,
0100
0010
0001
0000
0100
0000
0010
2000
,
0000
0000
3100
0000
0010
0001
0000
0001
,
0100
0010
1000
0000
0001
0000
0010
0100
,
1000
0001
1000
0001
0000
0100
1000
0100
,
0001
0000
0010
0100
0010
0100
1000
0010
,
0000
0100
0001
0000
1000
0100
0000
0100
,
0010
0000
0001
0100
0001
0100
0010
1000
,
0000
0100
0010
0000
0001
0100
0001
0010
,
0100
1000
0100
0000
0010
0000
0001
0200
,
0000
0000
1300
0000
0100
0010
0100
0010
,
1000
0000
1000
0100
0000
0100
0010
0010
,
0002
0000
0000
0000
0003
0000
0100
0001
,
0100
0000
0010
1000
0100
0010
0001
0000
,
0100
0010
1000
0001
0010
0000
0100
1000
,
0001
0000
0100
0010
1000
0100
0010
0000
,
0001
1000
0010
0100
0001
0000
0010
0100
,
1000
0000
0010
0100
1000
0100
0001
0000
,
1000
0100
0010
0001
0100
0000
0010
1000
,
0001
0000
0010
0001
0100
0010
1000
0000
,
0100
0100
0010
0100
0000
0010
0001
1000
,
0001
0000
0100
0001
1000
0010
0100
0000
,
0001
0010
0100
1000
0001
0000
0100
0010
,
1000
0000
0100
0010
0001
0100
0010
0000
,
1000
0001
0010
0001
0100
0000
0010
1000
,
1010
0000
0001
0100
0001
1000
0010
0000
,
1000
0100
0010
0001
0100
0000
0010
1000
,
0001
0010
0001
0010
0100
1000
0100
1000
,
0001
0100
0010
0100
1000
0100
0010
0100
,
0002
0023
0230
2300
,
3001
0001
0010
0010
0100
0100
1000
1000
,
0001
0100
0001
0100
0010
0010
1000
1000
,
0100
0000
0010
0010
0001
0100
1000
0100
,
0020
2030
3002
0203
,
0310
0010
1000
1000
0001
0001
0100
0100
,
0010
1000
0010
1000
0001
0010
0001
0010
,
0100
1000
0100
0001
0100
0010
0002
0000
,
0103
0000
0001
0010
0100
1000
0010
0000
,
0100
0001
1000
0100
1000
0000
0010
0100
,
1000
0000
0100
0001
1000
0100
0010
0000
,
0001
1000
0010
0100
0001
0000
1000
0100
,
0001
0000
0100
0010
0001
1000
0010
0000
,
0110
0000
0100
0001
1000
0100
0010
0000
,
0001
0100
0001
0100
1000
0100
1000
0100
,
0010
0010
1000
1000
0001
0001
0010
0010
,
0200
0000
0000
0000
,
0000
0000
0000
0000
,
0300
0000
0000
0000
,
1000
0000
0001
0000
0100
0001
0100
0010
,
1000
0000
0000
1100
0000
0000
0110
0000
,
0011
0000
1001
0000
0000
0001
1000
0000
,
0001
0100
0001
0100
0010
1000
0010
1000
,
0100
0100
0010
0010
0002
0000
2003
0000
,
3010
0000
0000
0000
0000
0000
0100
0100
,
0001
0000
1000
0100
1000
0010
0100
0001
,
0000
0010
0100
1000
0001
0100
0000
0100
,
1000
0000
0100
0010
1000
0001
0010
0001
,
0000
0100
0010
1000
0100
0000
0010
0001
,
0100
0001
0010
0000
0100
1000
0010
2000
,
0000
3001
1000
0000
0010
1000
0001
1000
,
0100
0010
0001
0000
0100
0010
1000
0010
,
0100
0000
0100
0000
0001
0000
0001
0000
0010
0000
0100
0000
0000
0000
1000
0001
,
1000
0000
0010
0100
0001
0100
0010
1000
,
0000
0100
0010
0001
0100
0010
0000
0010
,
1000
0000
0100
0010
0100
1000
0001
0010
,
0000
0001
0100
0010
1000
0100
0010
0001
,
0011
0000
0001
1000
0010
0000
0100
0002
,
0000
0013
0001
0000
0100
0010
0100
0010
,
1000
0000
0100
0001
0000
0001
0100
0010
,
0001
0100
1000
0100
0010
0010
0100
0100
,
2002
0000
0000
0000
,
3003
0000
0000
0000
;

//--------------- dance-single - ----------------
#NOTEDATA:;
#STEPSTYPE:dance-single;
#DESCRIPTION:;
#DIFFICULTY:Hard;
#METER:17;
#RADARVALUES:0,0,0,0,0;
#OFFSET:0.888;
#BPMS:0.000=196.000;
#STOPS:324.000=1.224;
#CREDIT:forcednature;
#NOTES:
0000
0000
0000
0000
,
0000
0000
0000
0000
,
0000
0000
0000
0000
,
0000
0000
0000
0000
,
0000
0000
0000
0000
,
0000
0000
0000
0000
,
0000
0000
0000
0000
,
0000
0000
0000
0000
,
0000
0000
0000
0000
,
1001
0000
0001
0100
0000
1000
0100
0000
,
0101
0000
0011
0000
0000
1000
1001
0000
,
0001
0000
1000
0010
0000
0001
0010
0000
,
0100
0100
0100
0000
0001
1000
0100
1000
,
1100
0000
0000
0101
0000
0000
1001
0000
,
0011
0000
1010
0000
0000
0110
1001
0000
,
1000
0100
1000
0010
0100
0001
0010
0001
,
0100
0001
0100
0001
1000
0100
1000
0100
0020
0000
0000
0000
0032
0000
0000
0000
,
0203
0000
0000
0000
,
0000
0000
0000
0000
,
0000
0000
0000
0000
,
0000
0000
0000
0300
,
1010
0000
0000
0101
0000
0000
1001
0000
,
0011
0000
1100
0000
0000
0001
0000
0001
,
0101
0000
0000
0000
1000
0000
1010
0000
0000
0000
0010
0000
1000
0100
0010
0001
,
0200
0000
0000
0300
,
1001
0000
0001
0010
0100
1000
0001
0200
,
0000
1300
0100
0001
1000
0100
0010
0001
,
0100
0000
0010
1000
0001
0010
0100
2000
,
0000
3001
1000
0010
0100
0000
0001
0001
,
1000
0100
1000
0000
0010
0000
0000
0000
0101
0000
0000
0000
1000
0000
0002
0000
,
0000
0100
1003
0001
0010
0100
0001
0100
,
1000
0010
0100
0000
0101
0000
0001
2000
,
0100
0000
0100
0000
0001
0000
3010
0000
0000
0000
1000
0100
1000
0000
0001
0100
,
0001
0000
0010
0100
1000
0001
1000
0020
,
0000
0130
0010
0001
0010
1000
0001
1000
,
0100
0000
0001
0100
1000
0010
1000
0200
,
0000
0000
0310
0000
0001
0000
1000
0000
0001
0100
0001
0000
1000
0100
1000
0000
,
0001
0010
0100
0000
1000
0000
0000
0000
0101
0000
0000
0000
1000
0000
0020
0000
,
0000
0001
0130
0010
1000
0100
0010
0100
,
0110
0000
0000
0000
0010
0000
1001
0000
0000
0000
1000
0000
0001
0010
0001
0010
,
0200
0000
0000
0000
0000
0000
0000
0000
0300
0000
0000
0000
1000
0001
1000
0001
,
1000
0001
0010
0001
0100
0010
1000
0010
,
0100
1000
0100
0001
0010
0100
1000
0001
,
1000
0010
0001
0010
0100
0001
1000
0001
,
0010
0100
1000
0010
0100
1000
0100
0001
,
1000
0010
1000
0000
0001
0000
0010
0000
0100
0000
1000
0000
0100
0000
0001
0000
,
0100
0010
0001
1000
0010
0001
0010
1000
,
0001
0100
0001
0000
1000
0000
0010
0000
1000
0000
0100
0000
0010
0000
0001
0000
,
0100
0100
0001
1001
0000
1000
1000
0100
,
0010
0001
0010
0000
0100
0000
1000
0000
0001
0000
0100
0000
1000
0000
0100
0000
,
0010
1000
0001
1000
0100
0001
0100
0010
,
0001
0100
0010
1000
0001
0010
0100
1000
,
0010
0001
0010
0100
0001
1000
0001
0010
,
0100
1000
0100
0000
0010
0000
0001
0000
0100
0000
1000
0000
0100
0000
0001
0000
,
1000
0010
0100
0001
0010
1000
0010
0001
,
0100
0001
0100
0000
0001
0000
0001
0000
1000
0000
1000
0000
0100
0000
0100
0000
,
0010
0001
0010
0001
1000
0010
1000
0010
0100
0001
0100
0001
1000
0100
1000
0100
,
0010
0001
0000
0000
0001
0100
0000
0000
0100
0010
0000
0000
0010
1000
0000
0000
,
1000
0000
0100
0000
1000
0000
0001
0000
0100
0001
0100
0001
1000
0100
1000
0100
,
0010
0000
0001
0000
0100
0000
0001
0000
1000
0010
1000
0010
0100
0001
0100
0001
,
0010
0000
0100
0100
1000
1100
0001
0101
,
1000
0010
0000
0000
0010
0100
0000
0000
0100
0001
0000
0000
0001
1000
0000
0000
,
1000
0100
0010
0001
1000
0010
0100
0001
1000
0100
0010
0001
1000
0010
0100
0001
,
1000
0100
1000
0010
0100
0001
0010
0001
,
1000
0100
0010
0001
0100
0010
1000
0100
0010
0001
0100
0010
2000
0000
0000
0000
,
3001
0100
0001
0000
0010
0000
0001
0000
0100
0000
0010
0000
0001
0000
0010
0000
,
1000
0001
1000
0100
0010
0001
0100
0010
,
1000
0001
1000
0000
0010
0000
0100
0000
0001
0000
0010
0000
1000
0000
0010
0000
,
0100
1000
0001
0100
0010
1000
0001
0010
,
0001
0100
0001
0000
1000
0000
0010
0000
0001
0000
0010
0000
0100
0000
0001
0000
,
1000
0100
1000
0000
0001
0000
0010
0000
1000
0000
0010
0000
0100
0000
1000
0000
,
0001
0001
0100
0100
0010
0010
1000
1000
,
0001
0010
0100
1000
0001
1000
0010
0100
0001
1000
0001
0010
0100
1000
0001
1000
,
0020
0000
0000
0000
,
0000
0000
0000
0000
,
0030
0000
0000
0000
,
0100
0000
0100
0000
0001
0000
0000
0001
1000
0000
0100
0000
0010
0000
0001
0000
,
0011
0000
0000
1100
0000
0000
1010
0000
,
0101
0000
1001
0000
0000
0110
1001
0000
,
0001
0010
0100
1000
0001
0100
0010
1000
,
0100
1000
0100
1000
0001
0100
0001
0100
0020
0000
0000
0000
2030
0000
0000
0000
,
3001
0000
0000
0000
0000
0000
0010
0010
,
1001
0000
1000
0100
0010
0000
0001
1000
0001
0000
0100
0000
0010
0000
2000
0000
,
0000
3100
0010
0001
0100
1000
0100
0001
,
1000
0000
0001
0010
0001
0000
0100
0010
1000
0000
0100
0000
0010
0000
0002
0000
,
0000
0103
0001
0010
0100
1000
1001
0001
,
0100
0000
0010
1000
0001
0000
1000
0100
0010
0000
0001
0000
0100
0000
0020
0000
,
0000
0000
0100
0000
1030
0000
0010
0000
0100
0000
0001
0000
1000
0100
0010
0000
,
0001
0000
1000
0001
0100
0000
0010
1000
0001
0000
0010
0000
0100
0000
0100
0000
,
0110
0000
0010
0001
1000
0000
0010
0000
0100
0001
0100
0001
1000
0100
0010
0001
,
0100
0000
0010
1000
0001
0000
1000
0100
0010
0000
0001
0000
0100
0000
0020
0000
,
0000
1030
0001
0010
0100
0001
0100
1000
,
0001
0000
0100
0001
1000
0000
0001
0010
0100
0000
1000
0000
0001
0000
0200
0000
,
0000
0000
0310
0000
1000
0000
0001
0000
1000
0100
0010
0001
1000
0010
0100
0001
,
0010
0000
0001
1000
0100
0000
0010
0001
0100
0000
0001
0000
1000
0000
0200
0000
,
0000
0000
0001
0000
0310
0000
0100
0000
1000
0000
0001
0010
0001
0000
0100
0000
,
0101
0000
0000
0000
0010
0000
2100
0000
0000
0000
3001
0000
1000
0010
0100
0001
,
1000
0100
1000
0100
0010
0001
0010
0001
1000
0001
0100
0010
1000
0100
0010
0001
,
0200
0000
0000
0000
,
0300
0000
0000
0000
;

//--------------- dance-double - ----------------
#NOTEDATA:;
#STEPSTYPE:dance-double;
#DESCRIPTION:;
#DIFFICULTY:Easy;
#METER:9;
#RADARVALUES:0,0,0,0,0;
#CREDIT:forcednature;
#NOTES:
00000000
00000000
00000000
00000000
,
00000000
00000000
00000000
00000000
,
00000000
00000000
00000000
00000000
,
00000000
00000000
00000000
00000000
,
00000000
00000000
00000000
00000000
,
00000000
00000000
00000000
00000000
,
00000000
00000000
00000000
00000000
,
00000000
00000000
00000000
00000000
,
00000000
00000000
00000000
00000000
,
00010000
00000000
00000000
00001000
00000000
00000000
01000000
00000000
,
00010000
00000000
00010000
00000000
00000000
10000000
00000000
00000000
,
01000000
00000000
00000000
00010000
00000000
00000000
00001000
00000000
,
00000010
00000000
00000010
00000000
00000000
00000100
00000000
00000000
,
00001001
00000000
00000000
00001001
00000000
00000000
00001000
00000000
,
00000100
00000000
00010000
00000000
00000000
00010000
00001000
00000000
,
01000000
01000000
00010000
00010000
,
10000000
01000000
10000000
01000000
00200000
00000000
00302000
00000000
,
00023000
00000000
00000000
00000000
,
00000000
00000000
00000000
00000000
,
00000000
00000000
00000000
00000000
,
00000000
00000000
00000000
00030000
,
00011000
00000000
00000000
00011000
00000000
00000000
00010000
00000000
,
00000100
00000000
00001000
00000000
00000000
00000010
00000000
00000000
,
00000110
00000000
00000000
00000110
00000000
00000000
00000100
00000001
,
00000200
00000000
00000000
00000300
,
00000110
00000010
00001000
00000020
,
00000000
00000030
00010000
00000000
00001000
00000000
00100000
00000000
,
00010000
00100000
01000000
20000000
,
00000000
30000000
00010000
00000000
01000000
00000000
00001000
00000000
,
00011000
00010000
00000100
00002000
,
00000000
00003000
00000001
00000000
00000100
00000000
00000010
00000000
,
00001000
00000010
00010000
00001000
,
00100000
00000000
00100000
00000000
00000000
01000000
00000000
01000000
,
10000000
00100000
10000000
02000000
,
00000000
03000000
00010000
00000000
00001000
00000000
00010000
00000000
,
00000100
00001000
00000010
00020000
,
00000000
00030000
00001000
00000000
00000010
00000000
00000100
00000000
,
00000110
00000010
00000001
00002000
,
00000000
00003000
00000010
00000000
00010000
00000000
00001000
00000000
,
00011000
00000000
00000000
00010000
00000000
00000000
00001000
01000000
,
00002000
00000000
00000000
00000000
00003000
00000000
00100000
00010000
,
00100000
01000000
00100000
00010000
,
10000000
00100000
01000000
00100000
,
00010000
00001000
00010000
00000100
,
00001000
00000001
00000100
00000001
,
00001001
00001000
00000100
00010000
,
00001000
01000000
00010000
01000000
,
01100000
00100000
10000000
00100000
,
10000000
00000000
10000000
01000000
00000000
01000000
00000000
01000000
,
00100000
00010000
00100000
00001000
,
00010000
00000010
00001000
00000010
,
00001000
00000100
00000010
00000001
,
00000100
00000010
00001000
00000100
,
00001100
00001000
00000010
00010000
,
00001000
00100000
00010000
01000000
,
01100000
00100000
10000000
00010000
,
00100000
00100000
00001000
00001000
,
00020000
00030020
00020030
00030020
,
00001030
00000100
00001000
00000000
00000100
00001000
00000100
00000000
,
00000010
00000010
00000001
00000100
,
00000110
00000000
00000010
00001000
00000000
00001000
00000000
00000000
,
00000200
00020300
00030200
00020300
,
00031000
01000000
00001000
00000000
01000000
00001000
01000000
00000000
,
00020000
20030000
30020000
20030000
,
31000000
00100000
01000000
00100000
00020000
00000000
20030000
00000000
,
30100000
01000000
00010000
01000000
,
00001000
00010000
00000100
00001000
,
00001001
00000001
00000100
00000001
,
00000010
00000100
00001000
00000100
,
00010100
00010000
00001000
01000000
,
01010000
00010000
00100000
00001000
,
00010000
00010000
00000010
00000010
,
00001000
00000100
00001000
00000000
00000001
00000100
00000001
00000000
,
00002002
00000000
00000000
00000000
,
00000000
00000000
00000000
00000000
,
00000000
00000000
00000000
00000000
,
00003003
00000000
00000000
00000000
,
00010100
00000000
00000000
00010100
00000000
00000000
00010000
00000000
,
00001000
00000000
01000000
00000000
00000000
01010000
00000000
00000000
,
10000000
10000000
00010000
00010000
,
00100000
00100000
00002000
00023000
,
00030010
00000000
00000000
00000000
,
00000000
00000000
00000000
00000000
,
00001001
00000000
00000001
00000000
00000010
00000000
00000001
00002000
,
00000000
00003000
00000010
00000000
00010000
00000000
00001000
00000000
,
00100000
00000000
00010000
00000000
00100000
00000000
01000000
20000000
,
00000000
30000000
00010000
00000000
01000000
00000000
00001000
00000000
,
00011000
00000000
00010000
00000000
00000100
00000000
00001000
00000002
,
00000000
00000003
00000100
00000000
00000010
00000000
00001000
00000000
,
00000010
00000000
00010000
00000000
00001000
00000000
00100000
00020000
,
10000000
00030000
10000000
00000000
00000000
00010000
00000000
00010000
,
00100000
00000000
00001000
00000000
00010000
00000000
00000010
00002000
,
00000000
00003000
00000100
00000000
00000010
00000000
00000001
00000000
,
00000010
00000000
00000100
00000000
00010000
00000000
00001000
02000000
,
00000000
03000000
00010000
00000000
10000000
00000000
00010000
00000000
,
10010000
00000000
10000000
00000000
01000000
00000000
00100000
00002000
,
00000000
00003000
00010000
00000000
00000010
00000000
00001000
00000000
,
00001010
00000000
00000000
00000101
00000000
00000000
00000001
00000000
,
00000010
00000000
00000100
00000000
00010000
00010000
00010000
00000000
,
00022000
00000000
00000000
00000000
,
00033000
00000000
00000000
00000000
;

//--------------- dance-double - ----------------
#NOTEDATA:;
#STEPSTYPE:dance-double;
#DESCRIPTION:;
#DIFFICULTY:Medium;
#METER:13;
#RADARVALUES:0,0,0,0,0;
#CREDIT:forcednature;
#NOTES:
00000000
00000000
00000000
00000000
,
00000000
00000000
00000000
00000000
,
00000000
00000000
00000000
00000000
,
00000000
00000000
00000000
00000000
,
00000000
00000000
00000000
00000000
,
00000000
00000000
00000000
00000000
,
00000000
00000000
00000000
00000000
,
00000000
00000000
00000000
00000000
,
00000000
00000000
00000000
00000000
,
00011000
00000000
00000000
00010100
00000000
00000000
00101000
00000000
,
00100000
00000000
00010000
00000000
00000000
01000000
01000000
00000000
,
00011000
00000000
00000000
01001000
00000000
00000000
00010010
00000000
,
00000010
00000010
00000010
00000000
00001000
00000001
00000010
00000000
,
00000110
00000000
00000000
00010100
00000000
00000000
00011000
00000000
,
01001000
00000000
01100000
00000000
00000000
10000000
00010000
00000000
,
10000000
01000000
10000000
01000000
00010000
00001000
00010000
00001000
,
00000100
00000001
00000100
00000001
00000020
00000000
00000230
00000000
,
00020300
00000000
00000000
00000000
,
00000000
00000000
00000000
00000000
,
00000000
00000000
00000000
00000000
,
00000000
00000000
00000000
00030000
,
00011000
00000000
00000000
00010100
00000000
00000000
01001000
00000000
,
00011000
00000000
00101000
00000000
00000000
00001000
00000000
00010000
,
00011000
00000000
00010000
00000010
00000000
00001000
00000100
00000010
,
00000002
00000000
00000000
00000003
,
00000101
00000000
00000100
00000010
00000100
00001000
00010000
00001000
,
00000000
01000000
00010000
00100000
01000000
10000000
00000000
10000000
,
01000000
00000000
00010000
00001000
00010000
00000010
00001000
00000010
,
00000000
00000100
00000001
00001000
00000001
00000000
00000010
00000100
,
00001000
00000100
00010000
00000000
00001000
00000000
01000000
00020000
,
00000000
00100000
00130000
00000000
00010000
10000000
00000000
10000000
,
00010000
01000000
00001000
00000000
00010000
00000000
00000100
00001000
,
00000010
00000100
00000010
00000100
00000000
00000001
00000010
00000100
,
00001000
00000000
00000010
00010000
00001000
00010000
01000000
00100000
,
00000000
00010000
01000000
00100000
10000000
01000000
00000000
01000000
,
00010000
00000000
00001000
00000010
00000100
00000010
00000001
00001000
,
00000000
00000010
00010000
00001000
01000000
00000000
01000000
00010000
,
00100000
01000000
10000000
00000000
00100000
00000000
00010000
00002000
,
00000000
01000000
01003000
00000000
00001000
00010000
00001000
00010000
,
00000100
00000000
00000100
00001000
00000000
00001000
00000001
00000001
,
00000200
00000000
00000000
00000000
00000300
00000000
00001000
00010000
,
00001000
00000000
01000000
00010000
00000000
00010000
00100000
00000000
,
00100000
01000000
00000000
01000000
00010000
00000000
00001000
00010000
,
00001000
00000000
00001000
00000010
00000000
00000010
00000100
00000000
,
00000100
00001000
00000000
00001000
00000001
00000000
00000100
00001000
,
00010000
00000000
00010000
00100000
00000000
00100000
10000000
00000000
,
10000000
01000000
00000000
01000000
00010000
00000000
00001000
00000010
,
00000100
00000000
00000100
00001000
00000000
00001000
00000001
00000000
,
00000100
00001000
00000100
00001000
00000000
00010000
01000000
00010000
,
01000000
00000000
01000000
00100000
00000000
00100000
00010000
00000000
,
00010000
10000000
00000000
10000000
00100000
00000000
01000000
00001000
,
00010000
00000000
00010000
00000100
00000000
00000100
00001000
00000000
,
00001000
00000010
00000000
00000010
00000100
00000000
00000001
00000010
,
00000100
00000000
00000100
00010000
00000000
00010000
00001000
00000000
,
00001000
01000000
00000000
01000000
00010000
00000000
00100000
01000000
,
10000000
00100000
10000000
00100000
00010000
00001000
00010000
00001000
,
00000010
00000001
00000010
00000001
00000100
00000001
00000100
00000000
,
00000001
00000100
00000010
00001000
00000100
00000010
00001000
00010000
,
00000010
00001000
00010000
01000000
00001000
00010000
01000000
00100000
,
00010000
01000000
00100000
01000000
10000000
10000000
01000000
01000000
,
00010000
00000000
10000000
10000000
01000000
00100000
00000000
00010000
,
10000000
01000000
00100000
00010000
01000000
00100000
00010000
00001000
,
00100000
00010000
00001000
00000100
00010000
00001000
00000100
00000010
,
00001000
00000100
00000010
00000001
00000010
00000100
00001000
00010000
,
00100000
01000000
10000000
01000000
00010000
00001000
00020000
00000000
,
00130000
00000000
00100000
10000000
00000000
10000000
01000000
00000000
,
01000000
00010000
00000000
00010000
00001000
00000000
00000010
00000100
,
00001000
00000000
00001000
00000001
00000000
00000001
00000100
00000000
,
00000100
00001000
00000000
00001000
00010000
00000000
00100000
10000000
,
00010000
00000000
00100000
00001000
00000000
00001000
00010000
00000000
,
00011000
00000000
00000100
00001000
00000000
00001000
00000010
00000000
,
00000100
00001000
00000100
00001000
00010000
00100000
00010000
00100000
,
10000000
00010000
10000000
01000000
00010000
00001000
00000100
00000001
,
00000020
00000000
00000000
00000000
,
00000000
00000000
00000000
00000000
,
00000030
00000000
00000000
00000000
,
00000100
00000000
00010000
00000000
00001000
00100000
00001000
00000000
,
00011000
00000000
00000000
00010010
00000000
00000000
00101000
00000000
,
00011000
00000000
01001000
00000000
00000000
00001000
00010000
00000000
,
00000100
00001000
00000010
00010000
00001000
00100000
00010000
01000000
,
00001000
00010000
00100000
01000000
00020000
00000000
20030000
00000000
,
32000000
00000000
00000000
00000000
,
03000000
00000000
00000000
00000000
00000000
00000000
00010000
00001000
,
00010000
00000000
00000100
00001000
00000010
00010000
00001000
00000010
,
00000000
00000100
00001000
00000001
00000100
00001000
00000000
00001000
,
00010000
00000000
00100000
01000000
00100000
10000000
00010000
10000000
,
00000000
01000000
00010000
00001000
00010000
00000000
00000100
00001000
,
00000010
00010000
00001000
00000000
00000010
00000100
00001000
00000200
,
00000000
00001000
00010300
00000000
00000100
00010000
00001000
01000000
,
00010000
00100000
01000000
00000000
10000000
00100000
01000000
00100000
,
00010000
00010000
00001000
00001000
00000010
00000100
00001000
00000001
,
00000100
00000000
00000010
00010000
00001000
00000010
00000100
00010000
,
00000000
00001000
01000000
00100000
10000000
00010000
00100000
00010000
,
01000000
00000000
00001000
00010000
00000100
00000010
00000001
00000100
,
00000000
00000010
00001000
00010000
01000000
00100000
10000000
00100000
,
10000000
01000000
00010000
00000000
00001000
00000010
00000100
00000020
,
00000000
00000001
00000130
00000000
00000010
00000001
00000100
00000001
,
00000010
00000000
00000010
00001000
00000000
00001000
00010000
00100000
,
01000000
00010000
00100000
00001000
00010000
00000010
00001000
00000100
,
00020000
00000000
00000000
00000000
,
00030000
00000000
00000000
00000000
;

//--------------- dance-double - ----------------
#NOTEDATA:;
#STEPSTYPE:dance-double;
#DESCRIPTION:;
#DIFFICULTY:Hard;
#METER:17;
#RADARVALUES:0,0,0,0,0;
#CREDIT:forcednature;
#NOTES:
00000000
00000000
00000000
00000000
,
00000000
00000000
00000000
00000000
,
00000000
00000000
00000000
00000000
,
00000000
00000000
00000000
00000000
,
00000000
00000000
00000000
00000000
,
00000000
00000000
00000000
00000000
,
00000000
00000000
00000000
00000000
,
00000000
00000000
00000000
00000000
,
00000000
00000000
00000000
00000000
,
00011000
00000000
00010000
00100000
00000000
00100000
10000000
00000000
,
10010000
00000000
11000000
00000000
10000000
01000000
00010000
00000000
,
00011000
00000000
00001000
00000010
00000000
00000010
00000001
00000000
,
00000100
00000100
00000100
00000000
00001000
00010000
00001000
01000000
,
01010000
00000000
00000000
10010000
00000000
00000000
00110000
00000000
,
00011000
00000000
00001100
00000000
00000000
00000001
00001001
00000000
,
00000001
00000100
00000010
00001000
00010000
01000000
00100000
10000000
,
00010000
00100000
01000000
10000000
01000000
00100000
00010000
10000000
00200000
00000000
00000000
00000000
00320000
00000000
00000000
00000000
,
00032000
00000000
00000010
00000000
00000010
00000000
00010000
00010000
,
00000000
00000000
01000000
01000000
00000000
00000000
00100000
00100000
,
00000000
00000000
00010000
00000000
00010000
00000000
00000010
00000010
,
00000000
00000000
01000000
01000000
00000000
00010000
00003000
00001000
,
00011000
00000000
00001000
00000100
00000000
00000100
00000001
00000000
,
00001001
00000000
00000011
00000000
00000010
00001000
00000000
00001000
,
00011000
00000000
00000000
00000000
00010000
00000000
00100000
00000000
00000000
00000000
00100000
00000000
10000000
00010000
10000000
01000000
,
00200000
00000000
00000000
00000000
00010000
00000000
00000000
00000000
00000000
00010000
00000000
00000000
00000000
00310000
00000000
00000000
,
01100000
00000000
01000000
00010000
00001000
00010000
00000010
00002000
,
00000000
00003100
00000001
00000100
00000010
00000001
00001000
00000001
,
00000100
00000000
00001000
00010000
00100000
00010000
00001000
00200000
,
00000000
01300000
10000000
00010000
01000000
00001000
00010000
00001000
,
00100000
00010000
00100000
00000000
00001000
00000000
00010000
00000000
00000010
00000000
00000000
00000000
00001000
00000000
00000002
00000000
,
00000000
00000010
00000103
00000001
00000010
00001000
00010000
00001000
,
01000000
00010000
00100000
01000000
10000000
00000000
00100000
00020000
,
00001000
00000000
00001000
00000000
00000100
00000000
00031000
00000000
00010000
00000000
00000100
00001000
00000001
00000000
00000100
00000001
,
00001000
00000000
00000010
00000100
00001000
00010000
00001000
00200000
,
00000000
01300000
00010000
00001000
00010000
00100000
10000000
00100000
,
01000000
00000000
00001000
00010000
00000100
00010000
00001000
00000020
,
00000000
00000000
00000130
00000000
00001000
00000000
00000001
00000000
00000100
00000001
00001000
00000000
00000100
00001000
00000010
00000000
,
00010000
00001000
00100000
00000000
00010000
00000000
01000000
00000000
10000000
00000000
01000000
00000000
00100000
00000000
20000000
00000000
,
00000000
01000000
30010000
10000000
01000000
00010000
00001000
00010000
,
00100000
00000000
01000000
00000000
00010000
00000000
00200000
00000000
00000000
00000000
01300000
00000000
00010000
00001000
00010000
00001000
,
00020000
00000000
00000000
00000000
00030000
00000000
00000100
00000100
,
00000010
00000001
00000010
00000100
00010000
00001000
00000100
00000010
,
00001000
00000001
00000010
00001000
00010000
00100000
00010000
00001000
,
00100000
00010000
01000000
10000000
01000000
00100000
10000000
01000000
,
00010000
00001000
00000100
00000010
00010000
00001000
00000010
00001000
,
00010000
00000100
00010000
00000000
00001000
00000000
00000100
00000000
00000010
00000000
00001000
00000000
00010000
00000000
01000000
00000000
,
00100000
00010000
00100000
10000000
01000000
00010000
00001000
00010000
,
00000100
00001000
00000100
00000000
00010000
00000000
00001000
00000000
00000100
00000000
00000010
00000000
00001000
00000000
00000100
00000000
,
00000010
00000011
00000001
00000101
00000000
00000100
00001000
00010000
,
00100000
01000000
00100000
00000000
10000000
00000000
00010000
00000000
00100000
00000000
10000000
00000000
00100000
00000000
00010000
00000000
,
01000000
00001000
00010000
00000100
00001000
00000010
00000001
00000010
,
00000100
00001000
00010000
01000000
00100000
00001000
00010000
00100000
,
10000000
01000000
00010000
00001000
00010000
00100000
01000000
00010000
,
10000000
01000000
00100000
00000000
00001000
00000000
00010000
00000000
00100000
00000000
00001000
00000000
00000010
00000000
00001000
00000000
,
00000100
00000010
00001000
00010000
00000010
00001000
00000100
00000010
,
00000001
00000100
00000010
00001000
00010000
01000000
00100000
10000000
,
01000000
10000000
01000000
10000000
01000000
00100000
00010000
00100000
00001000
00010000
00001000
00010000
00000010
00001000
00000010
00000100
,
00000002
00002003
00003200
00020300
,
00130000
00000000
01000000
00000000
00100000
00000000
10000000
00000000
00010000
00100000
01000000
10000000
00010000
00100000
00001000
00010000
,
00001000
00000000
00000100
00000000
00001000
00000000
00010000
00000000
00000100
00001000
00000100
00000010
00000001
00001000
00000001
00000100
,
00000010
00000000
00001000
00001000
00010000
01000000
10000000
01000000
,
00020000
00230000
00302000
00003020
,
00000130
00001000
00000010
00010000
00001000
01000000
00010000
00100000
00001000
00010000
00000100
00001000
00000010
00010000
00001000
01000000
,
00010000
00100000
01000000
00010000
00001000
00000100
00000010
00001000
,
00000001
00000100
00000010
00001000
00000010
00010000
00001000
00100000
00010000
00100000
01000000
10000000
00200000
00000000
00000000
00000000
,
01300000
00010000
01000000
00000000
00100000
00000000
00010000
00000000
00001000
00000000
00000010
00000000
00000100
00000000
00010000
00000000
,
00001000
00000100
00000001
00001000
00000100
00010000
00001000
01000000
,
00010000
10000000
00010000
00000000
00100000
00000000
00001000
00000000
00010000
00000000
00000010
00000000
00000100
00000000
00001000
00000000
,
00010000
00000100
00001000
00000010
00010000
00001000
00000010
00000100
,
00001000
00000001
00001000
00000000
00000010
00000000
00000100
00000000
00001000
00000000
00010000
00000000
00100000
00000000
01000000
00000000
,
00010000
10000000
00010000
00000000
00100000
00000000
01000000
00000000
00010000
00000000
00001000
00000000
00000010
00000000
00000100
00000000
,
00001000
00000010
00001000
00000100
00010000
00100000
01000000
00100000
,
10000000
00100000
10000000
00010000
01000000
00010000
00100000
00001000
00010000
00000010
00001000
00000010
00000100
00000001
00001000
00000001
,
00000020
00000000
00000000
00000000
,
00000000
00000000
00000000
00000000
,
00000130
00000000
00000000
00000100
00000000
00000100
00000000
00000100
,
00010000
00000000
00010000
00000000
00001000
00000000
01000000
00010000
01000000
00000000
00100000
00000000
10000000
00000000
01000000
00000000
,
01100000
00000000
00000000
00011000
00000000
00000000
00000110
00000000
,
00001001
00000000
00000110
00000000
00000000
00010000
00011000
00000000
,
01000000
00010000
00100000
00001000
00010000
00000010
00001000
00000100
,
00010000
00001000
01000000
00010000
10000000
00010000
00100000
01000000
20000000
00000000
00000000
00000000
30200000
00000000
00000000
00000000
,
00320000
00000000
00000000
00000000
,
00031000
00000000
00000000
00000000
00010000
00000000
00000000
00000000
00000000
00000100
00000000
00000000
00001000
00000010
00001000
00000000
,
00001001
00000000
00000001
00000100
00000010
00000000
00001000
00000100
00010000
00000000
00001000
01000000
00010000
00000000
00200000
00000000
,
00000000
01300000
10000000
00010000
01000000
00001000
00100000
00001000
,
00010000
00000000
00000100
00001000
00000010
00000000
00001000
00000100
00000010
00000000
00000001
00001000
00000010
00000000
00020000
00000000
,
00000000
00031000
00100000
01000000
00010000
01000000
10000000
00100000
,
00010000
00000000
00000100
00001000
00000010
00000000
00010000
00001000
00100000
00000000
00001000
00000000
00010000
00000000
00200000
00000000
,
00000000
00000000
10000000
00000000
00310000
00000000
00100000
00000000
01000000
00000000
00001000
00000000
00010000
00000010
00001000
00000000
,
00000100
00000000
00000010
00000001
00001000
00000000
00000001
00000100
00000010
00000000
00001000
00000000
00010000
00000000
01000000
00000000
,
01100000
00000000
00100000
10000000
00010000
00000000
10000000
00000000
01000000
00010000
01000000
00010000
00001000
00010000
00000100
00001000
,
00000100
00000000
00000010
00000001
00001000
00000000
00000010
00010000
00001000
00000000
00100000
00010000
01000000
00000000
00200000
00000000
,
00000000
10300000
01000000
00100000
01000000
00010000
00001000
00010000
,
00000010
00000000
00001000
00000001
00000010
00000000
00000001
00000100
00000010
00000000
00001000
00000100
00010000
00000000
00002000
00000000
,
00000000
00000000
01003000
00000000
00010000
00000000
00100000
00000000
01000000
10000000
01000000
00100000
00010000
00100000
00001000
00010000
,
00000010
00000000
00001000
00000001
00000010
00000000
00000100
00010000
00001000
00000000
00010000
00000000
00100000
00000000
20000000
00000000
,
00000000
00000000
01000000
00000000
30100000
00000000
10000000
00000000
01000000
00000000
00010000
00001000
00010000
00000000
00000010
00000000
,
00001010
00000000
00000000
00000000
00000001
00000000
00000021
00000000
00000000
00000000
00000130
00000000
00000010
00000001
00000010
00000001
,
00001000
00000010
00010000
00001000
00100000
00010000
00100000
01000000
10000000
00010000
10000000
00100000
01000000
00010000
01000000
00001000
,
00020000
00000000
00000000
00000000
,
00030000
00000000
00000000
00000000
;
