#VERSION:0.83;
#TITLE:DIAMOND JACKAL;
#SUBTITLE:;
#ARTIST:Akira Complex;
#TITLETRANSLIT:;
#SUBTITLETRANSLIT:;
#ARTISTTRANSLIT:;
#GENRE:ENIGMATIC BASS HARDCORE;
#CREDIT:;
#MUSIC:DIAMOND JACKAL.ogg;
#BANNER:DIAMOND JACKAL.png;
#BACKGROUND:DIAMOND JACKAL-bg.png;
#CDTITLE:./CDTitles/bm IIDX 30 RESIDENT.png;
#SAMPLESTART:85.554;
#SAMPLELENGTH:15.000;
#SELECTABLE:YES;
#OFFSET:0.000;
#BPMS:0.000=115.000
,164.000=230.000
;
#STOPS:;
#TIMESIGNATURES:0.000=4=4;
#BGCHANGES:0.000=DIAMOND JACKAL.mp4=1.000=0=0=0=StretchNoLoop====,
99999.000=-nosongbg-=1.000=0=0=0=StretchNoLoop====
;
#FGCHANGES:;

//--------------- dance-single - forcednature ----------------
#NOTEDATA:;
#STEPSTYPE:dance-single;
#DESCRIPTION:forcednature;
#DIFFICULTY:Beginner;
#METER:5;
#RADARVALUES:0,0,0,0,0;
#CREDIT:forcednature;
#NOTES:
0000
0000
0000
0000
,
0000
0000
0000
0000
,
0000
0000
0000
0000
,
0000
0000
0000
0000
,
0000
0000
0000
0000
,
0001
0000
0000
0000
,
1000
0000
0000
0000
,
0010
0000
0000
0000
,
0100
0000
0001
0000
,
0010
0010
0010
0000
,
0100
0100
0100
0000
,
1000
1000
0001
0001
,
0100
0010
0000
0000
,
1001
0000
0001
0100
,
1001
0000
1000
0100
,
1001
0000
0001
0010
,
0110
0000
1000
1000
,
1001
0000
0001
0100
,
0110
0000
1000
0001
,
1001
0000
0001
0010
,
0110
0000
1000
1000
,
1000
0000
0000
0000
,
0010
0000
0010
0000
,
0100
0000
0100
0000
,
0001
0001
0000
0000
,
1001
0000
1000
0000
,
0100
0100
0100
0000
,
1001
0000
0001
0000
,
0010
0010
0010
0000
,
0110
0000
0001
0001
,
0001
0000
0100
0000
,
0010
0010
0010
0000
,
1000
0000
0001
0000
,
1001
0000
0000
0000
,
0110
0000
0000
0000
,
1001
0000
0000
0000
,
0010
0000
0100
0000
,
0001
0001
0001
0000
,
1000
1000
1000
0000
,
0010
0000
0100
0001
,
0020
0000
0030
0000
,
0001
0000
0100
0000
,
0001
0100
0001
0000
,
1000
0000
0010
0000
,
1000
0010
1000
0000
,
0001
0000
0010
0000
,
0001
0010
0001
0000
,
1000
0000
0100
0000
,
0010
0100
0010
0000
,
0001
0100
0001
0000
,
0001
0000
0100
0000
,
0010
1000
0010
0000
,
1000
0000
0001
0000
,
0010
0010
0010
0000
,
0100
0000
1000
0000
,
0001
0001
0001
0000
,
0100
0000
0000
0000
,
0010
1000
0010
0010
,
1000
0100
1000
0000
,
0001
0100
0001
0001
,
0010
0001
0010
0000
,
2002
0000
3003
0000
;

//--------------- dance-single - forcednature ----------------
#NOTEDATA:;
#STEPSTYPE:dance-single;
#DESCRIPTION:forcednature;
#DIFFICULTY:Easy;
#METER:10;
#RADARVALUES:0,0,0,0,0;
#CREDIT:forcednature;
#NOTES:
0000
0000
0000
0000
,
0000
0000
0000
0000
,
0000
0000
0000
0000
,
0000
0000
0000
0000
,
0000
0000
0000
0000
,
1000
0000
0000
1000
0000
0000
0000
0000
0100
0000
0000
0100
0000
0000
0000
0000
,
0010
0000
0000
0010
0000
0000
0000
0000
0001
0000
0000
0001
0000
0000
0000
0000
,
0100
0000
0000
0100
0000
0000
0000
0000
0010
0000
0000
0010
0000
0000
0000
0000
,
1000
0000
1001
0000
0001
0001
0001
0000
,
0010
0110
1001
0000
,
1000
1001
0110
0001
,
0010
0010
0010
0000
0100
0000
1000
0000
,
0001
0001
0100
0010
2000
0000
0000
3000
,
1001
0000
0001
0010
0100
0000
1000
0000
,
1001
0000
1000
0010
0100
0000
0001
0000
,
0110
0000
1000
0001
0100
0000
0010
0000
,
0110
0000
1001
0000
0001
0001
0001
0000
,
0110
0000
1000
0000
0010
0010
0010
0000
,
1001
0000
0100
0000
0001
0001
0001
0000
,
0100
0000
0110
0000
1000
1000
1000
0000
,
0010
0010
0010
0000
0100
0000
0110
0000
,
0001
0000
0000
0001
0000
0000
0020
0000
0030
0000
0000
0000
0000
0000
0000
0000
,
0100
0000
0000
0200
0000
0000
0300
0000
1000
0000
0000
2000
0000
0000
3000
0000
,
1010
0110
1010
0101
,
0001
0010
0100
2000
0000
0000
0000
3000
,
1001
0000
0110
0000
0001
0001
1000
1000
,
0010
0100
0010
0000
1000
0000
0001
0000
,
0110
0000
1001
0000
0001
0001
1000
0000
,
0100
0000
0010
0000
0001
0000
0010
0000
0001
0000
0000
0001
1000
0000
0000
1000
,
0001
0000
0000
0110
0000
0000
1000
0000
1000
0000
0010
0000
,
0100
0000
0001
0000
0100
0000
0001
0000
0010
0001
0000
0000
,
1000
1000
1000
0000
0010
0000
0100
0000
,
0001
0001
0010
0010
0200
0000
0000
0300
,
2002
0000
0000
3003
0200
0000
0000
0300
,
2002
0000
0000
3003
0020
0000
0200
0330
,
0220
0000
0000
0330
2002
0000
0000
3003
,
2200
0000
3300
0000
0020
0000
0030
0000
0001
0000
0000
0001
1000
0000
0000
0000
,
0010
0100
0001
0100
0010
0100
0001
0000
,
0010
0000
0000
0000
0100
0000
0000
0000
1000
0000
0000
0000
0100
0000
0000
0000
0010
0000
0000
0001
0000
0000
0010
0000
0001
0000
0000
0000
0000
0000
0000
0000
,
1000
1000
1000
0000
0010
0000
0100
0000
,
0001
0010
0100
2000
0000
0000
0000
3000
,
0010
0000
0100
0010
0100
0000
0001
0000
,
0010
0000
0100
0010
0100
0000
1000
0000
,
0001
0000
0100
0001
0100
0000
0010
0000
,
1000
0100
0000
0110
0000
0001
0000
0000
,
1000
0000
0010
0100
0010
0000
1000
0000
,
0001
0000
0010
0100
0010
0000
0001
0000
,
1000
0000
0100
0010
0100
0000
1000
0000
,
0001
0000
0000
0001
0000
0000
0002
0000
0000
0000
0000
0000
0003
0000
0000
0000
,
0100
0010
0100
0000
0010
1000
0010
0000
,
0100
0010
0100
0000
0001
0000
0000
0000
,
0010
0001
0010
0000
0100
0010
0100
0000
,
0010
0001
0010
0000
0001
0000
0000
0000
,
1000
0010
1000
0010
1000
0010
0000
0000
,
0100
0001
0000
0000
0001
0010
0000
0000
,
0100
1000
0100
1000
0001
0000
0010
0000
,
0002
0000
0000
0003
,
0100
0010
0100
0010
0000
1000
0010
0000
,
0100
0010
0100
0010
0000
1000
0010
0000
,
0100
0001
0100
0001
0000
1000
0010
0000
,
1000
0100
0010
0100
0000
0010
0001
0000
,
2002
0000
3003
0000
;

//--------------- dance-single - forcednature ----------------
#NOTEDATA:;
#STEPSTYPE:dance-single;
#DESCRIPTION:forcednature;
#DIFFICULTY:Medium;
#METER:14;
#RADARVALUES:0,0,0,0,0;
#CREDIT:forcednature;
#NOTES:
0000
0000
0000
0000
,
0000
0000
0000
0000
,
0000
0000
0000
0000
,
0000
0000
0000
0000
,
0000
0000
0000
0000
,
0001
0000
0000
0001
0000
0000
0100
0000
0010
0000
0000
0010
0000
0000
1000
0000
,
0001
0000
0000
0001
0000
0000
0010
0000
0100
0000
1100
0000
0000
1100
0000
0000
,
1000
0000
0000
1000
0000
0000
0010
0000
0100
0000
0000
0100
0000
0000
0001
0000
,
1001
0000
0000
0000
0000
0000
0000
0000
0110
0000
0000
0000
0010
0000
0000
0000
1000
0000
0000
1000
0000
0000
1000
0000
0001
0000
0000
0001
0000
0000
0001
0000
,
0100
0110
1010
0100
,
0011
0000
0000
0000
0000
0000
0000
0000
0110
0000
0000
0000
0000
0000
0000
0000
0001
0000
0000
0001
0000
0000
0001
0000
2000
0000
0000
0000
3000
0000
0000
0000
,
0010
0100
0010
0100
0010
0100
0000
0000
0001
1000
0000
0000
0100
0010
0000
0000
,
0001
0100
0001
0100
0010
1000
0010
1000
0002
0000
0000
0000
0000
0000
0003
0000
,
0110
1000
1010
0000
0100
0001
0011
0000
,
0110
0001
0101
0000
0010
1000
1100
0000
,
1001
0100
0101
0000
0001
1000
1010
0000
,
1100
0000
0000
0000
0011
0000
0001
0000
0100
0010
0100
0000
0010
1000
0001
0000
,
0011
0000
0000
0010
0100
0000
1000
0000
0010
0100
0010
0000
0100
0000
0001
0000
,
1010
0000
1000
0000
0001
0100
0001
0000
1000
0000
0100
0000
0110
0000
0001
0000
,
1010
0000
0000
0001
0010
0000
0100
0000
1000
0001
1000
0000
0010
0000
0100
0000
,
0101
0000
0010
0000
1100
0000
0001
0000
1000
0010
1000
0000
0001
0000
0010
0000
,
0110
0000
0000
0002
0000
0000
2003
0000
3000
0000
0000
0000
0000
0000
0000
0000
,
0002
0000
0000
0010
0000
0000
0010
0000
1003
0000
0000
0001
0000
0000
0100
0000
,
0110
1010
0110
0101
,
0001
0010
0001
0010
0100
1000
0100
1000
0020
0000
0000
0000
0000
0000
0030
0000
,
1001
0000
0000
1000
0100
0000
0001
0000
0100
0000
1000
0000
0001
0000
0010
0000
,
0001
0100
0001
0000
0100
0001
0100
0000
0010
0000
0010
0000
1001
0000
0000
0000
,
1000
0000
0000
0100
0010
0000
0100
0000
1000
0010
1000
0000
0001
0000
0010
0000
,
0100
0000
1000
0000
0010
0000
0000
0000
0100
0000
0001
0000
0010
0000
0000
0000
0100
0000
0000
0100
0000
0000
0100
0000
1000
0000
0000
1000
0000
0000
1000
0000
,
0010
0000
0000
0000
0000
0000
0000
0000
0000
0010
0000
0000
0100
0000
0000
0000
0000
0000
0001
0000
0000
0000
0000
0000
0010
0000
0000
0000
0100
0000
0000
0000
0100
0000
0000
0000
1000
0000
0000
0000
0100
0000
0000
0000
0100
0000
0000
0000
,
0010
0001
1000
0010
1000
0001
0100
0100
0010
1001
0000
0000
,
0001
0100
0001
0100
0001
0100
0000
0000
0010
1000
0000
0000
0001
0010
0000
0000
,
0100
1000
0100
1000
0001
0010
0001
0010
0200
0000
0000
0000
0000
0000
0300
0000
,
2001
0000
0000
0001
0000
0000
0000
0000
0100
0000
0000
0100
3000
0000
1000
0000
,
1002
0000
0000
1000
0000
0000
0000
0000
0103
0000
0110
0000
0000
1001
0000
0000
,
2100
0000
0000
0100
0000
0000
0001
0000
0010
0000
0000
0010
3000
0000
1000
0000
,
0101
0000
0000
0000
0001
0000
0000
0000
0011
0000
0000
0000
1000
0000
0100
0000
1000
0000
0000
0010
0000
0000
0020
0000
0000
0000
0000
0000
0030
0000
0000
0000
,
0101
0010
0101
1000
0101
0010
1001
0000
,
1100
0000
0000
0000
0010
0000
0000
0000
1100
0000
0000
0000
0001
0000
0000
0000
0010
0000
0000
0010
0000
0000
0100
0000
1000
0000
0000
0000
0000
0000
0000
0000
,
0010
0100
0010
0100
0010
0100
0000
0000
0001
0010
0000
0000
0100
1000
0000
0001
,
0100
0100
0010
0010
1000
1000
0001
0001
0020
0000
0000
0000
0000
0000
0030
0000
,
0100
1000
0010
1000
0100
0001
0100
0000
,
1000
0001
0010
0100
1000
0000
0011
0000
,
0100
0001
0010
0001
0100
1000
0100
0000
,
0001
0010
0000
0011
0000
0101
0000
0100
,
0010
1000
0001
1000
0100
0001
0100
0000
,
0010
0001
1000
0001
0100
1000
0100
0000
,
0110
0000
1000
0000
0101
0000
0001
0010
,
0100
0000
0000
0100
0000
0000
1001
0000
0000
0000
1000
0000
0010
0000
0000
0000
,
0100
0001
0010
0001
1000
0001
0010
0001
,
0100
1000
0100
0001
1000
0000
0001
0010
,
0100
1000
0010
1000
0001
1000
0010
1000
,
0100
0001
0100
1000
0001
0000
0110
0000
,
1000
0010
0100
0010
0001
0010
0000
1000
,
0100
0001
0000
0100
1000
0001
0000
0010
,
0001
0100
0010
1000
0001
0010
0100
1000
,
0020
0000
0000
0030
,
1000
0100
1000
0100
0010
0001
0010
0001
,
1000
0010
1000
0010
0100
0001
0100
0001
,
0010
0100
1000
0100
0001
0100
1000
0001
,
0010
0001
1000
0010
0100
0001
0100
1000
,
0200
0000
0300
0001
0000
0000
0000
0000
;

//--------------- dance-single - forcednature ----------------
#NOTEDATA:;
#STEPSTYPE:dance-single;
#DESCRIPTION:forcednature;
#DIFFICULTY:Hard;
#METER:17;
#RADARVALUES:0,0,0,0,0;
#CREDIT:forcednature;
#NOTES:
0000
0000
0000
0000
,
0000
0000
0000
0000
,
0000
0000
0000
0000
,
0000
0000
0000
0000
,
0000
0000
0000
0000
,
1200
0000
0300
2000
0000
3000
0010
0100
0020
0000
0030
0200
0000
0300
0001
0010
,
0002
0000
0003
0200
0000
0300
0010
0000
1000
0010
0000
1010
0000
1000
0100
0000
,
0010
0001
0000
0020
0000
0030
0100
0000
1000
0020
0000
0230
0000
0300
0001
0000
,
0010
0000
0001
0000
0000
0000
0010
0000
0100
0000
0000
0000
1000
0000
0100
0000
1000
0000
0000
1000
0000
0000
0010
0000
0100
0000
0000
0100
0000
0000
0001
0000
,
1000
0100
1001
0010
1001
0100
0110
0000
,
0001
0000
0000
0000
0100
0000
0000
0000
1001
0000
0000
0000
0010
0000
0000
0000
0110
0000
0000
0100
0000
0000
0001
0000
1000
0000
0000
0000
0000
0000
0000
0000
,
0001
0001
0100
0100
0010
1000
0000
0000
0001
0100
0000
0000
1000
0100
0000
0001
,
1000
1000
0100
0100
0010
0010
0001
0001
0200
0000
0000
0000
0000
0000
0300
0000
,
1001
0000
0001
0010
1000
0000
0010
0010
0000
0001
1000
0100
0001
0000
0100
0000
,
1001
0000
1000
0010
0001
0000
0010
0010
0000
1000
0001
0100
1000
0000
0100
0000
,
0110
0000
1000
0100
0001
0000
0100
0100
0000
1000
0001
0010
1000
0000
0010
0000
,
1001
0000
0001
0001
0100
0000
0001
0001
1000
0010
1000
0100
1000
0010
1000
0000
,
0110
0000
0001
0010
1000
0000
0001
0001
0000
0100
1000
0001
0010
0000
0110
0000
,
1001
0000
1000
0010
0001
0000
1000
1000
0000
0100
0001
1000
0010
0100
0100
0000
,
0110
0000
0000
0000
0000
0000
0001
0000
0000
1000
0000
0000
0100
0000
0000
0001
0000
0100
0000
1000
0000
0100
0000
0000
0000
0000
0000
1000
0000
0000
0001
0000
0000
0010
0000
0000
0100
0000
0000
0000
0000
0000
1001
0000
0000
0000
0000
0000
,
0110
0000
0000
0000
0000
0000
1000
0000
0000
0001
0000
0000
0100
0000
0000
1000
0000
0100
0000
0001
0000
0100
0000
0000
0010
0000
0000
1000
0000
0000
0001
0000
0000
0000
0000
0000
0210
0000
0000
0000
0000
0000
0301
0000
0000
0000
0000
0000
,
0021
0000
0000
0230
0000
0000
2300
0000
3000
0000
0000
0000
0000
0000
0000
0000
,
0020
0000
0000
0230
0000
0000
0302
0000
1003
0100
0000
2000
0000
0000
3002
0000
,
0013
0000
0001
1000
0010
0000
1000
0001
0010
0000
0100
1000
0010
0000
0100
0001
,
0010
0100
1000
0100
0001
0100
1000
0100
0020
0000
0000
0000
0000
0000
0030
0000
,
1001
0000
0000
1000
1100
0000
0001
0000
0101
0000
1000
0000
1010
0000
0001
0000
,
0010
0100
0000
0000
1000
0100
0000
0000
0010
0000
0001
0000
1000
0000
0001
0000
0000
0000
0001
0000
0100
0000
0000
0000
0001
0000
1000
0000
0010
0000
0000
0000
,
0110
0000
1000
0010
1010
0000
0001
0100
0001
0001
0010
0000
1000
1000
0010
0000
,
0001
0100
0001
0000
0100
0000
0000
0000
0010
1000
0010
0000
1000
0001
1000
0000
0100
0000
0000
0100
0000
0000
0100
0000
0010
0000
0000
0010
0000
0000
0001
0000
,
1000
0000
0000
0000
0000
0000
0010
0000
0000
0100
0000
0000
0101
0000
0000
0000
0000
0000
0011
0000
0000
0000
0000
0000
0001
0000
0000
0000
0010
0000
0000
0000
0010
0000
0000
0000
0100
0000
0000
0000
1000
0000
0000
0000
1000
0000
0000
0000
,
0001
0100
0001
0100
0001
0100
0010
1000
0010
1000
0010
1000
0001
0000
0010
0000
0010
0000
0220
0000
0000
0330
0000
0000
,
1000
1000
0010
0010
0100
0101
0000
0000
0001
0011
0000
0000
1000
1010
0000
0000
,
0001
0001
0010
0010
0100
0100
1000
1000
0020
0000
0000
0000
0000
0000
0030
0000
,
2001
0000
0000
0100
0000
0000
0001
0000
0010
0000
0000
0001
0000
0000
3100
0000
,
1002
0000
0000
0100
0000
0000
1000
0000
0013
0000
0011
0000
0000
1100
0000
1000
,
0020
0000
0000
1000
0000
0000
0100
0000
0001
0000
0000
0100
0000
0000
1030
0000
,
0201
0000
0000
0000
0000
0000
0310
0000
2000
0000
0000
0000
3001
0000
0001
0000
0001
0000
0000
0010
0000
0000
0100
0000
0000
0000
1000
0000
0002
0000
0000
0000
,
0203
0000
0310
1000
0200
0000
0310
0001
0200
0000
0310
1000
1100
0000
0001
0000
,
0120
0000
0000
0000
1030
0000
0100
0000
0020
0000
0000
0000
0031
0000
0100
0000
0010
0000
0000
0010
0000
0000
1000
0000
0002
0000
0000
0000
0003
0000
0000
0000
,
1000
0000
1000
0000
1000
0000
1000
0000
0100
0000
1100
0000
0000
0000
0000
0000
0001
0000
0011
0000
0000
0000
0000
0000
1000
0000
1010
0000
0000
0000
0001
1000
,
0001
0001
0010
0010
0100
0100
1000
1000
0020
0000
0000
0000
0000
0000
0030
0000
,
1000
0100
1000
0000
0001
0000
0010
0000
0001
0000
1000
0000
0010
0000
0100
0000
,
0001
0010
0100
1000
0010
0100
0001
0010
,
0001
0100
0001
0000
1000
0000
0010
0000
1000
0000
0001
0000
0010
0000
0100
0000
,
0010
0001
0000
1100
0000
1010
0000
0001
,
0010
0001
0010
0000
0100
0000
1000
0000
0010
0000
0100
0000
0001
0000
0010
0000
,
0001
0100
0010
1000
0100
0010
0001
0100
,
0010
1000
0010
0000
0100
0000
0001
0000
0010
0001
0010
0000
0100
0000
0100
0000
,
1000
0000
0000
1100
0000
0000
1100
0000
0000
0000
0010
0001
0020
0000
0000
0000
,
0031
0100
1000
0100
0001
0010
1000
0010
,
0001
0100
1000
0100
0001
1001
0000
0000
,
1000
0100
0001
0100
1000
0010
0001
0010
,
1000
0100
0001
0100
2100
0000
3010
0000
,
0001
0010
0001
0000
0010
0100
0010
0000
0100
1000
0100
0000
0000
0000
1000
0000
,
0010
0000
0110
0000
0000
0000
0001
0000
0010
0000
0110
0000
0000
0000
0001
1000
,
0001
0000
0001
0000
0100
0000
0100
0000
0010
1000
0010
0000
1000
0001
1000
0000
,
0200
0010
0010
0310
,
0100
1000
0100
1000
0100
0000
0010
0001
0010
0001
0010
0000
0001
1000
0010
0000
,
0100
0001
0100
0001
0100
0000
0010
1000
0010
1000
0010
0000
0100
0001
1000
0000
,
0100
0010
0001
0010
0100
0000
1000
0001
0010
0001
1000
0000
0010
0100
0010
0000
,
1000
0000
0000
0001
0000
0000
0100
0000
0000
0001
0000
0000
1000
0000
0000
0000
0000
0000
0010
0000
0000
0100
0000
0000
0001
0000
0000
0000
0010
0000
0000
0000
0001
0000
0000
0000
1000
0000
0000
0000
0010
0000
0000
0000
1000
0000
0000
0000
,
0200
0010
0000
1300
0000
0000
0000
0000
;

//--------------- dance-double - forcednature ----------------
#NOTEDATA:;
#STEPSTYPE:dance-double;
#DESCRIPTION:forcednature;
#DIFFICULTY:Easy;
#METER:10;
#RADARVALUES:0,0,0,0,0;
#CREDIT:forcednature;
#NOTES:
00000000
00000000
00000000
00000000
,
00000000
00000000
00000000
00000000
,
00000000
00000000
00000000
00000000
,
00000000
00000000
00000000
00000000
,
00000000
00000000
00000000
00000000
,
00001000
00000000
00000000
00001000
00000000
00000000
00000000
00000000
00010000
00000000
00000000
00010000
00000000
00000000
00000000
00000000
,
00100000
00000000
00000000
00100000
00000000
00000000
00000000
00000000
10000000
00000000
00000000
10000000
00000000
00000000
00000000
00000000
,
01000000
00000000
00000000
01000000
00000000
00000000
00000000
00000000
00010000
00000000
00000000
00010000
00000000
00000000
00000000
00000000
,
00001000
00000000
00011000
00000000
00000010
00000010
00000010
00000000
,
00001000
00001100
00010100
00000000
,
00100000
00110000
01010000
10000000
,
01000000
01000000
01000000
00000000
00010000
00000000
00001000
00000000
,
00000010
00000010
00000100
00001000
00000002
00000000
00000000
00000003
,
00000110
00000000
00001000
00000001
00000100
00000000
00001000
00000000
,
00011000
00000000
00010000
00100000
10000000
00000000
00010000
00000000
,
01100000
00000000
10000000
01000000
00010000
00000000
00001000
00000000
,
00011000
00000000
00010100
00000000
00000100
00000100
00000100
00000000
,
00001001
00000000
00010000
00000000
00001000
00100000
00010000
00000000
,
10010000
00000000
01000000
00000000
00001000
00010000
00000010
00000000
,
00001001
00000000
00000100
00000000
00010000
00001000
00100000
00000000
,
00010000
00010000
00010000
00000000
01000000
00100000
01000000
00000000
,
00010000
00000000
00000000
00010000
00000000
00000000
00200000
00000000
00300000
00000000
00000000
00000000
00000000
00000000
00000000
00000000
,
00001000
00000000
00000000
00002000
00000000
00000000
00003000
00000000
00010000
00000000
00000000
00020000
00000000
00000000
00030000
00000000
,
00011000
00000010
00011000
00000100
,
00001000
00000010
00010000
00001000
02000000
00000000
00000000
03000000
,
10010000
00000000
01100000
00000000
10000000
10000000
00010000
00010000
,
00100000
00001000
00010000
00000000
00000100
00010000
00001000
00000000
,
00011000
00000000
00010100
00000000
00000100
00001000
00000010
00000000
,
00000100
00000000
00000000
00000000
00000001
00000000
00000000
00000000
00000010
00000000
00000000
00000000
00000001
00000000
00000000
00000000
00000100
00000000
00000000
00000100
00000000
00000000
00000000
00000000
00001000
00000000
00000000
00001000
00000000
00000000
00000000
00000000
,
00011000
00000000
00000000
01000000
00000000
00000000
00010000
00000000
00010000
00000000
00100000
00000000
,
00001000
00000000
00010000
00000000
00000100
00000000
00001000
00000000
00001000
00000010
00000000
00000000
,
00000100
00000100
00000100
00000000
00000001
00000000
00000010
00000000
,
00001000
00001000
00010000
00010000
00002000
00000000
00000000
00003000
,
00022000
00000000
00000000
00033000
02000000
00000000
00000000
03000000
,
20020000
00000000
00000000
30030000
00200000
00000000
00000000
00300000
,
00022000
00000000
00000000
00033000
00000200
00000000
00000000
00000300
,
00000220
00000330
00000020
00000030
00002002
00000000
00003003
00000000
,
00000001
00000100
00001000
00000000
00010000
00000000
00100000
00000000
,
10000000
00000000
00000000
00000000
01000000
00000000
00000000
00000000
00010000
00000000
00000000
00000000
00000000
00000000
00000000
00000000
00001000
00000000
00000000
00001000
00000000
00000000
00000000
00000000
00000010
00000000
00000000
00000000
00000000
00000000
00000000
00000000
,
00000001
00000001
00000001
00000000
00000100
00000000
00001000
00000000
,
00010000
00001000
00010000
00100000
20000000
00000000
00000000
30000000
,
01000000
00100000
00001000
00010000
,
00000010
00001000
00000001
00000010
,
00000100
00010000
00001000
00100000
,
00010000
01000000
00000000
01100000
00000000
10000000
00000000
00000000
,
01000000
00100000
00001000
00010000
,
00000010
00001000
00000001
00000010
,
00000100
00010000
00001000
00100000
,
00010000
00000000
00000000
00010000
00000000
00000000
00020000
00000000
00000000
00000000
00000000
00000000
00030000
00000000
00000000
00000000
,
01000000
00100000
10000000
01000000
,
00100000
00001000
00010000
00000000
,
00000100
00001000
00000010
00000100
,
00000001
00001000
00000001
00000000
00001000
00000000
00000000
00000000
,
00000100
00010000
00000100
00010000
00000100
00010000
00000000
00000000
,
00001000
00100000
00000000
00000000
00010000
01000000
00000000
00000000
,
00100000
10000000
00100000
00000000
01000000
00010000
01000000
00000000
,
00200000
00000000
00000000
00300000
,
10000000
00000000
01000000
10000000
00000000
01000000
00100000
00000000
,
00010000
00000000
00100000
00001000
00000000
00010000
00001000
00000000
,
00010000
00000000
00000100
00001000
00000000
00000100
00000010
00000000
,
00000001
00000100
00000000
00000010
00000000
00001000
00000010
00000000
,
00022000
00000000
00033000
00000000
;

//--------------- dance-double - forcednature ----------------
#NOTEDATA:;
#STEPSTYPE:dance-double;
#DESCRIPTION:forcednature;
#DIFFICULTY:Medium;
#METER:14;
#RADARVALUES:0,0,0,0,0;
#CREDIT:forcednature;
#NOTES:
00000000
00000000
00000000
00000000
,
00000000
00000000
00000000
00000000
,
00000000
00000000
00000000
00000000
,
00000000
00000000
00000000
00000000
,
00000000
00000000
00000000
00000000
,
00010000
00000000
00000000
00010000
00000000
00000000
00000100
00000000
00001000
00000000
00000000
00001000
00000000
00000000
00000010
00000000
,
00000100
00000000
00000000
00000100
00000000
00000000
00000001
00000000
00000010
00000000
00000110
00000000
00000000
00010100
00000000
00000000
,
00010000
00000000
00000000
00010000
00000000
00000000
00001000
00000000
01000000
00000000
00000000
01000000
00000000
00000000
00010000
00000000
,
00110000
00000000
00000000
00000000
00000000
00000000
00000000
00000000
11000000
00000000
00000000
00000000
01000000
00000000
00000000
00000000
00100000
00000000
00000000
00100000
00000000
00000000
00010000
00000000
00100000
00000000
00000000
00001000
00000000
00000000
00010000
00000000
,
00000100
00011000
00010010
00001000
,
00011000
00000000
00000000
00000000
00000000
00000000
00000000
00000000
00101000
00000000
00000000
00000000
00000000
00000000
00000000
00000000
01000000
00000000
00000000
01000000
00000000
00000000
00010000
00000000
20000000
00000000
00000000
00000000
30000000
00000000
00000000
00000000
,
01000000
00010000
01000000
00010000
01000000
00010000
00000000
00000000
00001000
00010000
00000000
00000000
00001000
00000010
00000000
00000000
,
00000001
00000100
00000001
00000100
00000010
00001000
00000010
00001000
00000002
00000000
00000000
00000000
00000000
00000000
00000003
00000000
,
00000110
00001000
00001100
00000000
00010000
00001000
00101000
00000000
,
01100000
00010000
01010000
00000000
00001000
00010000
00001010
00000000
,
00001001
00000100
00000110
00000000
00001000
00000100
00011000
00000000
,
00110000
00000000
00000000
00000000
01010000
00000000
00010000
00000000
10000000
00100000
10000000
00000000
01000000
10000000
00010000
00000000
,
00110000
00000000
00000000
00100000
00001000
00000000
00010000
00000000
00000100
00001000
00000010
00000000
00000100
00000000
00000001
00000000
,
00000011
00000000
00001000
00000000
00000100
00010000
00001000
00000000
01000000
00000000
00010000
00000000
00110000
00000000
10000000
00000000
,
10100000
00000000
00000000
00010000
00100000
00000000
00001000
00000000
00010000
00000100
00001000
00000000
00000010
00000000
00000100
00000000
,
00000101
00000000
00000010
00000000
00001100
00000000
00010000
00000000
00001000
00100000
00010000
00000000
01000000
00000000
01100000
00000000
,
10010000
00000000
00000000
00020000
00000000
00000000
02030000
00000000
03000000
00000000
00000000
00000000
00000000
00000000
00000000
00000000
,
00002000
00000000
00000000
00023000
00000000
00000000
00030020
00000000
00001030
00000000
00000000
00000100
00000000
00000000
00000010
00000000
,
00000110
00011000
01100000
10010000
,
00010000
00100000
00001000
00010000
00000100
00001000
00000010
00000100
00000002
00000000
00000000
00000000
00000000
00000000
00000003
00000000
,
00000110
00000000
00000000
00001000
00000100
00000000
00010000
00000000
00001000
00000000
00100000
00000000
00010000
00000000
00100000
00000000
,
01000000
10000000
01000000
00000000
10000000
00100000
10000000
00000000
00010000
00000000
00100000
00000000
10010000
00000000
00000000
00000000
,
00010000
00000000
00000000
01000000
00001000
00000000
00010000
00000000
00000100
00001000
00000100
00000000
00010000
00000000
00001000
00000000
,
00000010
00000000
00000001
00000000
00000100
00000000
00000000
00000000
00000010
00000000
00001000
00000000
00000100
00000000
00000000
00000000
00010000
00000000
00000000
00010000
00000000
00000000
00001000
00000000
01000000
00000000
00000000
01000000
00000000
00000000
00010000
00000000
,
00100000
00000000
00000000
00000000
00000000
00000000
00000000
00000000
00000000
01000000
00000000
00000000
10000000
00000000
00000000
00000000
00000000
00000000
01000000
00000000
00000000
00000000
00000000
00000000
00010000
00000000
00000000
00000000
00001000
00000000
00000000
00000000
00000010
00000000
00000000
00000000
00001000
00000000
00000000
00000000
00010000
00000000
00000000
00000000
00000010
00000000
00000000
00000000
,
00001000
00000100
00010000
00001000
00100000
00010000
01000000
01000000
00100000
10010000
00000000
00000000
,
00010000
01000000
00001000
00010000
00000010
00001000
00000000
00000000
00000100
00010000
00000000
00000000
00001000
00100000
00000000
00000000
,
00010000
01000000
00010000
00100000
00001000
00010000
00000100
00001000
00000020
00000000
00000000
00000000
00000000
00000000
00000030
00000000
,
00002001
00000000
00000000
00000001
00000000
00000000
00000000
00000000
00000100
00000000
00000000
00000100
00003000
00000000
00010000
00000000
,
00021000
00000000
00000000
00001000
00000000
00000000
00000000
00000000
00030010
00000000
00001010
00000000
00000000
00011000
00000000
00000000
,
02010000
00000000
00000000
00010000
00000000
00000000
00100000
00000000
00010000
00000000
00000000
00010000
00000000
00000000
03001000
00000000
,
00011000
00000000
00000000
00000000
00100000
00000000
00000000
00000000
00011000
00000000
00000000
00000000
01000000
00000000
00010000
00000000
01000000
00000000
00000000
01000000
00000000
00000000
02000000
00000000
00000000
00000000
00000000
00000000
03000000
00000000
00000000
00000000
,
10010000
10000000
01000000
00010000
00001000
00000010
00000001
00000000
,
00001001
00000000
00000000
00000000
00000001
00000000
00000000
00000000
00000100
00000000
00000000
00000000
00001000
00000000
00000000
00000000
00010000
00000000
00000000
00010000
00000000
00000000
00100000
00000000
10000000
00000000
00000000
00000000
00000000
00000000
00000000
00000000
,
00010000
00100000
00001000
00010000
00000100
00001000
00000000
00000000
00000010
00010000
00000000
00000000
00001000
01000000
00000000
00000000
,
00010000
00100000
01000000
00010000
00001000
00000010
00000100
00001000
00000020
00000000
00000000
00000000
00000000
00000000
00000030
00000000
,
00000100
00000001
00000100
00001000
00000000
00010000
00001000
00000000
,
00010000
00100000
10000000
00100000
00000000
10000000
01000000
00000000
,
00010000
00001000
00100000
00001000
00000000
00010000
00000100
00000000
,
00001000
00000010
00000000
00000110
00000000
00000101
00000000
00000001
,
00000010
00001000
00000010
00000001
00000000
00001000
00000100
00000000
,
00010000
00001000
01000000
00010000
00000000
00100000
01000000
00000000
,
01100000
00000000
00010000
00000000
00011000
00000000
00000010
00000100
,
00000001
00000000
00000000
00000001
00000000
00000000
00000010
00000000
00000000
00000000
00001000
00000000
00010000
00000000
00000000
00000000
,
01000000
10000000
00100000
10000000
01000000
00010000
00001000
00000000
,
00000100
00000001
00000010
00000001
00000100
00001000
00000000
00000000
,
00010000
00100000
10000000
00010000
10000000
01000000
00010000
00000000
,
00001000
00000010
00000001
00001000
00000001
00000100
00000000
00000000
,
00001000
00010000
00100000
00010000
00001000
00010000
00000000
00000000
,
00001000
00000010
00000000
00001000
00010000
00100000
00000000
00010000
,
00001000
00000100
00000001
00000100
00001000
00010000
01000000
10000000
,
00200000
00000000
00000000
00300000
,
10000000
01000000
10000000
01000000
00010000
00001000
00100000
00010000
,
00100000
00001000
00010000
00000100
00001000
00000010
00010000
00000010
,
00001000
00000100
00000010
00000100
00001000
00000001
00000100
00001000
,
00010000
00100000
10000000
00010000
01000000
00001000
00010000
00001000
,
00200000
00000000
00300000
01000000
00000000
00000000
00000000
00000000
;

//--------------- dance-double - forcednature ----------------
#NOTEDATA:;
#STEPSTYPE:dance-double;
#DESCRIPTION:forcednature;
#DIFFICULTY:Hard;
#METER:17;
#RADARVALUES:0,0,0,0,0;
#CREDIT:forcednature;
#NOTES:
00000000
00000000
00000000
00000000
,
00000000
00000000
00000000
00000000
,
00000000
00000000
00000000
00000000
,
00000000
00000000
00000000
00000000
,
00000000
00000000
00000000
00000000
,
00001000
00000000
00000000
00020000
00000000
00030000
00100000
10000000
00200000
00000000
00300000
02000000
00000000
03000000
00010000
00100000
,
00020000
00000000
00030000
02000000
00000000
03000000
00001000
00000000
00010000
00000100
00000000
00001100
00000000
00001000
00000010
00000000
,
00000100
00000001
00000000
00000020
00000000
00000030
00000100
00000000
00010000
00002000
00000000
00203000
00000000
00300000
00010000
00000000
,
01000000
00000000
00100000
00000000
00000000
00000000
10000000
00000000
01000000
00000000
00000000
00000000
00100000
00000000
00001000
00000000
00010000
00000000
00000000
00010000
00000000
00000000
00000100
00000000
00001000
00000000
00000000
00001000
00000000
00000000
00000010
00000000
,
00000100
00000001
00000100
00001000
00010000
00100000
10000000
00000000
,
01000000
00000000
00000000
00000000
00010000
00000000
00000000
00000000
00001000
00000000
00000000
00000000
00000010
00000000
00000000
00000000
00000001
00000000
00000000
00000001
00000000
00000000
00000100
00000000
00000001
00000000
00000000
00000000
00000000
00000000
00000000
00000000
,
00000100
00000100
00001000
00001000
00010000
00100000
00000000
00000000
10000000
01000000
00000000
00000000
00010000
00001000
00000000
00000010
,
00000001
00000100
00000010
00001000
00010000
01000000
00100000
10000000
02000000
00000000
00000000
00000000
00000000
00000000
03000000
00000000
,
10010000
00000000
10000000
00100000
00010000
00000000
00100000
00100000
00000000
10000000
01000000
00010000
00001000
00000000
00000010
00000000
,
00001001
00000000
00000001
00000010
00001000
00000000
00000010
00000010
00000000
00000001
00000100
00001000
00010000
00000000
00100000
00000000
,
10010000
00000000
10000000
01000000
00010000
00000000
01000000
01000000
00000000
10000000
00100000
00010000
00001000
00000000
00000100
00000000
,
00001001
00000000
00010000
00010000
00000010
00000000
00010000
00000100
00001000
00000010
00010000
00001000
00100000
00010000
01000000
00000000
,
01100000
00000000
00010000
00100000
10000000
00000000
00100000
00100000
00000000
00001000
00010000
00000100
00000010
00000000
00001001
00000000
,
00000110
00000000
00001000
00000010
00000001
00000000
00000010
00000010
00000000
00010000
00001000
01000000
00100000
00000000
10010000
00000000
,
01100000
00000000
00000000
00000000
00000000
00000000
00010000
00000000
00000000
10000000
00000000
00000000
01000000
00000000
00000000
00010000
00000000
00001000
00000000
00010000
00000000
00001000
00000000
00000000
00000000
00000000
00000000
00000010
00000000
00000000
00000001
00000000
00000000
00000100
00000000
00000000
00000010
00000000
00000000
00000000
00000000
00000000
00000110
00000000
00000000
00000000
00000000
00000000
,
00001001
00000000
00000000
00000000
00000000
00000000
00000001
00000000
00000000
00000100
00000000
00000000
00001000
00000000
00000000
00010000
00000000
00001000
00000000
00010000
00000000
00001000
00000000
00000000
00010000
00000000
00000000
00100000
00000000
00000000
10000000
00000000
00000000
00000000
00000000
00000000
10200000
00000000
00000000
00000000
00000000
00000000
01300000
00000000
00000000
00000000
00000000
00000000
,
20010000
00000000
00000000
32000000
00000000
00000000
03020000
00000000
00030000
00000000
00000000
00000000
00000000
00000000
00000000
00000000
,
00002000
00000000
00000000
00003020
00000000
00000000
00000032
00000000
00000103
00000010
00000000
00000200
00000000
00000000
00002300
00000000
,
00013000
00000000
00100000
10000000
00010000
00000000
00100000
00010000
10000000
00000000
01000000
00010000
00001000
00000000
00000100
00001000
,
00010000
00000010
00001000
00000010
00010000
00001000
00000010
00001000
00020000
00000000
00000000
00000000
00000000
00000000
00030000
00000000
,
00011000
00000000
00000000
10000000
00010000
00000000
00001000
00000000
00000001
00000100
00001000
00000000
00010000
01000000
10000000
00000000
,
00100000
01000000
00000000
00000000
10000000
01000000
00000000
00000000
00100000
00000000
10000000
00000000
00010000
00000000
10000000
00000000
00000000
00000000
01000000
00000000
00010000
00000000
00000000
00000000
00011000
00000000
00000000
00000000
00000010
00000000
00000000
00000000
,
00001001
00000000
00000001
00000100
00001000
00000000
00010000
00100000
10000000
10000000
01000000
00000000
10000000
10000000
00100000
00000000
,
01000000
00010000
01000000
00000000
00010000
00000000
00000000
00000000
00100000
00010000
00100000
00000000
00001000
00010000
00000100
00000000
00001000
00000000
00000000
00000001
00000000
00000000
00000100
00000000
00001000
00000000
00000000
00010000
00000000
00000000
00100000
00000000
,
10000000
00000000
00000000
00000000
00000000
00000000
00100000
00000000
00000000
01000000
00000000
00000000
01010000
00000000
00000000
00000000
00000000
00000000
00001000
00000000
00000000
00000000
00000000
00000000
00010000
00000000
00000000
00000000
00100000
00000000
00000000
00000000
00010000
00000000
00000000
00000000
00001000
00000000
00000000
00000000
00000010
00000000
00000000
00000000
00001000
00000000
00000000
00000000
,
00010000
01000000
10000000
01000000
00010000
01000000
10000000
01000000
00010000
00001000
00000010
00000001
00000010
00000000
00000010
00000000
00000010
00000000
00000220
00000000
00000000
00000330
00000000
00000000
,
00000001
00000001
00000100
00000100
00001000
00001000
00000000
00000000
00010000
00010000
00000000
00000000
00100000
00100000
00000000
00000000
,
10000000
10000000
01000000
01000000
00010000
00010000
00001000
00001000
00000020
00000000
00000000
00000000
00000000
00000000
00000030
00000000
,
00002100
00000000
00000000
00000001
00000000
00000000
00000010
00000000
00000100
00000000
00000000
00000001
00000000
00000000
00000010
00000000
,
00023000
00000000
00000000
10000000
00000000
00000000
00100000
00000000
01030000
00000000
01100000
00000000
00000000
10010000
00000000
10000000
,
02000000
00000000
00000000
00010000
00000000
00000000
00100000
00000000
10000000
00000000
00000000
00100000
00000000
00000000
03010000
00000000
,
00011000
00000000
00000000
00000000
00001000
00000000
00000010
00000000
00000001
00000000
00000000
00000000
00000010
00000000
00001000
00000000
00010000
00000000
00000000
00010000
00000000
00000000
00001000
00000000
00000000
00000000
00010000
00000000
00200000
00000000
00000000
00000000
,
20300000
00000000
31000000
00100000
00020000
00000000
00031000
00000100
00000020
00000000
00000031
00000100
00000110
00000000
00001000
00000000
,
00000002
00000000
00000000
00000000
00000103
00000000
00000010
00000000
00002000
00000000
00000000
00000000
00013000
00000000
01000000
00000000
00100000
00000000
00000000
00100000
00000000
00000000
10000000
00000000
00020000
00000000
00000000
00000000
00030000
00000000
00000000
00000000
,
10000000
00000000
10000000
00000000
00010000
00000000
00010000
00000000
00001000
00000000
00000100
00000000
00000000
00000000
00000000
00000000
00000010
00000000
00001000
00000000
00000000
00000000
00000000
00000000
00010000
00000000
01000000
00000000
00000000
00000000
10000000
00010000
,
10000000
01000000
00100000
00010000
00001000
00000100
00000010
00000001
00000200
00000000
00000000
00000000
00000000
00000000
00000300
00000000
,
00000001
00000010
00000001
00000000
00001000
00000000
00000010
00000000
00000100
00000000
00000001
00000000
00000010
00000000
00000001
00000000
,
00000100
00001000
00010000
01000000
10000000
00100000
10000000
00010000
,
00100000
01000000
10000000
00000000
00100000
00000000
01000000
00000000
00010000
00000000
00100000
00000000
01000000
00000000
10000000
00000000
,
00100000
00010000
00000000
00011000
00000000
00010100
00000000
00000010
,
00001000
00000001
00000100
00000000
00000010
00000000
00001000
00000000
00000001
00000000
00000010
00000000
00000001
00000000
00000100
00000000
,
00001000
00010000
01000000
10000000
00100000
10000000
00010000
00100000
,
01000000
10000000
01000000
00000000
00100000
00000000
00010000
00000000
00100000
00001000
00010000
00000000
00000100
00000000
00000100
00000000
,
00001000
00000000
00000000
00001010
00000000
00000000
00000110
00000000
00000000
00000000
00001000
00000001
00002000
00000000
00000000
00000000
,
00003001
00000100
00001000
00010000
00000010
00001000
00010000
01000000
,
00001000
00010000
00100000
10000000
01000000
01100000
00000000
00000000
,
10000000
01000000
00010000
00001000
00100000
00010000
00001000
00000100
,
00010000
00001000
00000010
00000001
00000201
00000000
00000310
00000000
,
00000001
00000010
00001000
00010000
01000000
10000000
00000000
00100000
,
00010000
00000000
00001000
00000000
00000000
00000000
00000010
00000000
00001000
00000000
00010000
00000000
00000000
00000000
00001000
00100000
,
00010000
00010000
01000000
01000000
00100000
00100000
10000000
00010000
,
00200000
01000000
01000000
01300000
,
00100000
00010000
00100000
00001000
00010000
00000000
00001000
00010000
00000100
00001000
00000100
00000000
00000010
00000000
00000001
00000000
,
00001000
00000010
00010000
00001000
00010000
00000000
00001000
00010000
00001000
01000000
00010000
00000000
10000000
00000000
01000000
00000000
,
00100000
00010000
00100000
01000000
00100000
00000000
00010000
00100000
00001000
00010000
00000100
00000000
00001000
00000100
00000010
00000000
,
00000001
00000000
00000000
00001000
00000000
00000000
00000010
00000000
00000000
00001000
00000000
00000000
00000001
00000000
00000000
00000000
00000000
00000000
00000010
00000000
00000000
00000000
00000000
00000000
00000001
00000000
00000000
00000000
00000100
00000000
00000000
00000000
00001000
00000000
00000000
00000000
00010000
00000000
00000000
00000000
00100000
00000000
00000000
00000000
10000000
00000000
00000000
00000000
,
00020000
01000000
00000000
00130000
00000000
00000000
00000000
00000000
;
