#VERSION:0.83;
#TITLE:DEATH†ZIGOQ ~怒りの高速爆走野郎~;
#SUBTITLE:;
#ARTIST:L.E.D.ALiCE(DJ NAGAI Vs. BEMANI Sound Team "L.E.D.-G");
#TITLETRANSLIT:DEATH ZIGOQ ~ikari no kousoku bakusou yarou~;
#SUBTITLETRANSLIT:;
#ARTISTTRANSLIT:;
#GENRE:;
#CREDIT:;
#MUSIC:DEATH ZIGOQ ikari no kousoku bakusou yarou.ogg;
#BANNER:DEATH ZIGOQ ikari no kousoku bakusou yarou.png;
#BACKGROUND:DEATH ZIGOQ ikari no kousoku bakusou yarou-bg.png;
#CDTITLE:;
#SAMPLESTART:92.847;
#SAMPLELENGTH:15.000;
#SELECTABLE:YES;
#OFFSET:0.733;
#BPMS:0.000=200.000
,281.000=210.000
,283.000=225.000
,285.000=250.000
,287.000=275.000
,289.000=300.000
,291.000=325.000
,293.000=350.000
,295.000=375.000
,297.000=400.000
,299.000=425.000
,301.000=450.000
,303.000=475.000
,305.000=500.000
,307.000=525.000
,309.000=550.000
,311.000=450.000
,312.000=375.000
,312.500=200.000
;
#STOPS:53.000=0.300
,312.500=0.694
;
#TIMESIGNATURES:0.000=4=4,
52.000=3=4,
55.000=4=4,
311.000=3=4,
314.000=4=4
;
#DISPLAYBPM:200.000;
#BGCHANGES:0.000=DEATH ZIGOQ ikari no kousoku bakusou yarou.mp4=1.000=0=0=0=StretchNoLoop====,
99999.000=-nosongbg-=1.000=0=0=0=StretchNoLoop====
;
#FGCHANGES:;

//--------------- dance-single - extraordiberry ----------------
#NOTEDATA:;
#STEPSTYPE:dance-single;
#DESCRIPTION:extraordiberry;
#CREDIT:extraordiberry;
#DIFFICULTY:Beginner;
#METER:3;
#RADARVALUES:0,0,0,0,0;
#NOTES:
0000
0000
0000
0000
,
0000
0000
0000
0000
,
0000
0000
0000
0000
,
0000
0000
0000
0000
,
0000
0000
0000
0000
,
1000
0000
0000
0000
,
0001
0000
0000
0000
,
1000
0000
0000
0000
,
0001
0000
0000
0000
,
1001
0000
0000
0000
,
0000
0000
1000
0000
,
1000
0000
0000
0000
,
0000
0000
0001
0000
,
0000
0000
0000
0000
,
0000
0001
0000
0000
,
0000
0000
0000
0000
,
0000
1000
0000
0000
,
0000
0000
0000
0000
,
0000
0010
0000
0000
,
0000
0000
0000
0000
,
0000
1000
0000
0000
,
0000
0000
0000
0000
,
0000
0100
0000
0000
,
0000
0000
0000
0000
,
0000
0010
0000
0000
,
0000
0000
0000
0000
,
0000
0001
0000
0000
,
0000
0000
0000
0000
,
0000
1000
0000
0000
,
0000
0000
0000
1001
,
0000
0000
0000
0000
,
0000
0000
0000
0001
,
0000
0000
0000
0000
,
0000
0000
0000
1000
,
0000
0000
0000
0000
,
0000
0000
0000
0010
,
0000
0000
0000
0100
,
0000
0000
0000
0001
,
0000
0000
0000
0000
,
0000
0000
0000
1000
,
0000
0000
0000
0000
,
0000
0000
0000
0100
,
0000
0000
0000
0000
,
0000
0000
0000
0010
,
0000
0000
0000
0000
,
0000
0000
0000
0001
,
0000
0000
0000
1000
,
0000
0000
0000
0001
,
0000
0000
0000
1000
,
0000
0000
0000
0001
,
0000
0000
0000
0001
,
0000
0000
0000
1000
,
0000
1000
0000
1000
,
0000
1000
0000
0001
,
0000
0000
0000
0000
,
0000
0000
0000
0100
,
0000
0000
0000
0000
,
0000
0000
0000
0010
,
0000
0000
0000
0000
,
0000
0000
0000
1000
,
0000
0000
0000
0001
,
0000
0001
0000
0001
,
0000
0000
0000
0000
,
0000
0000
0000
1000
,
0000
1000
0000
0000
,
0000
0000
0000
0001
,
0000
0001
0000
0000
,
0000
0000
0000
1000
,
0000
1000
0000
0000
,
0000
0000
0000
1001
,
0000
0000
0000
0000
,
0000
0000
0000
0000
,
0000
0000
0000
0000
,
0000
0000
0000
0000
,
0000
0000
0000
0000
,
0000
0000
0000
0000
,
0000
0000
0000
0000
,
0000
0000
0000
0000
,
0000
0000
0000
0000
,
0000
0000
0000
0000
,
0000
0000
1000
0000
,
0000
0000
0100
0000
,
0000
0000
0010
0000
,
0000
0000
0001
0000
,
0000
0000
1000
0000
,
0000
0000
0010
0000
,
0000
0000
0100
0000
,
0000
0000
0001
0000
,
0000
0000
0001
0000
,
0000
0000
0010
0000
,
0000
0000
0100
0000
,
0000
0000
1000
0000
,
0000
0000
0001
0000
,
0000
0000
0100
0000
,
0000
0000
0010
0000
,
0000
0000
1000
0000
,
0000
0000
0001
0000
;

//--------------- dance-single - extraordiberry ----------------
#NOTEDATA:;
#STEPSTYPE:dance-single;
#DESCRIPTION:extraordiberry;
#CREDIT:extraordiberry;
#DIFFICULTY:Easy;
#METER:9;
#RADARVALUES:0,0,0,0,0;
#NOTES:
0000
0000
0000
0000
,
0000
0000
0000
0000
,
0000
0000
0000
0000
,
0000
0000
0000
0000
,
0000
0000
0000
0000
,
1000
0010
1000
0000
,
0001
0010
0001
0001
,
1000
1000
0010
0010
,
0100
0000
0100
0000
0001
1000
0001
0000
,
1001
0000
0000
1000
0000
0000
1001
0000
,
0000
0001
0000
0000
1000
0000
1001
0000
,
0110
0000
0000
0010
0000
0000
0110
0000
,
0000
0100
0000
0000
0001
0000
1001
0000
,
1000
1000
0000
1001
,
1000
0100
1000
0000
0001
0000
0010
0000
,
0100
1000
0001
0001
,
1000
0010
1000
0000
0010
0000
0100
0000
,
0001
1000
0200
0310
,
0001
1000
0001
0000
1000
0000
0010
0000
,
0100
0001
1000
1000
,
0001
0010
0001
0000
0010
0000
0200
0000
,
0000
2300
0000
0000
3002
0000
1003
0000
,
0010
0100
0010
0000
1000
0000
0100
0000
,
0100
0010
0010
0001
,
0100
0010
0100
0000
0010
0000
1000
0000
,
1000
0100
2000
3001
,
0100
0010
0100
0000
0001
0000
1000
0000
,
1000
0100
0100
0010
,
0001
1000
0001
0000
0100
0000
0020
0000
,
0000
2030
0000
0000
3002
0000
0023
0000
,
0000
0000
0030
0001
,
0000
0100
0000
0020
,
0000
2030
0000
0000
0000
0000
3200
0000
,
0000
0320
0000
0032
,
0000
0000
0003
0100
,
0000
0010
0000
1000
,
1000
0000
0001
0000
0001
0000
1000
0001
,
1000
0000
0001
1000
0001
0000
1001
0000
,
0000
1000
0000
0000
0100
0000
0110
0000
,
0000
0010
0000
0000
0001
0000
0100
0000
,
0100
0010
0010
1000
,
0000
0001
0000
1001
,
0000
0001
0000
0000
0010
0000
0110
0000
,
0000
0100
0000
0000
1000
0000
0010
0000
,
0010
0100
0100
0002
,
0000
0000
0003
1001
,
0000
0110
0000
0000
1000
0000
1001
0000
,
0000
0110
0000
0000
0001
0000
1001
0000
,
0000
0110
0000
0000
0010
0000
0110
0000
,
0000
1001
0000
0000
1000
0000
0100
0000
,
0000
0010
0000
0001
,
0000
0100
0000
0010
,
1000
0100
0010
0110
,
0010
0110
1001
1000
,
0010
0010
0100
0001
,
0001
0000
1000
0001
1000
0000
0001
0000
,
0010
0010
0100
1000
,
1000
0000
0001
1000
0001
0000
1000
0000
,
0010
1000
0100
0010
,
0010
0000
0001
1000
0001
0000
0001
0000
,
0010
0001
0100
0110
,
0010
0110
1001
1000
,
0100
0010
0000
0010
0001
0000
1000
0100
,
0000
0100
0010
0000
0010
0000
0001
0000
,
0100
0010
0000
0010
1000
0000
0001
0100
,
0000
0100
0010
0000
0010
0000
1000
0000
,
0100
0010
0000
0010
0001
0000
1000
0010
,
0000
0010
0100
0000
0100
0000
0001
0000
,
1000
0100
0000
0100
0010
0000
0002
0000
,
0000
2000
3003
2002
,
0000
0000
0000
0000
,
0000
0000
0000
0000
,
0000
0000
0000
0000
,
0000
0000
0000
0000
,
0000
0000
0000
0000
,
0000
0000
0000
0000
,
0000
0000
0000
0000
,
0000
0000
0000
0000
,
0000
3003
0000
0000
1001
0000
0000
0110
,
0000
0000
1001
0000
0000
0110
0000
0000
,
1010
0000
1000
0100
,
0010
0001
0010
0000
0001
0000
0100
0000
,
0010
1000
0010
0000
1000
0000
1000
0000
,
0001
0001
0010
0010
,
0100
0100
1000
0010
,
0100
0001
0100
0000
0001
0000
0010
0000
,
0100
1000
0100
0000
2000
0000
3200
0000
,
0320
0000
0032
0000
0103
0000
0000
0010
,
0000
0110
1000
0100
,
0010
0001
0010
0000
0001
0000
0100
0000
,
0010
1000
0010
0000
1000
0000
1000
0000
,
0001
0001
0010
0010
,
0100
0010
0100
0000
1000
0000
0010
0000
,
0100
0001
0100
0000
0001
0000
0010
0000
,
0100
1000
0100
0000
2000
0000
3200
0000
,
0320
0000
0032
0000
0103
0000
0000
0010
,
0000
2020
0000
0000
,
0000
0000
0000
0000
,
0000
3030
0000
0000
;

//--------------- dance-single - extraordiberry ----------------
#NOTEDATA:;
#STEPSTYPE:dance-single;
#DESCRIPTION:extraordiberry;
#CREDIT:extraordiberry;
#DIFFICULTY:Medium;
#METER:13;
#RADARVALUES:0,0,0,0,0;
#NOTES:
0000
0000
0000
0000
,
0000
0000
0000
0000
,
0000
0000
0000
0000
,
0000
0000
0000
0000
,
0000
0000
0000
0000
,
1000
0010
2020
3030
,
0001
0010
0021
0031
,
1000
0001
1000
0000
0001
1000
0001
0000
,
1000
1000
0001
0001
1000
1000
0001
0001
,
1001
0000
0000
1010
0000
0000
0011
0000
,
0000
0010
0010
0000
0001
0001
0000
0100
,
0110
0000
0000
0101
0000
0000
1100
0000
,
0000
1000
1000
0000
0010
0010
0000
1000
,
0001
0001
0000
1002
,
0013
0001
1000
0000
1000
0001
0010
0000
,
0010
0001
1000
0001
0100
0010
0100
0000
,
0010
1000
0001
0000
0001
1000
0010
0000
,
0010
1000
0001
0010
0010
0000
0001
0100
,
0010
0000
0010
0100
0001
0000
0001
0100
,
0010
0100
0010
1000
0001
0010
0100
0000
,
1000
0100
0010
0000
0100
1000
1100
0000
,
0000
0110
0000
0000
0011
0000
2001
0000
,
3010
0100
0001
1000
0001
0100
0010
0001
,
0010
1000
0010
0001
0010
1000
0001
0000
,
0010
0100
1000
0001
1000
0100
0010
1000
,
0010
0001
0010
0100
0100
0000
1000
0001
,
1000
0010
0100
1000
0100
0010
0001
0010
,
1000
0010
0001
0010
1000
0010
0100
0000
,
0001
0000
1000
0000
0100
0000
0001
0000
0100
1000
0100
0000
1100
0000
0000
0000
,
0000
0110
0000
0000
0011
0000
2002
0000
,
0000
0000
0000
0000
3003
0000
0001
0100
,
0010
0000
0100
0010
1000
0000
0002
0000
,
0013
0200
0000
1300
0002
1003
0020
0000
,
0230
0000
0301
0100
0001
1000
0200
0000
,
0000
0000
0000
0000
0300
0000
0010
0100
,
1000
0000
1000
0100
0010
0000
0100
0010
,
0100
0000
0010
0000
0100
0000
0010
0000
0100
0000
0010
0000
0100
0010
0100
0000
,
0010
0000
0100
0000
0010
0100
0010
0000
0001
0000
0000
0000
1000
0000
0000
0000
,
0010
0100
0000
0001
1000
0000
0001
0000
,
0100
0010
0000
1000
0001
0000
0010
0100
,
1000
0001
0010
0100
1000
0000
1000
0001
,
0100
0000
0100
0001
1000
0000
0001
0000
,
0100
0010
0000
1000
0001
0000
1000
0000
,
0010
0100
0000
0001
1000
0000
0100
0010
,
0001
1000
0100
0010
0001
0000
2002
0000
,
0000
0000
3003
0110
,
0010
0010
0000
0000
1001
0000
0110
0000
,
0100
0100
0000
0000
0011
0000
0110
0000
,
0010
0010
0000
0001
0001
1000
1000
0000
,
0100
0100
0000
0010
0010
0000
0100
0000
,
0000
0110
0000
0010
,
0000
0110
0000
0100
,
0110
0010
0110
1001
,
1001
0000
1000
0001
1001
0000
1000
0100
,
0010
0100
0001
0100
0010
0100
1000
1000
,
0001
0000
1000
0001
1001
0000
0001
0100
,
0010
0100
1000
0100
0010
0100
0001
0001
,
1000
0000
0001
1000
1001
0000
0001
0010
,
1000
0010
0001
0000
0010
0100
0000
0010
,
0001
0001
1000
0001
1001
0000
1000
0010
,
0001
0010
1000
0000
0010
0000
0110
0000
,
0110
0000
0100
0010
0110
0000
0001
1000
,
1000
0100
0000
0010
0001
0001
1000
0010
,
0000
0100
0010
0100
0110
0000
1000
0001
,
0001
0100
0010
0000
1000
1000
0001
0010
,
0000
0100
0010
0100
0110
0000
0001
0100
,
0100
0010
0001
0000
0010
0100
0000
0010
,
1000
0100
0010
0100
0110
0000
1000
0100
,
0100
0010
1000
0000
0010
0100
2000
0000
,
0000
3200
0000
0020
,
0000
0000
0000
0000
,
0000
0000
0000
0000
,
0000
0000
0000
0000
,
0000
0000
0000
0000
,
0000
0000
0000
0000
,
0000
0000
0000
0000
,
0000
0000
0000
0000
,
0000
0000
0000
0000
,
0000
0000
0330
0000
0000
0000
0000
0000
0001
1000
0001
0000
0000
0000
1000
0001
,
1000
0000
0000
0000
0010
0100
0010
0000
0000
0000
0100
0010
0100
0000
0000
0000
,
0001
1000
1001
0000
0001
0000
1000
0100
,
0001
1000
0010
0001
1000
0000
1000
0010
,
0001
1000
0100
0010
1000
1000
0001
0000
,
0001
0001
1000
0000
1000
1000
0100
0010
,
0001
0001
1001
0000
1000
0000
0001
0100
,
1000
0001
0010
1000
0001
0000
0001
0010
,
1000
0000
0001
0000
0100
0000
0010
0000
0001
0010
0001
0000
1000
0000
0000
0000
,
0001
0100
0001
0000
1000
0000
0000
0000
0020
0000
0000
0000
0230
0000
0302
0000
,
0000
2003
3200
0320
0031
0000
1000
0010
,
0001
1000
0100
0001
0010
0000
0001
0010
,
1000
0001
0100
0010
0001
0001
1000
0000
,
1000
0000
1000
0000
0001
0000
0000
0000
0001
0100
0001
0000
0100
0000
0010
0000
,
1000
1000
1001
0000
1000
0000
0001
0010
,
1000
0001
0100
1000
0010
0000
1000
0010
,
0001
0000
1000
0000
0100
0000
0010
0000
1000
0010
1000
0000
0001
0000
0000
0000
,
1000
0100
1000
0000
0001
0000
0000
0000
0020
0000
0000
0000
0230
0000
2300
0000
,
0000
3002
0203
0320
0000
0000
0000
0000
,
0000
0000
0000
0000
,
0000
0030
0000
0000
;

//--------------- dance-single - extraordiberry ----------------
#NOTEDATA:;
#STEPSTYPE:dance-single;
#DESCRIPTION:extraordiberry;
#CREDIT:extraordiberry;
#DIFFICULTY:Hard;
#METER:16;
#RADARVALUES:0,0,0,0,0;
#NOTES:
0000
0000
0000
0000
,
0000
0000
0000
0000
,
0000
0000
0000
0000
,
0000
0000
0000
0000
,
0000
0000
0000
0000
,
0001
1000
0010
0100
0020
0000
0000
0000
,
1030
0001
0010
0100
0020
0000
0100
0000
,
0031
1000
0001
1000
0010
0100
0010
0100
,
0001
1000
0001
0000
1000
0001
1000
0000
0001
1000
0001
1000
0001
0000
0000
0000
,
1000
0000
0001
1000
0010
0000
0100
0000
0100
0000
0001
0000
1000
0000
1000
0000
,
0100
0010
0010
0001
1001
1000
0010
0000
,
0100
0000
0010
0000
1000
0000
0001
0000
0001
0000
1000
0000
0100
0000
0010
0001
,
1000
0010
0010
0100
0110
0010
1000
0000
,
0001
0001
0000
2001
,
3100
0010
0100
0001
0100
0010
0100
0001
,
0100
0010
0100
0001
1000
0010
0001
0000
,
0100
0010
0100
0010
0100
0000
1000
0000
0100
0000
0010
0000
0100
0000
1000
0000
,
0100
0010
0100
0001
0020
0000
0130
0001
,
0100
1000
0100
0001
0100
1000
0100
0001
,
0100
1000
0100
0001
1000
0010
0001
0000
,
1000
0010
1000
0100
1000
0010
2010
0010
,
0000
0001
0001
0000
0100
3100
1200
0000
,
0310
0000
0001
0000
0010
0000
1000
0000
0010
0000
0001
0000
0010
0100
0010
0000
,
0100
1000
0100
0000
0010
0001
0010
0000
0100
0000
0010
0000
0001
0000
0000
0000
,
1000
0000
0010
0000
1000
0000
0100
0000
1000
0000
0010
0000
0100
0010
0100
0000
,
0001
1000
0001
0000
1000
0100
1000
0000
0020
0000
0000
0000
0130
0000
1000
0000
,
0100
0010
0100
0000
0001
0000
0010
0000
0001
1000
0001
0000
0010
0100
0010
0000
,
0100
1000
0100
0000
0010
0000
0100
0001
0100
0000
0010
0000
0100
0000
0000
0000
,
1000
0000
0010
0000
1000
0000
0100
0000
1000
0010
1000
0010
0200
0000
0001
0000
,
0000
1000
1000
0000
0001
0301
0102
0000
,
0000
0000
0023
0000
0000
0000
0130
0010
,
0100
1000
0001
0100
0010
0001
0020
0000
,
1030
0200
0000
0310
0002
0103
0020
0000
,
2030
0000
3001
1000
0001
0010
0001
0200
,
0000
0001
0301
0100
,
0100
0000
0000
0000
0001
0000
1000
0000
0001
0000
1000
0000
0001
1000
0001
0000
,
1000
0001
1000
0000
0100
0010
0100
0000
0010
0100
0010
0000
0001
1000
0001
1000
,
0001
1000
0001
1000
0001
1000
0001
1000
0010
0000
0000
0000
0100
0000
0000
0000
,
0010
0000
1000
0000
0000
0000
1000
0000
0100
0010
0100
0000
0010
0000
0000
0000
,
0001
0000
0100
0000
0000
0000
0010
0000
1000
0001
1000
0000
0100
0000
0010
0000
,
0010
0000
0001
0000
1000
0000
0010
0000
0010
0000
0100
0000
0001
0100
0001
0000
,
1000
0010
1000
0000
0001
1000
0001
0000
1000
0100
1000
0000
0002
0000
0000
0000
,
0013
0000
0100
0000
0000
0000
1000
0000
0001
0100
0001
0000
2000
0000
0000
0000
,
3001
0000
0010
0000
0000
0000
0001
0000
1000
0010
1000
0000
0010
0000
0100
0000
,
0100
0000
0001
0000
1000
0000
0100
0000
0100
0010
0100
0000
0220
0000
0000
0000
,
0000
0000
0000
0000
0330
0000
1001
0001
,
0100
0120
0000
1000
1030
0000
1001
1000
,
0100
0120
0000
0001
0031
0000
1001
0001
,
0100
0000
0110
0000
0000
0000
0110
0000
0010
1000
0010
0000
1010
0000
1000
0000
,
0001
0000
0012
0000
0000
0000
1003
0001
1000
0000
0000
0000
1001
0000
0000
0000
,
0000
1010
0000
1001
,
0000
0011
0000
1001
,
1010
0000
1001
0000
0011
0000
0120
0030
,
0210
0300
0110
1000
0001
0000
1000
1000
,
0010
0000
0100
0000
0100
0000
0001
0000
0100
0010
0100
0010
0100
0000
0010
0000
,
1010
1000
0001
0010
0011
0000
0001
0001
,
0010
0100
0100
1000
0100
0001
0100
0010
,
0011
0000
0001
0000
1000
0000
0010
0000
1010
0000
0000
0000
1000
0010
1000
0010
,
1000
0001
0100
1000
0100
0100
0010
0000
,
0101
0000
1000
0100
1100
0000
0001
0001
,
1000
0100
0100
0001
0100
0100
0120
0030
,
0210
0000
0300
0000
0110
0000
1000
0000
0001
0000
0000
0000
0010
0000
0001
1000
,
0010
0100
0100
0001
1000
1000
0100
0001
,
0001
0100
1100
1000
0001
0000
0100
0010
,
0010
0000
1000
0000
0001
0000
0001
0000
0010
0000
0100
1000
0001
0000
0100
0000
,
0100
0000
0001
0000
0101
0000
0100
0000
1000
0000
0000
0000
0100
0000
0001
1000
,
0100
0010
0010
0100
0001
0001
0100
1000
,
1000
0001
0101
1000
1010
0000
0001
0100
,
0100
0000
0010
0000
0001
0000
0001
0000
0010
0000
1000
0100
0002
0000
0000
0000
,
0003
0200
0300
2002
,
0000
0000
0000
0000
,
0000
0000
0000
0000
,
0000
0000
0000
0000
,
0000
0000
0000
0000
,
0000
0000
0000
0000
,
0000
0000
0000
0000
,
0000
0000
0000
0000
,
0000
0000
0000
0000
,
0003
0000
0000
0000
0000
0000
0000
0000
0000
0000
0000
0000
0000
0000
0000
0000
0000
0000
0000
0000
0000
0000
0000
0000
0000
3000
0000
0000
0000
0000
0000
0000
0000
0000
0000
0000
0000
0000
0000
0000
0000
0000
0000
0000
0000
0000
0000
0000
0000
0000
0000
0000
0000
0000
0000
0000
0000
0000
0000
0000
0000
0000
0000
0000
0000
0000
0000
0000
0000
0000
0000
0000
0000
0000
0000
0000
0000
0000
0000
0000
0000
0000
0000
0000
0000
0000
0000
0000
0000
0000
0000
0000
0000
0000
0000
0000
0010
0000
0000
0000
0000
0000
0000
0000
0000
0000
0000
0000
1000
0000
0000
0000
0000
0000
0000
0000
0000
0000
0000
0000
0100
0000
0000
0000
0000
0000
0000
0000
0000
0000
0000
0000
0000
0000
0000
0000
0000
0000
0000
0000
0000
0000
0000
0000
0000
0000
0000
0000
0000
0000
0000
0000
0000
0000
0000
0000
0000
0000
0000
0000
0000
0000
0000
0000
0000
0000
0000
0000
0010
0000
0000
0000
0000
0000
0000
0000
0000
0000
0000
0000
0001
0000
0000
0000
0000
0000
0000
0000
0000
0000
0000
0000
,
0100
0000
0000
0000
0010
1000
0100
0000
0000
0000
0010
0001
0100
0000
0000
0000
,
0010
0000
1000
0001
1000
0000
0000
0000
1002
0000
0003
0000
1000
0100
1000
0000
,
0100
0010
0100
0000
0010
0001
0010
0001
2000
0000
3000
0001
0100
0000
0001
0100
,
0001
0000
0100
0010
0100
0000
0010
0000
1000
0001
1000
0001
0010
0000
0001
1000
,
0001
1000
0100
0000
1000
0001
1000
0001
0010
0000
0001
1000
0001
1000
0010
0000
,
0100
0010
0100
0010
1000
0000
0001
0000
2001
0000
3000
0000
0001
0010
0001
0000
,
0010
0100
0010
0000
0100
1000
0100
1000
0002
0000
0003
1000
0010
0000
1000
0010
,
1000
0000
0010
0100
0010
0000
0100
0000
0001
1000
0001
0000
0100
0001
0000
1000
,
0010
1000
0010
0000
0100
0010
0000
1000
0200
0000
0000
0000
0320
0000
0032
0000
,
0000
0000
2003
0000
3020
0000
0032
0000
0023
0000
0030
0000
1000
0100
0010
0000
,
0100
0010
0001
0000
0010
0001
0010
0001
0200
0000
0300
0001
0100
0000
0001
0100
,
0010
0000
0100
0010
1000
0000
0010
0000
1000
0001
1000
0001
0010
0000
0001
1000
,
0001
1000
0100
0000
1000
0001
1000
0001
0010
0000
0001
1000
0001
1000
0010
0000
,
0100
0010
0100
0010
1000
0000
0001
0000
1002
0000
0003
0000
1000
0100
0010
0000
,
0001
0010
0100
0000
1000
0100
0010
0001
0200
0000
0300
0001
0100
0000
0001
0100
,
0010
0000
1000
0010
0100
0000
0001
0000
0010
0001
1000
0000
0010
1000
0000
0001
,
0100
0010
1000
0000
0010
0100
0000
0001
0020
0000
0000
0000
0230
0000
2300
0000
,
0000
3002
0203
2300
0000
0000
0000
0000
,
0000
0000
0000
0000
,
0000
3000
0000
0000
;

//--------------- dance-single - forcednature ----------------
#NOTEDATA:;
#STEPSTYPE:dance-single;
#DESCRIPTION:forcednature;
#CREDIT:forcednature;
#DIFFICULTY:Challenge;
#METER:18;
#RADARVALUES:0,0,0,0,0;
#OFFSET:0.733;
#BPMS:0.000=200.000;
#STOPS:53.000=0.300;
#TIMESIGNATURES:0.000=4=4,
52.000=3=4,
55.000=4=4
;
#NOTES:
0000
0000
0000
0000
,
0000
0000
0000
0000
,
0000
0000
0000
0000
,
0000
0000
0000
0000
,
0000
0000
0000
0000
,
0001
0001
0100
0010
0010
1000
0001
0001
,
0010
0100
0100
0100
0100
0100
0100
0100
,
1000
0000
0010
1000
0010
0000
0100
0000
0001
0100
0001
0000
0010
0000
0100
0010
,
0100
1000
1000
1000
1000
1000
1000
1000
,
1001
0000
0001
0100
0010
0000
0110
0000
1000
0000
0001
0000
0011
0000
0000
0000
,
1000
0000
1100
0000
1100
0000
0000
0000
0001
0000
0011
0000
0000
0000
0001
0100
,
0010
1000
0100
0110
0001
0101
0100
0000
,
1000
0000
1010
0000
1010
0000
0000
0000
1001
0000
1001
0000
0000
0000
0001
0010
,
0100
0220
0330
1001
,
1000
0000
0100
0000
0001
0000
0100
0000
1000
0000
0100
0010
0001
0000
1000
0000
,
0010
1000
0001
0010
0100
1000
0001
0001
,
0001
0100
0001
1000
0010
0000
0010
0000
0010
0000
0100
0001
1000
0000
0100
1000
,
0100
0000
0010
0100
0010
0000
0000
0000
1001
0000
0000
0000
1000
0000
0100
0010
,
0001
0000
1000
0000
0001
0100
0010
0000
1000
0000
0001
0000
0010
0000
0100
0010
,
0100
0000
1000
0100
1000
0000
0001
0010
0200
0000
0000
0000
0310
0000
0000
0001
,
1000
0000
0010
0000
0100
0001
1000
0001
0100
0001
1000
0001
0010
0100
1000
0000
,
0000
0000
0010
0100
0001
0000
0010
0000
0100
0010
0100
0010
0001
0000
1000
0000
,
1001
0000
0000
0000
0001
0100
0001
0000
0100
0010
1000
0000
0001
0000
0010
0000
,
1000
0000
0010
0000
0001
1000
0100
1000
0001
0000
0010
0000
0001
0000
1000
0010
,
0100
0000
0001
0000
0010
0100
1000
0000
0001
0000
0100
0001
0100
0000
0010
0100
,
0010
0000
1000
0001
0010
0000
0000
0000
0210
0000
0000
0000
1300
0000
0001
0010
,
0100
0000
1000
0000
0010
0100
0001
0000
0010
0000
0001
0000
0100
0001
0100
0000
,
0010
0100
0010
0000
1000
0001
0100
0001
1000
0000
0010
0000
0110
0000
0000
0000
,
0001
0000
1000
0001
1000
0000
0100
0000
0010
0001
0010
0001
1000
0010
1000
0000
,
0010
0100
0000
0001
0010
0100
0010
0000
0100
1000
0001
0000
0200
0000
0000
0000
,
0000
0000
0320
0000
0000
0000
1030
0001
,
0100
0000
0001
0000
1000
0100
0010
0100
1000
0001
0010
0001
2000
0000
0000
0000
,
3010
0000
0200
0000
0000
0000
0301
0000
0010
0000
0100
1000
0002
0000
0000
0000
,
0203
0000
0310
1000
0001
0010
0200
0000
,
0000
0000
2300
0000
0000
0000
3010
0010
,
1000
0000
0000
0000
0001
0100
0001
0100
0001
0000
1000
0000
0010
0100
0010
0100
,
0001
0000
0010
0001
0000
0010
0100
0000
1000
0100
1000
0100
1000
0000
0001
0100
,
0001
0000
0100
0010
1000
0000
0001
0000
0010
0000
0000
0000
1100
0000
1100
0000
,
0001
0000
0000
0010
0000
0010
0001
0000
1000
0000
0000
0000
0101
0000
0101
0000
,
1000
0000
0010
0000
0100
0001
0100
0010
1000
0000
0000
0000
0011
0000
0011
0000
,
1000
0000
0000
0001
0000
0001
0100
0000
0010
0000
1000
0000
0001
0000
0010
0001
,
0010
0000
0100
0010
0100
0000
1000
0001
0010
0001
0010
0000
1100
0000
1100
0000
,
0001
0000
0010
0001
0000
0001
0100
0000
0010
0000
0000
0000
0101
0000
0101
0000
,
1000
0000
0010
0000
1000
0001
1000
0001
0100
0000
0000
0000
0110
0000
0110
0000
,
1000
0000
0000
0001
0000
0001
0010
0000
0100
0000
1000
0000
0020
0000
0000
0000
,
0230
0302
2003
3100
,
1100
0012
0000
0000
0103
0000
0110
0000
,
0101
2010
0000
0000
3100
0000
0110
0000
,
0011
0000
0201
0000
0000
0000
0310
0000
0010
1000
0010
1000
0001
0000
0000
0000
,
1010
0000
1200
0000
0000
0000
0310
0001
0010
0000
0100
0000
0210
0000
0000
0000
,
0310
0001
1000
0001
0200
0000
0000
0000
0310
1000
0001
1000
0200
0000
0000
0000
,
0310
0001
0100
0001
0020
0000
0000
0000
0130
1000
0010
1000
0200
0000
0310
0001
,
0200
0000
0310
1000
0200
0000
0310
0001
2000
0000
0000
0000
0010
0000
0000
0000
,
0010
0000
0000
3001
0010
0100
1000
0000
0000
0012
0000
0000
,
0100
0000
0100
0000
0100
0000
0000
0003
1000
0001
1000
0001
0100
0000
0010
1000
,
0001
0000
0010
0000
0100
0000
1000
0001
0100
0000
0000
0000
0010
0000
1000
0001
,
0100
0000
0010
0000
1000
0000
0001
0010
0100
0000
0010
0000
0001
0000
1000
0010
,
0100
0000
0010
0000
1000
0001
1000
0001
0100
0000
0000
0000
0010
1000
0010
0100
,
0000
0000
0001
0010
0100
0000
0010
0000
0001
0100
0010
0000
1000
0000
0100
1000
,
0010
0000
0100
0000
0010
1000
0001
0100
0010
0000
0000
0000
1000
0000
0100
1000
,
0010
0000
0100
0000
0001
0010
0100
0010
0001
0000
1000
0000
0010
0100
0000
0000
,
0010
0000
0000
0100
0000
0000
0000
0000
0000
0000
0000
0000
0001
0000
0000
0000
0010
0000
0000
0000
0100
0000
0000
0000
1000
0000
0000
0000
0000
0000
0000
0000
0000
0000
0000
0000
0101
0000
0000
0000
0000
0000
0001
0000
0000
2000
0000
0000
,
0010
0010
0001
0001
0001
0100
0100
0100
,
0001
0000
0001
0000
3001
0000
0011
0000
1100
0000
0000
0000
1001
0000
1000
0010
,
0100
0000
0001
0000
0010
0100
1000
0000
0010
0000
0100
0001
0010
0000
0100
1000
,
0010
0000
1000
0001
0010
0000
0011
0000
1100
0000
0000
0000
0001
0100
0010
0100
,
0001
0000
1000
0100
0010
0100
1000
0000
0001
0010
0100
0010
0001
0000
1000
0010
,
0100
0010
1000
0000
0001
0000
1000
0000
1001
0000
0000
0000
0001
0000
0001
0010
,
0100
0000
0100
1000
0001
0000
0001
0100
0010
0100
0010
1000
0002
0000
0000
0000
,
0000
0013
0200
0000
0300
0000
0110
0220
,
0000
0000
0000
0000
0000
0000
0000
0000
0330
0000
0000
0000
1000
0001
1000
0001
,
1000
0001
1000
0001
1000
0001
1000
0001
1000
0001
1000
0001
0200
0320
0230
0320
,
0230
0320
0230
0320
1030
0001
1000
0001
1000
0001
1000
0001
1000
0001
1000
0001
,
1000
0001
1000
0001
1000
0001
1000
0001
1000
0001
1000
0001
0020
0230
0320
0230
,
0320
0230
0320
0230
1300
0001
1000
0001
1000
0001
1000
0001
1000
0100
0010
0001
,
1000
0010
0100
0001
0010
0100
1000
0001
0100
0010
1000
0001
0020
0230
2300
0000
,
3000
0000
0020
0230
0302
0000
0003
0000
0200
0302
0023
0000
0030
0000
0200
2300
,
3020
0000
0030
0000
0200
0302
2003
3020
0230
0000
0300
0000
0001
0010
0100
0010
,
0001
0000
1000
0010
0100
0000
0100
0001
1000
0000
0100
0000
1000
0010
0100
0010
,
1000
0000
0001
0010
0100
0000
0100
1000
0001
0000
0100
0000
0001
0010
0100
1000
,
0020
0000
1030
0100
0010
0001
0200
0000
0310
1000
0100
0010
0002
0000
0103
0001
,
0010
0100
2000
0000
3010
0100
0001
1000
0020
0000
0230
0000
0301
1000
0100
1000
,
0001
0000
0010
0100
1000
0000
1000
0001
0100
0000
0010
0000
1000
0001
0100
0001
,
1000
0000
0010
0100
0001
0000
0001
1000
0100
0000
0010
0000
0001
0100
0001
0100
,
0010
0100
0000
0001
1000
0100
0010
0100
1000
0001
0010
0001
1000
0010
0100
0001
,
0010
0000
0100
1000
0000
1000
0010
0100
0001
0000
0010
0000
0001
1000
0100
1000
,
0010
0000
0100
0001
1000
0000
1000
0001
0010
0000
0100
0000
1000
0001
0100
0001
,
0010
0000
0100
1000
0001
0000
0001
1000
0010
0000
0100
0000
0001
1000
0100
0001
,
0200
0000
1300
0001
0100
1000
0200
0000
1300
0001
0010
1000
0020
0000
0031
1000
,
0010
0001
0020
0000
1030
0001
0100
0010
2000
0000
3002
0000
0013
0100
1000
0010
,
0100
0000
0001
0010
0100
0000
0100
0010
0001
0000
1000
0000
0010
0100
0001
0010
,
0100
0000
0010
0100
1000
0000
1000
0010
0100
0000
0001
0000
1000
0010
0100
0010
,
1000
0001
0100
0001
1000
0100
0010
0001
1000
0010
0100
0001
1000
0000
0000
0000
,
0011
0101
0000
0110
1010
2200
0000
0000
,
0000
0000
0000
0000
,
0000
0000
0000
3300
;

//--------------- dance-double - extraordiberry ----------------
#NOTEDATA:;
#STEPSTYPE:dance-double;
#DESCRIPTION:extraordiberry;
#CREDIT:extraordiberry;
#DIFFICULTY:Easy;
#METER:9;
#RADARVALUES:0,0,0,0,0;
#NOTES:
00000000
00000000
00000000
00000000
,
00000000
00000000
00000000
00000000
,
00000000
00000000
00000000
00000000
,
00000000
00000000
00000000
00000000
,
00000000
00000000
00000000
00000000
,
00010000
00001000
01000000
00000000
,
00100000
10000000
00010000
00000000
,
00100000
00100000
00001000
00001000
,
00010000
00000000
00001000
00000000
00010000
00001000
00010000
00000000
,
00000100
00000000
00000000
00000010
00000000
00000000
00000001
00000000
,
00000000
00000100
00000000
00000000
00000110
00000000
00000010
00000000
,
00001000
00000000
00000000
00000100
00000000
00000000
00010000
00000000
,
00000000
01000000
00000000
00000000
10010000
00000000
10000000
00000000
,
00000000
00000000
00000000
00010000
,
00100000
00100000
01000000
01000000
,
10000000
00010000
10000000
00100000
,
01000000
01000000
00010000
00100000
,
00001000
00010000
00000200
00000310
,
00000001
00000001
00000100
00000100
,
00000010
00001000
00000100
00010000
,
00001000
00001000
01000000
00020000
,
00000000
02030000
00000000
00000000
03200000
00000000
10300000
00000000
,
01000000
00100000
00010000
00100000
,
01000000
00100000
00001000
00010000
,
00000100
00001000
00000001
00000100
,
00000001
00000010
00000020
00000130
,
00001000
00000100
00010000
00001000
,
01000000
00010000
01000000
00100000
,
10000000
01000000
00010000
00002000
,
00000000
00003200
00000000
00000000
00000302
00000000
00002003
00000000
,
00000000
00000000
00003000
00000100
,
00000000
00010000
00000000
00002000
,
00000000
00203000
00000000
00000000
00000000
00000000
00320000
00000000
,
00000000
20030000
00000000
30200000
,
00000000
00000000
00300000
01000000
,
00000000
00001000
00000000
00010000
,
00010000
00000000
00001000
00000000
00001000
00000000
00010000
00001000
,
00010000
00000000
00001000
00010000
00001000
00000000
00011000
00000000
,
00000000
00010000
00000100
00000010
,
00000000
00000001
00000100
00000010
,
00000000
00001000
00000000
00000010
,
00010000
00001000
00000000
00010000
,
00000000
00001000
01000000
00100000
,
00000000
10000000
01000000
00100000
,
00000000
00010000
00100000
00002000
,
00000000
00000000
00003000
00010000
,
00000000
00000100
00000000
00000000
00000110
00000000
00000001
00000000
,
00000000
00000100
00000000
00000000
00000110
00000000
00000010
00000000
,
00000000
00010000
00000000
00000000
00001000
00000000
00001000
00000000
,
00000000
01000000
00000000
00000000
01100000
00000000
10000000
00000000
,
00000000
01000000
00000000
00010000
,
00000000
00001000
00000000
00000010
,
00000001
00000100
00000010
00001000
,
00000010
00000000
00010000
00001000
00010000
00000000
00002000
00000000
,
00000000
02003000
00000000
00000000
03200000
00000000
00000000
00000000
,
10300000
01000000
00100000
00002000
,
00000000
00023000
00000000
00000000
00030200
00000000
00000000
00000310
,
00000000
00000000
00000001
00001000
00000001
00000000
00000200
00000000
,
00000000
00000320
00000000
00000000
00020030
00000000
00000000
00130000
,
00000000
10000000
00010000
00200000
,
00000000
02300000
00000000
00000000
03020000
00000000
00031000
00000000
,
00010000
00000000
00000100
00001000
00000100
00000000
00000010
00000000
,
00000000
00000001
00000000
00000000
00001001
00000000
00000000
00001000
,
00000000
00000000
00000010
00001000
00000010
00000000
00010000
00000000
,
00000000
00001000
00000000
00000000
00011000
00000000
00000000
01000000
,
00000000
00000000
00100000
01000000
00100000
00000000
10000000
00000000
,
00000000
01000000
00000000
00000000
01100000
00000000
00000000
00001000
,
00000000
00000000
00010000
00000100
00001000
00000000
00000010
00000000
,
00000000
00000100
00000000
00000000
00001000
00000000
00020000
00000000
,
00030000
00002000
00003000
00022000
,
00000000
00000000
00000000
00000000
,
00000000
00000000
00000000
00000000
,
00000000
00000000
00000000
00000000
,
00000000
00000000
00000000
00000000
,
00000000
00000000
00000000
00000000
,
00000000
00000000
00000000
00000000
,
00000000
00000000
00000000
00000000
,
00000000
00000000
00000000
00000000
,
00000000
00033000
00000000
00000000
00001000
01000000
00000000
00100000
,
10000000
00000000
01000000
00100000
00000000
00001000
00010000
00000000
,
00011000
00000000
00000100
00000010
,
00000001
00000000
00001000
00000001
00001000
00000000
00000010
00000000
,
00000100
00000000
00001000
00010000
00001000
00000000
00001000
00000000
,
00010000
00010000
00100000
00100000
,
10000000
10000000
01000000
00100000
,
00010000
00000000
10000000
00010000
10000000
00000000
00100000
00000000
,
01000000
00000000
00010000
01000000
00010000
00000000
01000000
00000000
,
00001000
00000000
00010000
00000000
00000020
00000000
00000000
00000230
,
00000000
00000302
00000013
00000100
,
00000010
00000000
00001000
00010000
00001000
00000000
00010000
00000000
,
01000000
00000000
10000000
01000000
10000000
00000000
10000000
00000000
,
00010000
00010000
01000000
01000000
,
00100000
00100000
00010000
00001000
,
00000100
00000000
00000010
00000100
00000010
00000000
00001000
00000000
,
00000001
00000000
00000010
00000100
00000010
00000000
00001000
00000000
,
00010000
00000000
01000000
00000000
20000000
00000000
00000000
30200000
,
00000000
02300000
00000000
00000000
,
00000000
00000000
00000000
00000000
,
00000000
03000000
00000000
00000000
;

//--------------- dance-double - extraordiberry ----------------
#NOTEDATA:;
#STEPSTYPE:dance-double;
#DESCRIPTION:extraordiberry;
#CREDIT:extraordiberry;
#DIFFICULTY:Medium;
#METER:13;
#RADARVALUES:0,0,0,0,0;
#NOTES:
00000000
00000000
00000000
00000000
,
00000000
00000000
00000000
00000000
,
00000000
00000000
00000000
00000000
,
00000000
00000000
00000000
00000000
,
00000000
00000000
00000000
00000000
,
00001000
00100000
00002000
00003000
,
00010000
00000010
00020000
00031000
,
00010000
00001000
00010000
00000000
00001000
00010000
00001000
00000000
,
00010000
00010000
00001000
00001000
00010000
00010000
00001000
00001000
,
00011000
00000000
00000000
00000100
00000000
00000000
00000110
00000000
,
00000000
00000001
00000001
00000000
00000100
00000010
00000000
00010000
,
00001000
00000000
00000000
01000000
00000000
00000000
01100000
00000000
,
00000000
10000000
10000000
00000000
01000000
00100000
00000000
00001000
,
00010000
00010000
00000000
00011000
,
00001000
00010000
00000100
00000000
00000100
00000010
00000001
00000000
,
00000001
00000010
00000100
00001000
00000010
00010000
00001000
00000000
,
00010000
00001000
01000000
00000000
01000000
00100000
10000000
00000000
,
10000000
00100000
01000000
00010000
00200000
00000000
00301000
00010000
,
00000100
00000000
00000100
00000010
00001000
00000000
00001000
00000010
,
00000100
00000010
00000001
00001000
00000010
00010000
00001000
00000000
,
00010000
00001000
01000000
00000000
00100000
10000000
01000000
01000000
,
00000000
00010000
00010000
00000000
00001000
00001000
00011000
00000000
,
00010000
00001000
00000100
00000000
00001000
00000100
00000010
00000100
,
00000001
00000100
00000010
00000100
00000001
00000100
00001000
00000000
,
00000100
00001000
00010000
00000000
00001000
00010000
00100000
01000000
,
00010000
10000000
01000000
00100000
00002000
00000000
00013000
00000000
,
00010000
00001000
00000010
00000000
00001000
00000010
00000001
00000100
,
00000001
00000010
00000001
00001000
00000010
00000100
00001000
00000000
,
00000100
00001000
00010000
00000000
00001000
00010000
01000000
01000000
,
00000000
10000000
10000000
00000000
00100000
00010000
00002000
00000000
,
00000000
00000000
00000000
00000000
00003000
00000000
00010000
00001000
,
00010000
00000000
00000100
00001000
00000100
00000000
00000020
00000000
,
00000031
00002000
00000000
00003010
00020000
00031000
02000000
00000000
,
03020000
00000000
10030000
00100000
01000000
00010000
00200000
00000000
,
00000000
00000000
00000000
00000000
00300000
00000000
00001000
00100000
,
00001000
00000000
00010000
00000100
00010000
00000000
00001000
00010000
,
00001000
00000000
00010000
00000000
00001000
00000000
00010000
00000000
00001000
00000000
00010000
00000000
00001000
00010000
00001000
00000000
,
00010000
00000000
00001000
00000000
00010000
00001000
00010000
00000000
00001000
00000000
00000000
00000000
00001000
00000000
00000000
00000000
,
00000010
00000100
00000000
00001000
00000010
00000000
00010000
00000000
,
00000100
00000010
00000000
00000001
00000100
00000000
00000010
00000100
,
00001000
00000000
00000100
00001000
00010000
00000000
00001000
00000000
,
00010000
00100000
10000000
00010000
,
00100000
01000000
00000000
00010000
00001000
00000000
00010000
00000000
,
01000000
00100000
00000000
00010000
01000000
00000000
00100000
00010000
,
00001000
00000000
00010000
00001000
00010000
00000000
00022000
00000000
,
00000000
00000000
00033000
00011000
,
00000100
00000100
00000000
00000000
00010100
00000000
00011000
00000000
,
01000000
01000000
00000000
00000000
01001000
00000000
00011000
00000000
,
00000100
00000100
00000000
00010000
00010000
00000000
00011000
00000000
,
01000000
01000000
00000000
00000000
01010000
00000000
00100000
00000000
,
10000000
01000000
00010000
00001000
,
00000010
00000001
00000100
00010010
,
00010010
01001000
01001000
00100000
,
01000000
00000000
00001000
00001000
00001000
00000000
00010000
00000100
,
00000010
00000100
00000001
00000100
00000010
00000100
00001000
00001000
,
00000100
00000000
00010000
00000000
00011000
00000000
00001000
01000000
,
00100000
01000000
10000000
01000000
00100000
01000000
00010000
00010000
,
01000000
00000000
00001000
00000000
00011000
00000000
00010000
00001000
,
00000010
00000001
00001000
00000000
00000001
00000100
00000000
00000010
,
00000100
00001000
00010000
00000000
00011000
00000000
00001000
00010000
,
00100000
10000000
00010000
00000000
10000000
01000000
00010000
00000000
,
00001000
00000000
00010000
00010000
00010000
00000000
00011000
00010000
,
00000100
00001000
00000010
00000010
00000100
00001000
00000001
00000010
,
00000010
00001000
00000100
00010000
00010000
00000000
00011000
00001000
,
01000000
00010000
00100000
00100000
01000000
00010000
10000000
00100000
,
00100000
00010000
01000000
00001000
00001000
00000000
00010000
00001000
,
00000010
00000100
00001000
00001000
00000010
00000100
00001000
00000100
,
00000100
00000010
00010000
00001000
00001000
00000000
00001000
00010000
,
00100000
01000000
00010000
00010000
00100000
01000000
00020000
00000000
,
00000000
00002000
00033000
00022000
,
00000000
00000000
00000000
00000000
,
00000000
00000000
00000000
00000000
,
00000000
00000000
00000000
00000000
,
00000000
00000000
00000000
00000000
,
00000000
00000000
00000000
00000000
,
00000000
00000000
00000000
00000000
,
00000000
00000000
00000000
00000000
,
00000000
00000000
00000000
00000000
,
00000000
00000000
00000000
00000000
00000000
00000000
00000000
00000000
00000000
00000000
00000000
00000000
00000000
00000000
00000000
00000000
00000000
00000000
00000000
00000000
00000000
00000000
00000000
00000000
00003000
00030000
00000000
00000000
00000000
00000000
00000000
00000000
00000000
00000000
00000000
00000000
00000000
00000000
00000000
00000000
00000000
00000000
00000000
00000000
00000000
00000000
00000000
00000000
00000000
00000000
00000000
00000000
00000000
00000000
00000000
00000000
00000000
00000000
00000000
00000000
00000000
00000000
00000000
00000000
00000000
00000000
00000000
00000000
00000000
00000000
00000000
00000000
00000000
00000000
00000000
00000000
00000000
00000000
00000000
00000000
00000000
00000000
00000000
00000000
00000000
00000000
00000000
00000000
00000000
00000000
00000000
00000000
00000000
00000000
00000000
00000000
00000100
00000000
00000000
00000000
00000000
00000000
00000000
00000000
00000000
00000000
00000000
00000000
00000000
00000000
00000000
00000000
00000000
00000000
00000000
00000000
00000000
00000000
00000000
00000000
00000100
00000000
00000000
00000000
00000000
00000000
00000000
00000000
00000000
00000000
00000000
00000000
00000000
00000000
00000000
00000000
00000000
00000000
00000000
00000000
00000000
00000000
00000000
00000000
00000000
00000000
00000000
00000000
00000000
00000000
00000000
00000000
00000000
00000000
00000000
00000000
00000000
00000000
00000000
00000000
00000000
00000000
00000000
00000000
00000000
00000000
00000000
00000000
00000010
00000000
00000000
00000000
00000000
00000000
00000000
00000000
00000000
00000000
00000000
00000000
00000000
00000000
00000000
00000000
00000000
00000000
00000000
00000000
00000000
00000000
00000000
00000000
,
00000010
00000000
00000001
00000001
00000000
00000100
00000100
00000000
,
00001000
00010000
00011000
00000000
00001000
00000000
00010000
00100000
,
01000000
00010000
10000000
01000000
00010000
00000000
00001000
00000010
,
00000100
00001000
00000001
00000100
00001000
00001000
00000100
00000000
,
00001000
00001000
00010000
00000000
00001000
00001000
00100000
01000000
,
00010000
00010000
00001000
00000000
00010000
00000000
00001000
00000100
,
00000010
00001000
00000001
00000010
00001000
00000000
00010000
01000000
,
00100000
00010000
10000000
00100000
00010000
00100000
10000000
00000000
,
00010000
00100000
01000000
00000000
20000000
00000000
32000000
03020000
,
00000000
00032000
00003020
00000032
00000103
00000000
00001000
00010000
,
00100000
01000000
00010000
10000000
01000000
00000000
00010000
00001000
,
00000010
00000100
00001000
00000001
00000100
00000100
00001000
00000000
,
00010000
00010000
00001000
00000000
00100000
00100000
01000000
10000000
,
00010000
00010000
01000000
00000000
00100000
00000000
00010000
00001000
,
00000100
00000010
00001000
00000001
00000010
00000000
00001000
00010000
,
01000000
00100000
00010000
10000000
00100000
00010000
00001000
00000000
,
00010000
00010000
01000000
00000000
20000000
00000000
30200000
00320000
,
00000000
00032000
00003200
00000302
00000000
00000000
00000000
00000000
,
00000000
00000000
00000000
00000000
,
00000000
00000003
00000000
00000000
;

//--------------- dance-double - extraordiberry ----------------
#NOTEDATA:;
#STEPSTYPE:dance-double;
#DESCRIPTION:extraordiberry;
#CREDIT:extraordiberry;
#DIFFICULTY:Hard;
#METER:16;
#RADARVALUES:0,0,0,0,0;
#NOTES:
00000000
00000000
00000000
00000000
,
00000000
00000000
00000000
00000000
,
00000000
00000000
00000000
00000000
,
00000000
00000000
00000000
00000000
,
00000000
00000000
00000000
00000000
,
00001000
00010000
00001000
00010000
00000200
00000000
00000000
00000000
,
00010300
00001000
00010000
00001000
02000000
00000000
00010000
00000000
,
03001000
01000000
00001000
01000000
00001000
00010000
00001000
00010000
,
00001000
00010000
00001000
00000000
00010000
00001000
00010000
00000000
00001000
00010000
00001000
00010000
00001000
00000000
00000000
00000000
,
00100000
00000000
00010000
10000000
01000000
00000000
00100000
00000000
00100000
00000000
00010000
00000000
10000000
00000000
10000000
00000000
,
00100000
01000000
01000000
00001000
00011000
00010000
00000100
00000000
,
00000010
00000000
00000001
00000000
00001000
00000000
00000010
00000000
00000010
00000000
00000100
00000000
00000010
00000000
00001000
00000001
,
00000010
00000100
00000100
00010000
00011000
00001000
01000000
00000000
,
00100000
00100000
00000000
01002000
,
00013000
00001000
00010000
00000100
00010000
00001000
00010000
00000100
,
00010000
00001000
00010000
00001000
00000010
00000001
00001000
00000000
,
00000010
00001000
00000010
00001000
00000010
00000000
00000100
00000000
00000010
00000000
00000001
00000000
00000010
00000000
00000100
00000000
,
00000010
00000001
00000010
00001000
00020000
00000000
00130000
00010000
,
00100000
10000000
00100000
00010000
00100000
10000000
00100000
00010000
,
00100000
00010000
00100000
00001000
00000010
00000001
00001000
00000000
,
00000010
00000100
00000010
00001000
00000100
00010000
00021000
00000000
,
00000000
01000000
00000000
00000000
00031000
00000000
00020010
00000000
,
00031000
00000000
00010000
00000000
00001000
00000000
00100000
00000000
00001000
00000000
00010000
00000000
00000100
00001000
00000100
00000000
,
00000010
00000100
00000010
00000000
00000001
00000010
00000001
00000000
00001000
00000000
00000100
00000000
00010000
00000000
00000000
00000000
,
00001000
00000000
01000000
00000000
00010000
00000000
00100000
00000000
00010000
00000000
01000000
00000000
00100000
01000000
00100000
00000000
,
10000000
00100000
10000000
00000000
00010000
01000000
00010000
00000000
00002000
00000000
00000000
00000000
00003001
00000000
00000100
00000000
,
00000001
00001000
00000001
00000000
00000010
00000000
00000100
00000000
00001000
00000100
00001000
00000000
00000100
00000010
00000100
00000000
,
00000010
00000001
00000010
00000000
00000100
00000000
00010000
00001000
00010000
00000000
00001000
00000000
01000000
00000000
00000000
00000000
,
00010000
00000000
01000000
00000000
10000000
00000000
01000000
00000000
00010000
01000000
00010000
01000000
00002000
00000000
00000000
00000000
,
00000000
00000010
00000000
00000000
00013000
00000000
00012000
00000000
,
00000000
00000000
02003000
00000000
00000000
00000000
03100000
10000000
,
01000000
00100000
00010000
01000000
00001000
00010000
00000200
00000000
,
00000310
00000002
00000000
00001003
00000200
00010300
00002000
00000000
,
02003000
00000000
03100000
10000000
00010000
01000000
00010000
00200000
,
00000000
01000000
01300000
10000000
,
10000000
00000000
00000000
00000000
00010000
00000000
00100000
00000000
00001000
00000000
00010000
00000000
00001000
00010000
00001000
00000000
,
00010000
00001000
00010000
00000000
00001000
00010000
00001000
00000000
00010000
00001000
00010000
00000000
00001000
00010000
00001000
00010000
,
00001000
00010000
00001000
00010000
00001000
00010000
00001000
00000000
00010000
00000000
00000000
00000000
00000010
00000000
00000000
00000000
,
00000100
00000000
00000001
00000000
00000000
00000000
00001000
00000000
00000100
00010000
00000100
00000000
00001000
00000000
00000000
00000000
,
00000010
00000000
00000100
00000000
00000000
00000000
00000001
00000000
00001000
00000100
00001000
00000000
00000100
00000000
00010000
00000000
,
00010000
00000000
00001000
00000000
01000000
00000000
00010000
00000000
00010000
00000000
10000000
00000000
00100000
01000000
00100000
00000000
,
10000000
00100000
10000000
00000000
00010000
10000000
00010000
00000000
00100000
00010000
00100000
00000000
00002000
00000000
00000000
00000000
,
00013000
00000000
00000100
00000000
00000000
00000000
00001000
00000000
00000001
00000100
00000001
00000000
00002000
00000000
00000000
00000000
,
00003100
00000000
00010000
00000000
00000000
00000000
00001000
00000000
01000000
00010000
01000000
00000000
00100000
00000000
10000000
00000000
,
10000000
00000000
00010000
00000000
00100000
00000000
00001000
00000000
00010000
00001000
00010000
00000000
00022000
00000000
00000000
00000000
,
00000000
00000000
00000000
00000000
00033000
00000000
00010100
00000100
,
00000010
00000012
00000000
00000100
00000103
00000000
00000101
00000100
,
00000010
00020010
00000000
00001000
00031000
00000000
00011000
00001000
,
00100000
00000000
00110000
00000000
00000000
00000000
10010000
00000000
00010000
10000000
00010000
00000000
01010000
00000000
01000000
00000000
,
00100000
00000000
20100000
00000000
00000000
00000000
30010000
10000000
00010000
00000000
00000000
00000000
10010000
00000000
00000000
00000000
,
00000000
00101000
00000000
00010100
,
00000000
00001001
00000000
00001010
,
00010010
00000000
00011000
00000000
01001000
00000000
01200000
00300000
,
02100000
03000000
01100000
00010000
10000000
00000000
01000000
01000000
,
10000000
00000000
00010000
00000000
00010000
00000000
00100000
00000000
00010000
00100000
00010000
00100000
00010000
00000000
00100000
00000000
,
00101000
00000000
00010000
00000010
00001010
00000000
00000010
00000010
,
00000100
00000001
00000001
00000100
00001000
00001000
00000100
00000010
,
00010010
00000000
00000000
00000000
00001000
00000000
00100000
00000000
00110000
00000000
00000000
00000000
01000000
00100000
01000000
00100000
,
01000000
10000000
00000000
00010000
00000000
01000000
00100000
00010000
,
00001000
00000100
00000010
00001000
00001010
00000000
00000100
00000100
,
00000000
00000001
00000000
00000010
00000010
00000000
00000120
00000030
,
00000210
00000000
00000300
00000000
00000110
00000000
00001000
00000000
00000001
00000000
00000000
00000000
00000100
00000000
00000001
00001000
,
00000010
00000100
00000100
00001000
00010000
00010000
00100000
10000000
,
10000000
00010000
00110000
00100000
01000000
00000000
00100000
01000000
,
01000000
00000000
00010000
00000000
00001000
00000000
00001000
00000000
00000010
00000000
00000001
00001000
00000100
00000000
00001000
00000000
,
00001000
00000000
00000001
00000000
00000101
00000000
00000100
00000000
00000010
00000000
00000000
00000000
00000100
00000000
00001000
00010000
,
00001000
00010000
00010000
00100000
01000000
01000000
00100000
10000000
,
10000000
01000000
01100000
00100000
10000000
00000000
00100000
01000000
,
01000000
00000000
00010000
00000000
00001000
00000000
00001000
00000000
00000010
00000000
00000001
00000010
00002000
00000000
00000000
00000000
,
00000000
00020000
00033000
00022000
,
00000000
00000000
00000000
00000000
,
00000000
00000000
00000000
00000000
,
00000000
00000000
00000000
00000000
,
00000000
00000000
00000000
00000000
,
00000000
00000000
00000000
00000000
,
00000000
00000000
00000000
00000000
,
00000000
00000000
00000000
00000000
,
00000000
00000000
00000000
00000000
,
00030000
00000000
00000000
00000000
00000000
00000000
00000000
00000000
00000000
00000000
00000000
00000000
00000000
00000000
00000000
00000000
00000000
00000000
00000000
00000000
00000000
00000000
00000000
00000000
00000000
00003000
00000000
00000000
00000000
00000000
00000000
00000000
00000000
00000000
00000000
00000000
00000000
00000000
00000000
00000000
00000000
00000000
00000000
00000000
00000000
00000000
00000000
00000000
00000000
00000000
00000000
00000000
00000000
00000000
00000000
00000000
00000000
00000000
00000000
00000000
00000000
00000000
00000000
00000000
00000000
00000000
00000000
00000000
00000000
00000000
00000000
00000000
00000000
00000000
00000000
00000000
00000000
00000000
00000000
00000000
00000000
00000000
00000000
00000000
00000000
00000000
00000000
00000000
00000000
00000000
00000000
00000000
00000000
00000000
00000000
00000000
01000000
00000000
00000000
00000000
00000000
00000000
00000000
00000000
00000000
00000000
00000000
00000000
00010000
00000000
00000000
00000000
00000000
00000000
00000000
00000000
00000000
00000000
00000000
00000000
00100000
00000000
00000000
00000000
00000000
00000000
00000000
00000000
00000000
00000000
00000000
00000000
00000000
00000000
00000000
00000000
00000000
00000000
00000000
00000000
00000000
00000000
00000000
00000000
00000000
00000000
00000000
00000000
00000000
00000000
00000000
00000000
00000000
00000000
00000000
00000000
00000000
00000000
00000000
00000000
00000000
00000000
00000000
00000000
00000000
00000000
00000000
00000000
00001000
00000000
00000000
00000000
00000000
00000000
00000000
00000000
00000000
00000000
00000000
00000000
00010000
00000000
00000000
00000000
00000000
00000000
00000000
00000000
00000000
00000000
00000000
00000000
,
00000100
00000000
00000000
00000000
00000010
00000001
00000100
00000000
00000000
00000000
00000010
00001000
00000100
00000000
00000000
00000000
,
00010000
00000000
00001000
00010000
00001000
00000000
00000000
00000000
00012000
00000000
00003000
00000000
00100000
00010000
00100000
00000000
,
01000000
00100000
01000000
00000000
10000000
00010000
10000000
00010000
02000000
00000000
03000000
00010000
01000000
00000000
00100000
10000000
,
00100000
00000000
01000000
00010000
01000000
00000000
00001000
00000000
00010000
00000100
00010000
00000100
00010000
00000000
00001000
00100000
,
00001000
00100000
00001000
00000000
00010000
00000100
00010000
00000100
00010000
00000000
00000100
00001000
00000100
00001000
00000001
00000000
,
00000100
00000010
00000100
00000010
00001000
00000000
00000010
00000000
00002010
00000000
00003000
00000000
00000001
00000010
00000001
00000000
,
00000010
00000100
00000010
00000000
00000100
00001000
00000100
00001000
00000002
00000000
00000003
00001000
00000010
00000000
00001000
00000010
,
00001000
00000000
00000001
00000100
00000001
00000000
00000100
00000000
00000010
00001000
00000010
00000000
00010000
00000010
00000000
00010000
,
00001000
00010000
00001000
00000000
01000000
00010000
00000000
10000000
02000000
00000000
00000000
00000000
03200000
00000000
00320000
00000000
,
00000000
00000000
00030020
00000000
00000032
00000000
00000203
00000000
00000320
00000000
00000030
00000000
00001000
00000010
00001000
00000000
,
00000010
00010000
00000010
00000000
00010000
00001000
00010000
00001000
00200000
00000000
00300000
00010000
00100000
00000000
01000000
10000000
,
01000000
00000000
00100000
00010000
00100000
00000000
00001000
00000000
00010000
00000010
00010000
00000010
00010000
00000000
00001000
01000000
,
00001000
01000000
00001000
00000000
00010000
00000010
00010000
00000010
00010000
00000000
00000010
00001000
00000010
00001000
00000001
00000000
,
00000010
00000100
00000010
00000100
00001000
00000000
00000100
00000000
00020100
00000000
00030000
00000000
00001000
00010000
00001000
00000000
,
00100000
00010000
00100000
00000000
01000000
10000000
01000000
10000000
00200000
00000000
00300000
01000000
00010000
00000000
01000000
00001000
,
01000000
00000000
00001000
00010000
00001000
00000000
00000100
00000000
00000001
00001000
00000001
00000000
00000010
00000100
00000000
00010000
,
00001000
00010000
00001000
00000000
00100000
01000000
00000000
10000000
00200000
00000000
00000000
00000000
02300000
00000000
03020000
00000000
,
00000000
00030200
00000302
00000023
00000000
00000000
00000000
00000000
,
00000000
00000000
00000000
00000000
,
00000000
00000030
00000000
00000000
;

//--------------- dance-double - forcednature ----------------
#NOTEDATA:;
#STEPSTYPE:dance-double;
#DESCRIPTION:forcednature;
#CREDIT:forcednature;
#DIFFICULTY:Challenge;
#METER:18;
#RADARVALUES:0,0,0,0,0;
#OFFSET:0.733;
#BPMS:0.000=200.000;
#STOPS:53.000=0.300;
#TIMESIGNATURES:0.000=4=4,
52.000=3=4,
55.000=4=4
;
#NOTES:
00000000
00000000
00000000
00000000
,
00000000
00000000
00000000
00000000
,
00000000
00000000
00000000
00000000
,
00000000
00000000
00000000
00000000
,
00000000
00000000
00000000
00000000
,
00001000
00010000
00000000
00010000
00100000
00000000
00100000
10000000
,
00000000
10000000
01000000
00010000
00001000
00000000
00001000
00000000
,
00000010
00000000
00000001
00000010
00000001
00000000
00000100
00000000
00000001
00000100
00000001
00000000
00001000
00000000
00000100
00001000
,
00000100
00000010
00001000
00010000
01000000
00100000
00010000
10000000
,
10010000
00000000
00000000
10000000
01000000
00000000
00010000
00000000
00001000
00000000
00100000
00000000
00110000
00000000
00000000
00010000
,
01000000
00100000
00010000
00001000
00000010
00000110
00001000
00000000
,
00001001
00000000
00000000
00000001
00000100
00000000
00001000
00000000
00010000
00000000
00000010
00000000
00001010
00000000
00000000
00001000
,
00000100
00000000
00000010
00000000
00001000
00000000
00010000
00000000
00011000
00000000
00011000
00000000
00000000
00000000
00100000
00010000
,
02000000
00200000
03300000
10010000
,
10000000
01000000
00010000
01000000
10000000
01000000
00010000
00001000
,
00000010
00001000
00010000
00000100
00001000
00000010
00000100
00000100
,
00000100
00000001
00001000
00000010
00000100
00000000
00001000
00000000
00010000
00000000
00100000
00000000
10000000
00000000
00010000
00000000
,
01000000
00000000
00010000
00000000
00100000
00000000
00000000
00000000
00011000
00000000
00000000
00000000
00000100
00000000
00001000
00000100
,
00000010
00000000
00000001
00000000
00000100
00000000
00000010
00001000
00000010
00000000
00010000
00000000
00001000
00000000
00100000
00010000
,
00100000
00000000
01000000
00100000
01000000
00000000
10000000
00010000
00100000
00000000
01000000
00000000
00100000
00000000
00000000
00000000
,
00001000
00000000
00010000
00000000
00000100
00001000
00000100
00001000
00000001
00001000
00000100
00001000
00000010
00000000
00000100
00000000
,
00000000
00000000
00001000
00000000
00010000
00000000
00100000
00000000
01000000
00100000
01000000
00100000
10000000
00000000
00010000
00000000
,
10010000
00000000
00000000
00000000
10000000
01000000
10000000
00000000
01000000
00100000
00010000
00000000
00100000
00000000
01000000
00000000
,
00010000
00000000
01000000
00000000
00100000
00000000
00001000
00010000
00000100
00000000
00001000
00000000
00000100
00000000
00010000
00001000
,
00010000
00000000
00000010
00000000
00001000
00000000
00000001
00000010
00000100
00000000
00000010
00000001
00001000
00000000
00000010
00000000
,
00000100
00000000
00000010
00001000
00000100
00000000
00010000
00000000
00002000
00000000
00000000
00000000
00103000
00000000
00010000
00100000
,
01000000
00000000
10000000
00000000
00100000
00000000
01000000
00010000
10000000
00000000
01000000
00000000
00100000
00010000
00100000
00000000
,
00001000
00010000
00001000
00000000
00010000
00000000
00000100
00001000
00000010
00000000
00000100
00000000
00000110
00000000
00000000
00000000
,
00000001
00000000
00001000
00000001
00001000
00000000
00000100
00000000
00010000
00001000
00010000
00001000
00100000
00010000
00100000
00000000
,
01000000
00100000
00000000
01000000
10000000
00010000
10000000
00000000
00010000
00100000
00001000
00000000
00020000
00000000
00000000
00000000
,
00000000
00000000
00032000
00000000
00000000
00000000
00003010
00000100
,
00001000
00000000
00000100
00000000
00010000
00001000
00010000
00001000
00100000
00010000
00100000
01000000
20000000
00000000
00000000
00000000
,
30100000
00000000
02000000
00000000
00000000
00000000
03010000
00000000
00100000
00000000
00001000
00010000
00000020
00000000
00000000
00000000
,
00002030
00000000
00003001
00000010
00001000
00010000
02000000
00000000
,
00000000
00000000
03200000
00000000
00000000
00000000
00310000
00010000
,
10000000
00000000
00000000
00000000
00100000
10000000
00100000
10000000
00100000
00000000
01000000
00000000
00010000
00100000
00010000
00100000
,
00001000
00000000
00010000
00000100
00000000
00001000
00000100
00000000
00001000
00000010
00001000
00000010
00000100
00000000
00000001
00000100
,
00000001
00000000
00000010
00000100
00001000
00000000
00000100
00000000
00020000
00000000
00000000
00000000
00130000
00000000
00100000
00000000
,
10000000
00000000
01000000
00000000
00000000
00100000
00010000
00000000
00100000
00000000
00001000
00000000
00000010
00000000
00000010
00000000
,
00000001
00000000
00000100
00000000
00000010
00001000
00000010
00000000
00010000
00000000
00001000
00000000
00100000
00000000
01000000
00000000
,
00010000
00000000
01000000
10000000
00000000
00100000
10000000
00000000
01000000
00000000
00010000
00000000
00001000
00000000
00010000
00001000
,
00010000
00000000
00000100
00001000
00000100
00000000
00000010
00000000
00000001
00000000
00000100
00000000
00000010
00000000
00000010
00000000
,
00001000
00000000
00010000
01000000
00000000
01000000
00100000
00000000
10000000
00000000
00010000
00000000
00100000
00000000
00100000
00000000
,
00001000
00000000
00010000
00000100
00000000
00000100
00001000
00000000
00000010
00000000
00000100
00000000
00000001
00000000
00000001
00000000
,
00000010
00001000
00010000
01000000
10000000
01000000
00020000
00000000
,
00032000
00003020
00000032
00000103
,
00011000
02000000
00000000
00000000
03100000
00000000
01000000
00000000
,
00011000
00000200
00000000
00000000
00000310
00000000
00000100
00000000
,
00011000
00000000
00200000
00000000
00000000
00000000
01300000
00000000
00100000
00010000
00100000
01000000
00100000
00000000
00000000
00000000
,
00011000
00000000
00000020
00000000
00000000
00000000
00000130
00000001
00000100
00000000
00001000
00000000
00021000
00000000
00000000
00000000
,
00130000
01000000
00100000
10000000
00020000
00000000
00000000
00000000
00130000
01000000
10000000
01000000
00200000
00000000
00000000
00000000
,
00301000
00010000
00000100
00001000
00000200
00000000
00000000
00000000
00000310
00000001
00001000
00000010
00002000
00000000
00003100
00010000
,
00002000
00000000
00103000
00010000
02000000
00000000
03100000
10000000
00020000
00000000
00000000
00000000
00230000
00000000
00000000
00000000
,
01000000
00000000
00000000
00310000
00100000
00001000
00010000
00000000
00000000
00012000
00000000
00000000
,
00000010
00000000
00000010
00000000
00000010
00000000
00000000
00000000
00013000
00001000
00010000
00000100
00001000
00000000
00000001
00000010
,
00000100
00000000
00000010
00000000
00000001
00000000
00001000
00000010
00000100
00000000
00000000
00000000
00001000
00000000
00010000
00001000
,
00010000
00000000
00100000
00000000
10000000
00000000
00010000
01000000
00100000
00000000
10000000
00000000
01000000
00000000
00010000
00001000
,
00010000
00000000
00000010
00000000
00001000
00000001
00001000
00000001
00000100
00000000
00000000
00000000
00000010
00001000
00000010
00000100
,
00000000
00000000
00001000
00010000
00001000
00000000
00100000
00000000
00001000
00010000
00001000
00000000
00000010
00000000
00000100
00001000
,
00000010
00000000
00000100
00000000
00000001
00000010
00000100
00001000
00000001
00000000
00000000
00000000
00000100
00000001
00000100
00000001
,
00000100
00000000
00000010
00000000
00001000
00000100
00010000
00000000
00001000
00000000
00100000
00000000
00010000
01000000
00000000
00000000
,
00010000
00000000
00000000
01000000
00000000
00000000
00000000
00000000
00000000
00000000
00000000
00000000
00100000
00000000
00000000
00000000
10000000
00000000
00000000
00000000
01000000
00000000
00000000
00000000
00010000
00000000
00000000
00000000
00000000
00000000
00000000
00000000
00000000
00000000
00000000
00000000
00001000
00000000
00000000
00000000
00000000
00000000
00100000
00000000
00000000
00000000
00000000
00000000
,
00010000
00100000
00001000
00000010
00001000
00100000
00010000
00100000
,
00001000
00000010
00000100
00000110
00001001
00000000
00010000
00000010
,
00001000
00000010
00010000
00100000
00010000
00000010
00001000
00000010
,
00010000
00000000
00100000
00000000
01000000
00000000
01100000
00000000
10010000
00000000
00000000
00000000
10000000
00000000
01000000
00100000
,
00010000
00000000
00100000
00000000
00001000
00010000
00000100
00000000
00001000
00000000
00000010
00000100
00000001
00000000
00000010
00000100
,
00001000
00000000
00000010
00000000
00000100
00000000
00000001
00000000
00001001
00000000
00000000
00000000
00001000
00000000
00001000
00000100
,
00010000
00000000
00010000
00001000
01000000
00000000
01000000
00010000
00100000
01000000
00100000
01000000
20000000
00000000
00000000
00000000
,
00000000
31000000
00020000
00000000
00030000
00000000
00011000
00022000
,
00000000
00000000
00000000
00000000
00000000
00000000
00000000
00000000
00033000
00000000
00000000
00000000
00001000
00010000
00001000
00010000
,
00001000
00010000
00001000
00010000
00001000
00010000
00001000
00010000
00001000
00010000
00001000
00010000
00000200
00002300
00003020
00020030
,
00030200
00002300
00003020
00020030
00031000
00010000
00001000
00010000
00001000
00010000
00001000
00010000
00001000
00010000
00001000
00010000
,
00001000
00010000
00001000
00010000
00001000
00010000
00001000
00010000
00001000
00010000
00001000
00010000
00000200
00002300
00003020
00020030
,
00030200
00002300
00003020
00020030
00031000
00010000
00001000
00010000
00001000
00010000
00001000
00010000
00000010
00001000
00000010
00001000
,
00000001
00000100
00000001
00000100
00001000
00010000
00001000
00100000
00010000
00100000
00001000
00010000
00000020
00002030
00003200
00000300
,
00000000
00000000
00000020
00000032
00000203
00000300
00000000
00000000
00002000
00023000
00230000
00300000
00000000
00000000
00020000
00032000
,
00003020
00000030
00000000
00000000
00002000
00023000
00230000
02300000
03020000
00030000
00000000
00000000
10000000
00100000
01000000
00100000
,
10000000
00000000
01000000
00100000
00010000
00000000
01000000
00000000
10000000
00000000
01000000
00000000
00010000
00100000
00001000
00010000
,
00001000
00000000
00010000
00000100
00001000
00000000
00000010
00000000
00000110
00000000
00001000
00000000
00000001
00000100
00000010
00000000
,
00001000
00000000
00000100
00000010
00001000
00000000
00010000
00000000
00000010
00001000
00010000
00000000
01000000
00000000
00001000
00010000
,
01000000
00000000
00100000
00000000
00010000
01000000
00100000
10000000
02000000
00000000
03200000
00000000
00310000
10000000
01000000
10000000
,
00010000
00000000
00100000
00001000
00010000
00000000
00000100
00000000
00001000
00000000
00000010
00000000
00000100
00000001
00001000
00000001
,
00000100
00000000
00000010
00001000
00000010
00000000
00010000
00000000
00001000
00000000
00100000
00000000
00010000
01000000
00010000
00000000
,
01000000
00100000
00000000
10000000
01000000
10000000
01000000
00000000
00100000
01000000
00000000
00100000
00010000
01000000
00000000
00001000
,
00010000
00000000
00000100
00001000
00000000
00000010
00000200
00000000
00000302
00000000
00002003
00000000
00003001
00000010
00000100
00000010
,
00000001
00000000
00000100
00000010
00001000
00000000
00000100
00000000
00000001
00000000
00000100
00000000
00001000
00000010
00010000
00001000
,
00010000
00000000
00001000
01000000
00010000
00000000
00100000
00000000
01100000
00000000
00010000
00000000
10000000
01000000
00100000
00000000
,
00010000
00000000
01000000
00100000
00010000
00000000
00001000
00000000
00100000
00010000
00001000
00000000
00000100
00000000
00010000
00001000
,
00000100
00000000
00000010
00000000
00001000
00000100
00000010
00000001
00000200
00000000
00000320
00000000
00001030
00000001
00000100
00000001
,
00001000
00000000
00000010
00010000
00001000
00000000
01000000
00000000
00010000
00000000
00100000
00000000
01000000
10000000
00010000
10000000
,
01000000
00000000
00100000
00010000
00100000
00000000
00001000
00000000
00010000
00000000
00000010
00000000
00001000
00000100
00001000
00000100
,
00010000
00001000
00010000
00001000
00100000
00010000
01000000
00010000
10000000
00010000
01000000
00010000
00200000
00000000
00300000
00000000
,
02000000
03020000
00030000
00002000
00003020
00000032
00000000
00000000
,
00000000
00000000
00000000
00000000
,
00000000
00000000
00000000
00000003
;
