#VERSION:0.83;
#TITLE:DEADLOCK;
#SUBTITLE:;
#ARTIST:MAX MAXIMIZER;
#TITLETRANSLIT:;
#SUBTITLETRANSLIT:;
#ARTISTTRANSLIT:;
#GENRE:;
#CREDIT:;
#MUSIC:DEADLOCK.ogg;
#BANNER:DEADLOCK.png;
#BACKGROUND:DEADLOCK-bg.png;
#CDTITLE:./CDTitles/REFLEC BEAT.png;
#SAMPLESTART:63.866;
#SAMPLELENGTH:15.000;
#SELECTABLE:YES;
#OFFSET:1.569;
#BPMS:0.000=187.000;
#STOPS:;
#TIMESIGNATURES:0.000=4=4;
#LASTBEATHINT:0.872352;
#BGCHANGES:0.000=../BGAs/21he.mp4=1.000=0=0=0=StretchNoLoop====,
99999.000=-nosongbg-=1.000=0=0=0=StretchNoLoop====
;
#FGCHANGES:;

//--------------- dance-single - forcednature ----------------
#NOTEDATA:;
#STEPSTYPE:dance-single;
#DESCRIPTION:forcednature;
#CREDIT:forcednature;
#DIFFICULTY:Beginner;
#METER:5;
#RADARVALUES:0.201787,0.385652,0.176564,0.018586,0,152,133,19,2,0,0,0.201787,0.385652,0.176564,0.018586,0,152,133,19,2,0,0;
#NOTES:
0000
0000
0000
0000
,
0000
0000
0000
0000
,
0000
0000
0000
0000
,
0000
0000
0000
0000
,
0000
0000
0000
0000
,
0000
0000
0000
0000
,
0010
0000
0010
0000
,
0100
0000
0000
0000
,
1001
0000
0010
0000
,
0110
0000
0000
0000
,
1001
0000
1000
0000
,
0010
0000
0000
0000
,
0100
0000
0001
0000
,
0010
0000
0000
0000
,
1001
0000
1000
0000
,
0010
0000
0000
0000
,
0110
0000
0100
0000
,
0001
0000
0000
0000
,
0001
0000
0001
0000
,
0010
0000
0010
0000
,
0100
0000
0100
0000
,
1000
0000
1000
0000
,
0010
0000
0100
0000
,
0010
0000
0100
0000
,
0001
0000
1000
0000
,
0100
0100
0100
0000
,
0010
0000
0001
0000
,
1000
0000
0010
0000
,
0100
0000
0001
0000
,
1000
0000
0100
0000
,
1000
0000
0010
0000
,
0100
0000
0001
0000
,
0010
0000
0100
0000
,
1000
1000
1000
0000
,
1001
0000
0000
0000
,
0000
0000
0000
0000
,
0010
0000
0000
0000
,
0100
0000
0000
0000
,
0010
0000
0000
0000
,
0000
0000
0000
0000
,
0100
0000
0000
0000
,
0010
0000
0000
0000
,
1001
0000
1000
0000
,
1000
0000
0000
0000
,
0001
0000
0001
0000
,
0001
0000
0000
0000
,
0100
0000
0001
0000
,
0100
0000
0000
0000
,
0100
0000
1000
0000
,
0100
0000
0000
0000
,
0000
0000
0000
0000
,
1000
1000
1000
0000
,
0001
0000
0100
0000
,
0001
0001
0001
0000
,
1000
1000
1000
0000
,
0100
0100
0100
0000
,
0010
0000
0001
0000
,
0100
0100
0100
0000
,
0010
0000
0010
0000
,
1000
1000
1000
0000
,
0001
0100
0001
0000
,
0001
0001
0001
0000
,
1000
0000
0100
0000
,
1001
0000
0010
0100
,
0010
0000
0100
0010
,
1000
1000
0001
0001
,
0010
0010
0100
0100
,
1001
0000
0010
0000
,
0110
0000
0000
0000
,
1001
0000
0100
0000
,
0110
0000
0000
0000
,
1001
0000
1000
0000
,
0110
0000
0000
0000
,
1001
0000
0001
0000
,
0110
0000
0000
0000
,
1001
0000
0000
0000
,
0100
0000
0000
0000
,
1001
0000
0000
0000
,
0010
0000
0000
0000
,
2002
0000
0000
0000
,
0000
0000
0000
0000
,
0000
0000
0000
0000
,
0000
0000
0000
0000
,
3003
0000
0000
0000
;

//--------------- dance-single - forcednature ----------------
#NOTEDATA:;
#STEPSTYPE:dance-single;
#DESCRIPTION:forcednature;
#CREDIT:forcednature;
#DIFFICULTY:Easy;
#METER:12;
#RADARVALUES:0.431452,0.655608,0.343834,0.204442,0.046464,325,288,37,22,0,0,0.431452,0.655608,0.343834,0.204442,0.046464,325,288,37,22,0,0;
#NOTES:
0000
0000
0000
0000
,
0000
0000
0000
0000
,
0000
0000
0000
0000
,
0000
0000
0000
0000
,
0000
0000
0000
0000
,
0000
0000
0000
0000
,
1001
0000
0001
0000
1000
0010
1000
0000
,
0100
0010
0100
0000
,
1001
0000
0001
0000
0100
0010
0100
0000
,
2002
0000
3003
0000
,
0101
0001
1000
0100
,
0010
0100
0000
1000
0000
0000
0001
0000
,
0101
1000
0010
1000
,
0100
0010
0000
0001
0000
0000
0000
0000
,
1100
0001
1000
0010
,
0100
0001
0000
0010
0000
0100
0000
0000
,
1100
0000
0001
1000
0010
0000
0100
0000
,
0001
1000
0001
1000
0000
0000
0000
0000
,
1100
0010
0001
0010
,
0101
1000
0010
1000
,
0110
0001
1000
0001
,
1100
0001
0010
0000
,
1001
0001
0100
0010
,
1100
0001
1000
0010
,
0101
1000
0010
1000
,
0100
1000
0100
1000
0001
0100
0001
0100
,
0010
1000
0001
0010
,
1001
1000
0100
0010
,
1100
0001
1000
0010
,
0101
1000
0010
0000
,
0110
0001
1000
0100
,
1001
1000
0010
0100
,
0011
1000
0010
0100
,
0001
1000
0001
1000
0100
0010
0100
0010
,
0002
0000
0000
0000
,
0000
0000
0000
0000
,
0203
0000
0000
0000
,
0320
0000
0000
0000
,
2030
0000
0000
0000
,
0000
0000
0000
0000
,
3200
0000
0000
0000
,
0320
0000
0000
0000
,
0031
0001
0010
0010
,
0100
1000
0100
0000
0100
0000
0000
0000
,
1000
1000
0010
0010
,
0100
0001
0100
0000
0100
0000
0000
0000
,
1000
0001
1000
0100
,
0010
0001
0010
0000
1001
0000
0000
0000
,
1000
0001
0100
0010
,
0100
0001
0100
0001
1000
0100
1000
0100
,
0020
0000
0030
0000
,
0010
0001
0010
0001
0100
1000
0100
0000
,
0010
1000
0010
0000
0101
0000
1100
0000
,
0010
1000
0010
1000
0100
0001
0100
0000
,
1100
0000
0000
0001
0000
0000
0101
0000
0000
1000
0000
0000
0010
0000
0000
0000
,
0010
0100
0010
0100
0001
1000
0001
0000
,
1000
0100
0001
0000
0110
0000
1001
0000
,
0001
0010
0001
0010
1000
0010
0001
0000
,
2000
0000
3002
0000
0203
0000
0302
0000
2003
0000
3200
0000
,
1300
0010
0100
0010
0001
0010
1000
0001
,
0010
1000
0010
0000
0011
0000
1100
0000
,
0001
1000
0100
0001
0100
1000
0001
0000
,
2000
0000
3002
0000
0203
0000
0302
0000
2003
0000
3200
0000
,
0310
0000
0001
1000
0010
0000
0100
0000
0010
1000
0001
0000
,
0010
0000
0100
1000
0010
0000
0100
0000
0010
1000
0100
0000
,
0010
0010
0001
1000
0010
0010
1000
0001
,
0100
0000
1000
0000
0100
0000
0001
0000
1000
0001
1000
0001
1000
0001
1000
0001
,
0020
0000
0130
1000
,
0001
0100
0000
0010
0000
0000
0000
0000
,
2001
0000
3001
0100
,
0010
1000
0000
0100
0000
0010
0001
0000
,
1002
0000
1003
0010
,
1000
0100
0000
0001
0000
0100
0000
0000
,
0120
0000
0031
0100
,
0010
1000
0001
0010
0100
0100
0010
0010
,
2002
0000
3003
0000
,
2200
0000
3300
0000
,
2002
0000
3003
0000
,
0202
0000
0303
0000
,
2002
0000
0000
0000
,
0000
0000
0000
0000
,
0000
0000
0000
0000
,
0000
0000
0000
0000
,
3003
0000
0000
0000
;

//--------------- dance-single - forcednature ----------------
#NOTEDATA:;
#STEPSTYPE:dance-single;
#DESCRIPTION:forcednature;
#CREDIT:forcednature;
#DIFFICULTY:Medium;
#METER:14;
#RADARVALUES:0.569517,0.809869,0.185856,0.213735,0.120807,429,409,20,23,0,0,0.569517,0.809869,0.185856,0.213735,0.120807,429,409,20,23,0,0;
#NOTES:
0000
0000
0000
0000
,
0000
0000
0000
0000
,
0000
0000
0000
0000
,
0000
0000
0000
0000
,
0000
0000
0000
0000
,
0000
0000
0000
0000
,
0101
0000
1000
0000
0100
0010
0001
0001
,
0100
0000
0010
0000
1000
0000
0000
0000
0001
0000
0100
0000
0001
1000
0001
1000
,
0001
0000
1000
0000
0100
0010
0100
1000
,
0020
0000
0030
0000
,
1001
0000
1000
0010
0100
0000
0001
0010
,
0100
0010
0001
0100
0010
0000
1000
0000
,
0110
0000
1000
0001
0100
0000
0010
0010
,
1000
0001
1000
0100
0000
0010
0100
0000
,
1001
0000
1000
0010
0001
0000
0001
0010
,
1000
0000
0001
0100
0000
0010
0000
0000
,
1100
0000
0010
0001
0100
0001
1000
0000
,
0010
0010
1000
0001
0000
0000
0000
0000
,
1000
0100
1000
0010
1000
0100
0010
0000
,
0100
1000
0001
0000
0100
0001
1000
0000
,
0010
0100
0001
0010
0100
0010
0001
0000
,
0100
0010
1000
0000
0101
0000
0000
0000
,
0010
1000
0001
1000
0100
0001
0100
0000
,
0010
0001
1000
0000
0010
0001
0010
0000
,
0100
0001
0100
1000
0100
0010
1000
0000
,
0001
0001
0001
0001
1000
1000
1000
1000
,
0100
1000
0010
0100
0001
0010
0100
0000
,
0010
0001
0100
0100
1000
0100
0001
0000
,
1000
0100
0010
1000
0010
0001
1000
0000
,
0010
0100
0001
0000
1100
0000
0000
0000
,
1000
0001
0010
0100
1000
0010
0100
0000
,
1000
0100
0001
0001
0100
0010
1000
0000
,
0100
0010
0001
0100
0010
1000
0001
0000
,
0100
0100
0100
0100
0010
0010
0010
0010
,
2001
0000
0000
0000
,
0000
0000
0000
0000
,
3200
0000
0000
0000
,
0320
0000
0000
0000
,
0032
0000
0000
0000
,
0000
0000
0000
0000
,
0203
0000
0000
0000
,
0320
0000
0000
0000
,
1030
0000
0100
1000
0001
0000
0100
0010
,
1000
0000
0001
0010
0100
1000
0100
1000
,
0010
0000
0100
0001
0010
0000
0100
0010
,
0001
0000
1000
0010
0100
0001
0100
0001
,
1000
0100
1000
0100
0010
0001
0010
0000
,
0001
0100
0001
0100
0010
1000
0010
0000
,
0100
0100
0100
0001
1000
0100
0010
0010
,
0100
0100
0100
1000
0001
0100
0010
0010
,
2002
0000
0000
3003
,
1000
0100
1000
0001
0010
0001
1000
0010
,
1000
0000
0001
0000
0100
0000
0001
0000
1000
0100
1000
0000
0001
0010
0001
0000
,
0100
0010
1000
0100
0010
0001
0100
0010
,
0100
0001
0100
0001
0100
0001
1000
0100
1000
0100
1000
0100
,
1000
0010
0001
0010
1000
0100
1000
0010
,
0001
0000
0010
0000
1000
0000
0100
0000
1000
0010
1000
0000
0001
0100
0001
0000
,
0100
0001
0010
1000
0010
0001
0100
0001
,
0020
0000
0230
0000
2300
0000
3020
0000
0230
0000
0302
0000
,
1003
0010
0001
1000
0100
0001
1000
0010
,
0001
0000
1000
0000
0100
0000
0001
0000
1000
0001
1000
0000
0100
0010
0100
0000
,
0010
0001
1000
0100
0001
1000
0010
0001
,
2000
0000
3020
0000
0230
0000
0302
0000
0023
0000
0230
0000
,
1300
0000
1000
0100
0010
0000
0001
0000
1000
0010
0100
0000
,
0101
0000
0001
0010
0100
0000
1000
0000
0001
0100
0010
0000
,
1000
0001
0100
0000
0001
1000
0100
0000
1000
0001
0010
0000
0001
1000
0010
0000
,
1000
0100
1000
0100
0010
0001
0010
0000
0001
0100
0001
0100
0010
1000
0010
0000
,
2001
0000
0000
3001
0010
0100
1000
0000
,
0010
0100
0000
0001
0000
0000
0000
0000
,
1200
0000
0000
1300
0001
0100
0010
0000
,
0100
0001
0000
0010
0100
0100
1000
0001
,
0021
0000
0000
0130
0001
0100
1000
0000
,
0001
0100
0000
1000
0100
0100
0000
0000
,
0102
0000
0000
1003
0100
0001
0100
0000
,
0010
0000
0001
0000
0001
0000
1000
0000
0010
1000
0010
1000
0001
0000
0010
0000
,
2002
0000
3003
0000
,
0202
0000
0303
0000
,
2200
0000
3300
0000
,
0220
0000
0330
0000
,
2002
0000
0000
0000
,
0000
0000
0000
0000
,
0000
0000
0000
0000
,
0000
0000
0000
0000
,
3003
0000
0000
0000
;

//--------------- dance-single - forcednature ----------------
#NOTEDATA:;
#STEPSTYPE:dance-single;
#DESCRIPTION:forcednature;
#CREDIT:forcednature;
#DIFFICULTY:Hard;
#METER:17;
#RADARVALUES:0.775286,1.272651,0.157978,0.250906,0.762011,584,567,17,27,0,0,0.775286,1.272651,0.157978,0.250906,0.762011,584,567,17,27,0,0;
#NOTES:
0000
0000
0000
0000
,
0000
0000
0000
0000
,
0000
0000
0000
0000
,
0000
0000
0000
0000
,
0000
0000
0000
0000
,
0000
0000
0000
0000
,
0001
0100
0000
0100
0010
0000
1000
0000
0100
1000
0000
1000
0001
0000
0100
0000
,
0010
1000
0000
1000
0001
0000
0010
0000
0100
0000
1000
0001
1000
0001
1000
0001
,
1000
0100
0000
0100
0010
0000
0001
0000
0100
0001
0000
0001
0010
0000
0100
0000
,
2002
0000
0000
3003
,
1000
0100
1000
0100
1000
0000
0010
0000
0100
0000
0001
0000
0010
0100
0010
0000
,
0001
0000
0000
0100
0010
0000
1000
0000
0000
0000
0100
0000
0010
0001
0010
0000
,
0100
0000
1000
0000
0001
0100
0001
0100
0001
0000
0010
0000
1000
0000
0010
0000
,
0100
0000
1000
0001
1000
0000
0010
0000
0000
0000
0100
0000
0101
0000
0000
0000
,
0001
0000
1000
0100
1000
0100
1000
0000
0010
0000
0100
0000
0001
1000
0001
0000
,
0010
0000
0000
0100
1000
0000
0001
0000
0000
0000
1000
0010
1000
0000
0000
0000
,
0001
0000
0100
0000
1000
0000
0100
0010
0100
0000
0001
0000
1000
0100
1000
0000
,
0010
0100
0010
0100
0010
0000
1000
0000
0000
0000
0000
0000
0000
0000
0000
0000
,
1000
0000
0000
0100
0010
0000
0001
0000
1000
0000
0000
0010
0100
0000
0001
0000
,
0010
0000
0000
0001
0100
0000
0010
0000
1000
0000
0000
0001
0010
0000
0000
0000
,
0001
0000
0000
1000
0100
0000
1000
0000
0001
0000
0000
0100
0010
0000
0100
0000
,
0001
0000
0000
0010
0100
0000
0010
0000
0001
0000
0000
0000
1000
0000
0000
0000
,
1001
0000
0000
1000
0010
0000
1000
0000
0100
0000
0000
0010
0001
0000
0100
0000
,
0010
0000
0000
0100
0001
0000
0010
0000
0100
0000
0000
1000
0001
0000
0000
0000
,
1000
0000
0000
0010
1000
0000
0001
0000
0010
0000
0000
0100
1000
0000
0001
0000
,
1000
0010
1000
0010
1000
0010
1000
0010
0100
0001
0100
0001
0100
0001
0100
0001
,
1000
0000
0000
0100
0010
0000
0001
0000
0100
0000
0000
0010
0100
0000
0001
0000
,
0010
0000
0000
0100
1000
0000
0001
0000
1000
0000
0000
0010
1000
0000
0000
0000
,
0001
0000
0000
0100
0001
0000
1000
0000
0010
0000
0000
1000
0100
0000
0010
0000
,
0001
0000
0000
0100
0010
0000
1000
0000
0001
0000
0000
0000
0010
0000
0000
0000
,
0110
0000
0000
0001
1000
0000
0100
0000
0010
0000
0000
0100
1000
0000
0001
0000
,
1000
0000
0000
0010
0100
0000
0001
0000
0010
0000
0000
0100
0010
0000
0000
0000
,
0001
0000
0000
1000
0100
0000
1000
0000
0001
0000
0000
0100
0001
0000
1000
0000
,
0100
1000
0100
1000
0100
1000
0100
1000
0001
0010
0001
0010
0001
0010
0001
0010
,
0200
0000
0000
0000
,
0000
0000
0000
0000
,
2300
0000
0000
0000
,
3002
0000
0000
0000
,
0203
0000
0000
0000
,
0000
0000
0000
0000
,
0320
0000
0000
0000
,
2030
0000
0000
0000
,
3100
0000
0010
0000
0001
1000
0001
0000
0100
0000
0010
0000
1000
0100
1000
0000
,
0010
0000
0100
0000
0001
0010
0001
0000
0100
0000
0010
0000
1000
0000
0000
0000
,
0001
0000
1000
0000
0001
0100
0001
0000
0010
0000
0100
0000
1000
0010
1000
0000
,
0100
0000
0010
0000
0001
0100
0001
0000
1000
0000
0100
0000
0010
0000
0000
0000
,
0100
0000
1000
0000
0010
0100
0010
0000
1000
0000
0001
0000
0010
0100
0010
0000
,
0001
0000
0100
0000
0010
1000
0010
0000
0100
0000
0001
0000
0010
0000
0000
0000
,
0100
1000
0000
0000
1000
0001
0000
0000
0001
0100
0000
0000
0100
0010
0000
0000
,
0010
1000
0010
0000
0100
0001
0100
0000
0001
0010
0001
0000
1000
0100
1000
0000
,
0020
0000
0000
0030
,
1001
0001
0100
1000
0100
0010
1000
0100
,
0010
0000
1000
0000
0010
0000
0001
0000
1000
0100
1000
0100
0010
0001
0010
0001
,
0010
1000
0010
0001
0100
0010
1000
0001
,
0010
0001
0100
0010
1000
0100
1000
0010
0100
0001
0010
0100
,
0010
1000
0010
0001
1000
0010
0100
1000
,
0100
0000
0001
0000
1000
0000
0100
0000
1000
0010
1000
0010
0100
0001
0100
0001
,
0010
0001
1000
0010
0001
0010
0100
0001
,
0010
0000
1100
0000
0101
0000
0010
0000
0101
0000
1100
0000
,
1001
1000
0010
0100
0001
0010
0001
1000
,
0100
0000
0001
0000
0100
0000
0010
0000
0001
0010
0001
0010
0100
1000
0100
1000
,
0001
0001
0100
0100
0010
0010
1000
1000
,
0002
0000
2003
0000
3200
0000
0320
0000
1000
0000
0031
0000
,
0011
0000
0101
0000
1010
0000
1100
0000
1001
0000
0110
0000
,
1100
0000
0101
0000
1001
0000
0011
0000
1010
0000
1001
0000
,
1000
0010
1000
0010
1000
0010
1000
0010
0100
0001
0100
0001
0100
0001
0100
0001
,
1000
0001
1000
0001
1000
0001
1000
0001
0010
0100
0010
0100
0010
0100
0010
0100
,
2000
0000
0000
0000
3010
0100
0001
0100
0010
0000
1000
0100
0010
0000
0100
0000
,
0110
0000
0010
0001
1000
0000
0001
0000
0000
0000
0000
0000
0000
0000
0000
0000
,
0201
0000
0000
0000
0301
1000
0100
1000
0010
0000
0100
0001
0010
0000
0100
0000
,
1100
0000
1000
0001
0100
0000
1000
0000
0000
0000
0100
0000
0010
0000
0100
0000
,
0201
0000
0000
0000
0301
0010
0100
1000
0010
0000
1000
0000
0001
0100
0010
0000
,
1010
0000
0001
1000
0100
0000
0010
0000
0001
0000
0010
0000
0000
0000
0000
0000
,
2001
0000
0000
0000
3001
0100
0001
1000
0010
0000
0100
0000
0001
1000
0100
0000
,
1000
0010
0100
0001
0010
0001
1000
0100
0010
0001
0100
0010
1000
0001
1000
0000
,
2002
0000
3003
0000
,
2200
0000
3300
0000
,
0202
0000
0303
0000
,
0220
0000
0330
0000
,
2002
0000
0000
0000
,
0000
0000
0000
0000
,
0000
0000
0000
0000
,
0000
0000
0000
0000
,
3003
0000
0000
0000
;

//--------------- dance-double - forcednature ----------------
#NOTEDATA:;
#STEPSTYPE:dance-double;
#DESCRIPTION:forcednature;
#CREDIT:forcednature;
#DIFFICULTY:Easy;
#METER:13;
#RADARVALUES:0,0,0,0,0;
#NOTES:
00000000
00000000
00000000
00000000
,
00000000
00000000
00000000
00000000
,
00000000
00000000
00000000
00000000
,
00000000
00000000
00000000
00000000
,
00000000
00000000
00000000
00000000
,
00000000
00000000
00000000
00000000
,
00010100
00000000
00000100
00000000
00001000
00000001
00001000
00000000
,
00010010
00000000
00010000
00000000
01000000
01000000
01000000
00000000
,
00110000
00000000
00010000
00000000
10000000
00100000
10000000
00000000
,
02002000
00000000
03003000
00000100
,
00001001
00000000
00000000
00000001
00000100
00000010
00001000
00000000
,
00010100
00000000
00010000
00001000
00000000
01000000
00000000
00000000
,
10100000
00000000
00000000
00010000
00100000
01000000
00010000
00000000
,
00011000
00000000
00000100
00001000
00000000
00000000
00000000
00000000
,
00000101
00000000
00000001
00000010
00000001
00000000
00001000
00000010
,
00010000
00000000
00000000
00010000
00000000
00000000
00100000
00000000
00000000
00000000
01000000
00000000
00000000
00000000
00000000
00000000
,
01100000
00000000
10000000
00010000
10000000
00000000
01000000
00010000
,
00001000
00000000
00000010
00000001
00000000
00000000
00000000
00000000
,
00000101
00000000
00000001
00000000
00001000
00000010
00010000
00000000
,
00011000
00000000
00001000
00000000
00100000
00010000
01000000
00000000
,
01100000
00000000
00100000
00000000
10000000
01000000
00010000
00000000
,
00011000
00000100
00001000
00000000
,
00000101
00000000
00001000
00000000
00000010
00010000
00001000
00000000
,
00110000
00000000
00001000
00000000
00010000
00100000
01000000
00000000
,
10010000
00000000
10000000
00000000
01000000
00010000
00001000
00000000
,
01000000
00001000
01000000
00001000
00010000
00000100
00010000
00000100
,
00010000
00000000
00001000
00000000
00000100
00000001
00000010
00000000
,
00000110
00000000
00000100
00000000
00010000
00001000
00100000
00000000
,
00011000
00000000
00010000
00000000
00100000
01000000
00010000
00000000
,
10010000
10000000
01000000
00010000
,
00011000
00000000
00001000
00000000
00010000
00000100
00001000
00000000
,
00001010
00000000
00000001
00000000
00000010
00000100
00001000
00000000
,
00000101
00000000
00001000
00000000
00000010
00010000
00001000
00000000
,
00100000
00010000
00100000
00010000
10000000
00100000
10000000
00100000
,
02000000
00000000
00000000
00000000
,
00000000
00000000
00000000
00000000
,
03002000
00000000
00000000
00000000
,
00023000
00000000
00000000
00000000
,
00030200
00000000
00000000
00000000
,
00000000
00000000
00000000
00000000
,
00020300
00000000
00000000
00000000
,
00032000
00000000
00000000
00000000
,
01003000
00010000
01000000
00000000
00100000
10000000
00100000
00000000
,
10000000
01000000
10000000
00000000
00010000
00000000
00100000
00000000
,
00001000
00010000
00001000
00000000
00000100
00000001
00000100
00000000
,
00000010
00001000
00000010
00000000
00010000
00000000
00001000
00000000
,
00000010
00000100
00001000
00000000
00000010
00000100
00000001
00000000
,
00000010
00000100
00001000
00000000
00000010
00000000
00010000
00000000
,
00001000
00010000
00001000
00000000
01000000
00010000
01000000
00000000
,
00100000
10000000
00100000
10000000
00010000
00100000
00010000
00100000
,
00002000
00000000
00000000
00003000
,
00010000
00000010
00001000
00000001
00000010
00000100
00001000
00000000
,
00000010
00010000
00001000
00000000
00101000
00000000
00010100
00000000
,
00010000
00001000
01000000
00010000
10000000
01000000
00100000
00000000
,
00001000
00000000
00000000
00010000
00000000
00000000
00100000
00000000
00000000
00010000
00000000
00000000
00000010
00000000
00000000
00000000
,
00010000
00001000
00000010
00000100
00001000
00000001
00000100
00000000
,
00000010
00010000
00001000
00000000
01001000
00000000
00010100
00000000
,
00010000
00001000
01000000
00010000
00100000
01000000
10000000
00000000
,
00020000
00000000
02030000
00000000
03002000
00000000
00023000
00000000
00030200
00000000
00002300
00000000
,
00003010
00010000
00001000
00000010
00000100
00001000
00000001
00000000
,
00000100
00000010
00010000
00000000
00010010
00000000
00101000
00000000
,
01000000
00010000
10000000
01000000
00100000
00010000
01000000
00000000
,
00002000
00000000
00023000
00000000
00030200
00000000
00000320
00000000
00002030
00000000
00023000
00000000
,
00030010
00000000
00000100
00000000
00000001
00000000
00000010
00000000
00000100
00000000
00010000
00000000
,
00100000
00000000
01000000
00000000
00010000
00000000
10000000
00000000
01000000
00000000
00100000
00000000
,
01000000
10000000
01000000
10000000
01000000
00010000
01000000
00010000
,
00001000
00000000
00000100
00000000
00000001
00000000
00001000
00000000
00000001
00001000
00000001
00001000
00000001
00001000
00000001
00001000
,
00000020
00000000
00000130
00001000
,
00010000
00100000
00000000
01000000
00000000
00000000
00000000
00000000
,
20020000
00030000
31000000
00010000
,
00001000
00000010
00000000
00000001
00000000
00000100
00000000
00000000
,
00002002
00000003
00003001
00000100
,
00001000
00010000
00000000
01000000
00000000
00100000
00000000
00000000
,
20020000
30000000
10030000
01000000
,
00010000
00001000
00010000
00001000
00000010
00000100
00001000
00000000
,
00000202
00000000
00000303
00000000
,
00002020
00000000
00003030
00000000
,
00220000
00000000
00330000
00000000
,
22000000
00000000
33000000
00000000
,
00022000
00000000
00000000
00000000
,
00000000
00000000
00000000
00000000
,
00000000
00000000
00000000
00000000
,
00000000
00000000
00000000
00000000
,
00033000
00000000
00000000
00000000
;

//--------------- dance-double - forcednature ----------------
#NOTEDATA:;
#STEPSTYPE:dance-double;
#DESCRIPTION:forcednature;
#CREDIT:forcednature;
#DIFFICULTY:Medium;
#METER:15;
#RADARVALUES:0,0,0,0,0;
#NOTES:
00000000
00000000
00000000
00000000
,
00000000
00000000
00000000
00000000
,
00000000
00000000
00000000
00000000
,
00000000
00000000
00000000
00000000
,
00000000
00000000
00000000
00000000
,
00000000
00000000
00000000
00000000
,
01001000
00000000
00001000
00000000
00010000
00100000
01000000
00000000
,
10010000
00000000
01000000
00000000
00010000
00001000
00010000
00001000
,
00011000
00000000
00000100
00000000
00000010
00000001
00000100
00000000
,
00000110
00000000
00000000
00000000
,
00000001
00000100
00001000
00010000
00100000
00010000
00001000
00000000
,
00010000
01000000
00100000
00010000
00000000
10000000
00100000
00000000
,
10000000
01000000
00010000
00001000
01000000
00100000
00010000
00000000
,
00001000
00000010
00000100
00001000
00000000
00000001
00000101
00000000
,
00000001
00001000
00000010
00000001
00000010
00001000
00000100
00000000
,
00010000
00001000
01000000
00010000
00000000
01010000
00000000
00000000
,
00010000
10000000
01000000
00010000
00001000
00000100
00000001
00000000
,
00000010
00000100
00001000
00000001
00000000
00000000
00000000
00000000
,
00000200
00002300
00023000
00230000
,
00320000
00032000
00023000
02030000
,
03200000
00302000
00003020
00000032
,
00000203
00000320
00000230
00010300
,
02000000
03002000
00203000
20300000
,
30200000
00320000
02030000
03002000
,
00003020
00000032
00000203
00000320
,
00000130
00001000
00010000
00100000
01000000
00010000
00001000
00000010
,
00020000
00030200
00000320
00000032
,
00000203
00020300
02030000
03200000
,
20300000
32000000
03020000
00030020
,
00000230
00000302
00000023
00000130
,
00020000
00030020
00002030
00203000
,
00320000
00030200
00002300
02003000
,
03200000
00302000
00023000
00230000
,
10300000
01000000
00010000
00001000
01000000
00010000
00001000
00000010
,
00000200
00000000
00000000
00000000
,
00000000
00000000
00000000
00000000
,
00000302
00000000
00000000
00000000
,
00000023
00000000
00000000
00000000
,
00000230
00000000
00000000
00000000
,
00000000
00000000
00000000
00000000
,
00020300
00000000
00000000
00000000
,
00230000
00000000
00000000
00000000
,
01300000
00010000
10000000
00010000
00100000
01000000
00010000
00000000
,
00001000
00000010
00000100
00001000
00000001
00000100
00000010
00000000
,
00000100
00001000
00010000
00100000
00010000
00001000
00010000
00000000
,
01000000
10000000
00010000
01000000
00001000
00010000
01000000
00000000
,
00100000
00001000
00000010
00001000
00010000
00000100
00001000
00000000
,
00000001
00000100
00001000
00010000
01000000
10000000
00100000
00000000
,
10000000
01000000
00000000
00000000
01000000
00010000
00000000
00000000
00010000
00001000
00000000
00000000
00001000
00000100
00000000
00000000
,
00000100
00000001
00000010
00000100
00010000
00001000
00010000
00100000
,
02000000
00000000
00000000
03000000
,
00010000
10000000
01000000
00100000
00001000
00010000
00100000
01000000
,
00001000
00000000
00010000
00000000
00000100
00000000
00010000
00000000
00000010
00001000
00000010
00000000
00000100
00000001
00000100
00000000
,
00000010
00010000
00001000
00100000
01000000
10000000
00010000
01000000
,
00100000
10000000
00100000
01000000
00010000
01000000
00001000
00010000
00001000
00000100
00000010
00000100
,
00000001
00000010
00000100
00001000
00010000
01000000
00001000
00010000
,
00000100
00000000
00001000
00000000
00000010
00000000
00010000
00000000
00001000
01000000
00001000
00000000
00100000
00010000
00100000
00000000
,
01000000
00010000
00001000
00010000
00100000
10000000
00010000
10000000
,
02000000
00000000
03020000
00000000
00032000
00000000
00003200
00000000
00002300
00000000
00023000
00000000
,
00031000
00000010
00000001
00001000
00000001
00000100
00000010
00000100
,
00001000
00000000
00010000
00000000
01000000
00000000
00100000
00000000
01000000
10000000
01000000
00000000
00100000
00010000
00100000
00000000
,
01000000
01000000
00010000
00010000
00001000
00001000
00000100
00000100
,
00000002
00000000
00000023
00000000
00002030
00000000
00023000
00000000
00230000
00000000
20300000
00000000
,
31000000
00000000
00100000
00001000
00010000
00000000
00000100
00000000
00000010
00001000
00010000
00000000
,
00100000
00000000
01000000
00001000
00010000
00000000
00000010
00000000
00000100
00001000
00010000
00000000
,
00100000
10000000
00100000
00000000
10000000
01000000
10000000
00000000
00010000
01000000
00010000
00000000
00100000
00010000
00100000
00000000
,
00001000
00010000
00001000
00000000
00010000
00000100
00010000
00000000
00000001
00001000
00000001
00001000
00000001
00001000
00000001
00001000
,
00000002
00000000
00000000
00001003
00000001
00000100
00001000
00000000
,
00010000
00100000
00000000
10000000
00000000
00000000
00000000
00000000
,
12000000
00000000
00000000
03010000
00001000
00000010
00000100
00000000
,
00001000
00000001
00000000
00000100
00001000
00001000
00010000
00100000
,
02100000
00000000
00000000
13000000
01000000
00010000
00100000
00000000
,
01000000
00010000
00000000
00001000
00000010
00000010
00000000
00000000
,
00002001
00000000
00000000
00003010
00000100
00001000
00010000
00000000
,
00100000
00000000
10000000
00000000
10000000
00000000
01000000
00000000
00010000
00001000
00010000
00001000
01000000
00000000
00010000
00000000
,
00220000
00000000
00330000
00000000
,
02020000
00000000
03030000
00000000
,
00002020
00000000
00003030
00000000
,
00002200
00000000
00003300
00000000
,
00022000
00000000
00000000
00000000
,
00000000
00000000
00000000
00000000
,
00000000
00000000
00000000
00000000
,
00000000
00000000
00000000
00000000
,
00033000
00000000
00000000
00000000
;

//--------------- dance-double - forcednature ----------------
#NOTEDATA:;
#STEPSTYPE:dance-double;
#DESCRIPTION:forcednature;
#CREDIT:forcednature;
#DIFFICULTY:Hard;
#METER:18;
#RADARVALUES:0,0,0,0,0;
#NOTES:
00000000
00000000
00000000
00000000
,
00000000
00000000
00000000
00000000
,
00000000
00000000
00000000
00000000
,
00000000
00000000
00000000
00000000
,
00000000
00000000
00000000
00000000
,
00000000
00000000
00000000
00000000
,
00001000
00010000
00000000
00010000
01000000
00000000
00100000
00000000
00010000
01000000
00000000
01000000
00100000
00000000
10000000
00000000
,
01000000
00010000
00000000
00010000
00001000
00000000
00000100
00000000
00000001
00000000
00001000
00000001
00001000
00000001
00001000
00000001
,
00000100
00000001
00000000
00000010
00000001
00000000
00000100
00000000
00001000
00010000
00000000
00001000
01000000
00000000
00100000
00000000
,
20020000
00000000
00000000
30030000
,
10000000
01000000
10000000
01000000
00100000
00000000
00010000
00000000
01000000
00000000
00001000
00000000
00010000
00000100
00010000
00000000
,
00001000
00000000
00000000
00000100
00000001
00000000
00000010
00000000
00000000
00000000
00000100
00000000
00001000
00000001
00001000
00000000
,
00000010
00000000
00000100
00000000
00001000
00010000
00001000
00010000
00001000
00000000
01000000
00000000
00100000
00000000
00010000
00000000
,
00001000
00000000
00100000
00010000
00100000
00000000
01000000
00000000
00000000
00000000
10000000
00000000
10010000
00000000
00000000
00000000
,
00010000
00000000
01000000
00001000
01000000
00001000
00010000
00000000
00000100
00000000
00001000
00000000
00000001
00000100
00000001
00000000
,
00000010
00000000
00000000
00001000
00010000
00000000
00100000
00000000
00000000
00000000
01000000
00010000
00100000
00000000
00000000
00000000
,
01000000
00000000
00010000
00000000
01000000
00000000
10000000
00010000
10000000
00000000
00100000
00000000
00010000
00001000
00010000
00000000
,
00000100
00001000
00000100
00001000
00000010
00000000
00000100
00000000
00000000
00000000
00000000
00000000
00000000
00000000
00000000
00000000
,
00001000
00000000
00000000
00000100
00000001
00000000
00001000
00000000
00000100
00000000
00000000
00010000
00001000
00000000
00100000
00000000
,
01000000
00000000
00000000
00010000
01000000
00000000
00100000
00000000
10000000
00000000
00000000
00100000
00010000
00000000
00000000
00000000
,
01000000
00000000
00000000
00001000
00010000
00000000
00100000
00000000
00010000
00000000
00000000
00000100
00010000
00000000
00001000
00000000
,
00000010
00000000
00000000
00000001
00000100
00000000
00001000
00000000
00000100
00000000
00000000
00000000
00000000
00000000
00000000
00000000
,
00010010
00000000
00000000
00010000
00001000
00000000
01000000
00000000
00100000
00000000
00000000
00010000
00100000
00000000
10000000
00000000
,
00010000
00000000
00000000
00100000
01000000
00000000
00010000
00000000
00001000
00000000
00000000
00000010
00000100
00000000
00000000
00000000
,
00001000
00000000
00000000
00000001
00000100
00000000
00001000
00000000
00000100
00000000
00000000
00000001
00000010
00000000
00000100
00000000
,
00010000
00000100
00010000
00000100
00010000
00001000
00010000
00001000
01000000
00001000
01000000
00001000
00010000
00001000
00010000
00001000
,
00100000
00000000
00000000
00010000
01000000
00000000
10000000
00000000
01000000
00000000
00000000
00001000
00010000
00000000
00000100
00000000
,
00000010
00000000
00000000
00001000
00000010
00000000
00000001
00000000
00000100
00000000
00000000
00000010
00010000
00000000
00000000
00000000
,
01000000
00000000
00000000
10000000
00010000
00000000
01000000
00000000
10000000
00000000
00000000
01000000
00010000
00000000
00100000
00000000
,
00001000
00000000
00000000
00000010
00000001
00000000
00000100
00000000
00000010
00000000
00000000
00000000
00000000
00000000
00000000
00000000
,
00010100
00000000
00000000
00010000
00100000
00000000
01000000
00000000
00010000
00000000
00000000
10000000
01000000
00000000
00010000
00000000
,
00000100
00000000
00000000
00001000
00000001
00000000
00000100
00000000
00001000
00000000
00000000
01000000
00010000
00000000
00000000
00000000
,
00100000
00000000
00000000
00001000
00000100
00000000
00000010
00000000
00001000
00000000
00000000
00000001
00000010
00000000
00000100
00000000
,
00010000
00000010
00010000
00000010
00010000
00001000
00010000
00001000
00100000
00001000
00100000
00001000
00010000
00001000
00010000
00001000
,
02000000
00000000
00000000
00000000
,
00000000
00000000
00000000
00000000
,
03002000
00000000
00000000
00000000
,
00003020
00000000
00000000
00000000
,
00000230
00000000
00000000
00000000
,
00000000
00000000
00000000
00000000
,
00020300
00000000
00000000
00000000
,
00230000
00000000
00000000
00000000
,
01300000
00010000
00100000
00001000
00000010
00001000
00010000
00000100
,
00000010
00001000
00000010
00000001
00000100
00001000
00010000
00000000
,
00100000
00001000
00000010
00001000
00000100
00010000
01000000
00100000
,
00001000
00010000
00100000
10000000
00010000
00001000
00010000
00000000
,
01000000
00001000
00000100
00001000
00100000
01000000
00010000
00001000
,
00000100
00000010
00001000
00010000
00100000
00001000
00000010
00000000
,
00000200
00020300
02030000
03200000
,
00301000
00000000
00010000
00000000
00100000
01000000
00100000
00000000
00010000
00000000
00001000
00000000
00000010
00000100
00000010
00000000
,
00022000
00000000
00000000
00033000
,
01000000
00001000
00000010
00000100
00010000
00100000
01000000
00001000
,
00000010
00000000
00000100
00000000
00010000
00000000
00100000
00000000
01000000
00010000
10000000
01000000
00100000
00010000
00100000
00001000
,
00010000
00000100
00000010
00001000
01000000
00100000
00001000
00000100
,
00000010
00000001
00000100
00001000
00010000
00100000
00010000
00001000
00010000
01000000
10000000
00010000
,
01000000
10000000
01000000
00001000
00010000
00000100
00000001
00000100
,
00010000
00000000
00001000
00000000
01000000
00000000
10000000
00000000
01000000
00010000
01000000
00001000
00010000
00000100
00000010
00000001
,
00000100
00000001
00000010
00001000
00010000
00100000
10000000
01000000
,
01010000
00000000
00011000
00000000
00001010
00000000
00001100
00000000
00011000
00000000
00110000
00000000
,
01000000
00010000
00000100
00000010
00001000
00100000
01000000
00010000
,
00000100
00000000
00000010
00000000
00001000
00000000
00100000
00000000
01000000
00001000
00010000
00000010
00001000
00000100
00010000
00001000
,
00100000
00001000
00000010
00000100
00010000
01000000
00100000
00001000
,
00000020
00000000
00000032
00000000
00000203
00000000
00002300
00000000
00023000
00000000
00230000
00000000
,
01300000
10000000
01000000
00001000
00010000
00000000
00000100
00000010
00000001
00000100
00001000
00000000
,
00010000
00100000
00010000
00000010
00001000
00000000
00000001
00000100
00001000
00010000
00100000
00000000
,
10000000
01000000
00100000
01000000
10000000
01000000
00100000
00010000
01000000
00001000
00010000
00000010
00010000
00001000
01000000
00001000
,
00010000
00000010
00001000
00000010
00000100
00000001
00001000
00000001
00000100
00000010
00001000
00010000
01000000
00100000
10000000
00010000
,
20000000
00000000
00000000
00000000
31000000
00010000
00001000
00010000
00000010
00000000
00001000
00000001
00000010
00000000
00000100
00000000
,
00010000
00000000
00100000
01000000
00010000
00000000
10000000
00000000
00000000
00000000
00000000
00000000
00000000
00000000
00000000
00000000
,
02000000
00000000
00000000
00000000
03010000
00000100
00001000
00000001
00000100
00000000
00000001
00000010
00000100
00000000
00001000
00000000
,
00010000
00000000
00100000
00010000
01000000
00000000
10000000
00000000
00000000
00000000
01000000
00000000
00001000
00000000
00000100
00000000
,
00000020
00000000
00000000
00000000
00000130
00000001
00001000
00000100
00000010
00000000
00000100
00000000
00010000
00001000
01000000
00000000
,
00100000
00000000
00010000
00100000
10000000
00000000
01000000
00000000
00010000
00000000
00000100
00000000
00000000
00000000
00000000
00000000
,
00020000
00000000
00000000
00000000
00130000
01000000
10000000
01000000
00010000
00000000
00100000
00000000
00001000
00010000
00000010
00000000
,
00000100
00000001
00001000
00000100
00000010
00000100
00010000
00001000
00100000
00010000
10000000
00100000
00010000
00001000
00100000
00000000
,
00220000
00000000
00330000
00000000
,
00002200
00000000
00003300
00000000
,
00002020
00000000
00003030
00000000
,
02020000
00000000
03030000
00000000
,
00022000
00000000
00000000
00000000
,
00000000
00000000
00000000
00000000
,
00000000
00000000
00000000
00000000
,
00000000
00000000
00000000
00000000
,
00033000
00000000
00000000
00000000
;
