#VERSION:0.83;
#TITLE:D;
#SUBTITLE:;
#ARTIST:Eagle;
#TITLETRANSLIT:;
#SUBTITLETRANSLIT:;
#ARTISTTRANSLIT:;
#GENRE:NEXT SKOOL BREAKBEATS HARDCORE;
#CREDIT:;
#MUSIC:D.ogg;
#BANNER:D.png;
#BACKGROUND:D-bg.png;
#CDTITLE:./CDTitles/bm IIDX 17 SIRIUS.png;
#SAMPLESTART:49.528;
#SAMPLELENGTH:15.000;
#SELECTABLE:YES;
#OFFSET:1.657;
#BPMS:0.000=120.000
,72.000=130.000
,76.000=140.000
,80.000=150.000
,84.000=160.000
,86.000=170.000
,88.000=180.000
,90.000=190.000
,92.000=200.000
,93.000=210.000
,94.000=220.000
,95.000=240.000
,96.000=49.875
,100.000=175.000
,216.000=170.000
,218.000=160.000
,220.000=150.000
,222.000=140.000
,224.000=130.000
,228.000=48.000
,232.000=120.000
;
#STOPS:;
#TIMESIGNATURES:0.000=4=4;
#DISPLAYBPM:50.000:175.000;
#BGCHANGES:0.000=D.mp4=1.000=0=0=0=StretchNoLoop====,
99999.000=-nosongbg-=1.000=0=0=0=StretchNoLoop====
;
#FGCHANGES:;

//--------------- dance-single - forcednature ----------------
#NOTEDATA:;
#STEPSTYPE:dance-single;
#DESCRIPTION:forcednature;
#DIFFICULTY:Beginner;
#METER:5;
#RADARVALUES:0,0,0,0,0;
#CREDIT:forcednature;
#NOTES:
0000
0000
0000
0000
,
0000
0000
0000
0000
,
0000
0000
0000
0000
,
0000
0000
0000
0000
,
0000
0000
0000
0000
,
1000
0000
0000
1000
,
0000
0001
0000
0001
,
0000
0100
0100
0100
,
0110
0000
1001
0000
,
0110
0000
0001
0000
,
1000
0100
1000
0000
,
0010
0000
0100
0000
,
0001
0010
0001
0010
,
0100
0000
1000
0000
,
0001
0100
0000
0100
,
0010
0000
1000
0000
,
0100
0100
0010
0010
,
1001
0000
0001
1000
,
0000
0010
0100
0010
,
1000
0000
0100
0000
,
0010
0010
0001
0001
,
1000
0000
0001
0100
,
0010
1000
0001
0000
,
0010
0010
0100
0000
,
2002
0000
0000
0000
,
3003
0000
0000
0000
,
0110
0000
0000
0000
,
0001
0000
1000
0000
,
0001
0000
0000
0000
,
0010
0000
0100
0000
,
0010
0000
0000
0000
,
0001
0000
1000
0000
,
0001
0000
0000
0000
,
0100
0000
0010
0000
,
1001
0000
1000
0000
,
0100
0000
0100
0000
,
0010
0000
0001
0000
,
0010
0000
0001
0000
,
0100
0000
0100
0000
,
0010
0000
0010
0000
,
1000
0000
0001
0000
,
0010
0010
0100
0110
,
1001
0000
1000
0001
,
0100
0000
0010
1000
,
0001
0000
0010
0100
,
1000
0000
0010
0100
,
0001
0000
1000
0100
,
0010
0000
0001
0100
,
0010
0000
1000
0001
,
2002
0000
3003
0000
,
0110
0000
0001
0000
,
1000
0100
1000
0000
,
0010
0010
0010
0010
,
0100
0100
0100
0100
,
0110
0000
0001
0000
,
1000
1000
0001
0000
,
0010
0000
0000
0010
0000
0000
0010
0000
,
0200
0000
0000
0000
0000
0000
0000
0000
0000
0000
0000
0000
0000
0000
0000
0000
0000
0000
0000
0000
0000
0000
0000
0000
0000
0000
0000
0000
0000
0000
0000
0000
0000
0000
0000
0000
0000
0000
0000
0000
0000
0000
0000
0000
0000
0000
0000
0000
0000
0000
0000
0000
0000
0000
0000
0000
0000
0000
0000
0000
0000
0000
0000
0000
0000
0000
0000
0000
0000
0000
0000
0000
0000
0000
0000
0000
0000
0000
0000
0000
0000
0000
0000
0000
0000
0000
0000
0000
0000
0000
0000
0300
0000
0000
0000
0000
,
0000
0000
0000
0000
,
1001
1000
0000
1000
,
0000
0001
0001
0001
,
0000
0100
0000
0100
,
0010
1000
0010
1000
,
1001
0001
0000
0001
,
0000
0010
0010
0010
,
0110
0000
0100
0000
,
1000
0001
1000
0001
,
1001
0000
0000
0000
;

//--------------- dance-single - forcednature ----------------
#NOTEDATA:;
#STEPSTYPE:dance-single;
#DESCRIPTION:forcednature;
#DIFFICULTY:Easy;
#METER:12;
#RADARVALUES:0,0,0,0,0;
#CREDIT:forcednature;
#NOTES:
0000
0000
0000
0000
,
0000
0000
0000
0000
,
0000
0000
0000
0000
,
0000
0000
0000
0000
,
0000
0000
0000
0000
,
1000
0000
0001
0000
0100
0000
0000
0010
0000
0010
0000
0000
1000
0000
0000
0000
,
0001
0010
0100
1000
0000
0002
0003
2000
,
3000
0000
0010
0000
0001
0000
0010
0000
1000
0000
0010
0000
0100
0001
0100
0001
,
1000
0000
0000
1100
0000
0000
0100
0000
0010
0001
0000
0001
2000
0000
0000
0000
,
3010
0000
0101
0000
0001
0010
1000
0000
,
0010
0100
1000
0001
0100
0010
2000
0000
,
3200
0000
0301
0000
0100
0010
0001
0000
,
1000
0010
1000
0010
1000
0000
0001
0000
0010
0100
0000
0000
1000
0001
1000
0001
,
0100
0010
1000
0000
0001
0010
0100
0000
,
0001
0000
0100
1000
0001
0000
0100
0000
0000
0010
1000
0000
0200
0000
0000
0000
,
0310
0000
0000
0011
0000
0000
1000
0000
0000
0001
0100
0000
0010
0000
0000
0000
,
1100
0000
0000
0101
0000
0000
1000
0000
0001
0100
0000
0010
2000
0000
0000
0000
,
3100
0000
0011
0000
0001
0100
1000
0000
,
0100
0010
1000
0001
0000
0001
0020
0000
,
0130
0000
1000
0001
0100
0010
1000
0000
,
1100
0000
0000
1100
0000
0000
0001
0000
0010
0000
0000
0010
0200
0000
0000
0000
,
1300
0000
0101
0000
1000
0010
0001
0000
,
0010
0100
0001
1000
0100
0010
0001
0000
,
0110
0000
0001
0100
1000
0100
0001
0000
,
2020
0000
0000
0000
,
3030
0000
0000
0000
,
0101
0001
1000
0100
,
0010
0000
0000
0001
0000
0000
0010
0000
0000
0100
0000
0000
1000
0000
0000
0000
,
0001
0100
0010
1000
,
0001
0000
0000
0100
0000
0000
1000
0000
0000
0100
0000
0000
0010
0000
0000
0000
,
1000
0100
0010
0001
,
1000
0000
0000
0010
0000
0000
0100
0000
0000
0010
0000
0000
1000
0000
0000
0000
,
0001
0010
0100
1000
,
0001
0000
0000
0100
0000
0000
0010
0000
0000
1000
0000
0000
0001
0000
0010
0000
,
0100
0010
0001
1000
,
0010
0000
0000
0100
0000
0000
1000
0000
0000
0100
0000
0000
0001
0000
0000
0000
,
1000
0100
0010
0001
,
1000
0000
0000
0010
0000
0000
0100
0000
0000
0001
0000
0000
1000
0000
0000
0000
,
0110
0001
1000
0010
,
0100
0000
0000
1000
0000
0000
0100
0000
0000
0001
0000
0000
0100
0000
0000
0000
,
0010
1000
0001
0010
,
0100
1000
0100
0000
0010
0000
1001
0000
,
0001
0000
0000
0101
0000
0000
0100
0000
0010
0000
1000
0000
0010
0000
1000
0000
,
0100
0000
0000
0110
0000
0000
0010
0000
0001
0000
1000
0000
0001
0000
1000
0000
,
0010
0000
0000
0101
0000
0000
1000
0000
0100
0000
0010
0000
0100
0000
0010
0000
,
0001
0000
0000
1100
0000
0000
0001
0000
0100
0000
0010
0000
0100
0000
0010
0000
,
1000
0000
0000
0110
0000
0000
0001
0000
1000
0000
0100
0000
0010
0000
0001
0000
,
0010
0000
0000
0011
0000
0000
1000
0000
0001
0000
0100
0000
0010
0000
1000
0000
,
0001
0000
0000
0110
0000
0000
1000
0000
0100
0000
0001
0000
0100
0000
1000
0000
,
0010
0000
0100
0100
0001
1000
0000
0100
,
0010
0000
0001
0010
0000
0100
1000
0000
,
0001
0100
0010
1000
0010
0000
0100
0001
,
1000
0000
0100
0001
0000
0100
1000
0000
,
0010
0100
0100
1000
0100
0100
0001
0100
,
0010
0000
1000
0001
0000
0010
0000
0000
,
0100
1000
0100
0000
0020
0000
0000
0000
,
0031
0000
0100
1000
0000
0100
0000
0100
,
0020
0000
0000
0000
0000
0000
0000
0000
0000
0000
0000
0000
0000
0000
0000
0000
0000
0000
0000
0000
0000
0000
0000
0000
0000
0000
0000
0000
0000
0000
0000
0000
0000
0000
0000
0000
0000
0000
0000
0000
0000
0000
0000
0000
0000
0000
0000
0000
0000
0000
0000
0000
0000
0000
0000
0000
0000
0000
0000
0000
0000
0000
0000
0000
0000
0000
0000
0000
0000
0000
0000
0000
0000
0000
0000
0000
0000
0000
0000
0000
0000
0000
0000
0000
0000
0000
0000
0000
0000
0000
0000
0030
0000
0000
0000
0000
,
1001
0000
0000
1001
0000
0000
0000
0000
0100
0010
0000
0010
0100
0000
0000
0000
,
1001
0000
1000
0100
0001
0100
1000
0100
,
0010
0000
0001
0100
1000
0100
0001
0100
,
0010
0000
1000
0100
0001
0100
1000
0100
,
0020
0000
0001
0001
0100
0100
1030
0000
,
0110
0000
0100
1000
0010
0001
0010
0000
,
0100
0001
1000
0100
0001
0100
0010
0000
,
1001
0000
0001
0100
1000
0100
0010
0000
,
1010
0000
0000
1100
0000
0000
0001
0000
0010
0100
0000
0100
1000
0000
0000
0000
,
0101
0000
0000
0000
;

//--------------- dance-single - forcednature ----------------
#NOTEDATA:;
#STEPSTYPE:dance-single;
#DESCRIPTION:forcednature;
#DIFFICULTY:Medium;
#METER:14;
#RADARVALUES:0,0,0,0,0;
#CREDIT:forcednature;
#NOTES:
0000
0000
0000
0000
,
0000
0000
0000
0000
,
0000
0000
0000
0000
,
0000
0000
0000
0000
,
0000
0000
0000
0000
,
1000
0100
0010
0001
1000
0100
0010
0000
,
0001
0100
0010
1000
0001
0100
0010
0000
,
1000
0000
0001
0000
0010
0000
0100
0000
1000
0000
0001
0000
0010
0100
0010
0100
,
1000
0000
0000
1010
0000
0000
0101
0000
0001
1000
0000
1000
0100
0000
0000
0000
,
0010
0000
0001
0000
0010
0000
0000
0100
0000
0100
1000
0000
0001
0000
0000
0000
,
0100
0000
0010
1000
0010
0000
0100
0001
0000
0001
0010
0100
1000
0000
0000
0000
,
0010
0000
0100
0000
0101
0000
0000
0001
0000
0010
0100
0000
1000
0000
0000
0000
,
0001
0100
0001
0100
1000
0100
1000
0100
0010
1000
0000
0001
1000
0100
0010
0001
,
0100
0000
0010
0000
1000
0000
0000
0001
0000
0001
0010
0000
0100
0000
0000
0000
,
1000
0010
1000
0010
0100
0000
0100
0001
0000
0001
0010
0100
2000
0000
0000
0000
,
3010
0000
0000
1001
0000
0000
0001
0100
0000
1000
0100
0000
0010
0000
0000
0000
,
1010
0000
0000
0101
0000
0000
0010
0000
1100
0000
0000
0011
0000
0000
0000
0000
,
1001
0000
0001
0000
0100
0000
0000
0010
0000
0010
1000
0000
0100
0000
0000
0000
,
0010
0000
0001
1000
0001
0000
0100
0010
0000
0010
1000
0000
0200
0000
0000
0000
,
0310
0000
0001
0000
0010
0000
0000
0100
0000
0100
1000
0000
0001
0000
0000
0000
,
0101
0000
0000
1100
0000
0000
0011
0000
0000
1010
0000
0000
1001
0000
0000
0000
,
0110
0000
0000
0000
0001
0000
0100
0010
1000
0000
0001
0000
1000
0000
0000
0000
,
0110
0000
0001
1000
0010
0001
0020
0000
,
0130
0001
1000
0100
0010
0001
0100
0000
,
2002
0000
0000
0000
,
3003
0000
0000
0000
,
1000
0000
0100
0000
0010
0000
0001
0000
0100
0001
0000
0100
0001
0000
0000
0001
,
2000
0000
0000
3100
0000
0000
0020
0000
0000
0031
0000
0000
0200
0000
0000
0000
,
0310
0000
1000
0000
0001
0000
0100
0010
0000
1000
0000
0001
0100
0000
0010
0000
,
1000
0000
0000
0100
0000
0000
0010
0000
0000
0001
0000
0000
0100
0000
0010
0000
,
1000
0000
0001
0000
0010
0000
0001
0000
1000
0010
0000
0100
0001
0000
0000
1000
,
0200
0000
0000
0310
0000
0000
0002
0000
0000
0103
0000
0000
0020
0000
1000
0000
,
0130
0000
0100
0000
0001
0000
1000
0001
0000
0100
0000
0010
1000
0000
0100
0000
,
0010
0000
0000
0001
0000
0000
2000
0000
0000
0010
0000
0000
3001
0000
1000
0000
,
1100
0000
0000
0100
0010
0000
0001
0000
1000
0010
1000
0000
0001
0000
0100
0010
,
2000
0000
0000
3100
0000
0000
0020
0000
0000
0031
0000
0000
0200
0000
0000
0000
,
0310
0000
1000
0000
0001
0000
0010
0001
0000
1000
0000
0100
0010
0000
0001
0000
,
0100
0000
0000
0010
0000
0000
1000
0000
0000
0001
0000
0000
0010
0000
0100
0000
,
0110
0000
0000
0000
0010
0000
0001
0000
1000
0010
0000
0100
0001
0000
0000
1000
,
0200
0000
0000
1300
0000
0000
0020
0000
0000
0130
0000
0000
0002
0000
0000
0000
,
0013
0000
0100
0000
0010
0000
0001
1000
0000
0010
0000
0100
0001
0000
1000
0000
,
0100
0010
0100
0000
1000
0000
0010
0100
0010
0000
1000
0000
1001
0000
0000
0000
,
1100
0000
0000
0100
0000
0000
0010
0000
0001
0100
0001
0000
0100
0001
0100
0000
,
0010
0000
0000
1000
0000
0000
0001
0000
1000
0100
1000
0000
0100
1000
0100
0000
,
0010
0000
0000
0001
0000
0000
1000
0000
0001
0100
0001
0000
0100
0001
0100
0000
,
0010
0000
0000
1000
0000
0000
0001
0000
0010
0100
0010
0000
0100
0010
0100
0000
,
1000
0000
0000
0010
0000
0000
0100
0000
0001
0010
0001
0000
0010
0001
0010
0000
,
0100
0000
0000
1000
0000
0000
0001
0000
1000
0010
1000
0000
0010
1000
0010
0000
,
0100
0000
0000
0001
0000
0000
1000
0000
0100
0010
0100
0000
0010
0100
0010
0000
,
1001
0000
0001
0100
1000
0002
0000
0013
,
1000
0000
0001
0010
0000
1000
0010
0000
,
0100
1000
0001
1000
0010
0100
0001
0010
,
0100
0100
1000
0100
0100
0001
0100
0010
,
0001
0010
0001
0000
0001
0000
1000
0010
1000
0000
1000
0000
0100
0000
0010
0000
,
1001
0000
0001
0010
0000
0100
1000
0001
,
0100
0100
1000
0100
0010
1000
0001
0010
,
0210
0000
1300
0210
0000
0301
0100
0010
,
2002
0000
0000
0000
0000
0000
0000
0000
0000
0000
0000
0000
0000
0000
0000
0000
0000
0000
0000
0000
0000
0000
0000
0000
0000
0000
0000
0000
0000
0000
0000
0000
0000
0000
0000
0000
0000
0000
0000
0000
0000
0000
0000
0000
0000
0000
0000
0000
0000
0000
0000
0000
0000
0000
0000
0000
0000
0000
0000
0000
0000
0000
0000
0000
0000
0000
0000
0000
0000
0000
0000
0000
0000
0000
0000
0000
0000
0000
0000
0000
0000
0000
0000
0000
0000
0000
0000
0000
0000
0000
0000
3003
0000
0000
0000
0000
,
1100
0000
0000
0011
0000
0000
1000
0000
0001
0100
0000
0010
2000
0000
0000
0000
,
3100
0000
0010
0000
0001
0100
0001
0100
0010
1000
0010
1000
0001
0010
0100
0000
,
0010
0000
0001
0000
1000
0010
1000
0010
0000
0100
0001
1000
0001
0010
0100
1000
,
0001
0000
0100
0000
0010
1000
0010
1000
0100
0010
0100
0010
0001
0100
0001
0000
,
1000
0010
1000
0010
0001
0010
0001
0010
0100
0001
0000
0001
1000
0100
0010
0001
,
0100
0000
0010
0000
1000
0100
1000
0100
0010
0100
0010
0100
0010
0001
0010
0000
,
0100
0001
0100
0001
0100
1000
0100
1000
0000
0001
0100
0010
1000
0010
0100
0001
,
1000
0000
0100
0000
0010
0001
0010
0001
1000
0100
1000
0100
0010
0001
1000
0000
,
1010
0000
0000
0101
0000
0000
0001
0010
0100
1000
0000
0001
0100
1000
0100
0001
,
0010
0000
0000
0000
;

//--------------- dance-single - forcednature ----------------
#NOTEDATA:;
#STEPSTYPE:dance-single;
#DESCRIPTION:forcednature;
#DIFFICULTY:Hard;
#METER:17;
#RADARVALUES:0,0,0,0,0;
#CREDIT:forcednature;
#NOTES:
0000
0000
0000
0000
,
0000
0000
0000
0000
,
0000
0000
0000
0000
,
0000
0000
0000
0000
,
0000
0000
0000
0000
,
0001
0000
0100
0000
0101
0000
0000
1000
0000
1000
0010
0000
0100
0000
0001
1000
,
0000
0000
0100
0000
0010
0000
0000
0001
0000
0001
1000
0000
0010
0000
0100
0001
,
0000
0000
0000
0000
1000
0000
0000
0000
0100
0000
0000
0000
0010
0000
0001
0000
0000
0000
0001
0000
0100
0000
0001
0000
0100
0000
0010
0000
1000
0001
1000
0001
,
1000
0000
0000
0110
0000
0000
0001
0100
1000
0100
0000
0100
0020
0000
0000
0000
,
1030
0000
0100
0000
1200
0000
0000
0001
0000
0010
0310
0000
0110
0000
0000
0000
,
0010
0000
0001
1000
0001
0100
0010
1000
0000
1000
0100
0010
0002
0000
0000
0000
,
0103
0000
0001
0000
1010
0000
0000
0001
0000
1000
0100
0000
0001
0100
0000
0000
,
0010
0001
0010
0001
1000
0010
1000
0010
0001
0010
0000
0010
0100
1000
0100
0001
,
0101
0000
0010
0000
1100
0000
0000
0001
0000
0001
1000
0010
0100
0000
0000
0000
,
0001
0000
1000
0000
0100
0000
1000
0000
0010
0000
0100
0000
0001
0000
0010
0000
0000
0000
0010
0000
0001
1000
0001
1000
0020
0000
0000
0000
0000
0000
0000
0000
,
0230
0000
0000
0000
0000
0000
1000
0000
0000
0000
0000
0000
0001
0000
0001
0000
0000
0000
0310
0000
0100
0000
0001
0000
1000
0000
0000
0000
0001
0010
0001
0010
,
0100
0000
1000
1010
0000
0000
0001
0010
0001
0100
0000
0100
0010
1000
0100
0010
,
0001
0000
0100
0000
1001
0000
0000
1000
0000
1000
0100
0010
0001
0000
0100
0000
,
0010
0000
1000
0001
0010
0001
1000
0010
0000
0100
0001
1000
0200
0010
0000
0000
,
1300
0000
0100
0010
0001
0000
1000
0001
0000
0001
0100
0010
1000
0010
0000
0000
,
1100
0000
0001
0100
1000
0000
0100
0000
0010
1000
0000
1000
0001
0010
0001
0100
,
0010
0000
1000
0000
1100
0000
1000
0100
0010
0001
1000
0001
0100
0000
0010
0000
,
1000
0001
0010
0001
1000
0010
0100
0001
0000
1000
0100
0010
0002
0000
0000
0000
,
0103
0000
0001
1000
0010
0000
1000
0001
1000
0100
0010
0001
0100
0000
0000
0000
,
2002
0000
0000
0000
,
3003
0000
0000
0000
0000
0000
1000
0100
1000
0100
0010
0001
0010
0001
0100
0000
,
1001
0000
0001
0000
0100
0000
0001
0000
1000
0010
0000
1000
0001
0000
0000
0010
,
0100
0000
0000
1000
0000
0000
0100
0000
0000
0001
0000
0100
0000
0000
0010
0000
,
0001
0000
1000
0000
0010
0000
0100
0001
0000
1000
0000
0100
1000
0000
0001
0000
,
0100
0000
0000
1000
0000
0000
0100
0000
0000
0001
0000
0000
0010
0000
0100
0000
,
1000
0000
0010
0000
0100
0000
0001
0000
1000
0100
0000
1000
0010
0000
0000
0010
,
0100
0000
0000
1000
0000
0000
0100
0000
0000
0001
0000
0010
0000
0000
0100
0000
,
1000
0000
1000
0000
0010
0000
0100
0001
0000
1000
0000
0001
0010
0000
0100
0000
,
1000
0000
0000
0001
0000
0000
1000
0010
1000
0010
0100
0001
0100
0001
0010
0000
,
0110
0000
0100
1000
0001
0000
0100
0001
1000
0001
0010
0100
1000
0000
0001
0100
,
0010
0000
0010
1000
0000
1000
0100
0000
0100
0010
0000
0010
0001
0000
1000
0000
,
0010
0100
0001
0000
0010
0000
0100
0010
0001
0100
0010
0100
0001
0000
1000
0000
,
0010
0000
0010
0100
0000
0100
0001
0000
0001
1000
0000
1000
0100
0000
0010
0000
,
0110
0000
0100
1000
0001
0000
1000
0010
0100
0001
1000
0100
0010
0000
0001
0000
,
1000
0000
1000
0100
0000
0100
0001
0000
0001
0100
0000
0100
0010
0000
0001
0000
,
1000
0010
0100
0000
0001
0000
1000
0100
0010
0001
0100
0010
1000
0100
0010
0001
,
0100
0001
0100
0000
0100
0000
0100
1000
0100
0000
0100
0000
0110
0000
0000
0000
,
1001
0000
1000
0010
0000
1000
0001
0000
1000
0100
0010
0001
0010
0100
1000
0000
,
0001
0000
0100
0010
0000
1000
0001
0000
0010
0001
1000
0010
0100
0001
1000
0000
,
0100
0000
0010
0001
0000
0010
0100
0000
1000
0001
0100
0010
1000
0010
0100
0000
,
0001
0010
0001
0000
0100
0000
0010
0000
1000
0100
1000
0001
0100
0001
1000
0000
,
0010
0000
0100
0001
0000
1000
0001
0000
0100
1000
0100
0010
0100
0001
1000
0000
,
0001
0000
0010
0100
0000
1000
0001
0000
0010
1000
0010
0100
0010
0001
1000
0000
,
0001
0000
0100
0001
0000
1000
0100
0000
0010
0001
0100
1000
0100
0001
0010
0000
,
0110
0000
0100
0000
1000
0000
0001
0100
0001
0100
0020
0000
0000
0000
1030
0000
,
1100
0000
0000
0000
0010
0000
0101
0000
0000
0000
0001
0000
1000
0010
1000
0000
,
0100
0000
0100
0010
0001
0000
0100
0000
0010
1000
0010
0000
0100
0000
0001
1000
,
0100
0000
0010
0001
0010
0001
0100
0000
0010
1000
0010
1000
0100
0000
0010
0001
,
1000
0000
0001
0100
1000
0000
0100
0001
1000
0100
0001
0000
0100
0000
0010
0001
,
1000
0000
0010
0101
0000
1000
0001
1000
,
0100
0100
0001
0100
0010
0001
1000
0001
,
0102
0000
0013
2100
0000
3010
1000
0001
,
2002
0000
0000
0000
0000
0000
0000
0000
0000
0000
0000
0000
0000
0000
0000
0000
0000
0000
0000
0000
0000
0000
0000
0000
0000
0000
0000
0000
0000
0000
0000
0000
0000
0000
0000
0000
0000
0000
0000
0000
0000
0000
0000
0000
0000
0000
0000
0000
0000
0000
0000
0000
0000
0000
0000
0000
0000
0000
0000
0000
0000
0000
0000
0000
0000
0000
0000
0000
0000
0000
0000
0000
0000
0000
0000
0000
0000
0000
0000
0000
0000
0000
0000
0000
0000
0000
0000
0000
0000
0000
0000
3003
0000
0000
0000
0000
,
1100
0000
0000
0101
0000
0000
0010
1000
0010
0001
0000
0010
0200
0000
0000
0300
,
1001
0000
0001
0000
0100
1000
0100
0010
0100
0001
1000
0001
0010
0100
0001
0000
,
0100
0000
0010
0001
1000
0010
0100
1000
0000
0100
0001
1000
0001
0010
1000
0010
,
0100
0000
1000
0001
0100
0010
0001
0010
0000
1000
0001
0010
0100
0001
0100
0000
,
1000
0000
0001
0000
1000
0000
0001
0000
0000
0100
0000
0000
0010
0000
0000
0001
0000
0000
0010
0000
0000
1000
0000
0000
0001
0000
0000
1000
0000
0000
0000
0000
0000
0100
0000
0000
0010
0000
0000
0010
0000
0000
0010
0000
0000
0010
0000
0000
,
0110
0000
0100
0000
1000
0001
0100
1000
0100
0010
1000
0001
0010
0100
0001
0000
,
0100
0000
0010
0000
1000
0000
0010
0000
0001
0000
1000
0000
0001
0000
0100
0000
0010
0000
1000
0000
0001
0010
0001
0010
0100
0000
1000
0000
0010
0000
0100
0000
,
0110
0000
0001
0100
1000
0100
0010
1000
0001
0010
0100
0001
0100
0010
0001
0000
,
1001
0000
1000
1010
0000
0001
0010
0100
0110
0010
0000
0010
0001
0001
1000
1000
,
1001
0000
0000
0000
;

//--------------- dance-single - forcednature ----------------
#NOTEDATA:;
#STEPSTYPE:dance-single;
#DESCRIPTION:forcednature;
#DIFFICULTY:Challenge;
#METER:17;
#RADARVALUES:0,0,0,0,0;
#CREDIT:forcednature;
#NOTES:
0000
0000
0000
0000
,
0000
0000
0000
0000
,
0000
0000
0000
0000
,
0000
0000
0000
0000
,
0000
0000
0000
0000
,
0001
0010
0100
1000
0001
0000
0001
0010
0000
0010
0100
0000
1000
0000
0001
0000
,
1000
0010
0100
0001
1000
0000
1000
0010
0000
0010
0100
0000
0001
0000
0000
0000
,
1000
0000
0100
0000
0010
0000
0001
0000
1000
0000
0000
0000
1000
0000
0100
0000
0000
0000
0100
0000
0010
0000
0001
0000
0100
0000
0001
0000
0010
0100
1000
0001
,
0010
0000
0000
0110
0000
0000
0100
0010
1001
0100
0000
0010
0110
0000
0000
0000
,
1001
0000
0001
0100
1000
0000
0001
0010
0000
0010
1000
0100
0010
0000
0001
0000
,
0100
0010
0100
1000
0001
0010
0100
0010
0000
1000
0100
0010
0001
0100
0000
0010
,
0001
0000
1000
0010
0100
1000
0000
0001
0000
0010
0100
0010
1000
0001
0100
0000
,
0010
0010
1000
1000
0001
0001
0010
0010
0100
0100
0000
1000
0010
0010
0010
0010
,
0101
0000
1000
0001
0010
0000
0100
0001
0000
0100
1000
0001
0010
0100
2000
0000
,
3010
0000
0000
0000
0100
0000
0000
0000
1000
0000
0000
0000
0001
0000
0000
0000
0010
0000
0000
0000
0100
0000
0000
0000
0001
0000
0000
0000
1000
0000
0000
0000
0000
0000
0000
0000
0100
0000
0000
0000
0010
0000
0001
0000
1000
0000
0001
0000
0020
0000
0000
0000
0200
0000
0000
0000
0000
0000
0000
0000
0000
0000
0000
0330
,
1001
0000
0001
0100
1000
0000
0001
0010
0000
0010
1000
0100
0001
0000
0110
0000
,
0011
0000
0010
0101
0000
1000
0001
0100
0010
1100
0000
0001
0010
0010
0100
0100
,
1001
0000
1000
0010
0001
0000
0010
0100
0000
0100
0001
0010
0001
0000
1000
0000
,
0010
0100
0001
1000
0100
0010
0100
1000
0000
0001
0100
0010
2000
0001
0000
3100
,
1000
0000
0010
0100
0001
0010
0000
0110
0000
0100
1000
0001
1000
0010
0100
0000
,
1001
0000
0001
0010
0100
0000
0001
0100
1000
0100
0000
0100
0010
0001
1000
0010
,
0110
0000
0100
0001
0010
0001
1000
0010
0000
0100
0001
1000
0200
0000
0010
0300
,
1100
0000
1000
0100
0010
0001
1000
0010
0000
0100
0001
0010
0002
1000
0000
0000
,
0103
0010
1000
0010
0100
0001
1000
0001
0010
0100
0001
0100
1000
0000
0000
0000
,
0220
0000
0000
0000
,
0330
0000
0000
0000
0000
0000
0010
0001
0100
0001
1000
0001
0100
0001
0010
0000
,
0220
0000
0000
0030
,
2000
0000
0000
0300
0000
0000
0002
0000
0000
3000
0000
0000
0200
0000
0000
0000
,
0000
0000
0000
0003
,
0020
0000
0000
0300
0000
0000
2000
0000
0000
0030
0000
0000
0002
0000
0000
0000
,
0000
0000
0000
3000
,
0020
0000
0000
0003
0000
0000
0200
0000
0000
0030
0000
0000
2000
0000
0000
0000
,
0000
0000
0000
0300
,
0002
0000
0000
3000
0000
0000
0200
0000
0000
0003
0000
0000
0020
0000
0300
0000
,
1030
0000
0100
0000
0010
0000
0100
0000
1000
0010
0000
0100
0010
0000
1000
0000
,
0001
0000
0001
0010
0000
0010
0100
0000
0100
1000
0000
1000
0001
0000
0100
0000
,
0010
0000
1000
0000
0001
0000
0010
0001
0000
1000
0000
0010
1000
0000
0001
0000
,
0010
0000
0010
0100
0000
0100
1000
0000
1000
0001
0000
0001
0100
0000
0010
0000
,
0100
0000
0001
0000
0010
0000
0100
0000
0010
0001
0000
0100
0001
0000
0010
0000
,
0100
0000
0100
1000
0000
1000
0001
0000
0001
0100
0000
0100
0010
0000
1000
0000
,
0100
0000
1000
0000
0001
0000
0100
0001
0000
1000
0000
0100
1000
0000
0001
0000
,
0100
0010
0010
1001
,
1000
0100
1000
0100
0010
0001
0010
0001
1000
0100
0010
0001
0010
0100
1000
0000
,
0001
0100
0001
0100
0010
1000
0010
1000
0001
0100
0010
1000
0010
0100
0001
0000
,
0010
0100
0010
0100
1000
0001
1000
0001
0010
0100
1000
0001
0010
0100
1000
0000
,
0010
0100
0010
0100
0001
1000
0001
1000
0010
0100
0001
1000
0010
0100
0001
0000
,
1000
0100
1000
0100
0001
0100
0001
0100
0010
0100
0001
0100
0010
0100
1000
0000
,
0001
0100
0001
0100
1000
0100
1000
0100
0010
0100
1000
0100
0010
0100
0001
0000
,
1000
0010
1000
0010
0001
0010
0001
0010
0100
0010
0001
0010
0100
0010
1000
0000
,
1002
0000
0010
0000
0100
0100
0000
0013
,
0110
0000
0000
1100
0000
1000
0000
1000
,
0001
0100
0001
0010
0200
0001
0000
0301
,
0100
1000
1000
0010
1000
1000
0100
0010
,
0002
0100
0100
2003
0100
0100
3000
0110
,
1001
0000
0000
1000
0000
1000
0000
1000
,
0001
0010
0100
1000
0020
0000
0000
0030
,
0110
0000
0001
1000
0000
1100
0000
0101
,
0020
0000
0000
0000
0000
0000
0000
0000
0000
0000
0000
0000
0000
0000
0000
0000
0000
0000
0000
0000
0000
0000
0000
0000
0000
0000
0000
0000
0000
0000
0000
0000
0000
0000
0000
0000
0000
0000
0000
0000
0000
0000
0000
0000
0000
0000
0000
0000
0000
0000
0000
0000
0000
0000
0000
0000
0000
0000
0000
0000
0000
0000
0000
0000
0000
0000
0000
0000
0000
0000
0000
0000
0000
0000
0000
0000
0000
0000
0000
0000
0000
0000
0000
0000
0000
0000
0000
0000
0000
0000
0000
0030
0000
0000
0000
0000
,
0101
0000
0010
1100
0000
1000
0010
0100
1000
0001
0000
0010
0120
0000
0000
0000
,
0130
0001
0010
0001
0100
0100
0100
0100
0010
0010
0010
0010
1000
0001
0010
0000
,
0100
1000
0001
0100
0010
0010
0010
0010
1000
1000
1000
1000
0002
0023
0230
2300
,
3001
0100
0010
0001
1000
1000
1000
1000
0100
0100
0100
0100
0001
0010
0100
0000
,
0010
0000
0001
0000
1000
0000
0100
0000
0000
0010
0000
0000
1000
0000
0000
0001
0000
0000
0100
0000
0000
1000
0000
0000
0010
0000
0000
0110
0000
0000
0000
0000
0000
0100
0000
0000
1001
0000
0000
0010
0000
0000
0110
0000
0000
0100
0000
0000
,
1001
0000
0001
0000
0010
0000
0100
0000
1000
0000
1000
0010
1000
0000
1000
0000
0100
0000
0100
0010
0100
0000
0100
0000
0010
0000
0010
0001
0010
0000
0000
0000
,
0100
0000
0000
0000
0001
0000
0000
0000
0100
0000
0000
0000
1000
0000
0000
0000
0001
0000
0000
0000
0001
0000
0010
0000
0001
0000
0000
0000
0001
0000
0000
0000
0100
0000
0000
0000
0100
0000
0010
0000
0100
0000
0001
0000
0100
0000
0010
0000
2000
0000
0000
0000
3200
0000
0000
0000
0320
0000
0000
0000
0032
0000
0000
0003
,
0110
0000
0000
0000
1000
0000
0001
0000
0101
0000
0100
0010
0100
0000
0100
0000
0011
0000
0001
1000
0001
0000
0001
0000
0110
0000
0100
1000
0100
0000
0000
0000
,
1010
0000
0001
0000
1000
0000
0101
0000
0000
0000
0100
0000
0011
0000
1000
0000
0001
0000
1100
0000
0000
0000
0001
0000
0010
0100
0010
0100
1000
0100
1000
0100
,
1001
0000
0000
0000
;

//--------------- dance-double - forcednature ----------------
#NOTEDATA:;
#STEPSTYPE:dance-double;
#DESCRIPTION:forcednature;
#DIFFICULTY:Easy;
#METER:12;
#RADARVALUES:0,0,0,0,0;
#CREDIT:forcednature;
#NOTES:
00000000
00000000
00000000
00000000
,
00000000
00000000
00000000
00000000
,
00000000
00000000
00000000
00000000
,
00000000
00000000
00000000
00000000
,
00000000
00000000
00000000
00000000
,
00001000
00000000
00010000
00000000
00100000
01000000
00100000
00000000
,
10000000
00000000
00010000
00000000
00100000
01000000
00100000
00000000
,
00001000
00000000
00010000
00000000
00000010
00000010
00000010
00000010
,
00000110
00000000
00000000
00000110
00000000
00000000
00000000
00000000
00000001
00001000
00000000
00001000
00000001
00000000
00000000
00000000
,
00000010
00000000
00001100
00000000
00000010
00010000
00001000
00000000
,
00100000
00010000
01000000
00001000
00010000
00100000
01000000
00000000
,
00010000
10000000
01000000
00000000
00100000
00010000
01000000
00000000
,
00001000
00000000
00000000
00010000
00000000
00000000
00000100
00000000
00001000
00000010
00000000
00000010
00000100
00000000
00000001
00000000
,
00000011
00000000
00000010
00000100
00001000
00000010
00010000
00000000
,
00001000
00000000
00001000
00000000
00010000
00100000
01000000
00000000
,
01100000
00000000
00000000
00100000
00000000
00000000
10000000
00000000
00000000
00010000
00100000
00000000
01000000
00000000
00000000
00000000
,
11000000
00000000
00000000
11000000
00000000
00000000
00000000
00000000
00010000
00100000
00000000
00100000
00010000
00000000
00000000
00000000
,
01000000
00001000
00011000
00000000
00010000
00000100
00001000
00000010
,
00000000
00000100
00001000
00000100
00000000
00000001
00000010
00000000
,
00000110
00000000
00000100
00010000
00001000
00100000
00010000
00000000
,
01000000
00000000
00000000
01000000
00000000
00000000
00000000
00000000
00010000
10000000
00000000
10000000
00010000
00000000
00000000
00000000
,
01100000
00000000
10000000
00010000
01000000
00001000
00010000
00000000
,
00000100
00000000
00001000
00000010
00000000
00000010
00000100
00000000
,
00000001
00000000
00000010
00000000
00000100
00010000
00001000
00000000
,
00022000
00000000
00000000
00000000
,
00033000
00000000
00000000
00000000
,
00100000
00010000
00100000
00000000
01000000
00000000
01000000
00000000
,
10000000
00000000
00000000
00010000
00000000
00000000
10000000
00000000
00000000
00100000
00000000
00000000
01000000
00000000
00000000
00000000
,
00001000
00010000
00001000
00000000
00000010
00000000
00000100
00000000
,
00001000
00000000
00000000
00000001
00000000
00000000
00000100
00000000
00000000
00000010
00000000
00000000
00001000
00000000
00000000
00000000
,
00000100
00010000
00000100
00000000
00001000
00000000
00000010
00000000
,
00010000
00000000
00000000
00001000
00000000
00000000
00100000
00000000
00000000
00010000
00000000
00000000
01000000
00000000
00000000
00000000
,
00001000
00010000
00001000
00000000
00000010
00000000
00000100
00000000
,
00001000
00000000
00000000
00000010
00000000
00000000
00000001
00000000
00000000
00000010
00000000
00000000
00000100
00000000
00000000
00000000
,
00000110
00000000
00000010
00000000
00001000
00000001
00000010
00000000
,
00000100
00000000
00000000
00010000
00000000
00000000
00001000
00000000
00000000
00010000
00000000
00000000
00100000
00000000
00000000
00000000
,
01000000
00000000
00010000
00000000
10000000
00100000
10000000
00000000
,
01000000
00000000
00000000
00100000
00000000
00000000
01000000
00000000
00000000
10000000
00000000
00000000
00100000
00000000
00000000
00000000
,
01100000
00000000
01000000
00000000
00001000
00010000
00001000
00000000
,
00100000
00000000
00000000
00010000
00000000
00000000
00001000
00000000
00000000
00000100
00000000
00000000
00010000
00000000
00000000
00000000
,
00001000
00000000
00000100
00000000
00000010
00001000
00000010
00000000
,
00000100
00000000
00001000
00010000
01000000
00000000
01100000
00000000
,
00100000
00000000
00000000
00100000
00000000
00000000
00100000
00000000
00010000
00000000
10000000
00000000
00010000
00000000
00000000
00000000
,
01000000
00000000
00000000
01000000
00000000
00000000
01000000
00000000
00001000
00000000
00010000
00000000
00001000
00000000
00000000
00000000
,
00000010
00000000
00000000
00000100
00000000
00000000
00000010
00000000
00000001
00000000
00001000
00000000
00000001
00000000
00000000
00000000
,
00000100
00000000
00000000
00000010
00000000
00000000
00000100
00000000
00001000
00000000
00010000
00000000
00001000
00000000
00000000
00000000
,
00100000
00000000
00000000
00010000
00000000
00000000
01000000
00000000
00100000
00000000
10000000
00000000
00010000
00000000
00000000
00000000
,
00100000
00000000
00000000
01000000
00000000
00000000
10000000
00000000
01000000
00000000
00100000
00000000
00010000
00000000
00000000
00000000
,
01000000
00000000
00000000
00001000
00000000
00000000
00010000
00000000
00000100
00000000
00001000
00000000
00000010
00000000
00000000
00000000
,
00000110
00000000
00000100
00000001
00000010
00000100
00000000
00000100
,
00001000
00000000
00000001
00000100
00000000
00001000
00000000
00010000
,
00000000
00100000
01000000
00000000
00100000
00000000
10000000
00010000
,
00100000
00000000
01000000
00010000
00000000
00001000
00000000
00010000
,
00000000
00000010
00000010
00000100
00000010
00000010
00000100
00000010
,
00001001
00000000
00000000
00001000
00000000
00000000
00000100
00000000
,
00010000
00001000
02000000
00000000
,
03100000
00000000
10000000
01000000
00000000
00010000
00000000
00001000
,
00000020
00000000
00000000
00000000
00000000
00000000
00000000
00000000
00000000
00000000
00000000
00000000
00000000
00000000
00000000
00000000
00000000
00000000
00000000
00000000
00000000
00000000
00000000
00000000
00000000
00000000
00000000
00000000
00000000
00000000
00000000
00000000
00000000
00000000
00000000
00000000
00000000
00000000
00000000
00000000
00000000
00000000
00000000
00000000
00000000
00000000
00000000
00000000
00000000
00000000
00000000
00000000
00000000
00000000
00000000
00000000
00000000
00000000
00000000
00000000
00000000
00000000
00000000
00000000
00000000
00000000
00000000
00000000
00000000
00000000
00000000
00000000
00000000
00000000
00000000
00000000
00000000
00000000
00000000
00000000
00000000
00000000
00000000
00000000
00000000
00000000
00000000
00000000
00000000
00000000
00000000
00000030
00000000
00000000
00000000
00000000
,
00000110
00000000
00000000
00000100
00000000
00000000
00001000
00000000
00000001
00000000
00000000
00000001
00000100
00000000
00000000
00000000
,
00001000
00010000
00100000
01000000
00100000
00010000
00001000
00000000
,
00100000
00010000
00001000
00000100
00001000
00010000
00100000
00000000
,
01000000
00010000
00001000
00000010
00000100
00001000
00000010
00000000
,
00000100
00000000
00000000
00001000
00000000
00000000
00010000
00000000
01000000
00100000
00000000
00100000
01000000
00000000
00000000
00000000
,
10010000
00000000
00010000
01000000
00001000
00010000
00000100
00000000
,
00001000
00000010
00000001
00000010
00001000
00000100
00000010
00000000
,
00000110
00000000
00000100
00010000
00001000
00100000
00010000
00000000
,
01000000
00000000
00000000
01100000
00000000
00000000
10000000
00000000
01000000
00010000
00000000
00010000
00100000
00000000
00000000
00000000
,
01100000
00000000
00000000
00000000
;

//--------------- dance-double - forcednature ----------------
#NOTEDATA:;
#STEPSTYPE:dance-double;
#DESCRIPTION:forcednature;
#DIFFICULTY:Medium;
#METER:14;
#RADARVALUES:0,0,0,0,0;
#CREDIT:forcednature;
#NOTES:
00000000
00000000
00000000
00000000
,
00000000
00000000
00000000
00000000
,
00000000
00000000
00000000
00000000
,
00000000
00000000
00000000
00000000
,
00000000
00000000
00000000
00000000
,
00001000
00010000
00100000
01000000
10000000
01000000
00100000
00010000
,
00001000
00000100
00000010
00000001
00000010
00000100
00001000
00010000
,
00100000
00000000
01000000
00000000
10000000
00000000
01000000
00000000
00100000
00000000
00010000
00000000
00001000
00010000
00001000
00010000
,
00001000
00000000
00000000
00101000
00000000
00000000
00001000
00010000
00000010
00001000
00000000
00001000
00000100
00000000
00000000
00000000
,
00000110
00000000
00000000
00000000
00000011
00000000
00000000
00000101
00000000
00000000
00000001
00000000
00000010
00000000
00001000
00000000
,
00010000
00000000
00100000
01000000
00100000
00000000
10000000
00010000
00000000
00010000
00100000
01000000
10000000
00000000
00000000
00000000
,
00010000
00000000
01000000
00000000
00001000
00000000
00000000
00010000
00000000
00010000
00000100
00000000
00001000
00000000
00000000
00000000
,
00000010
00000100
00000000
00000100
00001000
00000000
00010000
00000000
00100000
01000000
00000000
01000000
00010000
00100000
01000000
00100000
,
01000000
00000000
10000000
00000000
00010000
00000000
00000000
01000000
00000000
01000000
00001000
00000000
00010000
00000000
00000100
00000000
,
00001000
00000000
00000010
00000100
00000001
00000000
00000010
00000100
00000000
00000100
00001000
00000000
00000001
00000000
00000000
00000000
,
00000101
00000000
00000000
00000010
00000000
00000000
00000100
00001000
00000000
00000100
00010000
00000000
00001000
00000000
00000000
00000000
,
01001000
00000000
00000000
00101000
00000000
00000000
00001000
00000000
00010000
00100000
00000000
00100000
01000000
00000000
00000000
00000000
,
01010000
00000000
00100000
00000000
11000000
00000000
00000000
10000000
00000000
10000000
00010000
00000000
01000000
00000000
00001000
00000000
,
00010000
00000000
00000100
00001000
00000100
00000000
00000010
00000001
00000000
00000001
00000100
00000000
00000010
00000000
00000000
00000000
,
00000101
00000000
00000001
00000000
00000010
00000000
00000100
00001000
00000000
00001000
00000010
00000000
00010000
00001000
00000000
00000000
,
00100000
00010000
00000000
00010000
01000000
00000000
00100000
00000000
10000000
01000000
00000000
01000000
00010000
00001000
00010000
00000000
,
00011000
00000000
00000100
00000000
00001000
00000000
00000010
00000100
00000000
00000100
00000001
00000000
00000010
00000000
00000100
00000000
,
00000110
00000000
00000000
00000000
00000010
00000000
00000100
00010000
00000000
00010000
00001000
00000000
00100000
00000000
00000000
00000000
,
01000000
10000000
00100000
00010000
00001000
00000100
00000001
00000000
,
00000220
00000000
00000000
00000000
,
00000330
00000000
00000000
00000000
,
00000001
00000000
00000100
00000000
00000010
00000000
00001000
00000000
00000100
00010000
00000000
00010000
00001000
00000000
00000000
01000000
,
00020000
00000000
00000000
00130000
00000000
00000000
02000000
00000000
00000000
13000000
00000000
00010000
00000000
00000000
01000000
00000000
,
00001000
00000000
00010000
00000000
00000100
00000000
00001000
00000010
00000000
00000100
00000000
00000001
00001000
00000000
00000100
00000000
,
00000010
00000000
00000000
00000100
00000000
00000000
00010000
00000000
00000000
00001000
00000000
00000000
00100000
00000000
01000000
00000000
,
10000000
00000000
00010000
00000000
01000000
00000000
00001000
00000000
00100000
00010000
00000000
00010000
01000000
00000000
00000000
00001000
,
00020000
00000000
00000000
00030100
00000000
00000000
00002000
00000000
00000000
00003010
00000000
00000100
00000000
00000000
00000001
00000000
,
00000010
00000000
00000100
00000000
00001000
00000000
00000010
00010000
00000000
00001000
00000000
00010000
00000100
00000000
00001000
00000000
,
00000020
00000000
00000000
00000230
00000000
00000000
00002300
00000000
00000000
00023000
00000000
00000000
00130000
00000000
01000000
00000000
,
01100000
00000000
00100000
00000000
10000000
00000000
00010000
00000000
10000000
01000000
00000000
01000000
00100000
00000000
00000000
00010000
,
02000000
00000000
00000000
03001000
00000000
00000000
00020000
00000000
00000000
00030100
00000000
00001000
00000000
00000000
00000010
00000000
,
00000100
00000000
00000001
00000000
00000010
00000000
00000100
00001000
00000000
00000010
00000000
00010000
00001000
00000000
00100000
00000000
,
00010000
00000000
00000000
01000000
00000000
00000000
00001000
00000000
00000000
00010000
00000000
00000000
01000000
00000000
10000000
00000000
,
00010000
00000000
01000000
00000000
00100000
00000000
10000000
00000000
00010000
00100000
00000000
00010000
01000000
00000000
00000000
00001000
,
00020000
00000000
00000000
00030100
00000000
00000000
00002000
00000000
00000000
00003010
00000000
00000100
00000000
00000000
00000001
00000000
,
00000010
00000000
00000100
00000000
00001000
00000000
00000010
00010000
00000000
00001000
00000000
00100000
00010000
00000000
01000000
00000000
,
00001000
00010000
00001000
00000000
00100000
00000000
00001000
00010000
00001000
00000000
01000000
00000000
01010000
00000000
00000000
00000000
,
10000000
00000000
00100000
10000000
00000000
10000000
01000000
00000000
00100000
00010000
00100000
00000000
00010000
00100000
00010000
00000000
,
01000000
00000000
00001000
00010000
00000000
00010000
00000100
00000000
00001000
00000010
00001000
00000000
00000010
00001000
00000010
00000000
,
00000100
00000000
00000001
00000010
00000000
00000010
00000100
00000000
00001000
00000010
00001000
00000000
00000010
00001000
00000010
00000000
,
00000100
00000000
00010000
00001000
00000000
00001000
01000000
00000000
00010000
00100000
00010000
00000000
00100000
00010000
00100000
00000000
,
01000000
00000000
00100000
10000000
00000000
10000000
01000000
00000000
00100000
00010000
00100000
00000000
00010000
00100000
00010000
00000000
,
01000000
00000000
00001000
00010000
00000000
00010000
00000100
00000000
00001000
00000010
00001000
00000000
00000010
00001000
00000010
00000000
,
00000100
00000000
00000001
00000010
00000000
00000010
00000100
00000000
00001000
00000001
00001000
00000000
00000001
00001000
00000001
00000000
,
00000100
00001000
00010000
00100000
01000000
00020000
00000000
00130000
,
01100000
00000000
01000000
10000000
00000000
01000000
00010000
00001000
,
00000010
00000100
00001000
00000010
00000100
00001000
00010000
00100000
,
01000000
10000000
10000000
01000000
00010000
00010000
00100000
01000000
,
00010000
00001000
00000010
00000100
00000010
00001000
00010000
00000010
,
00000110
00000000
00000100
00000001
00000000
00000010
00000100
00001000
,
00010000
00100000
01000000
10000000
01000000
00010000
00001000
01000000
,
01010000
00000000
00001000
00011000
00000000
00000100
00001000
00000010
,
00000200
00000000
00000000
00000000
00000000
00000000
00000000
00000000
00000000
00000000
00000000
00000000
00000000
00000000
00000000
00000000
00000000
00000000
00000000
00000000
00000000
00000000
00000000
00000000
00000000
00000000
00000000
00000000
00000000
00000000
00000000
00000000
00000000
00000000
00000000
00000000
00000000
00000000
00000000
00000000
00000000
00000000
00000000
00000000
00000000
00000000
00000000
00000000
00000000
00000000
00000000
00000000
00000000
00000000
00000000
00000000
00000000
00000000
00000000
00000000
00000000
00000000
00000000
00000000
00000000
00000000
00000000
00000000
00000000
00000000
00000000
00000000
00000000
00000000
00000000
00000000
00000000
00000000
00000000
00000000
00000000
00000000
00000000
00000000
00000000
00000000
00000000
00000000
00000000
00000000
00000000
00000300
00000000
00000000
00000000
00000000
,
00000010
00000000
00000000
00001001
00000000
00000000
00000001
00000000
00000100
00001000
00000000
00001000
00010000
00000000
00000000
00000000
,
00100000
00000000
01000000
00000000
00010000
00000000
00100000
01000000
00000000
01000000
10000000
00000000
01000000
00010000
01000000
00000000
,
00100000
00000000
00001000
00000000
00010000
00000000
00000010
00001000
00000000
00001000
00000100
00000000
00000010
00000001
00000010
00000001
,
00000100
00000000
00000010
00000000
00001000
00000000
00000100
00010000
00000000
00010000
00001000
00000000
01000000
00000000
00010000
00000000
,
00100000
01000000
00000000
01000000
10000000
00000000
00100000
00000000
00010000
00001000
00000000
00001000
00000010
00000100
00000010
00000001
,
00000100
00000000
00000001
00000000
00001000
00000000
00000010
00010000
00000000
00010000
00001000
00000000
00100000
00000000
00010000
00000000
,
01000000
00000000
00001000
00000000
00010000
00000000
01000000
00100000
00000000
00100000
00010000
00000000
01000000
00100000
01000000
10000000
,
01000000
00000000
00010000
00000000
10000000
00000000
01000000
00100000
00000000
00100000
00001000
00000000
00010000
00000000
00000010
00000000
,
00001010
00000000
00000000
00010100
00000000
00000000
01000000
00000000
00001000
00100000
00000000
00100000
00010000
01000000
00010000
01000000
,
10000000
00000000
00000000
00000000
;

//--------------- dance-double - forcednature ----------------
#NOTEDATA:;
#STEPSTYPE:dance-double;
#DESCRIPTION:forcednature;
#DIFFICULTY:Hard;
#METER:17;
#RADARVALUES:0,0,0,0,0;
#CREDIT:forcednature;
#NOTES:
00000000
00000000
00000000
00000000
,
00000000
00000000
00000000
00000000
,
00000000
00000000
00000000
00000000
,
00000000
00000000
00000000
00000000
,
00000000
00000000
00000000
00000000
,
00001000
00000000
01000000
00000000
00010000
00000000
00000000
00100000
00000000
00100000
01000000
00000000
10000000
00000000
00010000
01000000
,
00000000
00000000
00001000
00000000
00010000
00000000
00000000
00000100
00000000
00000100
00001000
00000000
00000010
00000000
00000100
00000001
,
00000000
00000000
00000010
00000000
00000100
00000000
00010000
00001000
00000000
00001000
01000000
00010000
01000000
00100000
10000000
01000000
,
00010000
00000000
00000000
00011000
00000000
00000000
00000010
00000100
00001000
00000100
00000001
00000100
00000010
00000000
00000000
00000000
,
00000110
00000000
00000000
00000000
00001000
00000000
00000000
00000001
00000000
00000100
00000001
00000100
00000001
00000000
00000000
00000000
,
00001000
00000000
00000010
00010000
00001000
00000000
00100000
00010000
00000000
01000000
00001000
01000000
00001000
00000000
00000000
00000000
,
00010000
00000000
01000000
00000000
10000000
00000000
00000000
00010000
00000000
00010000
01000000
00000000
00100000
10000000
00000000
00000000
,
01000000
00010000
00001000
00010000
00000010
00010000
00001000
00010000
00100000
00010000
00000000
00010000
00000100
00001000
00000100
00000010
,
00000001
00000000
00000100
00000000
00000101
00000000
00000001
00000010
00000000
00000100
00001000
00000010
00010000
00000000
00001000
00000000
,
00100000
00010000
00100000
01000000
00100000
10000000
00100000
01000000
00000000
00100000
00001000
00010000
00100000
00000000
00000000
00000000
,
01100000
00000000
00000000
00011000
00000000
00000000
00000010
00000100
00000000
00001000
00000100
00000001
00000100
00000000
00000000
00000000
,
00000110
00000000
00000000
00011000
00000000
00000000
00100000
00010000
01000000
00001000
00010000
01000000
10000000
00000000
00000000
00000000
,
00100000
00000000
00010000
00000000
00011000
00000000
00000000
00000010
00000000
00001000
00000100
00000010
00000001
00000000
00000100
00000000
,
00000010
00001000
00000001
00000010
00000100
00000000
00001000
00000001
00000000
00000100
00000010
00001000
00000100
00000000
00000000
00000000
,
00011000
00000000
00100000
00000000
00010000
00000000
01000000
00001000
00000000
00010000
01000000
00100000
01000000
10000000
00000000
00000000
,
01010000
00000000
01000000
00001000
00010000
00000000
00000100
00000000
00001000
00000010
00000000
00000100
00000001
00000010
00000100
00000010
,
00000100
00000000
00001000
00000010
00010000
00000000
00001000
00100000
00000000
00010000
01000000
00100000
10000000
00000000
00010000
00000000
,
10000000
01000000
00100000
00010000
01000000
00000000
00001000
00010000
00000000
00000100
00001000
00000010
00000100
00000000
00000000
00000000
,
00000001
00000000
00000010
00000001
00000100
00000000
00000010
00001000
00000100
00010000
00001000
00100000
01000000
00000000
00000000
00000000
,
20020000
00000000
00000000
00000000
,
30030000
00000000
00000000
00000000
00000000
00000000
10000000
01000000
00100000
00001000
00010000
00000100
00000010
00000001
00001000
00000000
,
00001001
00000000
00000001
00000000
00000100
00000000
00001000
00000000
00010000
00100000
00000000
01000000
00100000
00000000
00000000
00100000
,
10000000
00000000
00000000
01000000
00000000
00000000
00001000
00000000
00000000
00000010
00000000
00000100
00000000
00000000
00000001
00000000
,
00000010
00000000
00000100
00000000
00010000
00000000
00001000
00100000
00000000
01000000
00000000
00100000
00010000
00000000
01000000
00000000
,
00100000
00000000
00000000
10000000
00000000
00000000
00010000
00000000
00000000
00001000
00000000
00000000
00000010
00000000
00000100
00000000
,
00001000
00000000
00000100
00000000
00000001
00000000
00000010
00000000
00000100
00001000
00000000
00000100
00010000
00000000
00000000
00010000
,
00001000
00000000
00000000
00000010
00000000
00000000
00010000
00000000
00000000
01000000
00000000
00100000
00000000
00000000
10000000
00000000
,
01000000
00000000
01000000
00000000
00010000
00000000
00001000
00010000
00000000
00000010
00000000
00010000
00001000
00000000
00000010
00000000
,
00000100
00000000
00000000
00010000
00000000
00000000
00001000
01000000
00010000
01000000
00100000
01000000
00010000
00100000
01000000
00000000
,
01100000
00000000
00100000
00010000
10000000
00000000
00100000
10000000
00010000
10000000
01000000
00100000
00001000
00000000
00010000
00000010
,
00001000
00000000
00001000
00000100
00000000
00000100
00000001
00000000
00000001
00000100
00000000
00000100
00000010
00000000
00000001
00000000
,
00000100
00000010
00001000
00000000
00000100
00000000
00000010
00000100
00001000
00000100
00010000
00001000
01000000
00000000
10000000
00000000
,
00100000
00000000
00100000
01000000
00000000
01000000
10000000
00000000
10000000
01000000
00000000
01000000
00010000
00000000
00100000
00000000
,
01100000
00000000
01000000
00010000
00001000
00000000
00100000
00010000
01000000
00001000
00010000
00000100
00001000
00000000
00000010
00000000
,
00000100
00000000
00000100
00001000
00000000
00001000
00000100
00000000
00000100
00000001
00000000
00000001
00000010
00000000
00000100
00000000
,
00010000
00001000
00100000
00000000
01000000
00000000
00100000
00001000
00010000
00100000
01000000
00100000
10000000
00010000
10000000
01000000
,
00010000
00001000
00010000
00000000
00010000
00000000
00010000
00100000
00010000
00000000
00010000
00000000
00010100
00000000
00000000
00000000
,
01001000
00000000
01000000
00010000
00000000
00010000
00100000
00000000
01000000
10000000
01000000
00010000
00001000
00100000
00010000
00000000
,
01000000
00000000
00001000
00010000
00000000
00000100
00001000
00000000
00000010
00000100
00001000
00000100
00000001
00001000
00000010
00000000
,
00010000
00000000
00001000
00100000
00000000
01000000
00100000
00000000
00010000
01000000
10000000
01000000
00010000
10000000
00100000
00000000
,
10000000
01000000
10000000
00000000
00100000
00000000
00010000
00000000
00001000
00100000
00010000
00001000
00000100
00010000
00001000
00000000
,
00100000
00000000
00010000
01000000
00000000
00001000
00010000
00000000
00000100
00001000
00000100
00000010
00000100
00000001
00000100
00000000
,
00001000
00000000
00000010
00010000
00000000
00001000
00100000
00000000
00001000
00010000
00001000
01000000
00100000
00010000
00100000
00000000
,
10000000
00000000
01000000
00010000
00000000
00001000
00010000
00000000
00000100
00001000
00000010
00000001
00000010
00001000
00000100
00000000
,
00000110
00000000
00000010
00000000
00000001
00000000
00000100
00001000
00010000
00001000
00200000
00000000
00000000
00000000
01300000
00000000
,
01100000
00000000
00000000
00000000
00100000
00000000
10010000
00000000
00000000
00000000
10000000
00000000
01000000
00100000
01000000
00000000
,
00010000
00000000
00010000
00001000
00000010
00000000
00000100
00000000
00001000
00000010
00001000
00000000
00000001
00000000
00000100
00001000
,
00010000
00000000
00100000
01000000
00100000
01000000
00010000
00000000
00100000
01000000
00100000
01000000
10000000
00000000
00100000
00010000
,
00001000
00000000
00100000
00010000
01000000
00000000
10000000
01000000
00010000
00100000
01000000
00000000
00010000
00000000
00001000
00000010
,
00000100
00000000
00000010
00001001
00000000
00000001
00000100
00001000
,
00010000
00010000
00100000
10000000
01000000
00010000
00001000
00000010
,
00000120
00000000
00010030
01200000
00000000
00301000
00010000
00001000
,
00022000
00000000
00000000
00000000
00000000
00000000
00000000
00000000
00000000
00000000
00000000
00000000
00000000
00000000
00000000
00000000
00000000
00000000
00000000
00000000
00000000
00000000
00000000
00000000
00000000
00000000
00000000
00000000
00000000
00000000
00000000
00000000
00000000
00000000
00000000
00000000
00000000
00000000
00000000
00000000
00000000
00000000
00000000
00000000
00000000
00000000
00000000
00000000
00000000
00000000
00000000
00000000
00000000
00000000
00000000
00000000
00000000
00000000
00000000
00000000
00000000
00000000
00000000
00000000
00000000
00000000
00000000
00000000
00000000
00000000
00000000
00000000
00000000
00000000
00000000
00000000
00000000
00000000
00000000
00000000
00000000
00000000
00000000
00000000
00000000
00000000
00000000
00000000
00000000
00000000
00000000
00033000
00000000
00000000
00000000
00000000
,
01100000
00000000
00000000
00000000
00000000
00000000
00000000
00000000
00000000
00000000
00000000
00000000
00011000
00000000
00000000
00000000
00000000
00000000
00000000
00000000
00000000
00000000
00000000
00000000
00000010
00000000
00000000
00000000
00001000
00000000
00000000
00000000
00000110
00000000
00000000
00000000
00000001
00000000
00000000
00000000
00000000
00000000
00000000
00000000
00000100
00000000
00000000
00000000
00002001
00000000
00000000
00000000
00000000
00000000
00000000
00000000
00000000
00000000
00000000
00000000
00000000
00000000
00000000
00003000
,
00011000
00000000
00000000
00000000
01000000
00010000
01000000
10000000
01000000
00010000
00100000
01000000
00010000
00001000
00000010
00000000
,
00000100
00000000
00001000
00000010
00000001
00000010
00000100
00000001
00000000
00000010
00000100
00010000
00001000
01000000
00100000
10000000
,
00010000
00000000
00100000
10000000
00100000
00010000
01000000
00001000
00000000
00010000
00000100
00001000
00000010
00000001
00000010
00000000
,
00000100
00000000
00001000
00000000
00010000
00000000
00001000
00000000
00000000
01000000
00000000
00000000
00010000
00000000
00000000
00100000
00000000
00000000
10000000
00000000
00000000
00100000
00000000
00000000
00010000
00000000
00000000
01000000
00000000
00000000
00000000
00000000
00000000
00001000
00000000
00000000
00010000
00000000
00000000
00100000
00000000
00000000
00010000
00000000
00000000
00001000
00000000
00000000
,
00011000
00000000
00000100
00000000
00000010
00001000
00000010
00000001
00001000
00000010
00000100
00001000
00010000
00100000
01000000
00000000
,
10000000
01000000
00010000
10000000
00010000
00100000
01000000
00010000
00001000
00000010
00000001
00000100
00010000
00000100
00000010
00001000
,
00010000
00000000
01000000
00010000
00100000
10000000
00100000
01000000
10000000
00010000
01000000
00001000
00010000
00001000
00000010
00000000
,
00000110
00000000
00001000
00010000
00000000
00100000
01000000
00100000
01100000
10000000
00000000
00010000
01000000
00001000
00000100
00001000
,
00011000
00000000
00000000
00000000
;

//--------------- dance-double - forcednature ----------------
#NOTEDATA:;
#STEPSTYPE:dance-double;
#DESCRIPTION:forcednature;
#DIFFICULTY:Challenge;
#METER:18;
#RADARVALUES:0,0,0,0,0;
#CREDIT:forcednature;
#NOTES:
00000000
00000000
00000000
00000000
,
00000000
00000000
00000000
00000000
,
00000000
00000000
00000000
00000000
,
00000000
00000000
00000000
00000000
,
00000000
00000000
00000000
00000000
,
00001000
00010000
00000100
00001000
00000100
00000000
00010000
00001000
00000000
00100000
00010000
00000000
10000000
00000000
00100000
00000000
,
10000000
01000000
00100000
00010000
01000000
00000000
00001000
00010000
00000000
00000010
00001000
00000000
00000001
00000000
00000000
00000000
,
00000010
00000000
00000100
00000000
00001000
00000000
00000100
00000000
00010000
00000000
00000000
00000000
00001000
00000000
01000000
00000000
00000000
00000000
00010000
00000000
10000000
00000000
00100000
00000000
01000000
00000000
00100000
00000000
10000000
00000000
00010000
00100000
,
01000000
00000000
00000000
01100000
00000000
00000000
00100000
00001000
00000010
00000100
00000000
00001000
00001002
00000000
00000000
00000000
,
00000103
00000000
00001000
00010000
00100000
00000000
01000000
00010000
00000000
00010000
00100000
01000000
10000000
00000000
01000000
00000000
,
00010000
00001000
00100000
00001000
00010000
00000100
00001000
00000100
00000000
00000010
00000001
00001000
00000001
00000100
00000000
00001000
,
00010000
00000000
00100000
01000000
00010000
10000000
00000000
01000000
00000000
00010000
00001000
00010000
00000010
00001000
00000001
00000000
,
00000100
00001000
00000100
00001000
00010000
00100000
00010000
00100000
10000000
01000000
00000000
01000000
00010000
00001000
00010000
00001000
,
00011000
00000000
00010000
00001000
00000010
00000000
00000001
00000010
00000000
00000001
00000100
00001000
00010000
00100000
20000000
00000000
,
30010000
00000000
00100000
00000000
01000000
00000000
00010000
00000000
00001000
00000000
00000010
00000000
00000100
00000000
00001000
00000000
00000000
00000000
00000001
00000000
00000010
00000000
00000100
00001000
00000002
00000000
00000000
00000000
00000000
00000000
00000003
00000000
,
00000110
00000000
00000001
00000100
00001000
00000000
00010000
00100000
00000000
00010000
00001000
01000000
00010000
00000000
00100000
00000000
,
01100000
00000000
00100000
10010000
00000000
10000000
01000000
00010000
00001000
00011000
00000000
00000010
00001000
00000001
00000100
00000010
,
00001001
00000000
00000001
00000010
00001000
00000000
00010000
00001000
00000000
00010000
00100000
10000000
00100000
00000000
10000000
00000000
,
01000000
00010000
00001000
00010000
00000010
00000100
00001000
00010000
00000000
00001000
00000100
00000010
00002000
00000001
00000000
00003100
,
00001000
00000000
00000001
00000100
00001000
00010000
00000000
00011000
00000000
00001000
00010000
00100000
10000000
00100000
01000000
00000000
,
10010000
00000000
10000000
01000000
00010000
00000000
00001000
00010000
01000000
00010000
00000000
00010000
00001000
00000010
00000100
00001000
,
00000001
00000000
00000100
00001000
00010000
00001000
01000000
00010000
00000000
00100000
01000000
10000000
00200000
00000000
01000000
00300000
,
10010000
00000000
00010000
01000000
00001000
00010000
00001000
00100000
00000000
00010000
00100000
01000000
20000000
00010000
00000000
00000000
,
30100000
01000000
00010000
01000000
00001000
00010000
00000100
00001000
00000100
00010000
00001000
00000010
00000001
00000000
00000000
00000000
,
00002002
00000000
00000000
00000000
,
00003003
00000000
00000000
00000000
00000000
00000000
00001000
00000100
00010000
00001000
00100000
00010000
01000000
00100000
10000000
00000000
,
22000000
00000000
00000000
30000000
,
00020000
00000000
00000000
03000000
00000000
00000000
00002000
00000000
00000000
00030000
00000000
00000000
00000020
00000000
00000000
00000000
,
00000000
00000000
00000000
00003000
,
00000002
00000000
00000030
00000000
00000000
00000000
00000200
00000000
00000000
00000003
00000000
00000000
00002000
00000000
00000000
00000000
,
00000000
00000000
00000000
00000000
00000000
00000000
00000000
00000000
00000000
00000000
00000000
00000000
00000000
00000300
00000000
00000000
,
00020000
00000000
00000000
00003000
00000000
00000000
00200000
00000000
00000000
00030000
00000000
00000000
20000000
00000000
00000000
00000000
,
00000000
00000000
00300000
30000000
,
10000000
00000000
00000000
01000000
00000000
00000000
00010000
00001000
00010000
00000100
00001000
00000100
00000010
00000001
00000100
00000000
,
00001000
00000000
00000100
00000000
00000001
00000000
00001000
00000000
00000010
00010000
00000000
00001000
00010000
00000000
01000000
00000000
,
10000000
00000000
10000000
00100000
00000000
00100000
01000000
00000000
01000000
00001000
00000000
00001000
00010000
00000000
00000010
00000000
,
00000100
00000000
00001000
00000000
00000100
00000000
00000001
00000010
00000000
00000100
00000000
00000010
00000100
00000000
00010000
00000000
,
00001000
00000000
00001000
00100000
00000000
00100000
00010000
00000000
00010000
10000000
00000000
10000000
00100000
00000000
01000000
00000000
,
10000000
00000000
01000000
00000000
00010000
00000000
00100000
00000000
00001000
00010000
00000000
00001000
00000010
00000000
00000001
00000000
,
00000100
00000000
00000100
00001000
00000000
00001000
00010000
00000000
00010000
00100000
00000000
00100000
10000000
00000000
01000000
00000000
,
00010000
00000000
00001000
00000000
00100000
00000000
00001000
00000010
00000000
00000100
00000000
00001000
00000001
00000000
00000100
00000000
,
00001000
00000000
00001000
00000000
00010000
00100000
10000000
00000000
,
10000000
01000000
10000000
01000000
00100000
00010000
00100000
00001000
00010000
00000100
00001000
00000100
00000010
00000001
00001000
00000000
,
00000001
00000100
00000001
00000100
00000010
00001000
00000010
00010000
00001000
01000000
00010000
01000000
00100000
10000000
00010000
00000000
,
00100000
01000000
00100000
01000000
10000000
00010000
10000000
00010000
00100000
00001000
00010000
00000100
00000010
00000001
00001000
00000000
,
00000010
00000100
00000010
00000100
00000001
00001000
00000001
00001000
00000010
00010000
00001000
01000000
00100000
10000000
00010000
00000000
,
10000000
01000000
10000000
01000000
00010000
01000000
00010000
01000000
00100000
00001000
00010000
00000100
00010000
00001000
00000010
00000000
,
00000001
00000100
00000001
00000100
00001000
00000100
00001000
00000100
00000010
00010000
00001000
01000000
00001000
00010000
00100000
00000000
,
10000000
00100000
10000000
00100000
00010000
00100000
00010000
00100000
01000000
00001000
00010000
00000010
00010000
00001000
00000010
00000000
,
00000110
00000000
00000001
00000100
00001000
00020000
00000000
00130000
,
01100000
00000000
01000000
10010000
00000000
10000000
00000000
10000000
,
01000000
00010000
00001000
00010000
00001000
00000010
00000001
00001000
,
00000001
00000000
00000100
00001000
00010000
01000000
00010000
00001000
,
00100000
01000000
00010000
00001000
00000010
00000100
00000000
00000010
,
00001001
00000000
00000001
00000100
00000000
00001000
00000100
00000001
,
00000010
00001000
00010000
01000000
00200000
00000000
00000000
00300000
,
01100000
00000000
10000000
00010000
00000000
00011000
00000000
00000010
,
00002002
00000000
00000000
00000000
00000000
00000000
00000000
00000000
00000000
00000000
00000000
00000000
00000000
00000000
00000000
00000000
00000000
00000000
00000000
00000000
00000000
00000000
00000000
00000000
00000000
00000000
00000000
00000000
00000000
00000000
00000000
00000000
00000000
00000000
00000000
00000000
00000000
00000000
00000000
00000000
00000000
00000000
00000000
00000000
00000000
00000000
00000000
00000000
00000000
00000000
00000000
00000000
00000000
00000000
00000000
00000000
00000000
00000000
00000000
00000000
00000000
00000000
00000000
00000000
00000000
00000000
00000000
00000000
00000000
00000000
00000000
00000000
00000000
00000000
00000000
00000000
00000000
00000000
00000000
00000000
00000000
00000000
00000000
00000000
00000000
00000000
00000000
00000000
00000000
00000000
00000000
00003003
00000000
00000000
00000000
00000000
,
00000101
00000000
00000000
00011000
00000000
00000000
00100000
01000000
00010000
00001000
00000000
00100000
02000000
00000000
00000000
00000000
,
13000000
00100000
10000000
01000000
00010000
00010000
00010000
00010000
00001000
00001000
00001000
00001000
00000010
00000001
00000100
00000000
,
00000010
00001000
00000001
00000010
00001000
00001000
00001000
00001000
00010000
00010000
00010000
00010000
02000000
23000000
30200000
20300000
,
31000000
00010000
00001000
00100000
00001000
00001000
00001000
00001000
00010000
00010000
00010000
00010000
00000010
00001000
00000001
00000000
,
00000010
00000000
00001000
00000000
00010000
00000000
00001000
00000000
00000000
00010000
00000000
00000000
01000000
00000000
00000000
10000000
00000000
00000000
00010000
00000000
00000000
10000000
00000000
00000000
00100000
00000000
00000000
01100000
00000000
00000000
00000000
00000000
00000000
01000000
00000000
00000000
10000000
00000000
00000000
00010000
00000000
00000000
00001000
00000000
00000000
00000001
00000000
00000000
,
00001001
00000000
00000000
00000000
00001000
00000000
00000010
00000000
00001000
00000000
00000100
00001000
00000100
00000000
00010000
00000000
00001000
00000000
00010000
00001000
00010000
00000000
00001000
00000000
01000000
00000000
00010000
01000000
00010000
00000000
00000000
00000000
,
00100000
00000000
01000000
00000000
00010000
00000000
01000000
00000000
10000000
00000000
00100000
10000000
00100000
00000000
10000000
00000000
00010000
00000000
01000000
00010000
01000000
00001000
00010000
00001000
00200000
00000000
02300000
00000000
03020000
00000000
00032000
00000000
,
00103000
00000000
00000000
00000000
00001000
00000000
00000010
00000000
00000001
00000000
00000100
00000001
00000100
00000000
00000001
00000000
00000010
00000000
00001000
00000010
00001000
00000000
00000010
00000000
00001000
00000000
00010000
00001000
00010000
00000000
00000000
00000000
,
00110000
00000000
00100000
00000000
00001000
00000000
00010100
00000000
00000000
00000000
00001000
00000000
00001010
00000000
00000010
00000000
00010000
00000000
01001000
00000000
00000000
00000000
01000000
00000000
00010000
10000000
01000000
10000000
00010000
00100000
01000000
10000000
,
00100000
00000000
00000000
00000000
;
