#VERSION:0.83;
#TITLE:Critical Crystal;
#SUBTITLE:;
#ARTIST:青龍;
#TITLETRANSLIT:;
#SUBTITLETRANSLIT:;
#ARTISTTRANSLIT:Seiryu;
#GENRE:DANCE SPEED;
#CREDIT:;
#MUSIC:Critical Crystal.ogg;
#BANNER:Critical Crystal.png;
#BACKGROUND:Critical Crystal-bg.png;
#CDTITLE:./CDTitles/bm IIDX 21 SPADA.png;
#SAMPLESTART:79.649;
#SAMPLELENGTH:15.000;
#SELECTABLE:YES;
#OFFSET:0.757;
#BPMS:0.000=191.000;
#STOPS:;
#TIMESIGNATURES:0.000=4=4;
#BGCHANGES:0.000=Critical Crystal.mp4=1.000=0=0=0=StretchNoLoop====,
99999.000=-nosongbg-=1.000=0=0=0=StretchNoLoop====
;
#FGCHANGES:;

//--------------- dance-single - forcednature ----------------
#NOTEDATA:;
#STEPSTYPE:dance-single;
#DESCRIPTION:forcednature;
#DIFFICULTY:Beginner;
#METER:6;
#RADARVALUES:0,0,0,0,0;
#CREDIT:forcednature;
#NOTES:
0000
0000
0000
0000
,
0000
0000
0000
0000
,
0000
0000
0000
0000
,
1001
0000
1000
0000
,
0100
0000
1000
0000
,
0001
0000
0000
0000
,
0100
0000
0001
0000
,
1001
0000
1000
0000
,
0100
0000
1000
0000
,
0010
0100
0010
0000
,
2000
0000
3001
0000
,
1001
0000
0000
0000
,
0001
0000
0010
0000
,
0001
0000
0000
0000
,
1000
0000
0010
0000
,
1001
0000
0000
0000
,
1000
0000
0100
0000
,
0010
0000
0001
0000
,
0200
0000
0310
0000
,
1001
0000
0001
0000
,
1000
0010
1000
0000
,
0001
0000
0010
0000
,
0100
1000
0100
0000
,
0110
0000
0010
0000
,
0001
0100
0001
0000
,
1000
0000
0010
0000
,
1000
0100
1000
0000
,
1001
0000
0001
0000
,
0000
0100
0001
0000
,
1000
0000
0010
0000
,
0000
1000
0100
0000
,
0110
0000
0010
0000
,
1001
0000
0100
0000
,
1001
0000
0010
0000
,
0200
0000
0000
0300
,
2002
0000
0000
0000
,
3003
0000
0000
0000
,
2000
0000
0000
0000
,
3000
0000
0000
0000
,
0200
0000
0000
0000
,
0300
0000
0000
0000
,
0020
0000
0000
0000
,
0030
0000
0000
0000
,
0002
0000
0000
0000
,
0000
0000
0000
0000
,
0000
0000
0003
0000
,
0100
0000
0001
0000
,
0100
0000
0000
0000
,
0010
0000
1000
0000
,
0010
0000
0000
0000
,
1000
0000
0100
0000
,
1000
0000
0000
0000
,
0001
0000
0010
0000
,
0001
0000
0000
0000
,
0100
0100
0100
0000
,
0010
0010
0010
0000
,
1000
1000
1000
0000
,
0001
0000
0010
0000
,
0110
0000
1000
0000
,
0001
0000
0100
0000
,
0010
0010
1000
1000
,
0001
0010
0001
0010
,
0100
0000
1000
0000
,
0002
0000
0000
0003
,
0100
0001
0100
0001
,
0100
0000
0010
0000
,
1000
0100
1000
0100
,
1000
0000
0001
0000
,
0010
0100
0010
0100
,
0010
0000
0001
0000
,
0100
0100
0100
0100
,
0010
0000
1000
0000
,
0001
0000
0010
0000
,
0100
1000
0100
0000
,
1000
0000
0010
0000
,
0100
0001
0100
0000
,
1001
0000
0001
0000
,
0010
0100
0010
0000
,
0100
0100
0100
0000
,
1000
0001
0100
0000
,
0020
0000
0000
0000
,
0030
0000
0000
0000
,
2000
0000
0000
0000
,
3000
0000
0000
0000
,
0002
0000
0000
0000
,
0003
0000
0000
0000
,
0020
0000
0000
0000
,
0030
0000
0000
0000
,
0200
0000
0000
0000
,
0300
0000
0000
0000
;

//--------------- dance-single - forcednature ----------------
#NOTEDATA:;
#STEPSTYPE:dance-single;
#DESCRIPTION:forcednature;
#DIFFICULTY:Easy;
#METER:10;
#RADARVALUES:0,0,0,0,0;
#CREDIT:forcednature;
#NOTES:
0000
0000
0000
0000
,
0000
0000
0000
0000
,
0000
0000
0000
0000
,
1001
0001
0100
0100
,
0001
0000
1000
0000
0100
0010
0100
0000
,
1000
1000
1000
0000
0001
0000
0100
0000
,
0010
0010
1000
0001
,
1001
0000
0001
0000
1000
0100
1000
0000
,
0001
0000
0010
0000
0001
0100
0001
0000
,
0010
0000
0100
0000
1000
0001
1000
0000
,
0020
0100
1030
0001
,
0010
0100
0000
0010
,
0001
1000
0001
0100
,
0010
0100
0000
0010
,
1000
0001
1000
0100
,
0110
0000
0010
0001
,
0100
0001
1000
0010
,
1000
1000
0000
0100
,
2000
0010
0001
3100
,
1000
0000
0001
0100
0000
0001
0010
0000
,
0100
0000
1000
0000
0100
0010
0100
0000
,
1000
0000
0001
0010
0000
0001
0100
0000
,
0010
0000
1000
0000
0100
0010
0100
0000
,
1000
0000
0001
0010
0000
0001
0100
0000
,
0010
0000
1000
0000
0001
0010
0001
0000
,
0100
0000
0010
1000
0000
0100
1000
0000
,
0002
0100
1000
0013
,
0001
1000
0010
1000
,
0000
0000
0100
0000
0100
0000
0010
0001
,
0010
0010
0100
1000
,
0000
0000
0001
0000
0100
0000
0010
1000
,
0010
0100
0001
1000
,
0100
0000
0000
0000
0010
0000
0001
0010
,
0001
0100
0010
1000
,
0000
0100
0000
0100
0000
1000
0000
0000
,
0002
0000
0000
0203
,
0000
0000
0000
0300
,
0020
0000
0000
2030
,
0000
0000
0000
3000
,
0002
0000
0000
0023
,
0000
0000
0000
0030
,
0200
0000
0000
2300
,
0000
0000
0000
3000
,
0020
0000
0000
0000
,
0000
0000
0000
0000
,
0000
0000
0030
0000
,
1000
0100
1000
0000
,
0001
0010
0001
0100
,
0001
0010
0001
0000
,
1000
0010
1000
0100
,
1000
0010
1000
0000
,
0001
0100
0001
0010
,
0001
0100
0001
0000
,
1000
0100
1000
0010
,
0100
0010
0100
0000
0001
0000
1000
0000
,
0100
0010
0100
0000
1000
0000
0001
0000
,
0010
0100
0010
0000
0001
0000
1000
0000
,
0010
0000
0100
0001
0100
0000
0010
0000
,
1000
0100
1000
0010
,
0100
0001
0010
0000
,
0001
0100
0001
0000
1000
0100
1000
0000
,
0001
0010
0001
0010
0100
1000
0100
1000
,
0010
0000
0100
0000
0001
1000
0001
0000
,
0020
0000
0130
1001
,
1000
0100
1000
0000
0001
0100
0001
0000
,
0010
0100
1000
0001
,
0100
0010
0100
0000
0001
1000
0001
0000
,
0010
0100
1000
0010
,
0100
0001
0100
0000
0010
1000
0010
0000
,
0100
0001
1000
0100
,
0010
0001
0010
0000
0010
0100
0010
0000
,
0001
0000
1000
0000
0010
0100
0010
0000
,
1000
0000
0100
0010
0000
0100
1000
0000
,
0001
0100
1000
0100
,
0001
0000
0010
0100
0000
0010
0001
0000
,
1000
0010
0001
0010
,
0110
0000
0100
0001
0000
0010
0001
0000
,
1000
0010
1000
0100
,
0010
0001
0010
0000
0100
1000
0100
0000
,
1000
0000
0010
0000
0100
0001
0100
0001
,
2000
0000
0000
3200
,
0000
0000
0000
0300
,
0020
0000
0000
0032
,
0000
0000
0000
0003
,
0200
0000
0000
0320
,
0000
0000
0000
0030
,
2000
0000
0000
3002
,
0000
0000
0000
0003
,
0010
0000
0100
0000
1000
0000
0000
0001
,
0000
0001
0000
0001
0000
0000
0000
0000
;

//--------------- dance-single - forcednature ----------------
#NOTEDATA:;
#STEPSTYPE:dance-single;
#DESCRIPTION:forcednature;
#DIFFICULTY:Medium;
#METER:14;
#RADARVALUES:0,0,0,0,0;
#CREDIT:forcednature;
#NOTES:
0000
0000
0000
0000
,
0000
0000
0000
0000
,
0000
0000
0000
0000
,
1100
0000
0100
0000
0010
0001
0100
0001
,
0010
0000
0000
0000
0100
0000
0000
0000
1000
0000
0001
0000
0100
0001
0100
0000
,
0010
0000
0010
0000
0010
0000
1000
0001
0000
0000
0010
0000
0100
0000
1000
0000
,
0001
0001
0100
0000
0010
0001
0010
1000
,
0100
0000
0000
1000
0000
0000
0001
0000
0100
0000
0100
0000
0010
0000
0010
0000
,
1000
0000
0000
0001
0000
0000
0010
0000
0100
0000
1000
0000
0001
0100
0001
0000
,
1000
0100
0010
0002
0000
0103
0001
0000
,
0200
0000
0320
0000
1030
0100
0001
0000
,
0100
1000
0010
1000
0000
0001
0010
0001
,
0100
0010
1000
0001
0010
0100
0010
0001
,
1000
0010
1000
0100
0000
1000
0001
0100
,
0010
1000
0100
1000
0001
0010
0001
0100
,
0010
1000
0001
0010
0000
0100
0010
0001
,
1000
0100
0010
0100
1000
0001
0100
0001
,
1000
1000
0010
0000
0110
0000
0001
0000
,
1000
0100
0010
0001
0200
0000
1300
0100
,
0001
0010
0001
0100
0010
1000
0001
0010
,
0100
0001
0100
1000
0010
1000
0001
0010
,
0001
0100
0010
1000
0100
0010
0100
1000
,
0010
0100
1000
0100
0001
0010
0001
1000
,
0010
0100
0001
0010
0100
0001
0100
1000
,
0001
0010
0001
1000
0010
0100
1000
0100
,
0001
0010
0001
0100
0010
1000
0001
1000
,
0100
0100
0010
0000
0001
1000
0010
0100
,
0001
0000
0001
0000
0100
0001
1000
0010
,
0000
0000
0010
0000
1000
0000
0100
0000
0010
0000
0001
0000
0100
0001
0100
0001
,
0100
0000
0100
0000
0010
1000
0001
1000
,
0000
0000
0100
0000
0010
0000
0001
0000
1000
0000
0100
0000
1000
0010
1000
0010
,
2000
0000
3001
0000
0010
0100
0010
0001
,
2000
0000
0000
0000
3001
0000
0000
0000
0100
0000
0010
0000
1000
0001
1000
0001
,
1000
0100
1000
0000
0001
0100
0001
0010
,
0000
0200
0000
0001
0000
0010
0000
1300
,
0100
0000
0010
0001
0010
0000
0100
1000
,
0000
0001
0000
0100
0000
0010
1000
0000
,
0001
0000
0010
0001
0010
0000
0100
1000
,
0000
0001
0000
0100
0000
0010
1000
0000
,
0001
0000
0010
0100
0010
0000
0001
1000
,
0000
0100
0000
1000
0000
0010
0100
0000
,
0001
0000
0010
0100
0010
0000
0001
1000
,
0000
0010
0000
1000
0000
0100
1000
0000
,
0001
0000
0100
0010
0100
0000
0001
1000
,
0000
1000
0000
2000
0000
0000
0000
0000
,
0000
0000
3000
0000
,
1100
0000
0000
0000
0011
0000
0000
0000
0001
0000
0000
0100
0000
0000
0010
0000
,
1000
0000
0000
0000
0001
0000
0000
0000
0010
0000
0000
0001
0000
0000
0100
0000
,
0010
0000
0000
0000
1000
0000
0000
0000
0001
0000
0000
0010
0000
0000
0100
0000
,
1000
0000
0000
0000
0001
0000
0000
0000
0100
0000
0000
0001
0000
0000
0010
0000
,
0100
0000
0000
0000
1000
0000
0000
0000
0010
0000
0000
0100
0000
0000
0001
0000
,
1000
0000
0000
0000
0100
0000
0000
0000
1000
0000
0000
0001
0000
0000
0100
0000
,
0010
0000
0000
0000
1000
0000
0000
0000
0001
0000
0000
0010
0000
0000
0100
0000
,
0010
0000
0000
0000
0001
0000
0000
0000
2000
0000
0000
0010
0000
0000
0000
0000
,
3100
1000
0100
1000
0010
0000
1000
0001
,
0100
0001
0100
0001
0010
0000
0100
1000
,
0001
0100
0001
0100
0010
0000
1000
0001
,
0010
0000
0100
0100
1000
0000
0010
0010
,
0100
0001
0010
0001
0100
0001
0010
0001
,
1000
0100
1000
0010
1000
0100
1000
0000
,
0001
0001
0100
0100
0010
0010
1000
1000
,
0001
0010
0100
1000
0100
0010
0001
1000
,
0010
0010
0100
0000
0110
0000
0001
1000
,
0200
0001
2300
3010
,
1000
0100
1000
0000
0001
0010
0001
0000
1000
0000
0010
0000
0100
0000
0100
0000
,
0001
0000
0000
0000
0010
0000
0100
0000
0010
0000
0000
0001
0000
0000
1000
0000
,
0001
0100
0001
0000
1000
0010
1000
0000
0100
0000
1000
0000
0010
0000
0010
0000
,
0100
0000
0000
0000
0001
0000
0000
0000
0010
0100
0000
0010
0000
0000
0001
0000
,
0100
0001
0100
0000
0010
1000
0010
0000
1000
0000
0100
0000
0010
0000
0010
0000
,
0001
0000
0000
0000
0100
0000
0010
0000
1000
0000
0000
0001
0000
0000
0010
0000
,
0001
0001
0100
0100
0010
0010
1000
1000
,
0100
0100
0020
0000
0031
0001
0100
0010
,
1000
0100
1000
0001
0000
0100
1000
0100
,
0010
0100
0001
1000
0001
0010
0100
0010
,
1000
0010
0001
1000
0000
0001
0100
0010
,
1000
0100
0010
1000
0010
0001
1000
0001
,
0100
0100
1000
1000
,
0100
0100
0001
0001
,
1000
0100
1000
0000
0001
0000
0010
0000
0001
0100
0001
0000
1000
0000
0010
0000
,
0100
0100
0002
0000
0013
0100
1000
0001
,
0200
0000
0000
0302
,
0000
0000
0000
0003
,
0020
0000
0000
0230
,
0000
0000
0000
0300
,
2000
0000
0000
3020
,
0000
0000
0000
0030
,
0200
0000
0000
0302
,
0000
0000
0000
0000
0000
0013
0001
1000
,
0010
0000
0010
0100
0001
1000
0100
0010
,
0000
0010
0000
0010
0000
0000
0000
0000
;

//--------------- dance-single - forcednature ----------------
#NOTEDATA:;
#STEPSTYPE:dance-single;
#DESCRIPTION:forcednature;
#DIFFICULTY:Hard;
#METER:17;
#RADARVALUES:0,0,0,0,0;
#CREDIT:forcednature;
#NOTES:
0000
0000
0000
0000
,
0000
0000
0000
0000
,
0000
0000
0000
0000
,
1000
0000
0001
0010
0000
0001
0100
0000
0010
0000
0010
0000
1000
0000
0001
0000
,
0010
0000
0100
1000
0000
0100
0010
0000
0001
0000
0001
0000
0100
0001
0100
0001
,
1000
0000
1000
0000
0010
0000
0100
0100
0000
0001
1000
0100
0010
0000
0001
0000
,
0100
0000
0100
0000
0010
0000
1000
0001
0010
0000
0010
0000
0100
0000
1000
0000
,
1010
0000
0010
0100
0000
0001
0100
0000
0001
0000
0011
0000
1000
0000
1010
0000
,
0001
0000
0100
0010
0000
0100
0001
0000
1000
0000
1100
0000
0100
0010
0100
0010
,
0001
0000
0100
0010
1000
0000
0001
0010
0100
0000
0010
0001
1000
0000
0010
0000
,
0100
0001
0100
0001
1000
0100
0010
0001
0200
0000
0010
0000
0302
0000
0000
0000
,
1003
0100
1000
0010
0000
0100
1000
0100
,
0001
0010
0001
1000
0010
0100
0001
1000
,
0100
0001
0100
1000
0000
0001
0010
0001
,
0100
0010
1000
0010
0100
0001
1000
0100
,
0110
0000
0010
0000
0001
0100
0001
1000
,
0010
1000
0001
0010
0001
1000
0100
1000
,
0010
0000
0010
0000
0100
0001
0100
0001
1000
0000
0100
0000
1000
0000
0010
0000
,
0200
1000
0010
0001
0320
0000
0130
0100
,
0101
0000
0001
0010
0001
0000
1000
0000
0100
0000
0010
0001
0010
0000
0100
0010
,
0100
0000
1000
0100
1000
0000
0010
1000
0010
0000
0100
0001
1000
0000
0100
0000
,
0010
0000
0001
0100
0001
0000
1000
0000
0010
0000
0100
0001
0100
0000
0001
0010
,
0001
0100
1000
0001
0010
1000
0001
0010
,
0110
0000
0100
1000
0100
0000
0010
0000
0001
0000
1000
0010
1000
0000
0010
0100
,
0010
0000
0100
0001
0100
0000
0001
1000
0001
0000
0010
0001
0010
0000
0100
0000
,
1000
0000
0001
0010
0001
0000
0100
0000
0010
0000
1000
0100
1000
0000
0010
0100
,
0010
0000
0010
0000
0100
0001
0010
0001
2000
0000
3020
0000
0230
0000
0302
0000
,
0013
0010
0010
0100
0010
0001
1000
0010
,
0000
0000
0010
0000
0010
0000
0100
0000
2000
0000
3200
0000
0310
1000
0010
1000
,
0001
0001
0001
0010
0100
1000
0001
0100
,
0000
0000
0010
0000
0010
0000
1000
0000
0001
0010
0100
0000
1000
0001
1000
0001
,
0100
0100
0100
0010
1000
0100
1000
0001
,
0101
0000
0100
0000
0100
0000
0010
0000
1000
0000
0001
0000
0010
0100
0010
0100
,
1000
1000
1000
0010
0100
1000
0100
0002
,
0000
0010
0000
0100
0000
1000
0000
0013
,
1001
0000
0001
0100
0010
1000
0001
0010
,
0000
0010
0000
0010
0000
0100
1000
0001
,
0100
0000
0010
1000
0001
1000
0100
0010
,
0000
0010
0000
0010
0000
0001
1000
0010
,
0100
0000
0001
1000
0100
1000
0001
0100
,
0000
0100
0000
0100
0000
0010
1000
0001
,
0010
0000
0010
0001
1000
0010
1000
0100
,
0000
0100
0000
0100
0000
0010
0001
1000
,
0010
0000
0100
0001
1000
0001
0010
0100
,
0000
0100
0000
0200
0000
0000
0000
0000
,
0000
0000
0300
0000
,
1000
0000
0010
0000
1000
0000
0000
0000
0001
0010
0000
0001
0000
0100
0001
0000
,
1000
0000
0000
0000
0010
0000
0000
0000
1000
0000
0000
0001
0000
0000
0010
0000
,
0100
0000
1000
0000
0001
0000
0000
0000
0100
0010
0000
0100
0000
0001
1000
0000
,
0010
0000
0000
0000
1000
0000
0000
0000
0100
0000
0000
0010
0000
0000
0001
0000
,
1000
0000
0010
0000
1000
0000
0000
0000
0001
0010
0000
0001
0000
0100
0010
0000
,
1000
0000
0000
0000
0001
0000
0000
0000
0010
0000
0000
0100
0000
0000
1000
0000
,
0001
0000
0100
0000
0001
0000
0000
0000
1000
0010
0000
1000
0000
0001
0010
0000
,
0100
0000
0000
0000
1000
0000
0000
0000
0001
0000
0000
0100
0000
0000
0010
0000
,
1000
0000
0100
0000
0001
0000
0100
0000
0010
0001
0000
1000
0001
0100
0001
0100
,
0010
0000
0001
0000
0010
0000
1000
0000
0100
0010
0000
0001
0000
0100
0010
0000
,
1000
0000
0100
0000
0001
0000
0100
0000
0010
0001
0000
1000
0001
0100
0001
0100
,
0010
0000
0000
0000
1000
0000
1000
0000
0001
0010
0100
1000
0010
0000
0010
0000
,
0100
0001
0100
1000
0001
0010
1000
0010
,
1000
0100
0001
0100
0010
0010
0010
0000
,
0001
0100
0001
0100
0010
1000
0010
0000
1000
0100
1000
0100
0010
0001
0010
0000
,
0001
1000
0001
1000
0100
0010
0100
0010
0001
1000
0010
0100
0001
1000
0001
0000
,
0010
0000
0100
0000
0010
0001
0010
0001
1000
0000
0001
0100
0010
0000
1000
0000
,
0002
0100
2003
3010
,
1000
0100
0010
0000
0001
0010
0001
0000
1000
0010
0100
0010
1000
0001
0010
0001
,
0100
0010
1000
0000
0100
0010
0001
1000
0010
0000
0100
0001
0000
0010
0001
0000
,
1000
0001
0010
0000
0001
0100
0001
0000
1000
0100
0010
0100
1000
0001
0100
0001
,
0010
0100
1000
0000
0010
0100
0001
0000
1000
0010
0100
0001
0000
1000
0100
0000
,
0010
0001
1000
0000
0010
1000
0010
0000
0100
0001
0010
0001
1000
0001
0010
0001
,
1000
0010
0100
0000
0010
1000
0001
1000
0100
0000
0010
0001
0000
1000
0010
0000
,
0100
0001
0100
0001
1000
0100
1000
0100
0010
0001
0010
0001
1000
0010
1000
0010
,
0100
0000
0100
0000
0001
0010
0100
1000
0020
0000
0001
0000
0100
0000
1000
0000
,
0130
0001
1000
0001
0010
0000
0001
0000
1000
0000
0010
0100
1000
0000
1000
0100
,
0001
0000
0001
0010
0100
0000
0100
1000
0001
0000
0100
0010
1000
0000
0001
0000
,
0010
0001
0100
0001
1000
0000
0010
0000
0100
0000
1000
0100
0001
0000
0001
0010
,
0100
0000
0100
1000
0010
0000
0010
0100
1000
0000
0100
0001
1000
0000
0010
1000
,
0001
0001
0010
0010
0100
0100
1000
1000
,
0001
0001
0100
0100
0010
0010
1000
1000
,
0100
1000
0010
1000
0100
0000
0010
0000
0001
0100
0010
0100
1000
0000
0100
0000
,
0001
0001
0020
1000
0031
0011
0110
1100
,
1001
0000
0100
0001
1000
0010
1000
0100
,
0000
0100
0000
0100
0000
0010
0001
1000
,
0010
0000
0010
0100
0001
0010
0001
0100
,
0000
0100
0000
0100
0000
0010
1000
0001
,
0010
0000
0010
0001
0100
0010
1000
0100
,
0000
0100
0000
0100
0000
1000
0010
0100
,
0001
0000
0001
0010
0100
0010
0001
0100
,
0000
0100
0000
0100
0000
0010
1000
0001
,
0010
0000
0010
0100
1000
0001
0100
0010
,
0000
0010
0000
0010
0000
0000
0000
0000
;

//--------------- dance-double - forcednature ----------------
#NOTEDATA:;
#STEPSTYPE:dance-double;
#DESCRIPTION:forcednature;
#DIFFICULTY:Easy;
#METER:10;
#RADARVALUES:0,0,0,0,0;
#CREDIT:forcednature;
#NOTES:
00000000
00000000
00000000
00000000
,
00000000
00000000
00000000
00000000
,
00000000
00000000
00000000
00000000
,
00011000
00010000
00000100
00000100
,
00010000
00000000
00001000
00000000
01000000
00010000
01000000
00000000
,
00100000
00100000
00100000
00000000
10000000
00000000
00010000
00000000
,
00100000
00001000
00010000
00000010
,
00001001
00000000
00001000
00000000
00000100
00001000
00000100
00000000
,
00010000
00000000
00001000
00000000
00010000
00001000
00010000
00000000
,
00100000
00000000
01000000
00000000
00010000
10000000
00010000
00000000
,
00200000
01000000
00310000
00100000
,
00001000
00010000
00000000
00000010
,
00001000
00000010
00000100
00000001
,
00000100
00000010
00000000
00010000
,
00001000
00010000
00100000
01000000
,
01100000
00000000
00100000
10000000
,
00010000
10000000
01000000
00010000
,
00001000
00001000
00000000
00010000
,
00000200
00010000
00001000
00000310
,
00000100
00000000
00001000
00000001
00000000
00000100
00000001
00000000
,
00000010
00000100
00010000
00001000
,
01000000
00000000
00010000
00100000
00000000
00010000
01000000
00000000
,
00100000
10000000
01000000
00100000
,
00010000
00000000
01000000
00001000
00000000
00010000
00001000
00000000
,
00000010
00000100
00001000
00000100
,
00000010
00000000
00000001
00000100
00000000
00000001
00000010
00000000
,
00000200
00000010
00001000
00010300
,
00000100
00010000
00001000
00010000
,
00000000
00000000
00100000
00000000
00100000
00000000
10000000
00010000
,
10000000
10000000
01000000
00100000
,
00000000
00000000
00010000
00000000
01000000
00000000
00001000
00010000
,
00001000
00010000
00000100
00001000
,
00000010
00000000
00000000
00000000
00000100
00000000
00000001
00000100
,
00000001
00000010
00000100
00010000
,
00000000
00001000
00000000
00001000
00000000
01000000
00000000
00000000
,
00020000
00000000
00000000
20030000
,
00000000
00000000
00000000
30000000
,
02000000
00000000
00000000
03200000
,
00000000
00000000
00000000
00300000
,
00002000
00000000
00000000
00023000
,
00000000
00000000
00000000
00030000
,
00000020
00000000
00000000
00002030
,
00000000
00000000
00000000
00003000
,
00000200
00000000
00000000
00000000
,
00000000
00000000
00000000
00000000
,
00000000
00000000
00000300
00000000
,
00000010
00000001
00000010
00000000
,
00000100
00010000
00001000
01000000
,
00010000
01000000
00100000
00000000
,
10000000
01000000
00100000
00010000
,
01000000
00001000
00010000
00000000
,
00000100
00001000
00000100
00000010
,
00000001
00001000
00000010
00000000
,
00010000
00001000
01000000
00010000
,
00100000
00010000
00100000
00000000
01000000
00000000
10000000
00000000
,
00010000
01000000
00010000
00000000
00100000
00000000
00001000
00000000
,
00010000
00000010
00010000
00000000
00000100
00000000
00001000
00000000
,
00000001
00000000
00000100
00000010
00000100
00000000
00000001
00000000
,
00001000
00000100
00010000
00001000
,
01000000
00010000
00100000
00000000
,
01000000
10000000
01000000
00000000
00100000
00010000
00100000
00000000
,
00001000
00011000
00010010
00001010
,
00000010
00000000
00000010
00000000
00000100
00000001
00000100
00000000
,
00000020
00000000
00010030
00011000
,
00001000
00100000
00001000
00000000
00100000
00010000
00100000
00000000
,
01000000
10000000
00010000
01000000
,
00001000
00010000
00001000
00000000
00010000
00000100
00010000
00000000
,
00000100
00001000
00000100
00000010
,
00000001
00000100
00000001
00000000
00000100
00000010
00000100
00000000
,
00000010
00001000
00000010
00010000
,
00001000
00100000
00001000
00000000
00100000
00010000
00100000
00000000
,
01000000
00000000
10000000
00000000
00010000
01000000
00010000
00000000
,
00100000
00000000
00001000
00010000
00000000
00000100
00010000
00000000
,
00001000
00000010
00000001
00000010
,
00000100
00000000
00010000
00001000
00000000
01000000
00001000
00000000
,
00100000
00010000
00100000
01000000
,
01100000
00000000
01000000
10000000
00000000
00100000
10000000
00000000
,
01000000
00010000
00001000
00010000
,
00000100
00001000
00000100
00000000
00000010
00000001
00000010
00000000
,
00000100
00000000
00010000
00000000
00001000
01000000
00001000
01000000
,
00020000
00000000
00000000
20030000
,
00000000
00000000
00000000
30000000
,
02000000
00000000
00000000
03200000
,
00000000
00000000
00000000
00300000
,
00002000
00000000
00000000
00023000
,
00000000
00000000
00000000
00030000
,
00000020
00000000
00000000
00002030
,
00000000
00000000
00000000
00003000
,
00000001
00000000
00000010
00000000
00000100
00000000
00000000
00001000
,
00000000
00001000
00000000
00001000
00000000
00000000
00000000
00000000
;

//--------------- dance-double - forcednature ----------------
#NOTEDATA:;
#STEPSTYPE:dance-double;
#DESCRIPTION:forcednature;
#DIFFICULTY:Medium;
#METER:14;
#RADARVALUES:0,0,0,0,0;
#CREDIT:forcednature;
#NOTES:
00000000
00000000
00000000
00000000
,
00000000
00000000
00000000
00000000
,
00000000
00000000
00000000
00000000
,
00011000
00000000
00010000
00000000
00100000
01000000
00100000
10000000
,
00010000
00000000
00000000
00000000
00100000
00000000
00000000
00000000
00001000
00000000
00010000
00000000
00000010
00001000
00000010
00000000
,
00000100
00000000
00000100
00000000
00000100
00000000
00000001
00001000
00000000
00000000
00000100
00000000
00010000
00000000
00001000
00000000
,
00100000
00100000
01000000
00000000
00100000
10000000
00100000
00010000
,
01000000
00000000
00000000
00001000
00000000
00000000
00010000
00000000
00000100
00000000
00000100
00000000
00000010
00000000
00000010
00000000
,
00000100
00000000
00000000
00001000
00000000
00000000
00000001
00000000
00000100
00000000
00000001
00000000
00001000
00000010
00001000
00000000
,
00000100
00010000
00001000
00200000
00000000
01300000
00100000
00000000
,
00002000
00000000
00023000
00000000
00030010
00000100
00001000
00000000
,
00000100
00000001
00000010
00000001
00000000
00000100
00001000
00010000
,
00001000
00100000
00010000
00100000
01000000
10000000
01000000
00010000
,
00001000
00100000
00010000
00100000
00000000
00001000
00010000
00000010
,
00000100
00001000
00000100
00000001
00000010
00000100
00000010
00000001
,
00001000
00000010
00010000
00000010
00000000
00000100
00001000
00010000
,
00001000
01000000
00010000
01000000
00100000
10000000
01000000
10000000
,
00100000
00100000
01000000
00000000
01100000
00000000
00100000
00000000
,
00010000
00001000
00010000
00000100
00000020
00000000
00001030
00000010
,
00000001
00000100
00000001
00000010
00000000
00000100
00000001
00000100
,
00001000
00000010
00001000
00010000
01000000
00010000
00100000
01000000
,
00100000
00001000
00010000
00001000
00000000
00010000
00100000
10000000
,
01000000
10000000
00100000
00010000
00001000
00000010
00000100
00000010
,
00000001
00000100
00001000
00000100
00000000
00000010
00001000
00010000
,
01000000
00010000
00100000
00010000
00001000
00000010
00001000
00000100
,
00000001
00000100
00000010
00000001
00000000
00000100
00001000
00010000
,
00100000
00100000
10000000
00000000
01000000
00010000
00001000
00010000
,
00000010
00000000
00000010
00000000
00001000
00000100
00000010
00000001
,
00000000
00000001
00000001
00000100
00000010
00001000
00000100
00000100
,
00000100
00000000
00010000
00000000
00001000
01000000
00010000
01000000
,
00000000
00100000
00100000
10000000
00010000
00100000
01000000
01000000
,
02000000
00000000
03100000
00000000
00001000
00010000
00000010
00001000
,
00000200
00000000
00000310
00000000
00000100
00010000
00001000
00001000
,
00001000
01000000
00001000
00000000
00100000
00010000
00100000
01000000
,
00000000
20000000
00000000
00100000
00000000
00010000
00000000
31000000
,
10000000
00000000
00010000
00100000
00010000
00000000
01000000
00001000
,
00000000
00010000
00000000
00000010
00000000
00001000
00000100
00000000
,
00000010
00000000
00000001
00000100
00000001
00000000
00001000
00000010
,
00000000
00010000
00000000
00001000
00000000
00100000
00010000
00000000
,
01000000
00000000
00100000
10000000
00100000
00000000
01000000
00001000
,
00000000
00010000
00000000
00000100
00000000
00001000
00000001
00000000
,
00000100
00000000
00000010
00001000
00000010
00000000
00010000
00001000
,
00000000
00100000
00000000
01000000
00000000
00100000
00010000
00000000
,
01000000
00000000
00001000
00010000
00001000
00000000
00010000
00000100
,
00000000
00000100
00000000
00000200
00000000
00000000
00000000
00000000
,
00000000
00000000
00000300
00000000
,
00000010
00000000
00000000
00000000
00000001
00000000
00000000
00000000
00000100
00000000
00000000
00000001
00000000
00000000
00000100
00000000
,
00000010
00000000
00000000
00000000
00010000
00000000
00000000
00000000
00001000
00000000
00000000
00100000
00000000
00000000
00010000
00000000
,
01000000
00000000
00000000
00000000
00100000
00000000
00000000
00000000
10000000
00000000
00000000
01000000
00000000
00000000
10000000
00000000
,
01000000
00000000
00000000
00000000
00100000
00000000
00000000
00000000
00001000
00000000
00000000
00010000
00000000
00000000
00000010
00000000
,
00001000
00000000
00000000
00000000
00000100
00000000
00000000
00000000
00000010
00000000
00000000
00000001
00000000
00000000
00000010
00000000
,
00000100
00000000
00000000
00000000
00010000
00000000
00000000
00000000
00001000
00000000
00000000
01000000
00000000
00000000
00010000
00000000
,
10000000
00000000
00000000
00000000
00100000
00000000
00000000
00000000
10000000
00000000
00000000
01000000
00000000
00000000
10000000
00000000
,
01000000
00000000
00000000
00000000
00100000
00000000
00000000
00000000
00001000
00000000
00000000
00010000
00000000
00000000
00000010
00000000
,
00000100
00000001
00000100
00000001
00000010
00000000
00000100
00010000
,
00001000
01000000
00001000
01000000
00010000
00000000
00100000
00000000
,
01000000
10000000
01000000
10000000
00100000
00000000
01000000
00001000
,
00010000
00000000
00000100
00000100
00001000
00000000
00000010
00000010
,
00000100
00000001
00000010
00000001
00000100
00000001
00000010
00000000
,
00000100
00010000
00000010
00010000
00000100
00010000
00000010
00000000
,
00001000
00001000
00000100
00000100
00010000
00010000
00001000
00001000
,
01000000
00010000
01000000
00100000
10000000
01000000
00100000
00001000
,
00010000
00010000
00000010
00000000
00000110
00000000
00000100
00000001
,
00002000
00000100
00003002
00000013
,
00000001
00000100
00000001
00000000
00000010
00000000
00000100
00000000
00001000
00000000
00000010
00000000
00010000
00000000
00010000
00000000
,
00001000
00000000
00000000
00000000
00100000
00000000
01000000
00000000
00100000
00000000
00000000
00010000
00000000
00000000
10000000
00000000
,
00010000
01000000
00010000
00000000
10000000
00000000
00100000
00000000
10000000
00000000
01000000
00000000
00100000
00000000
00100000
00000000
,
00001000
00000000
00000000
00000000
00010000
00000000
00000000
00000000
00000010
00001000
00000000
00000010
00000000
00000000
00000100
00000000
,
00000001
00001000
00000001
00000000
00000010
00000000
00000100
00000000
00010000
00000000
00001000
00000000
01000000
00000000
01000000
00000000
,
00010000
00000000
00000000
00000000
00100000
00000000
01000000
00000000
00100000
00000000
00000000
00001000
00000000
00000000
00010000
00000000
,
00000010
00000010
00000100
00000100
00001000
00001000
00010000
00010000
,
00100000
01000000
00200000
00000000
10300000
10000000
00010000
00100000
,
01000000
10000000
01000000
00010000
00000000
00001000
00000010
00000100
,
00001000
00000001
00000010
00000001
00000100
00001000
00010000
00001000
,
01000000
00010000
00100000
01000000
00000000
00100000
00001000
00010000
,
00000010
00000100
00001000
00000100
00000001
00000010
00000100
00010000
,
00001000
00001000
01000000
01000000
,
00010000
00010000
10000000
10000000
,
01000000
00100000
01000000
00000000
10000000
00000000
00010000
00000000
01000000
00100000
01000000
00000000
00010000
00000000
00100000
00000000
,
00001000
00001000
00020000
00000000
00030010
00000100
00001000
00000100
,
00000002
00000000
00000000
00000023
,
00000000
00000000
00000000
00000000
,
00000230
00000000
00000000
00020300
,
00000000
00000000
00000000
00000000
,
00032000
00000000
00000000
02003000
,
00000000
00000000
00000000
00000000
,
03020000
00000000
00000000
20030000
,
00000000
00000000
00000000
00000000
00000000
31000000
00100000
00010000
,
01000000
00000000
01000000
00001000
00010000
00000100
00001000
00000010
,
00000000
00000010
00000000
00000010
00000000
00000000
00000000
00000000
;

//--------------- dance-double - forcednature ----------------
#NOTEDATA:;
#STEPSTYPE:dance-double;
#DESCRIPTION:forcednature;
#DIFFICULTY:Hard;
#METER:17;
#RADARVALUES:0,0,0,0,0;
#CREDIT:forcednature;
#NOTES:
00000000
00000000
00000000
00000000
,
00000000
00000000
00000000
00000000
,
00000000
00000000
00000000
00000000
,
00001000
00000000
01000000
00010000
00000000
01000000
00100000
00000000
10000000
00000000
10000000
00000000
00010000
00000000
00100000
00000000
,
00001000
00000000
00010000
00000010
00000000
00001000
00000010
00000000
00000100
00000000
00000100
00000000
00000001
00001000
00000001
00001000
,
00000100
00000000
00000100
00000000
00010000
00000000
00001000
00001000
00000000
01000000
00010000
00000000
10000000
00000000
00100000
00000000
,
10000000
00000000
10000000
00000000
01000000
00000000
00100000
00001000
00010000
00000000
00010000
00000000
00000010
00000000
00001000
00000000
,
00000100
00000000
00000010
00000001
00000000
00000100
00000001
00000000
00000010
00000000
00000100
00000000
00010000
00000000
00001000
00000000
,
00100000
00000000
01000000
00100000
00000000
00010000
01000000
00000000
00100000
00000000
10000000
00000000
01000000
00100000
01000000
00100000
,
00001000
00000000
00010000
00000100
00001000
00000000
00000001
00001000
00000010
00000000
00010000
00001000
01000000
00000000
00010000
00000000
,
00100000
01000000
00100000
01000000
10000000
00100000
01000000
00010000
02000000
00000000
00000000
00000000
03002000
00000000
00000000
00000000
,
00013000
00000100
00001000
00000100
00000000
00000010
00000001
00000100
,
00001000
00000100
00000001
00000010
00000100
00010000
00001000
00100000
,
01000000
00010000
01000000
10000000
00000000
00100000
01000000
00001000
,
00010000
00000010
00000100
00001000
00000100
00000001
00000010
00001000
,
00011000
00000000
00010000
00000000
00100000
01000000
00100000
10000000
,
01000000
10000000
00010000
00100000
00010000
00001000
00000010
00001000
,
00000100
00000000
00000100
00000000
00000010
00000001
00000010
00000001
00000100
00000000
00000010
00000000
00001000
00000000
00000010
00000000
,
00020000
00000100
00001000
00000010
00032000
00000000
01003000
01000000
,
00010000
00000000
00100000
01000000
00100000
00000000
00010000
00000000
10000000
00000000
00100000
01000000
00100000
00000000
01000000
00010000
,
01000000
00000000
00001000
00010000
00001000
00000000
00010000
00000100
00010000
00000000
00000100
00001000
00000001
00000000
00000100
00000000
,
00000010
00000000
00001000
00000010
00001000
00000000
00000100
00000000
00010000
00000000
00001000
01000000
00001000
00000000
01000000
00010000
,
01000000
00100000
00010000
00001000
00000010
00000100
00010000
00001000
,
00000100
00000000
00000010
00001000
00000010
00000000
00010000
00000000
00001000
00000000
00100000
00010000
00100000
00000000
01000000
00100000
,
01000000
00000000
10000000
01000000
10000000
00000000
00100000
10000000
00100000
00000000
01000000
00001000
00010000
00000000
00000100
00000000
,
00001000
00000000
00000001
00000010
00000001
00000000
00000100
00000000
00000010
00000000
00001000
00000010
00001000
00000000
00000100
00001000
,
00000100
00000000
00000100
00000000
00010000
00001000
01000000
00010000
02000000
00000000
03200000
00000000
00320000
00000000
00032000
00000000
,
00003010
00000010
00000010
00000100
00000010
00000001
00001000
00000010
,
00000000
00000000
00000010
00000000
00000010
00000000
00010000
00000000
00002000
00000000
00203000
00000000
00310000
01000000
00010000
01000000
,
00100000
00100000
00100000
10000000
00010000
00100000
01000000
00100000
,
00000000
00000000
00100000
00000000
00100000
00000000
00001000
00000000
00010000
00000010
00001000
00000000
00000100
00000010
00000100
00000010
,
00000001
00000001
00000001
00000100
00001000
00010000
01000000
10000000
,
00100000
00000000
00100000
00000000
00100000
00000000
01000000
00000000
00001000
00000000
00010000
00000000
00000100
00001000
00000100
00001000
,
00000010
00000010
00000010
00010000
00001000
00000010
00001000
00020000
,
00000000
00100000
00000000
00001000
00000000
00000100
00000000
00031000
,
00011000
00000000
00010000
00100000
01000000
00100000
10000000
00010000
,
00000000
00010000
00000000
00010000
00000000
00100000
01000000
00100000
,
00001000
00000000
00010000
00000010
00000100
00001000
00000100
00000001
,
00000000
00000001
00000000
00000001
00000000
00000010
00000100
00010000
,
00001000
00000000
01000000
10000000
01000000
00010000
00100000
01000000
,
00000000
01000000
00000000
01000000
00000000
00100000
00001000
00010000
,
00000010
00000000
00000100
00001000
00000100
00000001
00000010
00000100
,
00000000
00000100
00000000
00000100
00000000
00000010
00000001
00001000
,
00000010
00000000
00010000
00001000
00100000
00001000
00010000
01000000
,
00000000
01000000
00000000
02000000
00000000
00000000
00000000
00000000
,
00000000
00000000
03000000
00000000
,
00100000
00000000
00000000
00000000
00001000
00000000
00000000
00000000
00010000
00000000
00000000
00000010
00000000
00000000
00001000
00000000
,
00000100
00000000
00000000
00000000
00000010
00000000
00000000
00000000
00000001
00000000
00000000
00000100
00000000
00000000
00001000
00000000
,
00010000
00000000
00000000
00000000
00100000
00000000
00000000
00000000
10000000
00000000
00000000
00010000
00000000
00000000
00100000
00000000
,
00001000
00000000
00000000
00000000
00010000
00000000
00000000
00000000
00000010
00000000
00000000
00000100
00000000
00000000
00001000
00000000
,
00000100
00000000
00000000
00000000
00000001
00000000
00000000
00000000
00000010
00000000
00000000
00000100
00000000
00000000
00010000
00000000
,
00001000
00000000
00000000
00000000
01000000
00000000
00000000
00000000
00010000
00000000
00000000
00100000
00000000
00000000
01000000
00000000
,
10000000
00000000
00000000
00000000
00100000
00000000
00000000
00000000
01000000
00000000
00000000
00001000
00000000
00000000
00010000
00000000
,
00000100
00000000
00000000
00000000
00001000
00000000
00000000
00000000
00000001
00000000
00000000
00000100
00000000
00000000
00001000
00000000
,
00010000
00000000
00100000
00000000
01000000
00000000
00100000
00000000
10000000
00000000
00000000
00000000
00010000
00000000
00010000
01000000
,
00010000
00000000
00100000
00000000
01000000
00000000
00100000
00000000
00001000
00000000
00000000
00010000
00000000
00000000
00000010
00000000
,
00001000
00000000
00000100
00000000
00000001
00000000
00000100
00000000
00000010
00000000
00000000
00000000
00000001
00000000
00000001
00000100
,
00000001
00000000
00000000
00000000
00000010
00000000
00000010
00000000
00000100
00000000
00000000
00010000
00001000
00000000
00001000
00000000
,
01000000
00010000
01000000
10000000
00010000
00100000
00010000
00001000
,
00000010
00001000
00010000
00001000
00000100
00000100
00000100
00000000
,
00000001
00000010
00000100
00001000
00010000
00100000
01000000
10000000
,
00010000
01000000
00010000
01000000
00001000
00010000
00001000
00010000
00000100
00001000
00000100
00001000
00000010
00000000
00000010
00000000
,
00000100
00000000
00001000
00000000
00000100
00000001
00000100
00000001
00000010
00000000
00000100
00010000
00001000
00000000
01000000
00000000
,
00020000
00100000
20030000
31000000
,
10000000
00100000
01000000
00000000
00010000
01000000
00010000
00000000
00100000
00001000
00010000
00001000
01000000
00010000
01000000
00100000
,
10000000
00000000
00000000
00000000
01000000
00100000
00010000
00100000
00001000
00000000
00010000
00000010
00000000
00001000
00000010
00000000
,
00000100
00000001
00001000
00000000
00000100
00001000
00000001
00000000
00000010
00000100
00001000
00000100
00010000
00001000
00010000
00000010
,
00001000
00000000
00000100
00000000
00000001
00000000
00000100
00000000
00001000
00000010
00010000
00000010
00000000
00010000
00001000
00000000
,
00100000
00010000
10000000
00000000
00100000
10000000
00010000
00000000
01000000
00010000
00100000
00010000
01000000
00001000
00010000
00001000
,
00100000
00000000
00000000
00000000
01000000
00100000
00010000
00100000
00001000
00000000
00010000
00000010
00000000
00001000
00000010
00000000
,
00000100
00000001
00000100
00000001
00001000
00000100
00001000
00000100
00010000
00001000
00010000
00001000
01000000
00010000
01000000
00010000
,
00100000
00000000
00100000
00000000
01000000
10000000
00010000
10000000
00100000
00000000
00010000
00000000
00001000
00000000
00000100
00000000
,
00000010
00000000
00001000
00000010
00001000
00000000
00000100
00000000
00000000
00000000
00000010
00000001
00000010
00000000
00000100
00000010
,
00000100
00000000
00001000
00000100
00001000
00000000
00000100
00010000
00001000
00000000
01000000
00010000
01000000
00000000
00100000
00000000
,
10000000
00000000
00010000
00100000
01000000
00000000
00100000
00000000
00000000
00000000
00010000
01000000
00010000
00000000
01000000
00001000
,
01000000
00000000
00001000
00010000
00001000
00000000
00010000
00000100
00010000
00000000
00000100
00001000
00000001
00000000
00000100
00000001
,
00000100
00000100
00001000
00001000
00010000
00010000
01000000
01000000
,
00100000
00100000
00001000
00001000
00010000
00010000
00000010
00000010
,
00000100
00000001
00000100
00000010
00000100
00000000
00000001
00000000
00000010
00000100
00001000
00000100
00010000
00000000
00001000
00000000
,
01000000
01000000
00020000
10000000
00130000
00010000
00001000
00000100
,
00000110
00000000
00000010
00000001
00000100
00000001
00000010
00001000
,
00000000
00001000
00000000
00001000
00000000
00010000
00100000
01000000
,
00100000
00000000
00100000
10000000
00010000
00100000
00010000
01000000
,
00000000
01000000
00000000
01000000
00000000
00001000
00010000
01000000
,
00010000
00000000
00001000
00000010
00000100
00000010
00000001
00001000
,
00000000
00001000
00000000
00001000
00000000
00000010
00010000
00001000
,
01000000
00000000
01000000
10000000
01000000
00010000
00100000
01000000
,
00000000
01000000
00000000
01000000
00000000
00100000
00001000
00010000
,
00000010
00000000
00000100
00001000
00000100
00000001
00001000
00000010
,
00000000
00000010
00000000
00000010
00000000
00000000
00000000
00000000
;
