#VERSION:0.83;
#TITLE:クレイジークレイジーダンサーズ;
#SUBTITLE:;
#ARTIST:ビートまりお+あまね(COOL&CREATE);
#TITLETRANSLIT:Crazy crazy dancers;
#SUBTITLETRANSLIT:;
#ARTISTTRANSLIT:beatMARIO + Komso (COOL&CREATE);
#GENRE:;
#CREDIT:;
#MUSIC:Crazy crazy dancers.ogg;
#BANNER:Crazy crazy dancers.png;
#BACKGROUND:Crazy crazy dancers-bg.png;
#CDTITLE:./CDTitles/SDVX VIVID WAVE.png;
#SAMPLESTART:68.578;
#SAMPLELENGTH:15.000;
#SELECTABLE:YES;
#OFFSET:1.146;
#BPMS:0.000=172.000;
#STOPS:;
#TIMESIGNATURES:0.000=4=4;
#BGCHANGES:0.000=../BGAs/19po.mp4=1.000=0=0=0=StretchNoLoop====,
99999.000=-nosongbg-=1.000=0=0=0=StretchNoLoop====
;
#FGCHANGES:;

//--------------- dance-single - forcednature ----------------
#NOTEDATA:;
#STEPSTYPE:dance-single;
#DESCRIPTION:forcednature;
#DIFFICULTY:Beginner;
#METER:2;
#RADARVALUES:0,0,0,0,0;
#CREDIT:forcednature;
#NOTES:
0000
0000
0000
0000
,
0000
0000
0000
0000
,
0000
0000
0000
0000
,
0000
0000
0000
0000
,
0000
0000
0000
0000
,
0000
0000
0000
0000
,
1000
0000
0000
0000
,
0000
0000
0000
0000
,
0001
0000
0000
0000
,
0000
0000
0000
0000
,
1001
0000
0000
0000
,
0000
0000
0000
0000
,
0010
0000
0100
0000
,
0010
0000
0000
0000
,
1000
0000
0000
0000
,
0100
0000
0000
0000
,
1000
0000
0000
0000
,
0010
0000
0000
0000
,
0100
0000
0000
0000
,
0001
0000
0000
0000
,
0010
0000
0000
0000
,
0001
0000
0000
0000
,
0100
0000
0000
0000
,
0010
0000
0010
0000
,
1000
0000
0000
0000
,
0010
0000
0010
0000
,
0100
0000
0000
0000
,
0001
0000
0000
0000
,
0010
0000
0000
0000
,
0100
0000
0000
0000
,
1000
0000
1000
0000
,
1000
0000
0000
0000
,
0001
0000
0001
0000
,
0000
0100
0000
0000
,
0010
0000
0000
0000
,
1000
0000
0000
0000
,
0001
0000
0000
0000
,
0010
0000
0000
0000
,
0100
0000
0000
0000
,
1000
0000
0000
0000
,
0001
0000
0000
0000
,
0100
0000
0000
0000
,
0010
0000
0000
0000
,
1000
0000
0000
0000
,
0100
0000
0100
0000
,
0100
0000
0100
0000
,
0010
0000
0000
0000
,
0001
0000
0000
0000
,
0100
0000
0000
0000
,
0010
0000
0000
0000
,
1000
0000
0001
0000
,
1000
0000
0000
0000
,
0001
0000
0000
0000
,
0010
0000
0000
0000
,
0100
0000
0000
0000
,
1000
0000
0000
0000
,
0010
0000
0000
0000
,
0100
0000
0000
0000
,
0001
0000
1000
0000
,
0001
0000
0000
0000
,
1000
0000
0000
0000
,
0100
0000
0000
0000
,
0010
0000
0000
0000
,
0001
0000
0000
0000
,
0100
0000
0000
0000
,
0010
0000
0000
0000
,
1000
0000
0001
0000
,
1000
0000
0000
0000
,
0001
0000
0000
0000
,
0100
0000
0000
0000
,
0010
0000
0000
0000
,
1000
0000
0000
0000
,
0100
0000
0000
0000
,
0010
0000
0000
0000
,
0001
0000
1000
0000
,
0001
0000
0000
0000
,
1000
0000
0000
0000
,
0010
0000
0000
0000
,
0100
0000
0000
0000
,
0001
0000
0000
0000
,
0010
0000
0100
0000
,
0110
0000
0000
0000
,
1000
0000
0000
0000
,
0001
0000
0000
0000
,
0100
0000
0000
0000
,
0001
0000
0000
0000
,
0010
0000
0000
0000
,
0001
0000
0000
0000
,
0100
0000
0000
0000
,
0001
0000
0000
0000
,
0010
0000
0000
0000
,
0000
0000
0000
0000
,
0100
0000
0000
0000
,
0000
0000
0000
0000
,
1000
0000
0000
0000
,
0000
0000
0000
0000
,
0001
0000
0000
0000
,
0000
0000
1001
0000
;

//--------------- dance-single - forcednature ----------------
#NOTEDATA:;
#STEPSTYPE:dance-single;
#DESCRIPTION:forcednature;
#DIFFICULTY:Easy;
#METER:7;
#RADARVALUES:0,0,0,0,0;
#CREDIT:forcednature;
#NOTES:
0000
0000
0000
0000
,
0000
0000
0000
0000
,
0000
0000
0000
0000
,
0000
0000
0000
0000
,
0000
0000
0000
0000
,
0000
0000
0000
0000
,
1001
0000
0001
0000
,
0110
0000
1000
0000
,
0100
0000
0000
0100
0000
0000
0100
0000
,
0020
0000
0000
0030
,
2002
0000
0000
0000
,
0000
0000
0000
3003
,
1001
0000
0110
0000
,
1000
0001
0100
0010
,
1000
0100
1000
0100
,
0010
0001
0010
0000
,
0001
0100
0001
0100
,
0010
1000
0010
0000
,
1000
0001
1000
0001
,
0010
0100
0010
0000
,
0001
1000
0001
1000
,
0010
0100
0010
0000
,
1000
0100
1000
0100
,
0010
0001
1000
0000
,
0001
0100
0001
0100
,
0010
1000
0001
0000
,
0010
0100
0010
0100
,
1000
0001
1000
0000
,
0010
0100
0010
0100
,
0001
1000
0001
0000
,
1000
1000
0001
0001
,
1000
1000
0001
0000
,
0100
0010
0010
0100
,
0000
0010
2002
3003
,
1000
0100
1000
0001
,
1000
0010
0100
0000
,
0001
0001
1000
1000
,
0001
0001
1000
1000
,
0001
0100
0001
1000
,
0001
0010
0100
0000
,
1000
1000
0001
0001
,
1000
1000
0001
0001
,
1000
0100
1000
0001
,
1000
0010
0100
0100
,
0001
0001
1000
1000
,
0001
0001
1000
1000
,
0001
0010
0001
0100
,
0001
1000
0100
0010
,
0001
1000
0001
1000
,
0020
0030
0200
0300
,
1000
0001
1000
0001
,
0100
0100
0100
0010
,
0000
1000
0100
1000
,
0000
0001
0100
0001
,
0000
0010
0100
1000
,
0000
0010
0100
0001
,
1000
0000
0000
0001
0000
0000
1000
0000
0001
0000
0000
0000
0000
0000
0000
0000
,
0001
0000
0000
1000
0000
0000
0001
0000
1000
0000
0000
0000
0000
0000
0000
0000
,
0001
1000
0001
1000
,
0100
0100
0100
0010
,
0000
0001
1000
0010
,
0000
1000
0001
0010
,
0000
0100
1000
0010
,
0000
0100
0001
0010
,
0001
0000
0000
1000
0000
0000
0001
0000
1000
0000
0000
0000
0000
0000
0000
0000
,
1000
0000
0000
0001
0000
0000
1000
0000
0001
0000
0000
0000
0000
0000
0000
0000
,
1000
0001
1000
0001
,
0010
0010
0010
0100
,
0000
1000
0010
0100
,
0000
0001
0010
0100
,
0000
0010
0001
1000
,
0000
0010
1000
0001
,
0100
0000
0000
0010
0000
0000
0100
0000
0010
0000
0000
0000
0000
0000
0000
0000
,
0010
0000
0000
0100
0000
0000
0010
0000
0100
0000
0000
0000
0000
0000
0000
0000
,
0001
1000
0001
1000
,
0010
0010
0010
0100
,
0000
0001
0010
0100
,
0000
1000
0010
0100
,
0001
0001
1000
1000
,
0001
1000
0001
1000
,
1001
0000
0110
0000
,
1001
1001
2002
3003
,
1000
0100
1000
0100
,
0010
0001
0010
0000
,
0001
0100
0001
0100
,
0010
1000
0010
0000
,
1000
0001
1000
0001
,
0010
0100
0010
0000
,
0001
1000
0001
1000
,
0010
0100
0010
0000
,
0100
0001
0100
0001
,
1000
0001
0010
0000
,
0100
1000
0100
1000
,
0001
1000
0010
0000
,
0100
0010
0100
0010
,
1000
0001
0010
0000
,
0100
0010
0100
0010
,
0001
1000
2002
3003
;

//--------------- dance-single - forcednature ----------------
#NOTEDATA:;
#STEPSTYPE:dance-single;
#DESCRIPTION:forcednature;
#DIFFICULTY:Medium;
#METER:10;
#RADARVALUES:0,0,0,0,0;
#CREDIT:forcednature;
#NOTES:
0000
0000
0000
0000
,
0000
0000
0000
0000
,
0000
0000
0000
0000
,
0000
0000
0000
0000
,
0000
0000
0000
0000
,
0000
0000
0000
0000
,
1100
0000
0011
0000
,
0101
0000
1010
0000
,
0110
0000
0000
1000
0000
0000
0001
0000
,
0200
0000
0010
0300
,
2002
0000
0000
0000
,
0000
0000
0000
3003
,
1000
0000
0100
0000
,
1000
0100
0010
0001
,
0100
0001
1000
0010
,
1000
0000
0001
0000
0010
0100
0010
0000
,
0001
1000
0010
0100
,
0001
0000
1000
0000
0100
0010
0100
0000
,
1000
0001
0100
0010
,
1000
0000
0100
0000
0010
0001
0010
0000
,
0100
1000
0010
1000
,
0001
0000
0100
0000
0010
1000
0010
0000
,
0100
0001
1000
0001
,
0010
0000
0100
0000
1000
1000
1000
0000
,
0100
1000
0001
1000
,
0010
0000
0100
0000
0001
0001
0001
0000
,
0010
0100
1000
0001
,
0100
0000
0010
0000
1000
0001
1000
0000
,
1100
0010
0101
0010
,
1000
0001
0100
0010
,
1000
1000
1000
0000
0001
0001
0001
0000
,
1000
1000
1000
0000
2002
0000
3003
0000
,
0100
0000
0010
0010
0010
0000
0220
0000
,
0330
1001
2002
3003
,
1000
0100
0010
0001
,
0100
0000
0010
0000
1000
0001
1000
0000
,
1100
1100
0011
0011
,
1100
1100
0011
0011
,
0001
0100
0010
1000
,
0001
0000
0010
0000
0100
1000
0100
0000
,
1010
1010
0101
0101
,
1010
1010
0101
0101
,
1001
1000
0001
0001
,
0100
0000
0100
0000
0010
1000
0010
0000
,
0110
1001
0110
1001
,
0110
1001
0110
1001
,
1000
1000
0001
0001
,
0100
0010
0100
0000
0010
0100
0010
0000
,
1100
0101
1100
0101
,
0020
0100
0200
0330
,
1000
0100
1000
0000
0001
0100
0001
0000
,
0010
0100
0010
0000
0010
0100
1000
0001
,
0000
0000
0100
0000
0001
0100
0000
0001
,
0000
0000
1000
0000
0100
1000
0100
0000
,
0110
0000
0010
0000
0001
1000
0000
0001
,
0000
0100
0010
1000
,
0001
0000
0000
0001
0000
0000
1000
0000
0001
0000
0000
0000
0110
0000
0000
0000
,
1000
0000
0000
1000
0000
0000
0001
0000
1000
0000
0000
0000
0110
0000
0000
0000
,
0001
0010
0001
0000
1000
0010
1000
0000
,
0100
0010
0100
0000
0100
0010
0001
1000
,
0000
0001
0100
0000
0001
1000
0000
0001
,
0000
1000
0100
0000
0010
0001
0010
0000
,
0100
0000
1000
0000
0001
0100
0000
0001
,
0000
1000
0010
0000
1000
0000
0100
0000
,
0010
0000
0000
0010
0000
0000
0001
0000
1000
0000
0000
0000
0110
0000
0000
0000
,
0010
0000
0000
0010
0000
0000
1000
0000
0001
0000
0000
0000
0110
0000
0000
0000
,
1000
0100
1000
0000
0001
0100
0001
0000
,
1000
0001
1000
0001
1000
0001
1000
0001
,
0000
0000
0100
0000
0010
1000
0000
0010
,
0000
0000
0100
0000
0001
0010
0001
0000
,
0110
0000
1000
0000
0001
0100
0000
0001
,
0000
0000
1000
0000
0100
0010
0100
0000
,
1000
0000
0000
0010
0000
0000
0100
0000
0001
0000
0000
0000
1001
0000
0000
0000
,
0001
0000
0000
0010
0000
0000
0100
0000
1000
0000
0000
0000
1001
0000
0000
0000
,
0001
0010
0001
0000
1000
0010
1000
0000
,
0001
1000
0001
1000
0001
1000
0001
1000
,
0000
0000
0100
0000
0010
0001
0000
0010
,
0000
0100
1000
0000
0001
0100
0001
0000
,
1001
1000
0001
0001
,
0100
0000
0100
0000
0010
1000
0010
0000
,
2200
3300
0202
0303
,
1001
0110
2002
3003
,
1000
0100
0010
0001
,
0100
0000
0010
0000
1000
0001
1000
0000
,
0100
1000
0010
0100
,
0001
0000
0010
0000
0001
1000
0001
0000
,
0100
0001
1000
0100
,
0010
0000
0001
0000
0100
0010
0100
0000
,
0001
1000
0100
1000
,
0010
0000
0100
0000
0001
1000
0001
0000
,
0010
0010
0100
0100
,
1000
0000
1000
0000
0001
0100
0001
0000
,
1000
1000
0010
0010
,
0100
0000
0100
0000
0001
1000
0001
0000
,
0010
0100
1000
0100
,
0010
0001
1000
1000
,
0100
1000
0100
1000
0001
0100
0001
0100
,
0010
0110
2002
3003
;

//--------------- dance-single - forcednature ----------------
#NOTEDATA:;
#STEPSTYPE:dance-single;
#DESCRIPTION:forcednature;
#DIFFICULTY:Hard;
#METER:12;
#RADARVALUES:0,0,0,0,0;
#CREDIT:forcednature;
#NOTES:
0000
0000
0000
0000
,
0000
0000
0000
0000
,
0000
0000
0000
0000
,
0000
0000
0000
0000
,
0000
0000
0000
0000
,
0000
0000
0000
0000
,
1100
0000
0001
0100
0010
0000
1000
0100
,
0010
0000
0001
1000
0010
0000
1000
0001
,
0010
0000
0000
1001
0000
0000
0110
0000
,
2002
0000
0000
3003
,
0220
0000
0000
0000
,
0000
0000
0000
0330
,
2002
3003
0220
0330
,
1100
0101
0110
1001
,
0001
0100
0001
0100
0010
1000
0010
1000
,
0001
0010
0100
1000
0100
0010
0001
0000
,
1000
0100
1000
0100
0010
0001
0010
0001
,
1000
0010
0100
0001
0100
0010
1000
0000
,
0001
0100
0001
0100
1000
0100
1000
0100
,
0001
0100
0010
1000
0100
1000
0001
0000
,
1000
0100
1000
0100
0001
0100
0001
0100
,
1000
0100
0010
0001
0100
0001
1000
0000
,
0001
0100
0010
0100
1000
0100
0010
0100
,
0001
1000
0100
0010
0100
0100
0110
0000
,
1000
0100
0010
0100
0001
0100
0010
0100
,
1000
0001
0100
0010
0100
0100
0110
0000
,
0001
0010
0001
0100
0010
1000
0100
1000
,
0010
0001
0010
1000
0100
0010
0100
0000
,
1000
0001
0100
0010
1000
0001
0010
0100
,
1000
0001
0100
1000
0100
0001
0010
0000
,
0001
0100
0101
0000
1000
0100
1100
0000
,
0001
0010
0011
0000
2020
0000
3030
0000
,
1001
0000
0100
0010
0110
0000
0220
0000
,
0330
1001
2002
3003
,
0001
0100
0010
1000
0001
0010
0100
1000
,
0001
0100
1000
0100
0010
1000
0001
0000
,
1100
1100
0101
0101
,
1100
1100
0101
0101
,
1000
0000
0100
0001
0100
0010
0001
1000
,
0010
0100
1000
0100
0010
0100
0001
0000
,
0011
0011
1010
1010
,
0011
0011
1010
1010
,
0001
1000
0010
0100
0001
1000
0100
0010
,
0001
0100
0010
1000
0100
0100
0100
0000
,
0110
1001
0110
1001
,
0110
1001
0110
1001
,
1000
0100
1000
0010
0100
0001
0010
0001
,
0100
0010
1000
0001
0010
0010
0100
0100
,
1000
0010
0001
0010
1000
0010
0001
0010
,
0100
0000
0001
1000
0200
0000
0310
0000
,
0001
0100
0101
0000
1000
0100
1100
0000
,
0001
0100
1000
0100
0001
0100
0010
0110
,
0000
1000
0100
0010
0001
0100
0010
1000
,
0000
0001
0010
0100
1000
0001
0001
0100
,
0010
0000
1000
0100
1000
0001
0000
0110
,
0000
0001
0100
0010
1000
0100
0100
0010
,
0001
0000
0000
0100
0000
0000
0010
0000
1000
0000
0000
0000
0110
0000
0000
0000
,
1000
0000
0000
0100
0000
0000
0010
0000
0001
0000
0000
0000
0110
0000
0000
0000
,
0001
0010
0011
0000
1000
0010
1010
0000
,
0001
0010
1000
0010
0001
0010
0100
0110
,
0000
1000
0010
0100
0001
0010
0100
1000
,
0000
0001
0100
0010
1000
0001
0001
0010
,
0100
0000
1000
0010
0200
0001
0300
0110
,
0000
0001
0010
0100
1000
0001
0001
0100
,
0010
0000
0000
1000
0000
0000
0001
0000
0010
0000
0000
0000
0110
0000
0000
0000
,
0100
0000
0000
1000
0000
0000
0001
0000
0100
0000
0000
0000
0110
0000
0000
0000
,
0001
0100
1010
0000
1000
0100
0011
0000
,
0001
0010
1000
0010
0100
1000
0001
0110
,
0000
1000
0010
0100
1000
0100
0001
1000
,
0000
0001
0010
0100
0001
0100
1000
0001
,
0100
0000
0010
1000
0100
0001
0100
1000
,
0000
0001
1000
0010
0100
0001
0001
0010
,
0100
0000
0000
0110
0000
0000
1000
0000
0001
0000
0000
0000
1001
0000
0000
0000
,
0100
0000
0000
0110
0000
0000
0001
0000
1000
0000
0000
0000
1001
0000
0000
0000
,
1000
0001
0110
0000
0001
1000
0110
0000
,
1000
0001
0100
1000
0001
0010
1000
1001
,
0000
0001
0010
0100
0001
0100
0010
0001
,
0000
1000
0010
0100
0001
0001
1000
1000
,
0010
0000
0000
0010
0100
0000
0001
0000
1000
0000
0100
0000
1000
0000
0010
0000
,
0100
0000
0000
0100
0010
0000
1000
0000
0001
0000
0010
0000
1000
0000
0010
0000
,
0002
0013
2100
3010
,
1001
0110
2002
3003
,
1000
0100
1000
0100
1000
0010
1000
0010
,
0001
0010
0100
0010
1000
0001
1000
0000
,
0001
0100
0001
0100
0001
0010
0001
0010
,
1000
0010
0100
0010
0001
1000
0001
0000
,
1000
0010
1000
0010
0001
0010
0001
0010
,
0100
0001
1000
0100
0010
0001
1000
0000
,
0001
0010
0001
0010
1000
0010
1000
0010
,
0100
1000
0001
0100
0010
1000
0001
0000
,
1000
0100
1000
0100
0010
0001
0010
0001
,
0100
0000
0000
0010
0000
0000
0100
0000
0000
0010
0000
0000
2000
0000
3000
0002
0000
0003
2000
0000
3000
0000
0000
0000
,
0001
0100
0001
0100
0010
1000
0010
1000
,
0100
0000
0000
0010
0000
0000
0100
0000
0000
0010
0000
0000
0002
0000
0003
2000
0000
3000
0002
0000
0003
0000
0000
0000
,
1000
0100
1000
0010
1000
0001
1000
0010
,
1000
0100
0010
0001
0010
0100
1000
0000
,
0001
0100
0001
0010
0001
1000
0001
0010
,
0100
0110
2002
3003
;

//--------------- dance-single - forcednature ----------------
#NOTEDATA:;
#STEPSTYPE:dance-single;
#DESCRIPTION:forcednature;
#DIFFICULTY:Challenge;
#METER:15;
#RADARVALUES:0,0,0,0,0;
#CREDIT:forcednature;
#NOTES:
0000
0000
0000
0000
,
0000
0000
0000
0000
,
0000
0000
0000
0000
,
0000
0000
0000
0000
,
0000
0000
0000
0000
,
0000
0000
0000
0000
,
1001
0000
1000
0100
1100
0000
0001
0100
,
0101
0000
1000
0010
1010
0000
0001
0010
,
0011
0000
0000
0110
0000
0000
1001
0000
,
0220
0000
0000
0330
,
2002
0000
0000
0000
,
0000
0000
0000
3003
,
2020
3030
0022
0033
,
1000
0100
1000
0000
0001
0100
0001
0000
0010
0100
0010
0000
1001
0000
0000
0000
,
0001
0100
1000
0100
0010
1000
0001
0010
,
0100
0001
0100
1000
0001
0100
0010
0000
,
1000
0100
0001
0100
0010
0001
1000
0010
,
0100
1000
0100
0001
1000
0100
0010
0000
,
0100
1000
0001
0100
1000
0100
0001
1000
,
0001
0010
1000
0010
0100
1000
0001
0000
,
0100
0000
0001
0000
1000
0000
0100
0000
0001
0000
0100
0000
1000
0000
0001
0010
,
0100
0000
1000
0000
0001
0000
0100
0000
0010
1000
0010
0000
1001
0000
0000
0000
,
0001
0100
1000
0100
0001
0010
1000
0010
,
0100
1000
0001
1000
1010
0110
0101
0000
,
1000
0100
0001
0100
1000
0010
0001
0010
,
0100
0001
1000
0001
0011
0110
1100
0000
,
1000
0000
0100
0000
1000
0000
0010
0000
0100
0000
0001
0000
0010
0000
0001
1000
,
0001
0000
0100
0000
0010
0000
1000
0000
0001
0010
0100
1000
0001
0000
0100
0001
,
0100
0000
0010
0000
1000
0000
0100
1000
0100
0000
0010
0000
0001
0000
1000
0010
,
1000
0000
1000
0000
0001
0000
0001
0000
1000
0010
0100
0001
1000
0000
0000
0000
,
0001
0101
1010
0000
1000
1100
0011
0000
,
0010
0110
1001
0000
0220
0000
0330
0000
,
1001
0000
0100
0110
1001
0000
0220
0000
,
0330
1001
2002
3003
,
0001
1000
0001
0100
0010
0001
1000
0100
,
0001
0010
0100
1000
0001
0100
0010
0000
,
1000
0100
0000
0000
1000
0100
0000
0000
1000
0010
0000
0000
1000
0010
0000
0000
,
1000
0100
0000
0000
1000
0100
0000
0000
1000
0010
0000
0000
1000
0010
0000
0000
,
1001
0000
1000
0100
0010
1000
0001
0100
,
1000
0010
0100
0001
1000
0100
0010
0000
,
0001
0100
0000
0000
0001
0100
0000
0000
0001
0010
0000
0000
0001
0010
0000
0000
,
0001
0100
0000
0000
0001
0100
0000
0000
0001
0010
0000
0000
0001
0010
0000
0000
,
0100
1000
0100
0001
0100
0010
0100
1000
,
0010
0100
0010
0001
0010
0110
1001
0000
,
0001
0100
0000
0000
1000
0100
0000
0000
0001
0100
0000
0000
1000
0100
0000
0000
,
0001
0100
0000
0000
1000
0100
0000
0000
0001
0100
0000
0000
1000
0100
0000
0000
,
0001
0000
0001
0000
1000
0000
1000
0000
0100
0000
0100
0000
0010
0000
0010
0001
,
1000
0000
1000
0000
0010
0000
0010
0000
0100
0001
0100
0001
1000
0100
1000
0100
,
0010
1000
0010
0001
0010
1000
0010
0001
,
0010
0000
0100
1000
0001
0000
0100
0000
2002
0000
0000
0000
3003
0000
0000
0000
,
0001
0100
0001
0000
0101
0000
0000
0000
1000
0100
1000
0000
1100
0000
0000
0000
,
0001
0100
0001
0000
1000
0100
1000
0000
0010
0100
0010
0000
0100
0000
1001
0000
,
0000
0000
1000
0100
1000
0000
0010
0000
0100
0001
0100
0000
1000
0000
0100
0000
,
0000
0000
0001
0010
0001
0000
0100
0000
0010
1000
0010
0000
0100
0000
0001
1000
,
0100
0000
0000
0000
0010
0000
0001
0000
1000
0010
1000
0000
0100
0000
0010
0000
,
0000
0000
0001
0000
1000
0000
0100
0000
1000
0000
0001
0100
0001
0100
0001
0100
,
0010
0000
0000
1000
0000
0000
1100
0000
0011
0000
0000
0000
MMMM
0000
0000
0000
,
0010
0000
0000
0001
0000
0000
0101
0000
1010
0000
0000
0000
MMMM
0000
0000
0000
,
1000
0100
1000
0000
1010
0000
0000
0000
0001
0100
0001
0000
0011
0000
0000
0000
,
1000
0100
1000
0000
0001
0100
0001
0000
0010
0100
0010
0000
0100
0000
1001
0000
,
0000
0000
0001
0010
0001
0000
0100
0000
0010
1000
0010
0000
0100
0000
0001
0000
,
0000
0000
0010
0100
0010
0000
0001
0000
1000
0010
1000
0010
0100
0001
0100
0001
,
1000
0000
0000
0000
0001
0000
0100
0000
0001
1000
0020
0000
0100
0000
1030
0000
,
0000
0000
0010
0000
1000
0000
0001
0000
0010
0000
0100
1000
0100
1000
0100
1000
,
0001
0000
0000
0100
0000
0000
0110
0000
1001
0000
0000
0000
MMMM
0000
0000
0000
,
1000
0000
0000
0100
0000
0000
0110
0000
1001
0000
0000
0000
MMMM
0000
0000
0000
,
0001
0100
0010
0000
1010
0000
0000
0000
1000
0100
0010
0000
0011
0000
0000
0000
,
0001
1000
0100
0000
1000
0001
0100
0000
0010
1000
0100
0000
0010
0000
1001
0000
,
0000
0000
0001
0010
0100
0000
1000
0000
0001
0100
0010
0000
1000
0000
0001
0000
,
0000
0000
1000
0100
0010
0000
0001
0000
1000
0000
0010
0100
0001
1000
0100
0010
,
0001
0000
0000
0000
1000
0000
0100
0000
1000
0010
0100
0000
0001
0000
0010
0000
,
0000
0000
0001
0000
1000
0000
0100
0000
0010
0000
0001
0100
0010
1000
0001
1000
,
0100
0000
0000
1100
0000
0000
0011
0000
1001
0000
0000
0000
MMMM
0000
0000
0000
,
1001
0000
0000
0101
0000
0000
1010
0000
1001
0000
0000
0000
MMMM
0000
0000
0000
,
1000
0001
0100
0010
1000
0000
0000
0000
0001
1000
0100
0010
0001
0000
0000
0000
,
1000
0010
0100
0001
1000
0100
0010
0001
0100
0010
1000
0001
0010
0000
1001
0000
,
0000
0000
1000
0100
0010
0000
0001
0000
1000
0010
0100
0000
0001
0000
0010
0100
,
1000
0000
1000
0000
0001
0000
0001
0000
1000
0100
0010
0001
0100
0010
1000
0001
,
0010
0000
0000
0010
0100
0000
0001
0000
0100
0000
1000
0000
0100
0000
0010
0000
,
0001
0000
1000
0010
1000
0000
0001
0000
0100
0000
0010
1000
0100
0010
0001
1000
,
0010
1010
1100
0011
,
2002
0000
3003
0000
0220
0000
0330
0000
2002
0000
3003
0000
1000
0100
0010
0001
,
1000
0010
0100
0010
0001
0010
0100
0010
,
1000
0100
0010
0001
0010
0100
1000
0000
,
0001
0010
0100
0010
1000
0010
0100
0010
,
0001
0000
0100
0000
0010
0000
1000
0000
0010
0000
0100
0001
1000
0000
0100
1000
,
0001
0010
0100
0001
0100
1000
0001
1000
,
0010
0100
0001
0010
0100
1000
0010
0000
,
1000
0010
0100
1000
0100
0001
1000
0001
,
0010
0000
0001
1000
0100
0000
0010
0000
0001
0000
1000
0000
0010
0000
1000
0001
,
0100
0001
0100
0001
1000
0010
0100
0010
,
0001
0000
0000
0010
0000
0000
0100
0000
0000
0001
0000
0000
2000
0000
3000
0200
0000
0300
0020
0000
0030
0000
0000
0000
,
0100
1000
0100
1000
0001
0010
0100
0010
,
1000
0000
0000
0010
0000
0000
0100
0000
0000
1000
0000
0000
0002
0000
0003
0200
0000
0300
0020
0000
0030
0000
0000
0000
,
1000
0010
0100
0001
1000
0100
0010
0001
,
0100
0010
0100
1000
0100
0001
1000
0000
,
0001
0010
1000
0010
0001
0100
1000
0100
,
0010
0100
0110
0000
2002
0000
3003
0000
;

//--------------- dance-double - forcednature ----------------
#NOTEDATA:;
#STEPSTYPE:dance-double;
#DESCRIPTION:forcednature;
#DIFFICULTY:Easy;
#METER:8;
#RADARVALUES:0,0,0,0,0;
#CREDIT:forcednature;
#NOTES:
00000000
00000000
00000000
00000000
,
00000000
00000000
00000000
00000000
,
00000000
00000000
00000000
00000000
,
00000000
00000000
00000000
00000000
,
00000000
00000000
00000000
00000000
,
00000000
00000000
00000000
00000000
,
00001000
00000000
00010000
00000000
,
00100000
00000000
01000000
00000000
,
00010000
00000000
00000000
10000000
00000000
00000000
00010000
00000000
,
00100000
00000000
00000000
00000000
,
02200000
00000000
00000000
00000000
,
00000000
00000000
03300000
00000000
,
01000000
00000000
10000000
00000000
,
00010000
01000000
00001000
00010000
,
00000100
00000000
00001000
00000000
,
00000010
00000100
00000010
00001000
,
00000001
00000000
00000010
00000000
,
00000100
00001000
00000100
00010000
,
00001000
00000000
01000000
00000000
,
00010000
00100000
00010000
10000000
,
00100000
00000000
01000000
00000000
,
00010000
01000000
00001000
00010000
,
00001000
00000000
00000010
00000000
,
00000100
00000000
00001000
00000000
00000001
00000010
00000001
00000000
,
00001000
00000000
00000010
00000000
,
00010000
00000000
00001000
00000000
00100000
00010000
00100000
00000000
,
01000000
00000000
10000000
00010000
,
01000000
00000000
00001000
00010000
,
00000100
00001000
00000100
00000010
,
00000001
00001000
00000001
00000100
,
00000010
00001000
00000010
00000000
00001000
00000010
00001000
00000000
,
00000010
00001000
00000010
00000000
00010000
00000000
00000000
00000000
,
00001000
00000000
00100000
00001000
00100000
00000000
00001000
00000000
,
00000000
01000000
02020000
03030000
,
00010000
10000000
01000000
00100000
,
00010000
01000000
00001000
00000000
,
00010000
00010000
00010100
00010100
,
00010000
00010000
00010100
00010100
,
00000100
00000000
00001000
00000001
,
00000100
00000010
00010000
00001000
,
00100000
00100000
00101000
00101000
,
00100000
00100000
00101000
00101000
,
00001000
00000000
00010000
00100000
,
01000000
00100000
10000000
00000000
,
00010000
01010000
00010000
01010000
,
00010000
01010000
00010000
01010000
,
01000000
00000000
00001000
00010000
,
00000100
00001000
00000100
00000010
,
00000000
00000001
00000000
00000001
00000000
00000001
00000000
00000001
,
00000000
00000100
00002000
00003000
,
00011000
00000000
00011000
00000000
,
00010000
00001000
00010000
00001000
,
00000000
01000000
00010000
00100000
,
00000000
01000000
10000000
00010000
,
00000000
01000000
00001000
00010000
,
00000000
00000100
00001000
00000010
,
00000100
00000100
00000100
00000000
,
00001000
00001000
00001000
00000000
,
00011000
00000000
00011000
00000000
,
00010000
00001000
00010000
00001000
,
00000000
01000000
00010000
01000000
,
00000000
00001000
00010000
00001000
,
00000000
00100000
00010000
00100000
,
00000000
00001000
00010000
00001000
,
00000010
00000010
00000010
00000000
,
00000100
00000100
00000100
00000000
,
00011000
00000000
00011000
00000000
,
00001000
00010000
00001000
00010000
,
00000000
00100000
01000000
00100000
,
00000000
10000000
00010000
10000000
,
00000000
01000000
10000000
01000000
,
00000000
00100000
00010000
00100000
,
00001000
00001000
00001000
00000000
,
00010000
00010000
00010000
00000000
,
00011000
00000000
00011000
00000000
,
00001000
00010000
00001000
00010000
,
00000000
00000010
00001000
00000001
,
00000000
00000010
00000100
00001000
,
00000010
00000010
00010000
00010000
,
00001000
00001000
00100000
00100000
,
10010000
00000000
01100000
00000000
,
10010000
01100000
10010000
00000000
,
00010000
00000000
01000000
00000000
,
00001000
00010000
00000100
00001000
,
00000010
00000000
00000100
00000000
,
00000001
00000010
00000100
00001000
,
00000010
00000000
00010000
00000000
,
00001000
00100000
00010000
00100000
,
01000000
00000000
10000000
00000000
,
00010000
01000000
00001000
00010000
,
00001000
00000000
00000010
00000000
,
00000100
00001000
00000001
00000100
,
00000010
00000000
00010000
00000000
,
00001000
00100000
00010000
00100000
,
01000000
00000000
10000000
00000000
,
00010000
01000000
00001000
00010000
,
00000100
00001000
00000100
00000010
,
00001001
00000110
00002002
00003003
;

//--------------- dance-double - forcednature ----------------
#NOTEDATA:;
#STEPSTYPE:dance-double;
#DESCRIPTION:forcednature;
#DIFFICULTY:Medium;
#METER:11;
#RADARVALUES:0,0,0,0,0;
#CREDIT:forcednature;
#NOTES:
00000000
00000000
00000000
00000000
,
00000000
00000000
00000000
00000000
,
00000000
00000000
00000000
00000000
,
00000000
00000000
00000000
00000000
,
00000000
00000000
00000000
00000000
,
00000000
00000000
00000000
00000000
,
00011000
01000000
00010000
00100000
,
01000000
10000000
01000000
00010000
,
00011000
00000000
00000000
00000100
00000000
00000000
00001000
00000000
,
00001001
00000000
00000000
00000000
,
00000220
00000000
00000000
00000000
,
00000000
00000000
00000000
00000330
,
00000101
00000000
00001010
00000000
,
00010100
01001000
00110000
11000000
,
10000000
01000000
00100000
00010000
,
01000000
00000000
00001000
00000000
00010000
00000100
00010000
00000000
,
00001000
00000100
00000010
00000100
,
00000001
00000000
00001000
00000000
00000100
00000010
00000100
00000000
,
00010000
00001000
01000000
00010000
,
00100000
00000000
01000000
00000000
10000000
00100000
10000000
00000000
,
01000000
00010000
00001000
00100000
,
00010000
00000000
01000000
00000000
00001000
00010000
00001000
00000000
,
00000010
00000100
00001000
00000010
,
00000100
00000000
00000001
00000000
00000010
00000010
00000010
00000000
,
00000100
00010000
00001000
01000000
,
00010000
00000000
00100000
00000000
01000000
01000000
01000000
00000000
,
10000000
00010000
10000000
00100000
,
01100000
00000000
01000000
00000000
00001000
00010000
00001000
00000000
,
00100000
00010000
00001000
00000100
,
00000110
00000000
00000010
00000000
00000001
00001000
00000001
00000000
,
00000100
00000100
00000100
00000000
00000010
00000010
00000010
00000000
,
00010000
00010000
00010000
00000000
00022000
00000000
00033000
00000000
,
00100000
00000000
00010000
00010000
00010000
00000000
02000000
00000000
,
03000000
01100000
20020000
30030000
,
10000000
01000000
00100000
00010000
,
01000000
00000000
00001000
00000000
00010000
00000100
00010000
00000000
,
00001000
01001000
00001000
00011000
,
00001000
00101000
00001000
00011000
,
00001000
01000000
00010000
00100000
,
00001000
00000000
00010000
00000000
00000010
00001000
00000010
00000000
,
00010000
00010100
00010000
00011000
,
00010000
00010010
00010000
00011000
,
00001000
01000000
00010000
01000000
,
01000000
00000000
10000000
00000000
00010000
00100000
00010000
00000000
,
01000000
01100000
01000000
01010000
,
01000000
01001000
01000000
01010000
,
01000000
00001000
00010000
00000100
,
00001000
00000010
00001000
00000000
00000001
00000010
00000001
00000000
,
00000000
00000100
00000000
00000100
00000000
00000100
00000000
00000100
,
00000000
00001000
00022000
00033000
,
01000000
01010000
00100000
10100000
,
01000000
01010000
01001000
00011000
,
00000100
00000000
00001000
00000000
00000001
00000010
00000001
00000000
,
00000100
00000000
00000010
00000000
00001000
00000001
00001000
00000000
,
00000100
00000000
00010000
00000000
00001000
01000000
00001000
00000000
,
00100000
00000000
00010000
00000000
01000000
00100000
01000000
00000000
,
00001000
00000000
00000000
01000000
00000000
00000000
00001000
00000000
02000000
00000000
00000000
00000000
03000000
00000000
00000000
00000000
,
00000100
00000000
00000000
00010000
00000000
00000000
00000100
00000000
00020000
00000000
00000000
00000000
00030000
00000000
00000000
00000000
,
00001000
00101000
00100000
00101000
,
00001000
00011000
00010010
00001010
,
00001000
00000000
00000001
00000000
00000010
00000100
00000010
00000000
,
00000100
00000000
00010000
00000000
00001000
01000000
00001000
00000000
,
00100000
00000000
00010000
00000000
01000000
00100000
01000000
00000000
,
00010000
00000000
10000000
00000000
01000000
00100000
01000000
00000000
,
00100000
00000000
00000000
00001000
00000000
00000000
00100000
00000000
00002000
00000000
00000000
00000000
00003000
00000000
00000000
00000000
,
00010000
00000000
00000000
00000010
00000000
00000000
00010000
00000000
00000020
00000000
00000000
00000000
00000030
00000000
00000000
00000000
,
00001000
00001100
00000100
00010100
,
00010000
00011000
01001000
01010000
,
00010000
00000000
00100000
00000000
01000000
10000000
01000000
00000000
,
00100000
00000000
00001000
00000000
00010000
00000010
00010000
00000000
,
00001000
00000000
00000010
00000000
00000100
00001000
00000100
00000000
,
00000010
00000000
00000001
00000000
00000100
00000010
00000100
00000000
,
00000010
00000000
00000000
00010000
00000000
00000000
00000010
00000000
00020000
00000000
00000000
00000000
00030000
00000000
00000000
00000000
,
00001000
00000000
00000000
00100000
00000000
00000000
00001000
00000000
00200000
00000000
00000000
00000000
00300000
00000000
00000000
00000000
,
00010000
01010000
01000000
01100000
,
00100000
10100000
10010000
11000000
,
01000000
00000000
00100000
00000000
00001000
00010000
00001000
00000000
,
00000100
00000000
00000010
00000000
00001000
00000001
00001000
00000000
,
00000100
00010000
00001000
00010000
,
00100000
00010000
00001000
00010000
,
00020010
00030100
00102000
01003000
,
01001000
00010100
00022000
00033000
,
00001000
00010000
00100000
01000000
,
00010000
00000000
10000000
00000000
01000000
00100000
01000000
00000000
,
00010000
00001000
00000100
00000010
,
00001000
00000000
00000001
00000000
00000010
00000100
00000010
00000000
,
00000001
00000100
00001000
00010000
,
01000000
00000000
00100000
00000000
00001000
00010000
00001000
00000000
,
01000000
00010000
10000000
01000000
,
00010000
00000000
00001000
00000000
00100000
00010000
00100000
00000000
,
01000000
01000000
00010000
00010000
,
00001000
00000000
00000100
00000000
00000010
00000100
00000010
00000000
,
00000100
00000100
00001000
00001000
,
00010000
00000000
00010000
00000000
01000000
00100000
01000000
00000000
,
00100000
00010000
00001000
00000100
,
00000010
00000001
00001000
00000001
,
00000100
00001000
00010000
00100000
,
01100000
10010000
02200000
03300000
;

//--------------- dance-double - forcednature ----------------
#NOTEDATA:;
#STEPSTYPE:dance-double;
#DESCRIPTION:forcednature;
#DIFFICULTY:Hard;
#METER:13;
#RADARVALUES:0,0,0,0,0;
#CREDIT:forcednature;
#NOTES:
00000000
00000000
00000000
00000000
,
00000000
00000000
00000000
00000000
,
00000000
00000000
00000000
00000000
,
00000000
00000000
00000000
00000000
,
00000000
00000000
00000000
00000000
,
00000000
00000000
00000000
00000000
,
00011000
00000000
01000000
00010000
00100000
00000000
00001000
00010000
,
00000100
00000000
00001000
00000010
00010000
00000000
00001000
01000000
,
00010000
00000000
00000000
00100000
00000000
00000000
01000000
00000000
,
02200000
00000000
00000000
03300000
,
20020000
00000000
00000000
00000000
,
00000000
00000000
00000000
30030000
,
01001000
00000000
00010100
00000000
,
00101000
00000000
00010010
00000000
00010000
00001000
00000010
00000000
,
00000100
00001000
00000001
00000100
00000010
00010000
00001000
00100000
,
00010000
01000000
10000000
01000000
00100000
10000000
00010000
00000000
,
00100000
01000000
00010000
00001000
00100000
00010000
01000000
00001000
,
00010000
00000010
00001000
00000010
00000100
00001000
00000100
00000000
,
00000001
00000010
00000100
00000001
00000100
00001000
00000010
00010000
,
00001000
00100000
00010000
01000000
10000000
01000000
00100000
00000000
,
10000000
01000000
00010000
00001000
01000000
00010000
00100000
00001000
,
00010000
00000010
00000100
00001000
00000100
00000001
00000010
00000000
,
00000100
00010000
00001000
00100000
00010000
01000000
00001000
00010000
,
01000000
10000000
00100000
01000000
00010000
00010000
00010000
00000000
,
00100000
01000000
00100000
00001000
00010000
00000010
00000100
00001000
,
00000100
00000001
00000010
00000100
00010000
00010000
00010000
00000000
,
00001000
00100000
01000000
00100000
00010000
01000000
00100000
10000000
,
00010000
00100000
00001000
00010000
00000010
00001000
00000100
00000000
,
00000010
00001000
00000010
00000001
00001000
00000001
00000100
00001000
,
00010000
00100000
01000000
00100000
10000000
00010000
00100000
00000000
,
01000000
00010000
00001000
00000000
00000100
00001000
00010000
00000000
,
00100000
00010000
00001000
00000000
00011000
00000000
00000000
00000000
,
00010100
00000000
00000100
00001000
00000010
00000000
00000220
00000000
,
00000330
00011000
02200000
03300000
,
10000000
01000000
00100000
00010000
01000000
00100000
00010000
00001000
,
00100000
00010000
00001000
00000100
00000010
00000001
00000100
00000000
,
00000011
00001010
00011000
00001100
,
00000101
00000011
00001010
00000110
,
00000010
00000001
00000100
00000010
00000100
00001000
00010000
01000000
,
00100000
00001000
00010000
00100000
01000000
00010000
00100000
00000000
,
11000000
10100000
00110000
00011000
,
01010000
11000000
10100000
01100000
,
10000000
01000000
00100000
00010000
00100000
00001000
00010000
00000010
,
00001000
00000010
00000100
00001000
00000100
00000100
00000001
00000000
,
00000011
00001010
00011000
00001100
,
00000101
00000011
00001010
00000110
,
00000001
00000100
00001000
00010000
00001000
00000010
00000100
00001000
,
00010000
01000000
00001000
00010000
00100000
01000000
10000000
01000000
,
00010000
00100000
00000000
00100000
00000000
00100000
00000000
00100000
,
01000000
00010000
00001000
00000100
00000010
00000000
00000110
00000000
,
00000100
00000001
00000101
00000000
00000010
00001000
00001010
00000000
,
00010000
00001000
00010000
00100000
00010000
00001000
01000000
01001000
,
00000000
00001000
00010000
01000000
00100000
00010000
01000000
00100000
,
00000000
00010000
00100000
10000000
00010000
10000000
01000000
00010000
,
00011000
00000000
00001000
00010000
00000100
00001000
00000010
00000100
,
00000000
00001000
00000100
00000001
00000010
00000100
00010000
00001000
,
01000000
00000000
00000000
00010000
00000000
00000000
00100000
00000000
00001000
00000000
00000000
00000000
00011000
00000000
00000000
00000000
,
00000100
00000000
00000000
00001000
00000000
00000000
00000010
00000000
00010000
00000000
00000000
00000000
00011000
00000000
00000000
00000000
,
01000000
00010000
01010000
00000000
00100000
10000000
10100000
00000000
,
10000000
01000000
00010000
00001000
00010000
00100000
00010000
00011000
,
00000000
01000000
00010000
00100000
00001000
00010000
00000100
00001000
,
00000000
00000010
00010000
00001000
01000000
00010000
00100000
00001000
,
00011000
00000000
00010000
00000010
00000100
00001000
00000100
00000001
,
00000000
00000010
00000100
00010000
00001000
01000000
00100000
10000000
,
00010000
00000000
00000000
00100000
00000000
00000000
01000000
00000000
10000000
00000000
00000000
00000000
01001000
00000000
00000000
00000000
,
00010000
00000000
00000000
00000100
00000000
00000000
00001000
00000000
00000010
00000000
00000000
00000000
00000101
00000000
00000000
00000000
,
00000001
00000010
00000110
00000000
00001000
00000010
00000110
00000000
,
00000001
00001000
00000100
00010000
00000010
00000100
00001000
00011000
,
00000000
01000000
00001000
00100000
00010000
01000000
00100000
10000000
,
00000000
01000000
00010000
00001000
01000000
00010000
00100000
01000000
,
01100000
00000000
00100000
00001000
00010000
00000010
00000100
00001000
,
00000000
00000100
00000001
00001000
00000001
00000010
00001000
00010000
,
00100000
00000000
00000000
01000000
00000000
00000000
00010000
00000000
00100000
00000000
00000000
00000000
00011000
00000000
00000000
00000000
,
00000010
00000000
00000000
00000100
00000000
00000000
00001000
00000000
00000010
00000000
00000000
00000000
00011000
00000000
00000000
00000000
,
01000000
00001000
00101000
00000000
00000100
00010000
00010010
00000000
,
00010000
00001000
00010000
00100000
01000000
00010000
00100000
01100000
,
00000000
01000000
10000000
01000000
00010000
00001000
00000100
00000001
,
00000010
00000100
00000010
00001000
00010000
00100000
01000000
00100000
,
10000000
00000000
00000000
10000000
01000000
00000000
00100000
00000000
00010000
00000000
01000000
00000000
00001000
00000000
00010000
00000000
,
00000100
00000000
00000000
00000100
00001000
00000000
00000010
00000000
00000100
00000000
00000001
00000000
00000010
00000000
00000001
00000000
,
00000200
00002300
00023000
02030000
,
03100000
01100000
20020000
30030000
,
10000000
01000000
00100000
00001000
00010000
00000100
00010000
00001000
,
00100000
00010000
01000000
00001000
00010000
00000010
00001000
00000000
,
00000001
00000100
00000010
00010000
00001000
01000000
00001000
00010000
,
00000010
00001000
00000100
00010000
00001000
01000000
00010000
00000000
,
00100000
01000000
10000000
01000000
00010000
00001000
01000000
00010000
,
00100000
00001000
00010000
00000010
00001000
00000100
00000010
00000000
,
00001000
00000010
00000001
00001000
00000001
00000100
00000010
00010000
,
00001000
00100000
00010000
01000000
00001000
00010000
01000000
00000000
,
00100000
00010000
00100000
00001000
00010000
00100000
00010000
00001000
,
00010000
00000100
00001000
00000010
00010000
00001000
00000010
00000000
,
00000100
00001000
00000100
00010000
00001000
00000100
00001000
00010000
,
00001000
01000000
00010000
00100000
01000000
00010000
00001000
00000000
,
01000000
00010000
00100000
00001000
00010000
00000100
00001000
00000010
,
00010000
00001000
00100000
00010000
01000000
10000000
01000000
00000000
,
00100000
10000000
01000000
00010000
00001000
00000100
00000001
00000010
,
00000100
00010000
00001000
00000000
00022000
00000000
00033000
00000000
;

//--------------- dance-double - forcednature ----------------
#NOTEDATA:;
#STEPSTYPE:dance-double;
#DESCRIPTION:forcednature;
#DIFFICULTY:Challenge;
#METER:16;
#RADARVALUES:0,0,0,0,0;
#CREDIT:forcednature;
#NOTES:
00000000
00000000
00000000
00000000
,
00000000
00000000
00000000
00000000
,
00000000
00000000
00000000
00000000
,
00000000
00000000
00000000
00000000
,
00000000
00000000
00000000
00000000
,
00000000
00000000
00000000
00000000
,
00011000
00000000
01000000
00010000
00100000
00000000
00000100
00001000
,
00000010
00000000
00100000
00010000
01000000
00000000
00000010
00001000
,
00000100
00000000
00000000
00010100
00000000
00000000
01001000
00000000
,
02200000
00000000
00000000
03300000
,
20020000
00000000
00000000
00000000
,
00000000
00000000
00000000
30030000
,
22000000
33000000
00220000
00330000
,
00001000
01000000
00001000
00000000
00010000
00000010
00010000
00000000
00000100
00001000
00000100
00000000
00000010
00000000
00000000
00000000
,
00000001
00000100
00000010
00000100
00001000
00010000
01000000
00100000
,
00010000
01000000
10000000
01000000
00100000
10000000
00010000
00000000
,
10000000
01000000
00010000
00001000
00100000
00010000
00001000
00000100
,
00010000
00000010
00000100
00001000
00000100
00000001
00000010
00000000
,
00000100
00010000
00001000
01000000
00010000
00100000
10000000
00100000
,
01000000
10000000
01000000
00010000
00001000
00000010
00000100
00000000
,
00001000
00000000
00000010
00000000
00000001
00000000
00000010
00000000
00000100
00000000
00001000
00000000
00010000
00000000
01000000
00100000
,
01000000
00000000
10000000
00000000
00010000
00000000
01000000
00000000
00001000
00010000
00001000
00000000
00000010
00000000
00000000
00000000
,
00000100
00000001
00000100
00001000
00000010
00010000
00001000
01000000
,
00010000
00100000
01000000
10000000
01000000
00010000
00000100
00000000
,
00001000
00000010
00000001
00000010
00000100
00001000
00010000
00000100
,
00010000
00001000
01000000
00010000
00100000
00001000
00000010
00000000
,
00000100
00000000
00001000
00000000
00000001
00000000
00000100
00000000
00000010
00000000
00000001
00000000
00000010
00000000
00000100
00000001
,
00000100
00000000
00000010
00000000
00010000
00000000
00001000
00000000
00100000
00010000
00100000
01000000
10000000
00000000
00010000
01000000
,
00010000
00000000
00100000
00000000
00001000
00000000
00010000
00000010
00010000
00000000
00001000
00000000
00000010
00000000
00000100
00001000
,
00000100
00000000
00000100
00000000
00010000
00000000
00010000
00000000
00001000
01000000
00010000
01000000
00100000
00000000
00000000
00000000
,
10000000
01000000
00001000
00000000
00010000
00000010
00000001
00000000
,
00000001
00000100
00010000
00000000
02200000
00000000
03300000
00000000
,
10010000
00000000
01000000
00001000
00000010
00000000
00000220
00000000
,
00000330
00011000
02200000
03300000
,
00010000
10000000
00010000
01000000
00100000
00010000
00001000
00000010
,
00000100
00000010
00000001
00001000
00000010
00000100
00001000
00000000
,
00010000
00100000
00000000
00000000
10000000
00100000
00000000
00000000
10000000
01000000
00000000
00000000
00010000
01000000
00000000
00000000
,
00010000
00001000
00000000
00000000
00000010
00001000
00000000
00000000
00000010
00000001
00000000
00000000
00000100
00000001
00000000
00000000
,
00000011
00000000
00000010
00000100
00010000
00000010
00001000
00010000
,
01000000
00001000
00100000
00010000
10000000
00100000
00010000
00000000
,
01000000
00001000
00000000
00000000
01000000
00001000
00000000
00000000
00100000
00010000
00000000
00000000
00100000
00010000
00000000
00000000
,
00001000
00000100
00000000
00000000
00001000
00000100
00000000
00000000
00010000
00000010
00000000
00000000
00010000
00000010
00000000
00000000
,
00000100
00001000
00000100
00000001
00000010
00000100
00010000
00001000
,
01000000
00100000
00010000
00100000
10000000
10010000
01100000
00000000
,
10000000
01000000
00000000
00000000
00010000
01000000
00000000
00000000
00010000
00001000
00000000
00000000
00000100
00001000
00000000
00000000
,
00000100
00000001
00000000
00000000
00000010
00000001
00000000
00000000
00000010
00001000
00000000
00000000
00010000
00001000
00000000
00000000
,
01000000
00000000
00010000
00000000
00100000
00000000
00010000
00000000
00001000
00000000
00000100
00000000
00001000
00000000
00000010
00001000
,
00000001
00000000
00000100
00000000
00000010
00000000
00001000
00000000
00010000
01000000
00010000
01000000
00100000
10000000
00100000
10000000
,
00010000
00100000
10000000
00100000
01000000
00010000
00001000
00010000
,
00000010
00000000
00001000
00000001
00000010
00000000
00000100
00000000
00020000
00000000
00000000
00000000
00130000
00000000
00000000
00000000
,
01000000
00010000
01000000
00000000
10100000
00000000
00000000
00000000
01000000
10000000
01000000
00000000
00110000
00000000
00000000
00000000
,
01000000
00010000
01000000
00000000
00001000
00010000
00001000
00000000
00100000
00010000
00100000
00000000
01000000
00000000
00010000
00000000
,
00000000
00001000
00000100
00000001
00000010
00001000
00010000
00100000
,
00000000
00000000
01000000
00000000
00001000
00000000
00010000
00000000
01000000
00000000
00100000
00000000
00010000
00000000
00001000
00000100
,
00000010
00000000
00000001
00000100
00001000
00010000
01000000
00100000
,
00000000
00000000
00010000
00000000
01000000
00000000
10000000
00000000
01000000
00000000
00100000
10000000
00100000
10000000
00100000
10000000
,
00010000
00000000
00000000
00100000
00000000
00000000
00001000
00000000
00000010
00000000
00000000
00000000
MMMM0110
00000000
00000000
00000000
,
00001000
00000000
00000000
00000100
00000000
00000000
00010000
00000000
01000000
00000000
00000000
00000000
0110MMMM
00000000
00000000
00000000
,
00010000
01000000
00010000
00000000
00101000
00000000
00000000
00000000
00010000
00000100
00010000
00000000
00001010
00000000
00000000
00000000
,
00010000
00000100
00010000
00000000
00001000
01000000
00001000
00000000
00100000
00010000
00100000
00000000
01000000
00000000
10010000
00000000
,
00000000
00010000
01000000
10000000
01000000
00010000
00100000
00001000
,
00000000
00000000
00010000
00000000
00000010
00000000
00001000
00000000
00000100
00000010
00000100
00000010
00000001
00001000
00000001
00001000
,
00000010
00000000
00000000
00000000
00000100
00000000
00001000
00000000
00010000
00001000
00200000
00000000
00010000
00000000
01300000
00000000
,
00000000
00000000
00100000
00000000
10000000
00000000
00100000
00000000
00010000
00000000
01000000
00001000
01000000
00001000
01000000
00001000
,
00010000
00000000
00000000
00000100
00000000
00000000
00001000
00000000
00100000
00000000
00000000
00000000
0110MMMM
00000000
00000000
00000000
,
00001000
00000000
00000000
01000000
00000000
00000000
00010000
00000000
00000010
00000000
00000000
00000000
MMMM0110
00000000
00000000
00000000
,
00001000
00000100
00010000
00000000
00101000
00000000
00000000
00000000
00010000
01000000
00001000
00000000
00010010
00000000
00000000
00000000
,
00001000
00000100
00010000
00000000
00001000
01000000
00010000
00000000
00100000
00001000
00010000
00000000
00000010
00000000
00001010
00000000
,
00000000
00001000
00000001
00000010
00001000
00010000
00100000
01000000
,
00000000
00000000
00010000
00000000
10000000
00000000
01000000
00000000
00010000
00000000
00001000
00010000
00000100
00001000
00000100
00000010
,
00000001
00000000
00000100
00001000
01000000
00010000
00100000
01000000
,
00000000
00000000
10000000
00000000
00010000
00000000
01000000
00000000
00001000
00000000
00100000
00010000
00100000
00010000
10000000
00010000
,
01000000
00000000
00000000
00001000
00000000
00000000
00000010
00000000
00000001
00000000
00000000
00000000
MMMM0110
00000000
00000000
00000000
,
00000100
00000000
00000000
00010000
00000000
00000000
00100000
00000000
10000000
00000000
00000000
00000000
0110MMMM
00000000
00000000
00000000
,
01000000
00001000
00010000
00000000
00001010
00000000
00000000
00000000
00000100
00010000
00001000
00000000
00110000
00000000
00000000
00000000
,
00001000
01000000
00010000
00000000
00100000
00001000
00010000
00000000
00000010
00001000
00000100
00000000
00010000
00000000
00011000
00000000
,
00000000
00000000
01000000
00000000
10000000
00000000
01000000
00000000
00010000
00000000
00100000
00000000
01000000
00000000
00010000
00001000
,
00010000
00000000
00001000
00000000
00000010
00000000
00000100
00000000
00001000
00000010
00001000
00000010
00000100
00000001
00000100
00000001
,
00000010
00000000
00000000
00000010
00000100
00000000
00010000
00000000
00001000
00000000
01000000
00000000
00100000
00000000
01000000
00000000
,
00010000
00000000
00000000
00010000
10000000
00000000
01000000
00000000
00010000
00000000
00001000
00100000
00010000
00100000
01000000
10000000
,
00010000
01000000
00001000
00000010
,
00000220
00000330
00002002
00003003
00000220
00000000
00000330
00000000
,
00000001
00000010
00000100
00000010
00001000
00010000
00100000
01000000
,
10000000
01000000
00010000
00100000
01000000
00010000
01000000
00000000
,
10000000
00100000
01000000
00100000
00010000
00001000
00000010
00000100
,
00000001
00000000
00000100
00000000
00001000
00000000
00000010
00000000
00000100
00000000
00000001
00001000
00000100
00000000
00001000
00000001
,
00000100
00001000
00010000
00001000
00100000
01000000
00010000
01000000
,
00100000
00001000
00010000
00100000
10000000
00010000
00100000
00000000
,
01000000
00010000
00001000
00010000
00000010
00000100
00001000
00000100
,
00000010
00000000
00001000
00000001
00000010
00000000
00001000
00000000
00010000
00000000
00100000
00000000
01000000
00000000
00010000
10000000
,
01000000
00010000
01000000
00010000
00001000
00000010
00000100
00000010
,
00000001
00000100
00001000
00010000
00000200
00002300
00003020
00000030
,
00000100
00001000
00000100
00001000
00010000
00100000
01000000
00100000
,
10000000
01000000
00010000
00001000
02000000
03020000
00230000
00300000
,
00001000
00010000
00100000
01000000
00010000
00100000
01000000
10000000
,
01000000
00010000
00001000
00010000
00000010
00001000
00000100
00000000
,
00010000
00001000
00000100
00000010
00010000
00001000
00000010
00000100
,
00001000
00000010
00000001
00000000
00000220
00000000
00000330
00000000
;
