#VERSION:0.83;
#TITLE:Crackpot Evangelist;
#SUBTITLE:;
#ARTIST:BEMANI Sound Team "ZAQUVA";
#TITLETRANSLIT:;
#SUBTITLETRANSLIT:;
#ARTISTTRANSLIT:ZAQUVA;
#GENRE:;
#CREDIT:;
#MUSIC:Crackpot Evangelist.ogg;
#BANNER:Crackpot Evangelist.png;
#BACKGROUND:Crackpot Evangelist-bg.png;
#CDTITLE:./CDTitles/jb Ave.png;
#SAMPLESTART:58.135;
#SAMPLELENGTH:15.047;
#SELECTABLE:YES;
#OFFSET:1.846;
#BPMS:0.000=200.000
,76.000=400.000
,76.500=200.000
,84.000=400.000
,84.500=200.000
,92.000=400.000
,92.500=200.000
,135.000=400.000
,136.000=200.000
,164.000=400.000
,168.000=200.000
,196.000=100.000
,196.750=200.000
,225.000=100.000
,226.500=400.000
,353.000=200.000
,354.000=400.000
,482.000=200.000
,489.000=400.000
;
#STOPS:76.000=0.075
,84.000=0.075
,92.000=0.075
,135.000=0.150
,164.000=0.600
,196.000=0.150
,196.250=0.150
,196.500=0.150
,196.750=0.225
,226.500=0.225
,489.000=0.150
;
#TIMESIGNATURES:0.000=4=4,
196.000=1=4,
197.000=4=4,
225.000=2=4,
227.000=4=4,
351.000=3=4,
354.000=4=4
;
#BGCHANGES:0.000=../BGAs/28bk.mp4=1.000=0=0=0=StretchNoLoop====,
99999.000=-nosongbg-=1.000=0=0=0=StretchNoLoop====
;
#FGCHANGES:;

//--------------- dance-single - forcednature ----------------
#NOTEDATA:;
#STEPSTYPE:dance-single;
#DESCRIPTION:forcednature;
#CREDIT:forcednature;
#DIFFICULTY:Beginner;
#METER:9;
#RADARVALUES:0,0,0,0,0;
#NOTES:
0000
0000
0000
0000
,
0000
0000
0000
0000
,
0000
0000
0000
0000
,
0000
0000
0000
0000
,
0000
0000
0000
0000
,
0000
0000
0000
0000
,
0001
0000
0000
0000
,
0100
0000
0000
0000
,
0010
0000
0000
0000
,
1000
1000
1000
0000
,
1001
0000
0001
0000
,
0001
0000
0001
0000
,
0010
0000
0010
0000
,
0010
0000
0010
0000
,
0100
1000
0100
0000
,
1000
0010
1000
0000
,
0001
0100
0001
0100
,
0020
0000
0000
0030
,
1001
1000
0100
1000
,
0000
1000
0010
0000
,
1001
0001
0100
0001
,
0000
0001
0010
0000
,
0110
1000
0010
1000
,
0000
0100
1000
0000
,
0001
0010
0001
0000
,
0100
0001
0100
0010
,
1000
1000
1000
1000
,
0001
0010
0100
1000
,
0001
0001
0001
0001
,
1000
0010
0100
0001
,
0010
0010
0010
0010
,
0100
1000
0001
0100
,
0010
0010
0010
0010
,
1000
2000
0000
3001
,
1001
1000
0010
0100
,
0010
0010
1000
0001
,
0000
0010
0100
0010
,
0001
0001
1000
0010
,
1000
0100
0010
0001
,
0010
0100
1000
0000
,
0001
0000
0100
0000
0010
1000
0010
0000
,
2002
0000
3003
0000
,
1000
0000
0000
0000
,
0100
0000
0000
0000
,
0010
0000
0000
0000
,
0001
0000
0001
0000
,
0100
0000
0000
0000
,
0010
0000
0010
0000
,
1000
0000
0000
0000
,
0001
0001
0001
0000
1001
0000
0000
0000
0000
0000
0000
0000
1000
0000
0000
0000
,
0100
1000
0000
0010
,
0100
0010
0000
0100
,
0001
0010
0100
1000
,
0000
0001
0001
0010
,
0001
1000
1000
0010
,
1000
0100
0010
0001
,
1000
0020
0130
0001
,
0000
0001
0000
0100
,
0000
0001
0000
1000
,
0000
1000
0000
0100
,
0000
1000
0000
0010
,
0000
0010
0000
0100
,
0000
0010
0000
1000
,
0000
0001
0000
0010
,
0000
0000
0000
0100
,
0000
0100
0000
1000
,
0000
0100
0000
1000
,
0000
1000
0000
0010
,
0000
1000
0000
0001
,
0000
0001
0000
0010
,
0000
0001
0000
0100
,
0000
0010
0000
1000
,
0000
0000
0000
0001
,
0000
0010
0000
0100
,
0000
0010
0000
0001
,
0000
1000
0000
0100
,
0000
0000
0000
1000
,
0000
0010
0000
0100
,
0000
0010
0000
1000
,
0000
0001
0000
0100
,
0000
0000
0000
0010
,
0000
1000
0000
0100
,
0000
0000
0000
0010
,
0000
0001
0000
0100
,
0000
0000
0000
0010
,
0000
1000
0000
0001
,
0000
1000
0000
0010
,
0000
0100
0000
0001
,
0000
0000
0001
0000
,
0001
0001
0001
0000
,
0000
0000
0010
0000
,
0010
0010
0010
0000
,
0000
0000
0100
0000
,
0100
0100
0100
0000
,
0000
0000
1000
0001
,
1000
0000
0001
0000
,
0000
0000
1000
0000
,
1000
1000
1000
0000
,
0000
0000
0010
0000
,
0010
0010
0010
0000
,
0000
0000
0100
0000
,
0100
0100
0100
0000
,
0000
0000
0001
0000
,
1000
0001
1000
0000
,
1001
0000
0001
0000
,
0010
0000
0001
0000
,
0100
0000
0001
0000
,
1000
0000
0010
0100
,
0010
0000
1000
0000
,
0100
0000
1000
0000
,
0010
0000
1000
0001
,
1000
0001
1000
0000
,
0010
0000
0100
0000
,
0100
0000
0001
0010
,
0001
0000
1000
0000
,
1000
0000
0100
1000
,
0100
0000
1000
0010
,
0100
0000
0001
0010
,
0100
0000
1000
0001
,
1000
0001
0100
0010
,
0100
0000
0220
0000
,
0000
0000
0000
0000
,
0330
1001
0001
0001
,
0010
0000
0001
0001
,
0100
0000
0001
1000
,
0010
0000
1000
0001
,
0010
0000
0100
1000
,
0100
1000
0010
1000
,
0010
0000
2002
0000
,
0000
3003
0000
0000
;

//--------------- dance-single - forcednature ----------------
#NOTEDATA:;
#STEPSTYPE:dance-single;
#DESCRIPTION:forcednature;
#CREDIT:forcednature;
#DIFFICULTY:Easy;
#METER:13;
#RADARVALUES:0,0,0,0,0;
#NOTES:
0000
0000
0000
0000
,
0000
0000
0000
0000
,
0000
0000
0000
0000
,
0000
0000
0000
0000
,
0000
0000
0000
0000
,
0000
0000
0000
0000
,
0002
0000
0000
0003
,
0200
0000
0000
0300
,
0020
0000
0000
0030
,
1000
1000
1000
0000
0001
0010
0100
0000
,
0110
0001
1000
0010
,
1000
0001
0010
0001
,
1000
0100
1000
0001
,
0100
0001
1000
0100
,
1000
0010
1000
0000
0010
0000
0100
0000
,
0001
0010
0001
0000
0010
0000
0100
0000
,
1000
0001
0100
0000
0001
1000
0100
0000
,
0220
0000
0000
0330
,
1001
0000
1000
0100
0001
0100
1000
0000
,
0000
0001
0001
0010
0001
1000
0100
0000
,
1001
0000
0001
0100
1000
0100
0001
0000
,
0000
1000
1000
0010
1000
0001
0010
0000
,
0110
0000
0100
1000
0010
1000
0100
0000
,
0000
0001
0001
0100
1000
0001
0010
0000
,
0100
1000
0010
0000
0100
0001
0010
0000
,
2002
0000
0000
3003
,
0001
0100
0001
0100
0010
1000
0010
1000
,
0001
0010
0100
1000
0100
0010
0001
0000
,
1000
0010
1000
0010
0100
0001
0100
0001
,
1000
0100
1000
0001
0100
0001
0010
0000
,
0100
1000
0100
1000
0001
0010
0001
0010
,
0100
1000
0010
1000
0001
0010
0001
0000
,
0100
0010
1000
0100
0010
0001
0100
0000
,
0020
0000
1000
0000
0130
0001
1000
0000
,
1001
0000
0001
0010
0100
0010
0001
0000
,
1000
0000
0100
0000
0001
0000
0000
0000
0100
0000
0000
0100
0000
0000
1000
0000
,
0001
0000
1000
0010
0100
0010
1000
0000
,
0001
0100
1000
0100
0001
0000
1001
0000
,
0001
0010
0100
0000
1000
0010
0100
0000
,
0001
1000
0100
0000
0010
0001
1000
0000
,
0010
0100
0001
0010
0100
1000
0010
0000
,
0220
0000
0330
0000
,
2001
0000
0100
0100
,
3200
0000
0010
0010
,
0320
0000
0001
0001
,
0032
0000
0100
0100
,
0203
0010
0010
0001
,
0302
1000
1000
0010
,
0023
0100
0100
0001
,
0032
0003
2000
3000
0002
0003
2000
3000
0010
0000
0000
0000
0000
0000
0000
0000
0010
0000
0000
0000
0100
0000
0000
0000
0010
0000
0000
0000
0000
0000
0000
0000
,
1000
0000
0001
0000
0010
0001
0010
0000
,
0100
0000
1000
0000
0001
0100
0001
0000
,
1000
0000
0010
0000
0010
0000
1000
0001
,
1000
0000
0100
0000
1000
0100
1000
0000
,
0010
1000
0010
0000
1000
0001
1000
0000
,
0001
0000
0010
0001
0010
0001
1000
0100
,
1000
0100
0020
0001
0032
0003
1000
0000
,
0010
0100
0010
1000
,
0100
0001
0000
0100
,
1000
0001
0010
0001
,
1000
0010
0000
0100
,
0001
0010
0100
0001
,
0100
0000
1000
0000
0000
0000
0001
0010
,
0000
0001
0010
0000
0100
1000
0000
0100
,
1000
0001
0000
1000
,
0100
0001
0100
1000
,
0001
0010
0000
0001
,
0100
1000
0100
0001
,
1000
0010
0000
0100
,
0001
0010
0100
1000
,
0001
0000
0010
0000
0000
0000
0100
1000
,
0000
0100
1000
0000
0100
1000
0000
0100
,
1000
0020
0000
1030
,
0100
1100
0000
0001
,
0010
0011
0000
0001
,
0100
0010
1000
0010
,
0100
0001
0000
0010
,
0100
0110
0000
1000
,
0001
0000
1001
0000
0000
0000
0001
0100
,
0000
0001
0100
0000
0010
1000
0000
0010
,
1000
0001
0000
0010
,
0100
1000
0010
0100
,
0001
1001
0000
1000
,
0100
1000
0001
0100
,
0001
0011
0000
1000
,
0010
0100
0001
0010
,
0100
0110
0000
0001
,
1000
0001
1000
0010
,
0100
0000
0002
0000
1003
0000
0100
1000
,
0000
0100
1000
0000
0001
0010
0000
0010
,
0000
0000
0000
0000
0001
0000
0100
0001
,
0000
0100
0001
0000
1000
0010
0000
0010
,
0000
0000
0000
0000
1000
0000
0100
1000
,
0000
0100
1000
0000
0001
0100
0000
0100
,
0000
0000
0010
1000
,
0001
0010
0001
1000
,
0010
0000
0000
0000
0100
0000
0001
0100
,
0000
0001
0100
0000
0010
1000
0000
1000
,
0000
0000
0000
0000
0100
0000
1000
0100
,
0000
1000
0100
0000
0010
0001
0000
0001
,
0000
0000
0000
0000
0100
0000
0010
1000
,
0000
0010
1000
0000
0001
0010
0000
0010
,
0000
0000
0001
1000
,
0100
0001
0100
1000
,
1001
0000
0001
0010
,
0001
0000
1000
0010
,
1000
0000
0001
0010
,
0100
1000
0010
0100
,
0001
0000
1000
0100
,
1000
0000
0001
0100
,
0001
0000
0000
0000
0000
0000
0010
0000
0000
0000
0100
0000
,
0010
0000
0000
0000
0100
0000
2000
0000
0000
0000
0000
0000
,
3001
0000
1000
0010
,
0001
0010
1000
0001
,
0100
0000
0001
0010
,
1000
0010
0001
1000
,
0100
0000
1000
0010
,
0100
0001
0010
0100
,
1000
0000
0010
0000
0100
0000
0001
1000
,
0000
0001
1000
0000
0100
0000
0100
0000
,
0010
0010
2002
0000
,
0000
0000
0000
3003
,
0100
0010
0110
0000
1000
0000
1000
0000
,
0100
0100
1000
1000
,
0010
0000
0100
0001
,
0010
0100
0010
0001
,
0100
0000
0010
0010
,
1000
1000
0001
0100
,
0010
0000
0100
0010
0200
0000
0000
0000
,
0000
0300
0000
0000
;

//--------------- dance-single - forcednature ----------------
#NOTEDATA:;
#STEPSTYPE:dance-single;
#DESCRIPTION:forcednature;
#CREDIT:forcednature;
#DIFFICULTY:Medium;
#METER:16;
#RADARVALUES:0,0,0,0,0;
#NOTES:
0000
0000
0000
0000
,
0000
0000
0000
0000
,
0000
0000
0000
0000
,
0000
0000
0000
0000
,
0000
0000
0000
0000
,
0000
0000
0000
0000
,
1000
0000
0001
0000
0100
0010
0000
0100
,
0001
0000
0010
0000
0001
1000
0001
0000
,
0100
0000
0010
1000
0000
0100
1000
0000
,
0001
0000
0000
0001
0000
0000
0010
0000
0001
1000
0001
1000
0100
0000
0000
0000
,
2000
0010
0010
0001
,
0001
0000
0100
0000
3100
1000
0001
0010
,
0200
0010
0010
1000
,
1000
0000
0010
0000
0310
0001
1000
0001
,
0100
0010
0100
0010
1000
0100
1000
0100
,
0010
0001
0010
0001
1000
0010
0100
0000
,
0001
0010
0001
0000
0010
0100
0010
0000
0100
1000
0100
0000
1000
0000
0001
0000
,
0200
0000
0000
0000
0000
0000
0000
0000
0310
1000
0010
0000
0100
0000
0000
0000
,
1001
0000
0000
0000
1000
0100
1000
0000
0001
0000
0001
0000
0002
0000
0000
0000
,
0003
0000
0010
0100
1000
0000
0100
0010
0001
0000
1000
0000
1000
0000
0000
0000
,
0020
0000
0000
0000
0130
0000
0001
0100
0001
0000
1000
0000
2000
0000
0000
0000
,
3000
0000
0000
0000
0000
0000
0010
0000
0000
0100
0000
0000
0010
0000
0000
0000
0000
0000
0100
0000
0000
0001
0000
0000
0100
0000
0000
0000
0000
0000
0000
0000
0010
0000
0000
0000
1000
0000
0000
0000
0000
0000
0000
0000
0000
0000
0000
0000
,
0002
0000
0000
0000
0013
0000
0100
0010
0100
0000
1000
0000
2000
0000
0000
0000
,
3000
0000
0010
0100
0010
0000
0100
0001
0100
0000
0001
0000
0010
0000
0000
0000
,
0001
0000
0001
0000
1000
0000
0100
1000
0100
0000
1000
0000
1000
0000
0010
0000
,
0200
0000
0001
0001
0301
0000
1010
0000
,
0001
0100
0010
0100
1000
1000
0100
0001
,
1000
0010
1000
0001
0010
0100
1001
0000
,
0001
0001
0010
0001
1000
0100
0001
0100
,
1000
0001
0010
0001
0100
0010
1001
0000
,
1000
1000
0010
0001
0010
1000
0001
0100
,
0001
0010
1000
0010
0001
1000
0100
0000
,
0010
0001
0100
1000
0100
0001
0010
0000
,
0110
0000
0110
0000
0100
1000
0010
0000
,
1001
0000
0000
0000
1000
0000
0100
1000
0100
0000
0010
0100
0010
0000
0001
0010
,
0001
0000
0001
0000
0100
0000
0010
0000
1000
0000
0001
0010
0000
0100
0010
0000
,
1001
0000
0000
0000
0001
0000
0100
0001
0100
0000
0010
0100
0010
0000
1000
0010
,
1000
0000
0001
0000
0010
0000
1000
0000
0010
0001
0010
0001
1000
0000
0000
0000
,
0010
0000
0100
0010
0000
0100
0001
0000
0010
0000
0100
0010
0000
0100
1000
0000
,
0001
0000
0010
0000
0010
0000
0001
1000
0100
0000
1000
0000
0010
0000
0000
0000
,
1000
0000
0100
1000
0010
0000
0100
0001
0010
0000
0001
1000
0001
1000
0010
0000
,
0220
0000
0330
0000
,
0001
0001
1000
1000
,
0010
0000
0010
0000
0010
0000
0000
0000
1000
0000
0000
0100
0000
0000
1000
0000
,
0001
0001
1000
1000
,
0100
0000
0100
0000
0100
0000
0000
0000
1000
0000
0000
0001
0000
0000
1000
0000
,
0010
0010
0100
0100
,
0001
0000
0001
0000
0001
0000
0000
0000
0010
0000
0000
0001
0000
0000
1000
0000
,
0100
0010
0001
1000
,
0020
0030
0020
0030
0200
0300
0020
0030
1001
0000
0000
0000
0000
0000
0000
0000
1000
0000
0000
0000
0100
0000
0000
0000
0010
0000
0000
0000
0100
0000
0000
0000
,
1000
0000
0010
0000
0100
0000
0100
0000
0100
0000
0000
0000
0001
0000
0000
0001
,
0000
0010
0001
0000
1000
0010
1000
0001
,
0010
0000
0001
0000
0100
0000
0100
0000
0100
0000
0000
0000
0010
0000
0000
1000
,
0000
0001
0010
0010
0001
0001
0100
0010
,
0100
0000
0010
0000
1000
0000
0100
1000
0000
0100
0010
0000
0001
0010
0000
0011
,
0000
0000
0000
0000
0001
0000
0100
0001
0000
0100
0010
0000
1000
0100
0000
1000
,
0001
0000
0001
0000
0020
0000
0100
0100
0130
0000
1001
0000
1000
0000
0000
0000
,
0100
0010
0100
1000
,
0001
0000
0010
0000
0100
0010
0001
0000
,
0100
0010
0100
0001
,
1000
0000
0010
0000
0100
0010
1000
0000
,
0001
0010
0100
0010
,
0001
0000
1000
0000
0010
0100
0001
0000
,
0010
0001
0000
0010
0001
0000
0010
0100
,
0000
1000
0200
0000
0000
0000
1300
0000
,
0010
0100
0010
1000
,
0001
0000
0010
0000
0100
0010
0001
0000
,
1000
0001
0100
0010
,
1000
0000
0001
0000
0010
0100
1000
0000
,
0001
0100
0010
1000
,
0100
0000
0010
0000
0001
1000
0010
0000
,
0100
0010
0000
0100
0010
0000
1000
0100
,
0000
0010
0002
0000
0000
0000
0103
0000
,
0000
0010
0000
0000
0000
1000
0000
0010
0000
1000
0000
0000
,
0000
0100
0000
0000
0000
1000
0000
0001
0000
0010
0000
0000
,
0000
0001
0000
0000
0000
0100
0000
0010
0000
1000
0000
0001
,
0000
0010
0000
0000
0000
0100
0000
1000
0000
0001
0000
0000
,
0000
0100
0000
0000
0000
0010
0000
1000
0000
0001
0000
0010
,
0000
0001
0000
1000
0000
0010
0000
1000
0000
0001
0000
0000
,
0010
0100
0000
0010
0100
0000
1000
0100
,
0000
0010
0002
0000
0000
0000
1003
0000
,
0010
0000
0100
0000
0010
0000
1000
0100
,
0000
1000
0000
0002
0000
0000
0013
0000
,
0100
0000
0010
0000
0001
0000
1000
0001
,
0000
0100
0000
0020
0000
0000
1030
0000
,
0100
0000
1000
0000
0001
0000
0100
0010
,
0000
1000
0000
0002
0000
0000
0013
0000
,
0100
0010
0000
0100
0010
0000
0100
1000
,
0000
0001
0020
0000
0031
0000
0100
0001
,
0000
0100
0001
0000
1000
0010
0000
1000
,
0010
0000
0000
0000
1000
0000
0100
1000
,
0000
0100
1000
0000
0001
0010
0000
0001
,
0010
0000
0000
0000
0100
0000
1000
0001
,
0000
1000
0001
0000
0100
0010
0000
0100
,
0010
0000
0000
0000
1000
0100
0000
0010
,
0001
0000
0010
0100
0000
1000
0001
0000
,
0020
0000
0000
0000
0031
0000
0100
0010
,
0000
0100
0010
0000
1000
0100
0000
1000
,
0100
0000
0000
0000
0010
0000
0001
1000
,
0000
0001
1000
0000
0010
0100
0000
0001
,
0010
0000
0000
0000
0100
0000
1000
0010
,
0000
1000
0001
0000
0100
0010
0000
0100
,
0001
0000
0000
0000
0010
0100
0000
0010
,
0100
0000
0010
0000
0001
1000
0000
0010
,
0200
0000
0000
0000
0000
0000
0301
0000
0000
0000
0010
0000
,
0001
0000
0010
0000
0100
0000
1000
0000
0000
0000
0010
0000
,
1000
0000
0001
0000
0100
0000
0001
0000
0000
0000
0010
0000
,
0100
0000
1000
0000
0001
0000
0100
0000
0010
0000
1010
0000
,
0000
0000
0001
0000
0010
0000
0100
0000
0000
0000
0010
0000
,
0001
0000
0100
0000
0010
0000
1000
0000
0000
0000
1000
0000
,
0001
0000
0000
0000
0001
0000
0100
0000
0010
0000
1000
0000
,
0100
0000
0010
0000
0001
0000
0200
0000
0000
0000
0000
0000
,
0310
0000
1000
0000
0001
0000
0010
0001
,
0000
0010
0100
0000
1000
0010
0000
0100
,
0001
0000
1000
0000
0100
0000
1000
0010
,
0000
0100
0001
0000
0010
0100
0000
1001
,
0000
0000
0100
0000
0010
0000
1000
0100
,
0000
1000
0001
0000
0100
0001
0000
0010
,
0001
0000
0100
0000
0010
0000
0100
0010
,
0000
0100
0010
0000
1000
0001
1000
0001
,
1000
0001
1000
0001
0020
0000
0000
0000
,
0000
0000
0000
0000
0100
0100
0130
0000
,
0010
0110
1001
0000
1000
0000
0100
0000
,
1000
0000
0010
0100
0000
0010
0100
0000
,
0001
0010
0000
0000
0001
0000
1000
0000
,
0100
1000
0000
1000
0100
0000
0010
0000
,
0001
0000
1000
0000
0010
0100
0010
0000
,
0100
0001
0100
0000
0001
0010
0001
0000
,
1000
0100
2002
0000
,
0000
3003
0000
0000
;

//--------------- dance-single - forcednature ----------------
#NOTEDATA:;
#STEPSTYPE:dance-single;
#DESCRIPTION:forcednature;
#CREDIT:forcednature;
#DIFFICULTY:Hard;
#METER:18;
#RADARVALUES:0,0,0,0,0;
#NOTES:
0000
0000
0000
0000
,
0000
0000
0000
0000
,
0000
0000
0000
0000
,
0000
0000
0000
0000
,
0000
0000
0000
0000
,
0000
0000
0000
0000
,
1000
0000
0100
1000
0000
0010
0100
0010
,
0000
0100
0001
0000
0010
0001
1000
0100
,
0000
1000
0010
0100
0001
0010
0000
0100
,
2000
0000
0000
0010
0000
0000
3010
0000
0100
0001
0100
0001
0010
0000
0000
0000
,
0100
1000
1010
0000
0100
0001
0011
0000
,
0001
1000
0010
1000
0001
0100
1000
0000
,
0100
0001
0011
0000
0100
1000
1010
0000
,
1000
0000
0100
0000
0001
0000
0100
0000
1000
0000
0000
0000
0001
0000
0010
0001
,
0010
0100
0010
0001
0100
0010
0100
0001
,
0010
0100
1000
0010
0100
0010
1000
0000
,
0001
0100
0001
0100
0010
1000
0010
1000
0001
0010
0001
0010
0100
1000
0100
1000
,
0020
0000
0000
0000
0000
0000
0000
0000
1030
0001
1000
0001
0100
0000
0000
0000
,
0120
0000
0000
0000
1030
0001
1000
0000
0100
0000
0010
0000
0022
0000
0000
0000
,
0033
0000
0001
1000
0010
0000
1000
0001
0100
0000
0001
0000
0010
0000
0000
0000
,
0120
0000
0000
0000
0031
0000
1000
0001
0100
0000
0010
0000
2020
0000
0000
0000
,
3030
0000
0000
0000
0000
0000
1000
0000
0000
0001
0000
0000
0010
0000
0000
0000
0000
0000
0001
0000
0000
1000
0000
0000
0100
0000
0000
0000
0010
0000
0000
0000
0100
0000
0000
0000
0010
0000
0000
0000
0000
0000
0000
0000
0000
0000
0000
0000
,
1002
0000
0000
0000
0103
0000
0001
1000
0010
0000
0100
0000
0220
0000
0000
0000
,
0330
0000
1000
0100
0010
0000
0001
0100
0010
0000
1000
0000
0001
0000
0000
0000
,
0012
0000
0010
0000
0013
0000
0001
1000
0200
0000
1000
0000
1300
0000
0100
0010
,
0002
0000
0000
0000
1000
0000
1003
0000
0010
0100
0000
0100
0020
0000
0000
0000
,
1030
0000
1000
0000
0100
0000
0001
0000
0100
1000
0100
0000
0010
0001
0010
0000
,
0001
0000
0001
0000
1000
0010
0100
0000
0001
0000
0010
0001
2000
0000
0000
0000
,
3100
0000
0010
0000
1000
0000
0010
0000
0001
0000
0100
0001
0100
0001
0100
0000
,
0010
1000
0010
0000
0100
0000
0001
0000
0010
0000
0000
0100
2000
0000
0000
0000
,
3010
0000
0100
0000
1000
0000
0100
0000
0001
0000
0010
0001
0010
0001
0010
0000
,
0100
1000
0100
0000
0010
0000
0001
0000
1000
0000
0010
0100
0000
0010
0100
0000
,
0001
0000
0010
0001
0000
1000
0100
1000
0100
0000
1000
0000
0010
0100
0010
0100
,
0002
0000
0000
0000
1000
0003
0000
0001
0010
0000
0100
0000
0110
0000
0000
0000
,
1001
0000
0000
0000
1000
0000
0010
1000
0010
0000
0100
0010
0100
0000
0001
0100
,
0001
0010
0001
0000
0010
0000
0100
1000
0100
0000
1000
0010
0000
0100
0010
0000
,
1001
0000
0000
0000
0001
0000
0010
0001
0010
0000
0100
0010
0100
0000
1000
0100
,
1000
0010
1000
0000
0001
0000
0100
0001
1000
0010
1000
0010
0200
0000
0000
0000
,
0301
0000
0010
0001
0000
0010
0100
0000
1000
0000
0010
0100
0000
0100
0010
0000
,
1000
0000
0001
0000
0001
0000
1000
0100
0010
0100
1000
0000
0010
0000
0000
0000
,
0100
0001
0100
0010
1000
0100
1000
0010
0100
0001
0010
0100
1000
0010
0100
0001
,
0020
0000
0030
0000
,
2001
0100
0100
0100
,
3002
0000
0010
0000
0010
0000
0000
0000
0100
0000
0000
0100
0000
0000
0103
0000
,
0020
1000
1000
1000
,
0230
0000
0001
0000
0001
0000
0000
0000
0010
0000
0000
0010
0000
0000
0310
0000
,
1000
0001
1000
0001
0100
1000
0100
1000
,
0001
0000
0001
0000
0001
0000
0000
0000
0010
0000
0000
0010
0000
0000
1000
0000
,
0001
0010
0100
1000
0010
0010
0100
0001
,
2000
3000
0200
0300
0020
0030
0002
0003
1000
0000
0000
0000
0000
0000
1010
0000
0000
0000
0000
0000
0010
0000
0000
0000
1000
0000
0000
0000
0001
0000
0000
0000
,
0100
0000
0001
0000
0010
0000
0010
0000
0010
0000
0000
0000
0110
0000
0000
1100
,
0000
0000
0001
0000
0100
0000
0000
0100
0000
0000
0010
0000
1000
0000
0001
0000
,
0010
0000
0001
0000
1000
0000
1000
0000
1000
0000
0000
0000
1010
0000
0000
0110
,
0000
0000
0001
0010
0001
0000
0100
0000
0001
0000
0100
0000
0010
0000
1000
0000
,
0010
0000
1000
0000
0100
0000
0010
0100
0000
0100
0010
0000
0001
1000
0000
0001
,
0000
0100
0010
0000
1000
0100
1000
0100
1000
0100
1000
0100
0010
0001
1000
0001
,
0010
0001
1000
0001
0200
0000
0010
0010
0320
0000
0030
0000
1000
0000
0000
0000
,
0001
0010
0000
0100
0010
0000
0001
1000
,
0000
1100
0000
0001
0010
0000
0001
0000
,
0100
0001
0000
0100
0010
0000
1000
0100
,
0000
0110
0000
0001
1000
0000
0100
0000
,
1000
0010
0000
1000
0001
0000
0010
0100
,
0000
1100
0000
0010
0001
0000
1000
0010
,
1000
0010
0100
0001
0100
0001
1000
0010
,
0100
0001
2000
0000
0000
0000
3001
0000
,
0010
0100
0000
0010
0001
0000
1000
0010
,
0000
0110
0000
0100
0001
0000
1000
0000
,
0100
0010
0000
0100
1000
0000
0001
0100
,
0000
0011
0000
1000
0100
0000
1000
0000
,
0010
1000
0000
0100
0010
0000
0001
0100
,
0000
0110
0000
0001
1000
0000
0001
0100
,
0001
0100
0010
1000
0010
1000
0001
0100
,
0010
0000
0000
1000
0000
0000
0002
0000
0000
0000
0000
0000
0000
0000
0000
0000
0000
0000
0013
0000
0000
0000
0001
0000
,
0000
0011
0000
0000
0000
0100
0000
0010
0000
1000
0000
0010
,
0000
1010
0000
0000
0000
1000
0000
0010
0000
0100
0000
0001
,
0000
0011
0000
0000
0000
0001
0000
0100
0000
0001
0000
1000
,
0000
1010
0000
0000
0000
1000
0000
0100
0000
0001
0000
0100
,
0000
1100
0000
0000
0000
0010
0000
0100
0000
0002
0000
0000
,
0010
0000
0013
0000
0001
0000
1000
0010
,
0100
0001
0100
0010
1000
0010
0100
0001
,
1000
0010
0200
0000
0000
0000
0301
0000
,
0010
0001
0000
0010
0100
0000
0010
0001
,
0000
1100
0000
0002
0000
0000
1003
0000
,
0100
0010
0000
0100
1000
0000
0010
0100
,
0000
0101
0000
2000
0000
0000
3100
0000
,
0010
0001
0000
0100
0010
0000
1000
0100
,
0000
1100
0000
2010
0000
0000
3001
0100
,
0001
0100
0010
1000
0010
1000
0001
0100
,
0010
1000
0002
0000
0013
0000
0010
0001
,
0000
0001
0100
0000
0100
0010
0000
1010
,
0000
0000
1000
0001
1000
0000
1000
0100
,
0000
0100
0010
0000
0010
0001
0000
0101
,
0000
0000
0001
1000
0001
0000
0001
0010
,
0000
0010
0100
0000
0100
1000
0000
1010
,
0000
0000
0001
1000
0010
1000
0001
1000
,
0100
0010
0100
0010
0001
1000
0100
0010
,
0002
0000
0003
0000
1000
0000
1000
0010
,
0000
0010
0100
0000
0001
0010
0000
0011
,
0000
0000
0001
1000
0001
0000
0100
0010
,
0000
0010
1000
0000
0100
0010
0000
0110
,
0000
0000
0001
1000
0001
0000
0010
0001
,
0000
0100
0010
0000
1000
0100
0000
0110
,
0000
0000
0001
1000
0100
1000
0001
0100
,
0001
1000
0010
0100
0001
1000
0100
0010
,
0002
0000
0000
0000
0000
0000
1003
0000
0000
0000
1100
0000
,
0000
0000
0001
0000
0010
0000
1000
0000
0000
0000
0011
0000
,
0000
0000
0001
0000
0100
0000
1000
0000
0000
0000
0101
0000
,
0000
0000
1000
0000
0010
0000
0001
0000
0010
0000
0110
0000
,
0000
0000
0001
0000
1000
0000
1100
0000
0000
0000
0011
0000
,
0000
0000
1000
0000
0100
0000
0001
0000
0100
0000
1000
0000
,
0010
0000
0000
0100
0000
0000
0010
0000
0000
0000
0000
0000
1000
0000
0000
0000
1000
0000
0000
0000
0001
0000
0000
0000
,
0001
0000
0100
0000
0010
0000
0120
0000
0000
0000
0000
0000
,
0130
0000
0001
0000
1000
0000
0100
1000
,
0000
0100
0010
0000
0001
0010
0000
0101
,
0000
2000
0000
0000
3010
0000
0100
0001
,
0000
0010
0100
0000
1000
0010
0000
0001
,
0000
1020
0000
0000
0130
0000
0001
0010
,
0000
0001
0100
0000
0010
1000
0000
1001
,
0000
0001
0010
0001
0010
0000
0100
1000
,
0100
1000
0001
0000
0100
0010
1000
0010
,
0100
0001
1000
0001
0020
0000
0100
0000
,
0100
0000
0100
0000
0001
0001
0031
0000
,
1000
0010
2020
3030
0001
0010
0001
0000
,
1000
0100
0000
0010
0100
0000
1000
0001
,
0000
1000
0001
0000
0110
0000
0001
0010
,
0001
0010
0000
0100
1000
0000
0001
0100
,
0001
0000
1000
0010
1000
0100
1000
0100
,
0010
0001
0010
0001
1000
0010
0100
0010
,
1000
0001
0100
0010
2002
0000
0000
0000
,
0000
3003
0000
0000
;

//--------------- dance-single - forcednature ----------------
#NOTEDATA:;
#STEPSTYPE:dance-single;
#DESCRIPTION:forcednature;
#CREDIT:forcednature;
#DIFFICULTY:Challenge;
#METER:19;
#RADARVALUES:0,0,0,0,0;
#NOTES:
0000
0000
0000
0000
,
0000
0000
0000
0000
,
0000
0000
0000
0000
,
0000
0000
0000
0000
,
0000
0000
0000
0000
,
0000
0000
0000
0000
,
0001
0000
0001
0100
0000
0001
0010
0001
,
0000
1000
0010
0100
0001
0100
0010
1000
,
0000
0100
0010
0100
1000
0010
0000
0100
,
0001
0000
0010
0001
0000
0010
0001
0010
0100
1000
0100
1000
0002
0000
0000
0000
,
0103
0000
0010
0000
1000
0000
0010
0000
0100
0000
1000
0000
0100
0000
0001
0100
,
0001
0000
1000
0000
0010
0000
1000
0000
0001
0000
0010
0000
0100
0000
1000
0010
,
0100
0000
0001
0000
0010
0000
0001
0000
1000
0000
0010
0000
0001
0000
0010
0001
,
0010
0000
1000
0000
0001
0000
0100
0000
1000
0000
0100
0000
0001
0000
0100
0001
,
1000
0000
1000
0100
1000
0000
0100
0010
0100
0000
0010
0001
0010
0000
0001
1000
,
0002
0100
0203
0010
0320
1000
2030
0001
,
3001
0010
0001
0010
0100
1000
0100
1000
0010
0100
0001
0010
0100
1000
0010
0100
,
0002
0000
0000
0003
0010
0001
0010
0001
1000
0010
0100
0001
1000
0000
0000
0000
,
1200
0000
0000
0000
0301
0100
1000
0000
0001
0000
0011
0000
0220
0000
0000
0000
,
0330
0000
0001
0100
0010
0000
1000
0100
0010
0000
0100
0000
1001
0000
0000
0000
,
0201
0000
0000
0000
1300
0000
0100
0001
1000
0000
1010
0000
0220
0000
0000
0000
,
0330
0000
0000
0000
0000
0000
1000
0000
0000
0100
0000
0000
0010
0000
0000
0000
0000
0000
0001
0000
0000
0100
0000
0000
0010
0000
0000
0000
1000
0000
0000
0000
0001
0000
0000
0000
0100
0000
0000
0000
0000
0000
0000
0000
0000
0000
0000
0000
,
0021
0000
0000
0000
1030
0000
0010
0001
1000
0000
1100
0000
2002
0000
0000
0000
,
3003
0000
1000
0010
0100
0000
0001
0010
0100
0000
0010
0000
1001
0000
0000
0000
,
0201
0000
0001
0000
0010
0000
1300
0100
0002
0000
0010
0000
1003
0000
0001
0100
,
0010
0000
1000
0100
0010
0000
0001
0000
1000
0010
0100
0001
2000
0000
0000
0000
,
3100
0000
1000
0100
1000
0000
0010
0100
0001
0100
0010
0000
1000
0100
0010
0100
,
1000
0000
1000
0000
0001
0010
1000
0000
0010
0000
0001
1000
0010
0100
0010
0100
,
0002
0000
0010
0000
2003
0000
0010
0000
3001
0000
0100
0001
1000
0010
1000
0001
,
0100
0001
1000
0000
0100
0010
0001
0000
0100
0000
0010
0000
1000
0001
1000
0001
,
1000
0000
1000
0100
0010
0000
0100
1000
0001
0010
0001
0000
1000
0010
0100
0001
,
1000
0000
1000
0000
0001
0100
1000
0000
0100
0000
0001
1000
0010
1000
0001
0000
,
0010
0000
0100
1000
0000
0100
0010
0001
0010
0000
0001
1000
0010
1000
0001
0000
,
0200
0000
0310
0000
0200
0000
0310
1000
0001
0000
0100
0000
0110
0000
0000
0000
,
1001
0000
0000
0000
1100
0000
0100
0010
0001
0000
0001
0100
0010
0000
0010
1000
,
0001
0100
0010
0000
1000
0000
0001
0010
0100
0000
0001
0100
0000
1000
0100
0000
,
0110
0000
0000
0000
0010
0000
0010
0001
0100
0000
0100
0010
1000
0000
1000
0100
,
0010
0001
1000
0000
0010
0000
0100
0001
1000
0010
0100
0010
2000
0000
0000
0000
,
3001
0000
0010
0100
0000
0001
0100
0000
1000
0000
0010
1000
0001
0100
0010
0000
,
1000
0000
1100
0000
0001
0000
0100
0001
1000
0010
0100
0000
0110
0000
0000
0000
,
0001
0010
0001
0100
0010
1000
0100
1000
0010
0100
0001
0010
0100
1000
0010
0000
,
0220
0000
0330
0000
,
1000
1000
0001
0001
,
0100
0000
0001
0000
0100
0000
0000
0000
0010
0000
0000
0010
0000
0000
1000
0000
,
0001
0001
0010
0010
,
0001
0000
1000
0000
0001
0000
0000
0000
0100
0000
0000
0100
0000
0000
0010
0000
,
1000
0100
1000
0100
0010
0001
0010
0001
,
1000
0000
0010
0000
0100
0000
0010
0000
1000
0000
0000
1000
0000
0000
0001
0000
,
0100
0001
0010
0001
0100
0010
1000
0100
,
2000
3000
0020
0030
0200
0300
0002
0003
1000
0000
0000
0000
0000
0000
0100
0000
1000
0000
0000
0000
0001
0000
0000
0000
0010
0000
0000
0000
0010
0000
0000
0000
,
0100
0000
1000
0000
0001
0000
0100
0001
0100
0000
0010
0000
1000
0000
0000
1000
,
0000
0000
0001
0000
0010
0000
0000
0100
0010
0000
0001
0000
1000
0000
0010
0000
,
0100
0000
0001
0000
1000
0000
1000
0000
1000
0000
0000
0000
0100
0000
0000
0100
,
0000
0000
0010
0100
0010
0000
0001
0000
0100
0000
0001
0000
0010
0000
0001
0000
,
0100
0000
0001
0000
1000
0000
0100
0010
0000
0100
1000
0000
0001
0100
0000
0010
,
0000
0100
0001
1000
0010
0100
0010
0100
0001
0010
0100
1000
0100
0010
0001
1000
,
0010
0000
0100
0000
0001
0000
1000
0000
0200
0000
0000
0000
0310
0000
0100
0010
0100
1000
0001
0000
0200
0000
0300
0000
0001
0000
0000
0000
0000
0000
0000
0000
,
0100
0010
0000
1000
0010
0000
1000
0100
,
0000
1010
0000
0001
0100
0010
1000
0000
,
0100
0010
0000
0001
0010
0000
0100
1000
,
0000
0011
0000
0100
0010
1000
0001
0000
,
0010
0100
0000
1000
0010
0000
0100
0001
,
0000
0011
0000
0100
1000
0001
0100
0010
,
1000
0010
0100
0001
0100
0010
1000
0001
,
1000
0100
0020
0000
0031
0000
0010
0000
,
0100
1000
0000
0001
0100
0000
0010
1000
,
0000
1100
0000
0010
0001
1000
0010
0000
,
0100
0001
0000
0010
0100
0000
1000
0010
,
0000
1001
0000
0001
0010
0100
1000
0000
,
0001
0100
0000
0001
0010
0000
0100
0001
,
0000
0110
0000
1000
0001
0010
0100
1000
,
0001
0100
0001
1000
0100
1000
0001
0010
,
0100
1000
0010
1000
0100
0010
0002
0000
,
0000
0100
0000
0000
0000
0013
0000
0001
0000
2000
0000
0000
,
0000
0100
0000
0000
0000
3010
0000
1000
0000
0002
0000
0000
,
0000
0010
0000
0000
0000
0103
0000
0001
0000
1000
0000
0100
,
0000
0101
0000
0000
0000
0100
0000
1000
0000
0002
0000
0000
,
0000
0010
0000
0000
0000
0103
0000
0010
0000
1000
0000
0001
,
0000
0000
0100
0000
0000
0000
0001
0000
0000
0000
1000
0000
0000
0000
0100
0000
0000
0000
0010
0000
0000
0001
0000
0000
,
1000
0010
1000
0001
0010
0001
1000
0010
,
0100
0001
1000
0100
1000
0100
0010
0000
,
0001
0010
0000
0100
0010
0000
0100
1000
,
0000
0011
0000
1000
0001
0100
0010
0000
,
1000
0010
0000
0100
0010
0000
0100
0001
,
0000
1010
0000
0001
1000
0001
0100
0000
,
0010
1000
0001
1000
0010
0000
0100
0001
,
1000
0001
0000
0010
0100
0010
0001
1000
,
0010
0100
0010
1000
0001
1000
0100
0001
,
0100
1000
0002
0000
1003
0000
1000
0100
,
0000
0100
0001
0000
0001
0100
0000
0100
,
0010
0000
0001
0010
0001
0000
0001
0100
,
0000
0100
1000
0000
0100
0001
0000
0001
,
0010
0010
0010
0000
0100
0000
0100
1000
,
0000
1000
0010
0000
0010
0001
0000
0001
,
0010
0000
0010
1000
0010
0100
0001
0010
,
0100
1000
0010
0100
0001
0010
0100
1000
,
0010
0100
0010
0100
0001
0000
0001
0100
,
0000
0100
1000
0000
1000
0100
0000
0100
,
0010
0000
1000
0010
1000
0000
1000
0100
,
0000
0100
0001
0000
0100
1000
0000
1000
,
0010
0010
0010
0000
0100
0000
0100
0001
,
0000
0001
0010
0000
0010
1000
0000
1000
,
0010
0000
0010
0001
0010
0100
1000
0010
,
0100
0001
0010
0100
1000
0010
0100
0001
,
0220
0000
0000
0330
0000
0000
0001
0000
0010
0000
0100
0000
,
1000
0000
0000
0010
0000
0000
0100
0000
0000
0001
0000
0000
0010
0000
0000
0000
0100
0000
0000
0000
1000
0000
0000
0000
,
0001
0000
0000
0100
0000
0000
0010
0000
0000
1000
0000
0000
0001
0000
0000
0000
0010
0000
0000
0000
0001
0000
0000
0000
,
0100
0000
0000
0010
0000
0000
1000
0000
0000
0001
0000
0000
0010
0000
0000
0000
0100
0000
1000
0000
0100
0000
0000
0000
,
0010
0000
0001
0010
0001
0000
1000
0000
0010
0000
0100
0000
,
0001
0000
0000
1000
0000
0000
0100
0000
0000
1000
0000
0000
0001
0000
0000
0000
0010
0000
0100
0000
0010
0000
0001
0000
,
0010
0100
1000
0000
0010
0000
2000
0000
3200
0000
0302
0000
,
2003
0000
3020
0000
0032
0000
2003
0000
0000
0000
0000
0000
,
3010
0100
0001
1000
0010
0000
0100
1000
,
0000
0100
0001
0000
1000
0010
0100
0110
,
0000
0100
0001
0010
0001
0000
1000
0100
,
0000
0001
0100
0000
0010
0001
0100
0101
,
0000
0100
0010
1000
0001
0010
0100
0010
,
0001
0010
0100
0010
0001
1000
0100
0001
,
0100
1000
0001
0100
0010
1000
0100
0001
,
1000
0010
0001
0100
1000
0001
0010
1000
,
0100
0010
0100
0010
0100
0010
0002
0000
0000
1000
0000
0000
,
1000
0000
0000
0000
1003
0000
0000
1000
0010
0000
0010
0000
0010
0000
0000
0000
,
0100
0110
2002
3003
1000
0100
1000
0000
,
0010
0000
0000
0100
0000
0000
0000
0000
0000
0001
0000
0000
0010
0000
0001
0000
0010
0000
0100
0000
0000
1000
0000
0000
,
0010
0000
0000
1000
0000
0000
0100
0000
0000
0000
0000
0000
1001
0000
0000
0000
0000
0000
0001
0000
0100
0000
0001
0000
,
0100
0010
0000
1000
1100
0000
0010
0100
,
0001
0000
0000
0010
0000
0000
0100
0000
0000
1000
0000
0000
0001
0000
0100
0000
0001
0000
0100
0000
0000
0010
0000
0000
,
1000
0000
0100
0000
1000
0000
0001
0000
0000
0010
0000
0000
0100
0000
0000
1000
0000
0000
0010
0000
0000
0100
0000
0000
,
0001
0010
0100
1000
0100
0010
2002
0000
0000
0000
0000
0000
,
0000
3003
0000
0000
;

//--------------- dance-double - forcednature ----------------
#NOTEDATA:;
#STEPSTYPE:dance-double;
#DESCRIPTION:forcednature;
#CREDIT:forcednature;
#DIFFICULTY:Easy;
#METER:13;
#RADARVALUES:0,0,0,0,0;
#NOTES:
00000000
00000000
00000000
00000000
,
00000000
00000000
00000000
00000000
,
00000000
00000000
00000000
00000000
,
00000000
00000000
00000000
00000000
,
00000000
00000000
00000000
00000000
,
00000000
00000000
00000000
00000000
,
00020000
00000000
00000000
00030000
,
00002000
00000000
00000000
00003000
,
00000020
00000000
00000000
00000030
,
00000001
00000001
00000001
00000000
00000100
00001000
00010000
00000000
,
00011000
00100000
00010000
01000000
,
00010000
00100000
01000000
00010000
,
00001000
00000010
00000001
00000010
,
00001000
00010000
00001000
01000000
,
00010000
00100000
00010000
00000000
10000000
00000000
01000000
00000000
,
10000000
00100000
10000000
00000000
00010000
00000000
01000000
00000000
,
00001000
00010000
00000010
00000000
00010000
00001000
00100000
00000000
,
00022000
00000000
00000000
00033000
,
00011000
00000000
00001000
00000010
00000001
00000010
00001000
00000000
,
00000000
00010000
00010000
00000100
00001000
00000100
00010000
00000000
,
00011000
00000000
00010000
00100000
10000000
00100000
00010000
00000000
,
00000000
00001000
00001000
01000000
00010000
01000000
00001000
00000000
,
00011000
00000000
00010000
01000000
10000000
01000000
00010000
00000000
,
00000000
00001000
00001000
00100000
00010000
00100000
00001000
00000000
,
00010000
00000010
00001000
00000000
00000100
00010000
00001000
00000000
,
00022000
00000000
00000000
00033000
,
00100000
00010000
00100000
00010000
01000000
10000000
01000000
10000000
,
01000000
00010000
00100000
00001000
00010000
00000100
00001000
00000000
,
00000010
00001000
00000010
00001000
00000100
00000001
00000100
00000001
,
00000100
00010000
00001000
00100000
00001000
00010000
01000000
00000000
,
10000000
00100000
10000000
00100000
01000000
10000000
01000000
10000000
,
01000000
00010000
00100000
00001000
00010000
00000010
00001000
00000000
,
00000100
00000010
00000001
00000100
00001000
00010000
00001000
00000000
,
00200000
00000000
00010000
00000000
01300000
10000000
00010000
00000000
,
10010000
00000000
10000000
00100000
01000000
00100000
00010000
00000000
,
00001000
00000000
00000100
00000000
00000001
00000000
00000000
00000000
00000010
00000000
00000000
00000010
00000000
00000000
00000001
00000000
,
00001000
00000000
00000001
00000100
00000010
00000100
00001000
00000000
,
00010000
00100000
10000000
00000000
01000000
00000000
10010000
00000000
,
00010000
00100000
01000000
00000000
00010000
00001000
00000010
00000000
,
00000100
00010000
00001000
00000000
00000010
00000001
00000100
00000000
,
00001000
00010000
00100000
00010000
00001000
01000000
00010000
00000000
,
02200000
00000000
03300000
00000000
,
20010000
00000000
01000000
01000000
,
32000000
00000000
00100000
00100000
,
03200000
00000000
00010000
00010000
,
00320000
00000000
00001000
00001000
,
00032000
00000000
00000100
00000100
,
00003200
00000000
00000010
00000000
,
00000320
00000000
00000001
00000001
,
00000032
00000003
00000200
00000300
00002000
00003000
00020000
00030000
00100000
00000000
00000000
00000000
00000000
00000000
00000000
00000000
00100000
00000000
00000000
00000000
01000000
00000000
00000000
00000000
00100000
00000000
00000000
00000000
00000000
00000000
00000000
00000000
,
10000000
00000000
00010000
00000000
00100000
00010000
00100000
00000000
,
00001000
00000000
00000010
00000000
00000010
00000100
00001000
00000000
,
00000010
00000000
00000100
00000000
00000100
00000000
00000001
00000010
,
00000001
00000000
00000010
00000000
00001000
00000010
00001000
00000000
,
00010000
00001000
00010000
00000000
01000000
00010000
01000000
00000000
,
10000000
00000000
00100000
10000000
00100000
00010000
00001000
00000100
,
00001000
00010000
00200000
10000000
20300000
30000000
10000000
00000000
,
01000000
00010000
00001000
00100000
,
00010000
00100000
00000000
00001000
,
00000010
00000100
00010000
00001000
,
00000010
00000001
00000000
00001000
,
00000010
00001000
00000001
00000100
,
00001000
00010000
00000000
00100000
,
00000000
00100000
00000000
00000000
01000000
00000000
00100000
01000000
,
00100000
01000000
00000000
00010000
,
00100000
01000000
00010000
00001000
,
00100000
00001000
00000000
00010000
,
00000100
00010000
00001000
00000010
,
00000001
00001000
00000000
00000010
,
00000100
00001000
00010000
00100000
,
01000000
00010000
00000000
00100000
,
00000000
00100000
00000000
00000000
00100000
00000000
01000000
00100000
,
01000000
00200000
00000000
00301000
,
00010000
00100000
00000000
00010000
,
00001000
00000010
00000000
00001000
,
00010000
01000000
00000000
00010000
,
00001000
00000100
00000000
00000001
,
00000010
00000100
00000000
00001000
,
00000010
00010000
00000000
00001000
,
00000000
00001000
00000000
00000000
00001000
00000000
00010000
00001000
,
00010000
00001000
00000000
00100000
,
00010000
01000000
10000000
01000000
,
00010000
00100000
00000000
00001000
,
00010000
00000010
00001000
00000100
,
00000001
00000100
00000000
00001000
,
00000010
00000100
00001000
00010000
,
00100000
01000000
00000000
00010000
,
00100000
00010000
10000000
00100000
,
10000000
00000000
02000000
00000000
03010000
00000000
00000000
00001000
,
00000000
00000000
00000010
00000000
00000001
00000010
00000000
00000001
,
00000000
00000000
00000000
00000000
00001000
00000000
00000000
00000010
,
00000000
00000000
00010000
00000000
00001000
00010000
00000000
00001000
,
00000000
00000000
00000000
00000000
00100000
00000000
00000000
00010000
,
00000000
00000000
01000000
00000000
00100000
10000000
00000000
00100000
,
00000000
00000000
10000000
01000000
,
00010000
00001000
00000100
00000001
,
00000010
00000000
00000000
00000000
00000100
00000000
00000000
00001000
,
00000000
00000000
00000010
00000000
00000100
00000010
00000000
00000100
,
00000000
00000000
00000000
00000000
00001000
00000000
00000000
00010000
,
00000000
00000000
00100000
00000000
10000000
00100000
00000000
10000000
,
00000000
00000000
00000000
00000000
01000000
00000000
00000000
00010000
,
00000000
00000000
00001000
00000000
00010000
00001000
00000000
00010000
,
00000000
00000000
00000010
00000100
,
00001000
00010000
00100000
01000000
,
01100000
00000000
00100000
10000000
,
01000000
00000000
00100000
00010000
,
01000000
00000000
10000000
01000000
,
00010000
00100000
00001000
00010000
,
00000100
00000000
00010000
00001000
,
00000010
00000000
00001000
00010000
,
00100000
00000000
20000000
00000000
,
32000000
00000000
03020000
00000000
,
00031000
00010000
00001000
00000010
,
00000100
00001000
00000010
00000100
,
00000001
00000000
00000010
00001000
,
00010000
00000100
00010000
00001000
,
00100000
00000000
00010000
01000000
,
10000000
01000000
00010000
00100000
,
00001000
00000000
00000000
00000000
00010000
00000000
00000000
00010000
,
00000000
00010000
00001000
00000010
,
00000001
00000100
00002000
00000000
,
00000000
00000000
00000000
00003000
,
00010000
00100000
10000000
00000000
01000000
00000000
01000000
00000000
,
10000000
10000000
01000000
01000000
,
00010000
00000000
00001000
00010000
,
00001000
00000000
00000010
00000001
,
00000100
00000000
00001000
00001000
,
00010000
00010000
00001000
00010000
,
00100000
10000000
02000000
00000000
,
00000000
03000000
00000000
00000000
;

//--------------- dance-double - forcednature ----------------
#NOTEDATA:;
#STEPSTYPE:dance-double;
#DESCRIPTION:forcednature;
#CREDIT:forcednature;
#DIFFICULTY:Medium;
#METER:16;
#RADARVALUES:0,0,0,0,0;
#NOTES:
00000000
00000000
00000000
00000000
,
00000000
00000000
00000000
00000000
,
00000000
00000000
00000000
00000000
,
00000000
00000000
00000000
00000000
,
00000000
00000000
00000000
00000000
,
00000000
00000000
00000000
00000000
,
00010000
00000000
00001000
00000000
00000010
00000100
00000000
00000010
,
00000001
00000000
00000100
00000000
00001000
00010000
00001000
00000000
,
00010000
00000000
00100000
10000000
00000000
01000000
10000000
00000000
,
01000000
00000000
00000000
01000000
00000000
00000000
00010000
00000000
00001000
00000000
00010000
00001000
00010000
00000000
00000000
00000000
,
00000200
00001000
00001000
00000010
,
00000010
00000000
00000001
00000000
00000301
00000100
00010000
00001000
,
00200000
00010000
00010000
01000000
,
01000000
00000000
10000000
00000000
10300000
00100000
00010000
01000000
,
00100000
10000000
00100000
10000000
01000000
00010000
01000000
00010000
,
00001000
00000010
00001000
00000010
00000001
00000100
00000001
00000000
,
00000010
00001000
00010000
01000000
10000000
00100000
00010000
00000000
,
00002000
00000000
00000000
00000000
00000000
00000000
00000000
00000000
00103000
00000000
00010000
00100000
01000000
00000000
00000000
00000000
,
10010000
00000000
00000000
00000000
10000000
01000000
00010000
00000000
00001000
00000000
00001000
00000000
00002000
00000000
00000000
00000000
,
00003000
00000000
00000010
00000100
00000010
00000000
00000100
00000010
00000001
00000000
00001000
00000000
00001000
00000000
00000000
00000000
,
00001001
00000000
00000000
00000000
00000001
00000000
00000100
00001000
00010000
00000000
00010000
00000000
00020000
00000000
00000000
00000000
,
00030000
00000000
00000000
00000000
00000000
00000000
00100000
00000000
00000000
01000000
00000000
00000000
00100000
00000000
00000000
00000000
00000000
00000000
01000000
00000000
00000000
00100000
00000000
00000000
10000000
00000000
00000000
00000000
00000000
00000000
00000000
00000000
01000000
00000000
00000000
00000000
00010000
00000000
00000000
00000000
00000000
00000000
00000000
00000000
00000000
00000000
00000000
00000000
,
00011000
00000000
00000000
00000000
00100000
00000000
00010000
00100000
00001000
00000000
00001000
00000000
00002000
00000000
00000000
00000000
,
00003000
00000000
00000010
00000100
00000010
00000000
00000100
00001000
00000001
00000000
00000100
00000000
00001000
00000000
00000000
00000000
,
00010000
00000000
00010000
00000000
00100000
00000000
00010000
00100000
10000000
00000000
10000000
00000000
10000000
00000000
01000000
00000000
,
00020000
00000000
00001000
00001000
00031000
00000000
00011000
00000000
,
00010000
00000100
00001000
00000010
00000100
00000100
00001000
00000100
,
00000001
00001000
00000010
00001000
00010000
01000000
00100000
00000000
,
10000000
10000000
01000000
01000000
10000000
00100000
00010000
00001000
,
00000010
00000001
00000100
00001000
00000100
00000001
00000010
00000000
,
00001000
00001000
00010000
00001000
00000010
00000100
00010000
00000010
,
00001000
00010000
01000000
00001000
00100000
01000000
10000000
00000000
,
00100000
00010000
00001000
00000010
00001000
00010000
01000000
00000000
,
01100000
00000000
01100000
00000000
00100000
00001000
00000100
00000000
,
00011000
00000000
00000000
00000000
00100000
00000000
00010000
00100000
00010000
00000000
00100000
01000000
00100000
00000000
01000000
10000000
,
01000000
00000000
00010000
00000000
00001000
00000000
00000010
00000000
00000001
00000000
00000100
00000001
00000000
00000100
00000010
00000000
,
00001001
00000000
00000000
00000000
00000001
00000000
00000100
00000001
00000100
00000000
00000010
00000100
00000010
00000000
00001000
00000010
,
00001000
00000000
00000001
00000000
00000010
00000000
00001000
00000000
00010000
00001000
00010000
00001000
00010000
00000000
00000000
00000000
,
00100000
00000000
01000000
00100000
00000000
01000000
00010000
00000000
00100000
00000000
01000000
00100000
00000000
01000000
10000000
00000000
,
01000000
00000000
00010000
00000000
00010000
00000000
00001000
00010000
00001000
00000000
00001000
00000000
00000010
00000000
00000000
00000000
,
00000001
00000000
00000100
00000000
00001000
00000000
00010000
00000000
01000000
00000000
10000000
00000000
00010000
10000000
00100000
00000000
,
02200000
00000000
03300000
00000000
,
00010000
00010000
10000000
10000000
,
01000000
00000000
01000000
00000000
01000000
00000000
00000000
00000000
00010000
00000000
00000000
00010000
00000000
00000000
00001000
00000000
,
00000010
00000010
00000001
00000001
,
00000100
00000000
00000100
00000000
00000100
00000000
00000000
00000000
00001000
00000000
00000000
00001000
00000000
00000000
00010000
00000000
,
00100000
00100000
10000000
10000000
,
01000000
00000000
01000000
00000000
01000000
00000000
00000000
00000000
00010000
00000000
00000000
00010000
00000000
00000000
00001000
00000000
,
00000010
00000000
00000001
00000000
00000100
00001000
00010000
00000000
,
00200000
00300000
20000000
30000000
02000000
03000000
00020000
00030000
00001000
00000000
00000000
00000000
00000000
00000000
00000000
00000000
00000010
00000000
00000000
00000000
00000001
00000000
00000000
00000000
00000100
00000000
00000000
00000000
00000000
00000000
00000000
00000000
,
00000010
00000000
00001000
00000000
00000100
00000000
00000100
00000000
00000100
00000000
00000000
00000000
00010000
00000000
00000000
00010000
,
00000000
00000000
00001000
00000000
00100000
00000000
00000000
00000000
00010000
00000000
01000000
00000000
00100000
00000000
00000000
00100000
,
00000000
00000000
10000000
00000000
01000000
00000000
01000000
00000000
01000000
00000000
00000000
00000000
00010000
00000000
00000000
00010000
,
00000000
00001000
00000010
00000010
00000001
00000001
00000100
00001000
,
00000100
00000000
00001000
00000000
00010000
00000000
00100000
00010000
00000000
00100000
10000000
00000000
01000000
10000000
00000000
11000000
,
00000000
00000000
00000000
00000000
00010000
00000000
00100000
00010000
00000000
00100000
00001000
00000000
00010000
00000010
00000000
00001000
,
00000010
00000000
00000010
00000000
00000200
00000000
00001000
00001000
00001300
00000000
00000101
00000000
00000001
00000000
00000000
00000000
,
00000010
00001000
00010000
01000000
,
00100000
00010000
00100000
00000000
00000000
00000000
01000000
00000000
,
10000000
00100000
00010000
00001000
,
01000000
00010000
01000000
00000000
00000000
00000000
00010000
00000000
,
10000000
01000000
00010000
00001000
,
00000010
00000100
00000010
00000000
00000000
00000000
00000001
00000000
,
00000100
00000001
00000000
00000100
00000001
00000000
00001000
00000010
,
00000000
00001000
00000200
00000000
00000000
00000000
00010300
00000000
,
00001000
00000010
00001000
00010000
,
00001000
00100000
00010000
00000000
00000000
00000000
01000000
00000000
,
00010000
10000000
01000000
00010000
,
00001000
00010000
00001000
00000000
00000000
00000000
00000010
00000000
,
00000001
00000100
00001000
00010000
,
00000010
00001000
00000010
00000000
00000000
00000000
00010000
00000000
,
00001000
00010000
00000000
00001000
00010000
00000000
00001000
00100000
,
00000000
00010000
02000000
00000000
00000000
00000000
03100000
00000000
,
00000000
00100000
00000000
00000000
00000000
10000000
00000000
00000000
00000000
01000000
00000000
00000000
,
00000000
01000000
00000000
00000000
00000000
00010000
00000000
00000000
00000000
00001000
00000000
00000000
,
00000000
00001000
00000000
00000000
00000000
00000010
00000000
00000000
00000000
00000001
00000000
00000100
,
00000000
00000001
00000000
00000000
00000000
00001000
00000000
00000010
00000000
00001000
00000000
00000000
,
00000000
00001000
00000000
00000000
00000000
00000100
00000000
00000000
00000000
00010000
00000000
00001000
,
00000000
00100000
00000000
00010000
00000000
00100000
00000000
01000000
00000000
10000000
00000000
00000000
,
00100000
10000000
00000000
00100000
10000000
00000000
00010000
01000000
,
00000000
00010000
00200000
00000000
00000000
00000000
01300000
00000000
,
00010000
00000000
00001000
00000000
00000010
00000000
00000100
00001000
,
00000000
00001100
00000000
00000000
00000000
00000000
00000001
00000000
,
00000100
00000000
00001000
00000000
00010000
00000000
00100000
01000000
,
00000000
01100000
00000000
00000000
00000000
00000000
10000000
00000000
,
01000000
00000000
00010000
00000000
00001000
00000000
00000010
00000100
,
00000000
00000011
00000000
00000000
00000000
00000000
00000001
00000000
,
00000100
00000001
00000000
00000100
00000001
00000000
00000100
00001000
,
00000000
00010000
00002000
00000000
00103000
00000000
00100000
00010000
,
00000000
00010000
01000000
00000000
01000000
00001000
00000000
00011000
,
00000000
00000000
00000000
00000000
00000010
00000000
00000010
00001000
,
00000000
00001000
00000100
00000000
00000100
00010000
00000000
00011000
,
00000000
00000000
00000000
00000000
00100000
00000000
00100000
01000000
,
00000000
01000000
00010000
00000000
00010000
00001000
00000000
00011000
,
00000000
00000000
00000000
00000000
00000010
00001000
00000000
00000001
,
00000100
00000000
00000010
00001000
00000000
00000001
00000100
00000000
,
00002000
00000000
00000000
00000000
00013000
00000000
00010000
00000010
,
00000000
00000010
00001000
00000000
00001000
00000100
00000000
00011000
,
00000000
00000000
00000000
00000000
00001000
00000000
00001000
00100000
,
00000000
00100000
00010000
00000000
00010000
01000000
00000000
00011000
,
00000000
00000000
00000000
00000000
00100000
00000000
00100000
01000000
,
00000000
01000000
00010000
00000000
00010000
00001000
00000000
00011000
,
00000000
00000000
00000000
00000000
00100000
00010000
00000000
00100000
,
01000000
00000000
10000000
00000000
01000000
00010000
00000000
00001000
,
00020000
00000000
00000000
00000000
00000000
00000000
00031000
00000000
00000000
00000000
00000010
00000000
,
00000000
00000000
00000001
00000000
00000010
00000000
00000001
00000000
00000000
00000000
00000100
00000000
,
00000000
00000000
00001000
00000000
00000100
00000000
00001000
00000000
00000000
00000000
00010000
00000000
,
00000000
00000000
00100000
00000000
00010000
00000000
00100000
00000000
10000000
00000000
00100000
00000000
,
00000000
00000000
10000000
00000000
01000000
00000000
00010000
00000000
00000000
00000000
00001000
00000000
,
00000000
00000000
00010000
00000000
00001000
00000000
00000010
00000000
00000000
00000000
00000010
00000000
,
00000001
00000000
00000000
00000000
00000001
00000000
00000100
00000000
00001000
00000000
00010000
00000000
,
00001000
00000000
00010000
00000000
00100000
00000000
20000000
00000000
00000000
00000000
00000000
00000000
,
31000000
00000000
10000000
00000000
00010000
00000000
00100000
00010000
,
00000000
00100000
00001000
00000000
00010000
00000100
00000000
00001100
,
00000000
00000000
00000001
00000000
00000010
00000000
00001000
00010000
,
00000000
00001000
00100000
00000000
00010000
01000000
00000000
01010000
,
00000000
00000000
10000000
00000000
00100000
00000000
10000000
01000000
,
00000000
00010000
01000000
00000000
00010000
00001000
00000000
00011000
,
00000000
00000000
00000010
00000000
00001000
00000000
00000100
00001000
,
00000000
00000100
00000010
00000000
00000001
00001000
00000001
00000000
,
00001000
00000010
00001000
00000010
00000200
00000000
00000000
00000000
,
00000000
00000000
00000000
00000000
00000010
00000010
00000310
00000000
,
00000100
00001000
00011000
00000000
00100000
00000000
00010000
00000000
,
01000000
00000000
00010000
00100000
00000000
01000000
00100000
00000000
,
00010000
00100000
00000000
00000000
00001000
00000000
00010000
00000000
,
00000010
00001000
00000000
00001000
00000010
00000000
00000100
00000000
,
00001000
00000000
00000100
00000000
00000001
00000010
00000001
00000000
,
00000010
00000100
00000010
00000000
00000100
00001000
00000100
00000000
,
00010000
00001000
00022000
00000000
,
00000000
00033000
00000000
00000000
;

//--------------- dance-double - forcednature ----------------
#NOTEDATA:;
#STEPSTYPE:dance-double;
#DESCRIPTION:forcednature;
#CREDIT:forcednature;
#DIFFICULTY:Hard;
#METER:18;
#RADARVALUES:0,0,0,0,0;
#NOTES:
00000000
00000000
00000000
00000000
,
00000000
00000000
00000000
00000000
,
00000000
00000000
00000000
00000000
,
00000000
00000000
00000000
00000000
,
00000000
00000000
00000000
00000000
,
00000000
00000000
00000000
00000000
,
00001000
00000000
00010000
00001000
00000000
00010000
00100000
00010000
,
00000000
00100000
10000000
00000000
01000000
00010000
00001000
00010000
,
00000000
00001000
00000010
00000001
00000010
00001000
00000000
00010000
,
00000200
00000000
00000000
00001000
00000000
00000000
00001300
00000000
00000001
00000010
00000001
00000010
00000100
00000000
00000000
00000000
,
00001000
00000010
00010000
00000000
00100000
01000000
00010000
00000000
,
10000000
01000000
00010000
00001000
00100000
00010000
00100000
00000000
,
00001000
00000010
00000001
00000000
00000010
00001000
00010000
00000000
,
01000000
00000000
10000000
00000000
00100000
00000000
10000000
00000000
01000000
00000000
00000000
00000000
00010000
00000000
00001000
00010000
,
00001000
00000010
00000001
00000100
00000001
00000010
00001000
00010000
,
00100000
10000000
01000000
10000000
00100000
00010000
00001000
00000000
,
00100000
00010000
00100000
00010000
00100000
00001000
00010000
00000100
00001000
00000010
00001000
00000010
00000100
00000001
00001000
00000010
,
00002000
00000000
00000000
00000000
00000000
00000000
00000000
00000000
00003100
00010000
00001000
00100000
00010000
00000000
00000000
00000000
,
02100000
00000000
00000000
00000000
13000000
00010000
10000000
00000000
01000000
00000000
00010000
00000000
00002000
00000000
00000000
00000000
,
00003000
00000000
00000010
00000001
00000100
00000000
00000010
00001000
00000100
00000000
00010000
00000000
00000010
00000000
00000000
00000000
,
00000210
00000000
00000000
00000000
00000301
00000000
00001000
00000001
00000100
00000000
00001000
00000000
00020000
00000000
00000000
00000000
,
00030000
00000000
00000000
00000000
00000000
00000000
00100000
00000000
00000000
10000000
00000000
00000000
01000000
00000000
00000000
00000000
00000000
00000000
00100000
00000000
00000000
00010000
00000000
00000000
01000000
00000000
00000000
00000000
00100000
00000000
00000000
00000000
10000000
00000000
00000000
00000000
00010000
00000000
00000000
00000000
00000000
00000000
00000000
00000000
00000000
00000000
00000000
00000000
,
00210000
00000000
00000000
00000000
01300000
00000000
10000000
01000000
00010000
00000000
00001000
00000000
00022000
00000000
00000000
00000000
,
00033000
00000000
00000010
00001000
00000100
00000000
00000010
00000001
00000100
00000000
00001000
00000000
00010000
00000000
00000000
00000000
,
00200000
00000000
10000000
00000000
10300000
00000000
00100000
01000000
00020000
00000000
00100000
00000000
00130000
00000000
00001000
00010000
,
00000200
00000000
00000000
00000000
00001000
00000000
00001300
00000000
00000001
00000010
00000000
00000010
00000002
00000000
00000000
00000000
,
00000103
00000000
00000100
00000000
00001000
00000000
00000100
00000000
00001000
00010000
00001000
00000000
00010000
00000000
00100000
00000000
,
10000000
00000000
10000000
00000000
01000000
10000000
00100000
00000000
10000000
00000000
01000000
00000000
00020000
00000000
00000000
00000000
,
00031000
00000000
00100000
00000000
00010000
00000000
00000010
00000000
00001000
00000000
00010000
00001000
00010000
00001000
00010000
00000000
,
00000010
00001000
00000010
00000000
00000100
00000000
00001000
00000000
00010000
00000000
00000000
00100000
02000000
00000000
00000000
00000000
,
03010000
00000000
10000000
00000000
00100000
00000000
10000000
00000000
01000000
00000000
00010000
00001000
00010000
00001000
00010000
00000000
,
00001000
00000000
00000010
00000000
00000001
00000000
00000100
00000000
00001000
00000000
00000100
00000001
00000000
00000100
00000001
00000000
,
00001000
00000000
00000010
00001000
00000000
00010000
01000000
00010000
01000000
00000000
00100000
00000000
10000000
01000000
10000000
01000000
,
00020000
00000000
00000000
00000000
00001000
00030000
00000000
00000010
00001000
00000000
00000001
00000000
00000101
00000000
00000000
00000000
,
00001010
00000000
00000000
00000000
00000001
00000000
00000010
00000001
00000010
00000000
00001000
00000010
00001000
00000000
00010000
00001000
,
00010000
00001000
00010000
00000000
00100000
00000000
01000000
00010000
01000000
00000000
00100000
10000000
00000000
01000000
10000000
00000000
,
10010000
00000000
00000000
00000000
10000000
00000000
00100000
10000000
00100000
00000000
00010000
00100000
00010000
00000000
00001000
00010000
,
00001000
00010000
00001000
00000000
00000010
00000000
00000100
00001000
00000100
00001000
00000001
00000000
00000020
00000000
00000000
00000000
,
00000031
00000000
00000100
00000001
00000000
00000100
00001000
00000000
00010000
00000000
00100000
00010000
00000000
00100000
10000000
00000000
,
10000000
00000000
01000000
00000000
00010000
00000000
00001000
00100000
00010000
00100000
00001000
00000000
00000010
00000000
00000000
00000000
,
00000100
00001000
00000100
00001000
00000010
00000100
00000010
00000100
00001000
00010000
00001000
00010000
00100000
01000000
00010000
10000000
,
00200000
00000000
00300000
00000000
,
20010000
01000000
01000000
01000000
,
30020000
00000000
00100000
00000000
00100000
00000000
00000000
00000000
01000000
00000000
00000000
01000000
00000000
00000000
01030000
00000000
,
00002000
00000000
00010000
00000000
00010000
00000000
00010000
00003000
,
00000020
00000000
00000100
00000000
00000100
00000000
00000000
00000000
00001000
00000000
00000000
00001000
00000000
00000000
00001030
00000000
,
00000001
00000100
00000001
00000100
00001000
00010000
00001000
00010000
,
00100000
00000000
00100000
00000000
00100000
00000000
00000000
00000000
10000000
00000000
00000000
10000000
00000000
00000000
01000000
00000000
,
10000000
00100000
00010000
00001000
00000010
00000001
00000100
00000001
,
00000020
00000030
00002000
00003000
00020000
00030000
02000000
03000000
10000000
00000000
00000000
00000000
00000000
00000000
10000000
00000000
00000000
00000000
00000000
00000000
00100000
00000000
00000000
00000000
10000000
00000000
00000000
00000000
01000000
00000000
00000000
00000000
,
00010000
00000000
00001000
00000000
00100000
00000000
00100000
00000000
00100000
00000000
00000000
00000000
00001000
00000000
00000000
00000010
,
00000000
00000000
00000100
00000000
00010000
00000000
00000000
00010000
00000000
00000000
00001000
00000000
00000010
00000000
00000001
00000000
,
00000100
00000000
00000001
00000000
00000010
00000000
00000010
00000000
00000010
00000000
00000000
00000000
00001000
00000000
00000000
00010000
,
00000000
00000000
00001000
00100000
00010000
00000000
01000000
00000000
00010000
00000000
01000000
00000000
00100000
00000000
10000000
00000000
,
00100000
00000000
10000000
00000000
01000000
00000000
00010000
01000000
00000000
01000000
00010000
00000000
00001000
00010000
00000000
00001000
,
00000000
00000010
00000001
00000000
00001000
00000010
00001000
00000010
00001000
00000010
00001000
00000010
00010000
00001000
00100000
00001000
,
00010000
00001000
01000000
00001000
00020000
00000000
00100000
00000000
00030020
00000000
00000030
00000000
00001000
00000000
00000000
00000000
,
00000100
00000001
00000000
00000100
00001000
00000000
00000010
00001000
,
00000000
00010000
00000000
01000000
00100000
10000000
00010000
00000000
,
00100000
00010000
00000000
00100000
01000000
00000000
00010000
00001000
,
00000000
00100000
00000000
00001000
00000010
00000100
00000010
00000000
,
00000001
00001000
00000000
00000010
00001000
00000000
00010000
01000000
,
00000000
00100000
00000000
10000000
00010000
00000000
00100000
00010000
,
00100000
00001000
00010000
00000100
00001000
00000100
00010000
00001000
,
00100000
00010000
02000000
00000000
00000000
00000000
03100000
00000000
,
10000000
01000000
00000000
00010000
01000000
00000000
00100000
00001000
,
00000000
00010000
00000000
00000100
00001000
00000100
00000010
00000000
,
00000001
00000100
00000000
00000010
00000100
00000000
00001000
00010000
,
00000000
00001000
00000000
00100000
00010000
00100000
01000000
00000000
,
10000000
00100000
00000000
10000000
01000000
00000000
00010000
00001000
,
00000000
00010000
00000000
00000100
00001000
00000100
00000010
00000001
,
00000010
00000001
00001000
00000010
00001000
00000010
00010000
00001000
,
01000000
00010000
20000000
00000000
00000000
00000000
31000000
00000000
,
00000000
01100000
00000000
00000000
00000000
10000000
00000000
01000000
00000000
00010000
00000000
00000000
,
00000000
00011000
00000000
00000000
00000000
00000010
00000000
00001000
00000000
00000001
00000000
00000000
,
00000000
00000101
00000000
00000000
00000000
00000001
00000000
00000010
00000000
00001000
00000000
00010000
,
00000000
01000000
00000000
00000000
00000000
10000000
00000000
01000000
00000000
00010000
00000000
00000000
,
00000000
00011000
00000000
00000000
00000000
00000100
00000000
00001000
00000000
00000020
00000000
00000000
,
00000100
00000000
00000130
00000000
00000001
00000000
00001000
00000100
,
00010000
00001000
00100000
00010000
01000000
00100000
10000000
01000000
,
00100000
00010000
02000000
00000000
00000000
00000000
03100000
00000000
,
10000000
01000000
00000000
00010000
00001000
00000000
00000100
00000001
,
00000000
00000011
00000000
00000002
00000000
00000000
00000013
00000000
,
00000001
00000100
00000000
00001000
00010000
00000000
01000000
10000000
,
00000000
10100000
00000000
00200000
00000000
00000000
10300000
00000000
,
00100000
00010000
00000000
00001000
00000100
00000000
00000001
00000010
,
00000000
00000011
00000000
00002000
00000000
00000000
00003010
00001000
,
00000010
00001000
00000100
00010000
00000100
00010000
00001000
01000000
,
00010000
01000000
00200000
00000000
10300000
00000000
10000000
01000000
,
00000000
01000000
00010000
00000000
00010000
00001000
00000000
00000010
,
00000000
00000000
00000001
00001000
00000001
00000000
00000001
00000100
,
00000000
00000100
00001000
00000000
00001000
00010000
00000000
00100000
,
00000000
00000000
10000000
00010000
10000000
00000000
10000000
01000000
,
00000000
01000000
00010000
00000000
00010000
00001000
00000000
00000010
,
00000000
00000000
00000001
00001000
00000010
00010000
00000010
00010000
,
00001000
01000000
00001000
01000000
00010000
10000000
00100000
01000000
,
00020000
00000000
00030000
00000000
10000000
00000000
10000000
01000000
,
00000000
01000000
00010000
00000000
00001000
00000010
00000000
00000011
,
00000000
00000000
00000001
00001000
00000001
00000000
00000001
00000100
,
00000000
00000100
00001000
00000000
00010000
00100000
00000000
10100000
,
00000000
00000000
10000000
00010000
10000000
00000000
10000000
00100000
,
00000000
00100000
00010000
00000000
00001000
00000100
00000000
00000101
,
00000000
00000000
00000001
00001000
00000010
00000100
00000010
00000100
,
00001000
00010000
00001000
00010000
00100000
01000000
00010000
10000000
,
00200000
00000000
00000000
00000000
00000000
00000000
10300000
00000000
00000000
00000000
01000000
00000000
,
00010000
00000000
01000000
00000000
00010000
00000000
00001000
00000000
00000000
00000000
00000010
00000000
,
00000001
00000000
00000010
00000000
00000001
00000000
00000100
00000000
00000000
00000000
00001000
00000000
,
00010000
00000000
00001000
00000000
00010000
00000000
00100000
00000000
01000000
00000000
01100000
00000000
,
00000000
00000000
00010000
00000000
10000000
00000000
00010000
00000000
00000000
00000000
00100000
00000000
,
01000000
00000000
00100000
00000000
00001000
00000000
00010000
00000000
00000100
00000000
00001000
00000000
,
00000100
00000000
00000000
00000010
00000000
00000000
00000001
00000000
00000000
00000000
00000000
00000000
00001000
00000000
00000000
00000000
00000010
00000000
00000000
00000000
00000100
00000000
00000000
00000000
,
00001000
00000000
00010000
00000000
00100000
00000000
02000000
00000000
00000000
00000000
00000000
00000000
,
03010000
00000000
10000000
00000000
01000000
00000000
00010000
00001000
,
00000000
00000010
00001000
00000000
00010000
00001000
00000000
00010100
,
00000000
00000020
00000000
00000000
00001030
00000000
00000001
00000100
,
00000000
00001000
00000100
00000000
00001000
00010000
00000000
00011000
,
00000000
00200000
00000000
00000000
00310000
00000000
01000000
00100000
,
00000000
10000000
01000000
00000000
00010000
00001000
00000000
00011000
,
00000000
00000100
00001000
00000100
00001000
00000000
00000010
00000100
,
00000010
00000100
00000001
00000000
00000010
00000100
00001000
00000100
,
00010000
00001000
00100000
00010000
02000000
00000000
00100000
00000000
,
00100000
00000000
00100000
00000000
00010000
00010000
03010000
00000000
,
10000000
00100000
20200000
30300000
10000000
01000000
10000000
00000000
,
01000000
00010000
00000000
00001000
00010000
00000000
00001000
00000010
,
00000000
00000001
00000010
00000000
00000110
00000000
00000100
00001000
,
00000100
00001000
00000000
00000001
00000100
00000000
00001000
00000000
,
00010000
00000000
00100000
00000000
10000000
01000000
10000000
01000000
,
00100000
00010000
00100000
00010000
00001000
00000100
00001000
00000010
,
00000100
00000001
00000010
00000001
00000200
00000000
00000000
00000000
,
00000000
00000300
00000000
00000000
;

//--------------- dance-double - forcednature ----------------
#NOTEDATA:;
#STEPSTYPE:dance-double;
#DESCRIPTION:forcednature;
#CREDIT:forcednature;
#DIFFICULTY:Challenge;
#METER:19;
#RADARVALUES:0,0,0,0,0;
#NOTES:
00000000
00000000
00000000
00000000
,
00000000
00000000
00000000
00000000
,
00000000
00000000
00000000
00000000
,
00000000
00000000
00000000
00000000
,
00000000
00000000
00000000
00000000
,
00000000
00000000
00000000
00000000
,
00001000
00010000
00001000
00010000
00000000
00100000
00010000
00100000
,
00000000
10000000
01000000
00100000
00010000
01000000
00001000
00010000
,
00000000
00000100
00001000
00000100
00000010
00000001
00000000
00001000
,
00000010
00000000
00001000
00000010
00000000
00010000
00001000
00010000
00001000
00100000
00010000
00100000
02000000
00000000
00000000
00000000
,
03010000
00000000
01000000
00000000
10000000
00000000
01000000
00000000
10000000
00000000
00100000
00000000
00010000
00000000
00001000
00010000
,
00001000
00000000
00000100
00000000
00000001
00000000
00000100
00000000
00000001
00000000
00000010
00000000
00001000
00000000
00010000
00001000
,
00010000
00000000
01000000
00000000
10000000
00000000
00100000
00000000
00010000
00000000
00001000
00000000
00100000
00000000
00010000
00100000
,
00001000
00000000
00000010
00000000
00000100
00000000
00010000
00000000
00001000
00000000
00000010
00000000
00000001
00000000
00000100
00000001
,
00001000
00000000
00001000
00000100
00010000
00000000
00010000
00001000
00100000
00000000
00100000
00010000
01000000
00000000
01000000
00100000
,
20000000
01000000
32000000
00010000
03020000
00001000
00032000
00000010
,
00003010
00000001
00000010
00000001
00000100
00000010
00001000
00000100
00010000
00001000
00100000
00010000
01000000
00100000
10000000
01000000
,
00200000
00000000
00000000
00300000
01000000
00010000
01000000
00010000
00001000
00000010
00000100
00000010
00000001
00000000
00000000
00000000
,
00002001
00000000
00000000
00000000
00003001
00000100
00010000
00000000
01000000
00000000
00100000
00000000
02200000
00000000
00000000
00000000
,
03300000
00000000
00100000
00010000
00001000
00000000
00010000
00100000
10000000
00000000
01000000
00000000
01100000
00000000
00000000
00000000
,
10020000
00000000
00000000
00000000
10030000
00000000
01000000
00001000
00000100
00000000
00000010
00000000
00000220
00000000
00000000
00000000
,
00000330
00000000
00000000
00000000
00000000
00000000
00000010
00000000
00000000
00001000
00000000
00000000
00010000
00000000
00000000
00000000
00000000
00000000
00000100
00000000
00000000
00001000
00000000
00000000
00000001
00000000
00000000
00000000
00000100
00000000
00000000
00000000
00001000
00000000
00000000
00000000
00010000
00000000
00000000
00000000
00000000
00000000
00000000
00000000
00000000
00000000
00000000
00000000
,
00010020
00000000
00000000
00000000
00000130
00000000
00001000
00100000
01000000
00000000
01100000
00000000
20020000
00000000
00000000
00000000
,
30030000
00000000
10000000
01000000
00010000
00000000
00001000
00010000
01000000
00000000
00100000
00000000
10010000
00000000
00000000
00000000
,
02010000
00000000
00010000
00000000
00100000
00000000
13000000
01000000
00020000
00000000
00100000
00000000
01030000
00000000
00010000
00100000
,
00001000
00000000
00000010
00000100
00001000
00000000
00000001
00000000
00000100
00001000
00010000
00001000
00020000
00000000
00000000
00000000
,
00130000
00000000
10000000
00100000
10000000
00000000
01000000
00010000
00001000
00010000
01000000
00000000
00100000
00010000
00100000
00001000
,
00010000
00000000
00000100
00010000
00001000
00000010
00001000
00000000
00010000
00000000
00000010
00001000
00000001
00000100
00000001
00000100
,
00002000
00000000
00100000
00000000
00023000
00000000
00000010
00000000
00031000
00000000
01000000
00010000
10000000
00100000
10000000
00100000
,
10000000
01000000
00010000
00000000
00001000
00010000
00001000
00000000
00000010
00000000
00000001
00000000
00001000
00000010
00000001
00000010
,
00001000
00000000
00010000
01000000
00100000
00000000
10000000
01000000
00100000
00010000
00100000
00000000
01000000
00010000
00001000
00010000
,
00001000
00000000
00000010
00000000
00000100
00010000
00001000
00000000
00000010
00000000
00000001
00001000
00000010
00001000
00000001
00000000
,
00000100
00000000
00001000
00010000
00000000
00100000
01000000
00100000
10000000
00000000
01000000
00010000
00001000
00010000
01000000
00000000
,
00200000
00000000
00302000
00000000
00003020
00000000
00000130
00001000
00000010
00000000
00000100
00000000
00001001
00000000
00000000
00000000
,
00011000
00000000
00000000
00000000
10010000
00000000
10000000
01000000
00010000
00000000
00010000
00001000
00000010
00000000
00000010
00000001
,
00001000
00000100
00001000
00000000
00000001
00000000
00000100
00001000
00000100
00000000
00000010
00001000
00000000
00010000
01000000
00000000
,
00011000
00000000
00000000
00000000
00001001
00000000
00000001
00000100
00001000
00000000
00001000
00010000
00100000
00000000
00100000
10000000
,
01000000
10000000
00010000
00000000
00100000
00000000
01000000
00010000
00001000
00010000
00001000
00000010
00000002
00000000
00000000
00000000
,
00000103
00000000
00001000
00000100
00000000
00001000
00010000
00000000
00100000
00000000
10000000
00100000
10000000
01000000
00100000
00000000
,
01000000
00000000
10010000
00000000
00001000
00000000
00010000
00000010
00001000
00000010
00010000
00000000
00011000
00000000
00000000
00000000
,
10000000
01000000
10000000
00100000
01000000
00010000
00100000
00001000
00010000
00000100
00001000
00000010
00000100
00000001
00000010
00000001
,
00000220
00000000
00000330
00000000
,
00000001
00000001
00000100
00000100
,
00001000
00000000
00010000
00000000
00001000
00000000
00000000
00000000
00010000
00000000
00000000
00010000
00000000
00000000
00100000
00000000
,
10000000
10000000
01000000
01000000
,
00010000
00000000
00001000
00000000
00010000
00000000
00000000
00000000
00001000
00000000
00000000
00001000
00000000
00000000
00000010
00000000
,
00000001
00000100
00000001
00000100
00001000
00010000
00001000
00010000
,
00100000
00000000
10000000
00000000
01000000
00000000
10000000
00000000
00100000
00000000
00000000
00100000
00000000
00000000
00010000
00000000
,
00001000
00000010
00000100
00010000
00001000
00100000
01000000
00010000
,
00002000
00003000
00200000
00300000
00020000
00030000
00000020
00000030
00001001
00000000
00000000
00000000
00000000
00000000
00000000
00000000
00000001
00000000
00000000
00000000
00000100
00000000
00000000
00000000
00001000
00000000
00000000
00000000
00010000
00000000
00000000
00000000
,
00100000
00000000
10000000
00000000
00010000
00000000
01000000
00010000
01000000
00000000
00100000
00000000
10000000
00000000
00000000
10000000
,
00000000
00000000
00010000
00000000
00100000
00000000
00000000
01000000
10000000
00000000
01000000
00000000
00010000
00000000
00001000
00000000
,
00000010
00000000
00000001
00000000
00001000
00000000
00001000
00000000
00001000
00000000
00000000
00000000
00000010
00000000
00000000
00000010
,
00000000
00000000
00000100
00000001
00000100
00000000
00001000
00000000
00010000
00000000
00001000
00000000
00000100
00000000
00001000
00000000
,
00010000
00000000
00001000
00000000
00010000
00000000
00100000
00010000
00000000
00100000
10000000
00000000
01000000
10000000
00000000
00010000
,
00000000
01000000
00010000
00100000
00001000
00010000
00001000
00010000
00000010
00001000
00000001
00000010
00001000
00010000
01000000
10000000
,
00100000
00000000
01000000
00000000
00010000
00000000
10000000
00000000
02000000
00000000
00000000
00000000
03010000
00000000
00001000
00000000
00000010
00000100
00000010
00000000
00000220
00000330
00000000
00000000
00000001
00000000
00000000
00000000
00000000
00000000
00000000
00000000
,
00000100
00010000
00000000
00000100
00000001
00000000
00001000
00000010
,
00000000
00011000
00000000
00001000
00100000
00010000
10000000
00000000
,
01000000
00001000
00000000
01000000
10000000
00000000
00010000
00100000
,
00000000
00011000
00000000
00000010
00001000
00010000
01000000
00000000
,
00010000
00100000
00000000
00001000
00000010
00000000
00000100
00010000
,
00000000
00011000
00000000
00000010
00001000
00000001
00000100
00001000
,
00010000
00001000
00010000
00100000
10000000
00010000
10000000
01000000
,
00010000
00001000
00200000
00000000
00310000
00000000
01000000
00000000
,
00010000
00100000
00000000
00001000
00000010
00000000
00000100
00001000
,
00000000
00001010
00000000
00000001
00000010
00000100
00001000
00000000
,
00001000
00000010
00000000
00010000
00100000
00000000
01000000
00010000
,
00000000
10100000
00000000
00010000
00100000
01000000
10000000
00000000
,
01000000
00010000
00000000
00001000
00010000
00000000
00001000
00000010
,
00000000
00000110
00000000
00000100
00001000
00000001
00000100
00001000
,
00000100
00001000
00010000
00100000
00010000
00100000
10000000
01000000
,
00010000
00001000
00100000
01000000
00100000
01000000
20000000
00000000
,
00000000
30100000
00000000
00010000
00000000
00001000
00000000
00000100
00000000
00000002
00000000
00000000
,
00000000
00000013
00000000
00001000
00000000
00010000
00000000
01000000
00000000
20000000
00000000
00000000
,
00000000
30100000
00000000
00010000
00000000
00001000
00000000
00000100
00000000
00000001
00000000
00000010
,
00000000
00001000
00000000
00000010
00000000
00000001
00000000
00000100
00000000
00000002
00000000
00000000
,
00000000
00000013
00000000
00001000
00000000
00010000
00000000
01000000
00000000
10000000
00000000
00100000
,
00000000
00000000
10000000
00000000
00000000
00000000
00010000
00000000
00000000
00000000
00100000
00000000
00000000
00000000
00010000
00000000
00000000
00000000
10000000
00000000
00000000
01000000
00000000
00000000
,
00010000
00001000
00010000
00001000
00000010
00000001
00001000
00000010
,
00010000
00001000
01000000
00010000
00100000
01000000
10000000
00000000
,
01000000
00010000
00000000
00001000
00010000
00000000
00001000
00000010
,
00000000
00000110
00000000
00000100
00010000
00001000
00000010
00000000
,
00000001
00000100
00000000
00001000
00000100
00000000
00001000
00010000
,
00000000
00011000
00000000
00001000
00100000
00010000
00100000
00000000
,
01000000
10000000
00010000
10000000
01000000
00000000
00010000
00001000
,
00010000
00001000
00000000
00000010
00000001
00000010
00000100
00010000
,
00001000
00010000
00000100
00001000
00000010
00000100
00001000
00010000
,
00100000
01000000
00020000
00000000
10030000
00000000
01000000
00010000
,
00000000
00001000
00000010
00000000
00000001
00001000
00000000
00000100
,
00000001
00000000
00000100
00001000
00000001
00000000
00000100
00001000
,
00000000
00010000
00100000
00000000
10000000
00010000
00000000
01000000
,
10000000
01000000
00010000
00000000
10000000
00000000
01000000
00010000
,
00000000
00001000
00000010
00000000
00000001
00001000
00000000
00000100
,
00000001
00000000
00000100
00001000
00000001
00000100
00001000
00010000
,
00001000
00010000
00100000
10000000
00010000
00100000
01000000
10000000
,
01000000
00010000
00001000
00000000
10000000
00000000
00100000
00010000
,
00000000
00001000
00000100
00000000
00000001
00001000
00000000
00000100
,
00000001
00000000
00000100
00001000
00000001
00000000
00000010
00001000
,
00000000
00010000
01000000
00000000
10000000
00010000
00000000
01000000
,
10000000
01000000
00010000
00000000
10000000
00000000
01000000
00010000
,
00000000
00000100
00001000
00000000
00000001
00000010
00000000
00001000
,
00010000
00000000
00000010
00001000
00000001
00000010
00000100
00001000
,
00010000
00100000
01000000
10000000
00100000
00010000
00001000
00000100
,
00002000
00000000
00000000
00000000
00000000
00000000
00013000
00000000
00100000
00000000
10000000
00000000
,
01000000
00000000
00000000
00010000
00000000
00000000
00001000
00000000
00000000
00000000
00000000
00000000
00000010
00000000
00000000
00000000
00000001
00000000
00000000
00000000
00000100
00000000
00000000
00000000
,
00001000
00000000
00000000
00010000
00000000
00000000
00001000
00000000
00000000
00000000
00000000
00000000
00010000
00000000
00000000
00000000
00100000
00000000
00000000
00000000
10000000
00000000
00000000
00000000
,
01000000
00000000
00000000
00010000
00000000
00000000
00001000
00000000
00000000
00000000
00000000
00000000
00000010
00000000
00000000
00000000
00000100
00000000
00001000
00000000
00000100
00000000
00000000
00000000
,
00000010
00000000
00000001
00000010
00000001
00000000
00000100
00000000
00001000
00000000
00010000
00000000
,
00100000
00000000
00000000
10000000
00000000
00000000
00010000
00000000
00000000
01000000
00000000
00000000
00100000
00000000
00000000
00000000
10000000
00000000
00000000
00000000
01000000
00000000
00010000
00000000
,
00001000
00000000
00100000
00000000
00010000
00000000
20000000
00000000
32000000
00000000
03020000
00000000
,
00032000
00000000
00003200
00000000
00000302
00000000
00000023
00000000
00000000
00000000
00000000
00000000
,
00000130
00001000
00000010
00000100
00000001
00000000
00000010
00001000
,
00000000
00010000
01000000
00000000
10000000
00100000
01000000
01100000
,
00000000
00100000
00010000
00001000
00010000
00000000
00100000
10000000
,
00000000
01000000
00010000
00000000
00001000
00000010
00000100
00000110
,
00000000
00000010
00000001
00000100
00001000
00010000
00100000
00010000
,
00001000
00000010
00001000
00010000
01000000
00100000
00001000
00010000
,
01000000
10000000
00100000
00010000
00001000
00000010
00000100
00010000
,
00001000
00000010
00000001
00000100
00001000
00000100
00000001
00000010
,
00001000
00010000
00001000
00010000
00001000
00010000
02000000
00000000
00000000
10000000
00000000
00000000
,
10000000
00000000
00000000
00000000
13000000
00000000
00000000
10000000
00100000
00000000
00100000
00000000
00100000
00000000
00000000
00000000
,
00010000
00001000
00022000
00033000
00000010
00001000
00000010
00000000
,
00000100
00000000
00000000
00000001
00000000
00000000
00000000
00000000
00000000
00000100
00000000
00000000
00001000
00000000
00010000
00000000
00001000
00000000
00010000
00000000
00000000
00100000
00000000
00000000
,
00010000
00000000
00000000
00100000
00000000
00000000
10000000
00000000
00000000
00000000
00000000
00000000
10010000
00000000
00000000
00000000
00000000
00000000
00010000
00000000
00100000
00000000
00010000
00000000
,
00100000
01000000
00000000
00100000
00001000
00000000
00010000
00000100
,
00001000
00000000
00000000
00000010
00000000
00000000
00010000
00000000
00000000
00000100
00000000
00000000
00001000
00000000
00000001
00000000
00001000
00000000
00000001
00000000
00000000
00000100
00000000
00000000
,
00001000
00000000
00010000
00000000
00001000
00000000
00010000
00000000
00000000
00100000
00000000
00000000
10000000
00000000
00000000
01000000
00000000
00000000
00010000
00000000
00000000
00001000
00000000
00000000
,
00100000
00010000
00100000
00001000
00010000
00000100
00002000
00000000
00000000
00000000
00000000
00000000
,
00000000
00003000
00000000
00000000
;
