#VERSION:0.83;
#TITLE:Colorful Cookie;
#SUBTITLE:;
#ARTIST:Lucky Vacuum;
#TITLETRANSLIT:;
#SUBTITLETRANSLIT:;
#ARTISTTRANSLIT:;
#GENRE:HAPPY HARDCORE;
#CREDIT:;
#MUSIC:Colorful Cookie.ogg;
#BANNER:Colorful Cookie.png;
#BACKGROUND:Colorful Cookie-bg.png;
#CDTITLE:./CDTitles/bm IIDX 16 EMPRESS.png;
#SAMPLESTART:78.999;
#SAMPLELENGTH:15.000;
#SELECTABLE:YES;
#OFFSET:0.980;
#BPMS:0.000=180.000;
#STOPS:;
#TIMESIGNATURES:0.000=4=4;
#BGCHANGES:0.000=Colorful Cookie.mp4=1.000=0=0=0=StretchNoLoop====,
99999.000=-nosongbg-=1.000=0=0=0=StretchNoLoop====
;
#FGCHANGES:;

//--------------- dance-single - forcednature ----------------
#NOTEDATA:;
#STEPSTYPE:dance-single;
#DESCRIPTION:forcednature;
#DIFFICULTY:Beginner;
#METER:1;
#RADARVALUES:0,0,0,0,0;
#CREDIT:forcednature;
#NOTES:
0000
0000
0000
0000
,
0000
0000
0000
0000
,
0000
0000
0000
0000
,
0000
0000
0000
0000
,
0000
0000
0000
0000
,
0000
0000
0000
0000
,
0000
0000
0000
0000
,
0000
0000
0000
0000
,
0000
0000
0000
0000
,
0001
0000
0000
0000
,
0000
0000
0000
0000
,
0000
0000
0000
0000
,
0000
0000
0000
0000
,
1000
0000
0000
0000
,
0000
0000
0000
0000
,
0000
0000
0000
0000
,
0000
0000
0000
0000
,
0000
0000
0000
0000
,
1001
0000
0000
0000
,
0000
0000
0000
0000
,
0000
0000
0000
0000
,
0000
0000
0000
0000
,
1000
0000
0000
0000
,
0000
0000
0000
0000
,
0000
0000
0000
0000
,
0000
0000
0000
0000
,
0100
0000
0000
0000
,
0000
0000
0000
0000
,
0000
0000
0000
0000
,
0000
0000
0000
0000
,
0010
0000
0000
0000
,
0000
0000
0000
0000
,
0000
0000
0000
0000
,
0000
0000
0000
0000
,
0001
0000
0000
0000
,
0000
0000
0000
0000
,
0000
0000
0000
0000
,
0000
0000
0000
0000
,
0100
0000
0000
0000
,
0000
0000
0000
0000
,
0000
0000
0000
0000
,
0000
0000
0000
0000
,
0010
0000
0000
0000
,
0000
0000
0000
0000
,
0000
0000
0000
0000
,
0000
0000
0000
0000
,
0000
0000
0000
0000
,
0000
0000
0000
0000
,
0000
0000
0000
0000
,
0000
0000
0000
0000
,
1000
0000
0000
0000
,
0000
0000
0000
0000
,
0000
0000
0000
0000
,
0000
0000
0000
0000
,
0001
0000
0000
0000
,
0000
0000
0000
0000
,
0000
0000
0000
0000
,
0000
0000
0000
0000
,
0000
0000
0000
0000
,
0000
0000
0000
0000
,
1001
0000
0000
0000
,
0000
0000
0000
0000
,
0000
0000
0000
0000
,
0000
0000
0000
0000
,
1000
0000
0000
0000
,
0000
0000
0000
0000
,
0000
0000
0000
0000
,
0000
0000
0000
0000
,
0010
0000
0000
0000
,
0000
0000
0000
0000
,
0000
0000
0000
0000
,
0000
0000
0000
0000
,
0100
0000
0000
0000
,
0000
0000
0000
0000
,
0000
0000
0000
0000
,
0000
0000
0000
0000
,
1001
0000
0000
0000
;

//--------------- dance-single - forcednature ----------------
#NOTEDATA:;
#STEPSTYPE:dance-single;
#DESCRIPTION:forcednature;
#DIFFICULTY:Easy;
#METER:5;
#RADARVALUES:0,0,0,0,0;
#CREDIT:forcednature;
#NOTES:
0000
0000
0000
0000
,
0000
0000
0000
0000
,
0000
0000
0000
0000
,
0000
0000
0000
0000
,
0000
0000
0000
0000
,
0000
0000
0000
0000
,
0000
0000
0000
0000
,
0000
0000
0000
0000
,
0000
0000
0000
0000
,
1001
0000
0000
0000
,
0001
0000
0001
0000
,
0001
0000
0000
0000
,
1000
0000
1000
0000
,
1000
0000
0010
0000
,
0010
0000
0100
0000
,
0100
0000
0001
0000
,
1000
0000
1000
0000
,
2002
0000
0000
3003
,
0001
0000
0100
0001
,
0100
0000
0001
0000
,
1000
0000
0100
1000
,
0100
0000
1000
0000
,
0001
0000
0010
0001
,
0010
0000
0001
0000
,
1000
0000
0010
1000
,
0010
0000
0100
0000
,
1001
0000
0001
0010
,
0001
0000
0100
0000
,
0001
0000
1000
0010
,
1000
0000
0100
0000
,
1000
0000
0010
0100
,
0010
0000
1000
0000
,
0001
0000
0010
0100
,
0010
0000
0001
1000
,
0001
0000
0100
0010
,
0100
0000
0001
0000
,
1000
0000
0100
0010
,
0100
0000
1000
0000
,
0001
0000
1000
0010
,
1000
0000
0001
0010
,
0001
0000
0001
0000
,
0100
0000
0010
0000
,
2002
0000
0000
3003
,
1000
0000
0000
0000
,
0100
0000
0000
0000
,
0010
0000
0000
0000
,
0001
0000
0000
0000
,
0100
0000
0000
0000
,
0010
0000
0000
0000
,
1000
0000
0000
0000
,
1001
0000
0001
0000
,
0001
0000
0000
0000
,
0010
0000
0010
0000
,
0010
0000
0000
0000
,
0100
1000
0100
0000
,
1000
0001
1000
0000
,
0001
0000
0001
0000
,
0100
0001
0100
0000
,
2002
0000
0000
0000
,
3003
0010
0010
0100
,
0000
0001
1000
0001
,
0000
1000
0100
1000
,
0000
0001
0100
0001
,
0000
0010
0100
0010
,
0000
0001
1000
0010
,
0000
1000
0001
0010
,
0000
0100
1000
0100
,
0010
0001
0010
0100
,
0000
1000
0001
0100
,
0000
0010
1000
0001
,
0000
0010
0100
1000
,
0000
0001
0100
0010
,
1000
0000
0001
1000
,
0100
0000
0010
0001
,
0100
0100
0010
0010
,
1000
0000
0000
0000
,
2002
0000
0000
0000
,
0000
0000
0000
0000
,
3003
0000
0000
0000
;

//--------------- dance-single - forcednature ----------------
#NOTEDATA:;
#STEPSTYPE:dance-single;
#DESCRIPTION:forcednature;
#DIFFICULTY:Medium;
#METER:10;
#RADARVALUES:0,0,0,0,0;
#CREDIT:forcednature;
#NOTES:
0000
0000
0000
0000
,
0000
0000
0000
0000
,
0000
0000
0000
0000
,
0000
0000
0000
0000
,
0000
0000
0000
0000
,
0000
0000
0000
0000
,
0000
0000
0000
0000
,
0000
0000
0000
0000
,
0000
0000
0000
0000
,
1001
0001
0100
0100
,
0010
0010
1000
0001
,
1000
1000
0100
0100
,
0010
0010
0001
1000
,
0001
0100
0001
0000
1000
0100
1000
0000
,
0001
0010
0001
0000
1000
0010
1000
0000
,
0100
0010
0100
0000
0010
0001
0010
0000
,
0001
0100
0001
0000
1000
0010
1000
0000
,
0200
1000
1000
0310
,
1001
0000
0001
0100
0000
0010
0100
0000
,
0001
0000
1000
0100
0000
0010
0100
0000
,
1000
0000
0001
0010
0000
0001
1000
0000
,
0010
0000
0100
0001
0010
0000
0010
0001
,
0100
0000
0010
1000
0000
0001
1000
0000
,
0100
0000
0010
0001
0000
0100
0010
0000
,
1000
0000
0001
0010
0000
0100
1000
0000
,
2002
0000
0000
3003
,
1010
0000
1000
0000
0001
0000
0010
0100
,
0000
0010
0000
0001
1000
0000
0001
0000
,
0100
0000
0010
0000
0100
0000
0001
1000
,
0000
0100
0000
1000
0010
0000
1000
0001
,
1000
0000
0100
0000
0010
0000
0001
1000
,
0000
0001
0000
0100
0010
0000
1000
0000
,
0001
0000
0010
0000
0100
0000
0010
0001
,
0000
0100
0001
0000
1000
0000
0100
0000
,
0110
0000
0010
0000
0001
0000
0100
0001
,
0000
1000
0000
0010
0000
0100
0001
1000
,
0010
0000
1000
0000
0100
0000
0010
0001
,
0000
0100
0000
0010
0000
1000
0001
0010
,
0100
0000
1000
0000
0001
0000
0100
0010
,
0000
1000
0000
0001
0000
0010
0001
0000
,
0110
0000
1000
0000
0110
0000
0001
0010
,
0100
0200
0000
0000
0000
0000
0300
0000
,
1002
0000
1000
1000
,
1003
0000
0001
0001
,
0001
0000
0100
0100
,
0100
0000
0010
0010
,
1000
0000
0001
0001
,
0010
0000
0100
0100
,
1000
0000
0001
0001
,
0100
0000
0000
0000
0010
1000
0010
0000
,
0110
0000
0100
0000
0001
0000
0010
0100
,
0000
0010
0000
0001
0000
0100
0010
0000
,
0100
0000
0001
0000
1000
0000
0100
0010
,
0000
0100
0000
1000
0000
0010
0100
0000
,
0001
0100
0001
0000
1000
0100
1000
0000
,
0001
0010
0001
0000
1000
0010
1000
0000
,
0001
0100
0010
0000
1000
0100
0010
0000
,
0100
1000
0100
1000
0001
1000
0010
0000
,
2001
0000
0100
0000
0001
0000
0010
3000
,
0000
1000
0001
0000
0001
0010
0100
0000
,
1000
0001
0100
0000
0010
0000
0110
0000
,
0100
0000
0001
1000
0000
0100
0010
0000
,
0100
1000
0010
0100
0001
0000
0010
0000
,
0100
0000
0010
0001
0000
0100
0001
0000
,
1001
0000
1000
0010
1000
0000
0001
0000
,
0010
0010
0000
0110
0000
0100
1000
0000
,
0001
0000
0100
0000
0010
0000
1000
0010
,
0000
1000
0001
0010
0000
0100
1000
0001
,
0100
0010
0100
0000
0010
0000
1000
0000
,
0001
0000
0010
0100
0000
0010
0001
0000
,
0100
0001
0100
0000
0010
0000
1000
0000
,
0001
1000
0100
0010
0000
0100
1000
0001
,
0000
0100
0010
0000
0100
0000
0001
0010
,
0001
0000
1000
0000
0010
1000
0100
0010
,
0001
0000
0100
0001
1000
0000
0100
1000
,
0001
0001
0000
0100
0010
0000
1000
0000
,
2002
0000
0000
0000
,
0000
0000
3003
0000
,
1000
0000
1000
0000
0100
0000
0000
0010
,
0000
0010
0000
0000
0001
0000
0000
0000
,
0001
0000
0001
0000
0100
0000
0000
0010
,
0000
0010
0000
0000
1000
0000
0000
0000
,
0100
0000
0100
0000
0010
0000
0000
0001
,
0000
0001
0000
0000
1000
0000
0000
0000
,
0010
0000
0000
0000
;

//--------------- dance-single - forcednature ----------------
#NOTEDATA:;
#STEPSTYPE:dance-single;
#DESCRIPTION:forcednature;
#DIFFICULTY:Hard;
#METER:13;
#RADARVALUES:0,0,0,0,0;
#CREDIT:forcednature;
#NOTES:
0000
0000
0000
0000
,
0000
0000
0000
0000
,
0000
0000
0000
0000
,
0000
0000
0000
0000
,
0000
0000
0000
0000
,
0000
0000
0000
0000
,
0000
0000
0000
0000
,
0000
0000
0000
0000
,
0000
0000
0000
0000
,
1001
0000
0001
0000
0100
0000
0100
0010
,
1000
0000
1000
0000
0100
0000
0100
0010
,
0001
0000
0001
0000
1000
0000
1000
0010
,
0100
0000
0100
0000
0001
0000
0001
1000
,
0100
0010
0100
0010
0001
1000
0001
1000
,
0010
0100
0010
0100
0001
1000
0001
1000
,
0100
0100
0010
0010
0001
0001
1000
1000
,
0000
0000
0001
0100
0001
0000
1000
0100
1000
0000
0010
0100
0010
0000
0000
0000
,
2002
0000
0000
3003
,
1000
0100
0010
0001
1000
0100
0010
0001
,
1000
0001
0100
0010
1000
0001
0010
0000
,
0100
1000
0001
0100
0010
1000
0001
0010
,
0001
0100
0010
1000
0100
0100
0010
0000
,
0001
1000
0010
1000
0100
1000
0001
1000
,
0010
0100
0001
1000
0100
0010
0001
0000
,
1000
0001
0010
0001
0100
0001
1000
0000
,
2002
0000
3003
0000
0010
0010
0100
0000
,
0011
0000
1010
0000
0110
0000
1000
0100
,
0000
0001
0000
0100
1000
0000
0001
0000
,
1100
0000
0101
0000
0110
0000
0001
0100
,
0000
1000
0000
0100
0010
0000
1000
0000
,
1010
0000
1100
0000
0101
0000
1000
0001
,
0000
0010
0100
1000
0000
0010
0100
0001
,
1000
0000
1100
0000
0101
0000
0001
0010
,
0000
0000
0100
0000
1000
0000
0000
1000
0010
0000
0000
0000
0100
0000
0000
0000
,
0201
0000
1000
0000
0301
0000
0100
0010
,
0000
1000
0001
0010
0000
0100
1000
0001
,
0020
0000
1000
0000
0031
0000
0010
0100
,
0000
0000
1000
0000
0001
0000
0000
0001
0100
0000
0010
0000
1000
0000
0001
0000
,
0201
0000
1000
0000
0301
0000
0100
0010
,
0110
0000
0100
0001
1000
0001
0010
0000
,
1100
1010
0101
0011
,
0100
2002
0000
0000
0000
0000
3003
0000
,
1020
1000
0100
0100
,
1030
0010
0100
0001
,
0010
0010
0001
0001
,
1000
0001
0100
0010
,
0000
0000
1000
0000
1000
0000
0000
0000
0100
0000
0000
1000
0000
0000
0100
0000
,
0000
0000
0010
0000
0010
0000
0000
0000
0001
0000
0000
0001
0000
0000
0001
0000
,
0000
0000
0100
0000
0100
0000
0000
0000
0001
0000
0000
0100
0000
0000
0001
0000
,
0000
1000
1000
0000
0010
0100
0001
1000
,
0100
0000
0000
0000
0100
0000
0000
0000
0010
0000
0000
0000
0010
0000
0000
0010
,
0001
0000
0000
0000
0001
0000
0000
0000
0100
0000
0000
0000
0100
0000
0000
0100
,
0010
0000
0000
0000
0010
0000
0000
0000
1000
0000
0000
0000
1000
0000
0000
1000
,
0100
0100
0010
0010
,
0001
0100
0010
1000
0001
0100
0010
1000
,
0001
0010
0100
1000
0001
0010
0100
1000
,
0001
0100
0001
0000
1000
0000
0010
0000
1000
0100
1000
0000
0001
0000
0010
0000
,
0100
1000
0100
0000
0010
0001
0010
0000
0001
0000
0001
0000
1000
0000
1000
0000
,
2002
0000
0000
0000
,
3003
0000
0110
0000
0110
0000
1000
0001
,
0010
0100
0001
0100
1000
0000
1010
0000
,
0010
0100
1000
0100
0001
0010
0100
1000
,
0001
0100
1000
0100
0010
0000
1010
0000
,
0001
0000
0010
0000
0001
0000
0000
0001
0100
0000
0010
0000
1000
0000
0010
0000
,
0100
1000
0100
0001
0010
0000
0110
0000
,
0100
0000
1100
0000
0000
0000
1010
0000
0000
0000
0001
1000
0001
0000
0000
0000
,
0011
0000
1010
0000
0110
0000
0001
0100
,
1000
0000
0100
0000
0010
0000
0000
0010
1000
0000
0100
0000
0010
0000
0001
0000
,
1000
0010
0001
0010
0100
0000
0101
0000
,
0001
0010
0100
1000
0000
0010
0100
1000
,
0100
0001
0010
0001
1000
0010
1000
0100
,
0001
0000
0000
0000
0100
0000
0000
0100
1000
0000
0001
0000
0000
0000
0100
0000
,
0010
1000
0010
0000
0100
0000
0001
0000
1000
0000
0001
0000
0010
0000
0100
0000
,
0010
0001
0010
0000
0100
0000
1000
0000
0001
0000
1000
0000
0010
0000
0100
0000
,
0010
0100
0010
0000
1000
0000
0001
0000
0010
0100
0010
0000
0001
0000
1000
0000
,
0010
0000
0110
0000
0000
0000
0010
0000
1000
0000
0001
1000
0100
0000
0010
0000
,
1001
0000
0001
0000
0010
0000
0100
1000
,
0000
0001
0000
0010
0100
0000
1000
0000
,
0001
0000
1000
0000
0010
0000
0100
0001
,
0000
1000
0000
0010
0100
0000
0001
0000
,
0010
0000
0100
0000
1000
0000
0001
0100
,
0000
0010
0000
1000
0000
0001
0010
0100
,
0010
0000
0001
0000
1000
0000
0001
0100
,
0000
0010
1000
0000
0001
0000
0010
0000
,
0100
0000
0000
0000
;

//--------------- dance-double - forcednature ----------------
#NOTEDATA:;
#STEPSTYPE:dance-double;
#DESCRIPTION:forcednature;
#DIFFICULTY:Easy;
#METER:6;
#RADARVALUES:0,0,0,0,0;
#CREDIT:forcednature;
#NOTES:
00000000
00000000
00000000
00000000
,
00000000
00000000
00000000
00000000
,
00000000
00000000
00000000
00000000
,
00000000
00000000
00000000
00000000
,
00000000
00000000
00000000
00000000
,
00000000
00000000
00000000
00000000
,
00000000
00000000
00000000
00000000
,
00000000
00000000
00000000
00000000
,
00000000
00000000
00000000
00000000
,
00011000
00000000
00000000
00000000
,
00001000
00000000
01000000
00000000
,
00001000
00000000
00000000
00000000
,
00010000
00000000
00000100
00000000
,
00010000
00000000
00010000
00000000
,
00001000
00000000
00001000
00000000
,
00100000
00000000
00100000
00000000
,
00010000
00000000
10000000
00000000
,
20020000
00000000
00000000
00000000
,
30030000
00010000
00000000
01000000
,
00000000
00001000
00000000
00010000
,
00000000
00001000
00000000
00100000
,
00000000
00010000
00100000
00010000
,
00000000
00100000
00000000
00001000
,
00000000
00010000
00000000
00000010
,
00000000
00001000
00000000
00000001
,
00000020
00000000
00000000
00000030
,
00000100
00000010
00000100
00000000
,
00001000
00000000
00000100
00000000
,
00010000
00001000
00010000
00000000
,
00001000
00000000
01000000
00000000
,
00010000
01000000
00010000
00000000
,
10000000
00000000
01000000
00000000
,
10000000
00100000
10000000
00000000
,
00010000
00000000
00100000
00000000
,
01000000
00100000
01000000
00000000
,
00100000
00000000
00001000
00000000
,
00010000
00001000
00010000
00000000
,
00000100
00000000
00001000
00000000
,
00000100
00000010
00000100
00000000
,
00000010
00000000
00000001
00000000
,
00001000
00000001
00001000
00000000
,
00000010
00000000
00010000
00000000
,
00022000
00000000
00000000
00000000
,
00033000
00000000
00000000
00000000
,
00001000
00000000
00000000
00000000
,
01000000
00000000
00000000
00000000
,
00001000
00000000
00000000
00000000
,
00010000
00000000
00000000
00000000
,
00000100
00000000
00000000
00000000
,
00010000
00000000
00000000
00000000
,
00001000
00100000
00001000
00000000
,
00010000
00000000
00000100
00000000
,
00010000
00001000
00010000
00000000
,
00000010
00000000
00001000
00000000
,
00000001
00000001
00000001
00000000
,
00000010
00000010
00000010
00000000
,
00000100
00001000
00000100
00001000
,
00000010
00010000
00001000
00010000
,
00000200
00000000
00000000
00000000
,
00000300
00001000
00001000
00001000
,
00000000
00000001
00000100
00000010
,
00000100
00000010
00001000
00000010
,
00000000
00010000
00001000
00100000
,
00010000
00100000
00001000
00010000
,
00000000
00001000
01000000
00010000
,
01000000
00100000
10000000
00100000
,
00000000
10000000
01000000
10000000
,
00010000
01000000
00010000
00100000
,
00000000
00001000
00010000
00000100
,
00001000
00000100
00010000
00001000
,
00000000
00010000
00000010
00001000
,
00000010
00000100
00000001
00000100
,
00000000
00000010
00001000
00000010
,
00010000
00001000
00010000
00001000
,
00000000
00100000
00010000
00100000
,
01000000
00000000
00000000
00000000
,
20020000
00000000
00000000
00000000
,
00000000
00000000
00000000
00000000
,
30030000
00000000
00000000
00000000
;

//--------------- dance-double - forcednature ----------------
#NOTEDATA:;
#STEPSTYPE:dance-double;
#DESCRIPTION:forcednature;
#DIFFICULTY:Medium;
#METER:11;
#RADARVALUES:0,0,0,0,0;
#CREDIT:forcednature;
#NOTES:
00000000
00000000
00000000
00000000
,
00000000
00000000
00000000
00000000
,
00000000
00000000
00000000
00000000
,
00000000
00000000
00000000
00000000
,
00000000
00000000
00000000
00000000
,
00000000
00000000
00000000
00000000
,
00000000
00000000
00000000
00000000
,
00000000
00000000
00000000
00000000
,
00000000
00000000
00000000
00000000
,
00001000
00001000
01000000
01000000
,
00010000
00100000
00010000
01000000
,
00001000
00001000
00010000
00010000
,
00000010
00001000
00000010
00000100
,
00000001
00000010
00000100
00000010
,
00000100
00010000
00001000
00100000
,
00010000
01000000
00010000
00000000
10000000
01000000
10000000
00000000
,
00100000
01100000
01000000
01100000
,
20020000
00000000
00000000
30030000
,
10000000
01000000
00010000
00001000
,
00100000
00000000
00001000
00000000
00010000
00001000
00010000
00000000
,
00000100
00001000
00000001
00000100
,
00001000
00000000
00010000
00000000
00000010
00010000
00000010
00000000
,
00001000
00000100
00000010
00000001
,
00000100
00000000
00000010
00000000
00001000
00000010
00001000
00000000
,
00000100
00010000
00001000
01000000
,
02200000
00000000
00000000
03300000
,
00100000
00000000
10000000
00000000
01000000
00000000
00100000
00010000
,
00000000
01000000
00000000
00010000
00100000
00000000
00001000
00000000
,
00010000
00000000
00000010
00000000
00001000
00000000
00000010
00010000
,
00000000
00001000
00000000
00010000
00000100
00000000
00001000
00000000
,
00000001
00000000
00000100
00000000
00001000
00000000
00010000
00000100
,
00000000
00010000
00000000
00001000
00000000
00100000
00010000
00100000
,
00001000
00000000
00010000
00000000
00100000
00000000
01000000
00010000
,
00000000
10000000
00010000
00000000
00100000
00000000
01000000
00000000
,
01100000
00000000
00100000
00000000
00001000
00000000
00000010
00000100
,
00000000
00001000
00000000
00000001
00000000
00000100
00000001
00001000
,
00000010
00000000
00010000
00000000
00100000
00000000
01000000
00010000
,
00000000
10000000
00000000
01000000
00000000
00100000
00001000
00010000
,
00000100
00000000
00001000
00000000
00000010
00000000
00010000
00001000
,
00000000
01000000
00000000
00010000
00000000
00100000
01000000
00100000
,
00001000
00000000
00010000
00000000
00000010
00000000
00001000
00000001
,
00000010
00000020
00000000
00000000
00000000
00000000
00000030
00000000
,
00000110
00000100
00010000
00001000
,
00000000
00100000
00001000
00010000
,
00000000
00000010
00010000
00001000
,
00000000
01000000
00001000
00010000
,
00000000
00100000
01000000
00010000
,
00000000
00001000
00000010
00000100
,
00000000
00000001
00000010
00001000
,
00000000
00010000
01000000
10000000
,
10010000
00010000
01000000
01000000
,
00001000
00001000
00010000
00000100
,
00001000
00001000
00000001
00000001
,
00000100
00000010
00010000
00001000
,
01000000
00010000
01000000
00000000
00001000
00010000
00001000
00000000
,
00100000
00010000
00100000
00000000
00001000
00010000
00001000
00000000
,
00000010
00000100
00000010
00000100
00001000
00000100
00001000
00000100
,
00010000
00000000
00011000
00000000
00001000
01000000
00010000
01000000
,
00200000
00000000
00000000
00000000
,
00000000
00010000
01000000
10300000
,
00100000
01000000
00010000
01000000
00100000
00000000
10000000
00000000
,
01000000
00010000
00001000
00100000
,
00010000
01000000
00001000
00010000
00001000
00000000
00100000
00000000
,
00001000
00010000
00000010
00010000
,
00000100
00001000
00000100
00000010
00000001
00000000
00001000
00000000
,
00000010
00000010
00000000
00000110
00000000
00000000
00001001
00000000
,
00000001
00000000
00000010
00000000
00000100
00000000
00010000
00001000
,
00000000
00100000
00000000
00001000
00000000
00010000
00000010
00010000
,
00000000
00001000
01000000
00010000
01000000
00000000
00001000
00000000
,
00010000
00000000
00001000
00100000
00000000
00010000
00000000
10000000
,
00000000
00100000
01000000
00010000
01000000
00000000
00001000
00000000
,
00010000
00000000
00000100
00001000
00000000
00000100
00000000
00000110
,
00000000
00000010
00000001
00001000
00000001
00000100
00000001
00001000
,
00000001
00000000
00000010
00000100
00000000
00010000
00001000
00010000
,
00000010
00000000
00010000
00001000
00100000
00000000
00001000
00010000
,
00000100
00000000
00000100
00000000
00000000
00000000
00001000
00000000
00000001
00000000
00000000
00000001
00000000
00000000
00000100
00000000
,
00000010
00000000
00001000
00000010
,
00010000
00001000
01000000
00010000
,
10000000
00000000
00010000
00100000
,
00001000
00010000
00000100
00001000
,
00000001
00000000
00001000
00000010
,
00010000
00001000
01000000
00010000
,
10000000
00000000
00010000
00100000
,
00001000
00010000
00000100
00001000
,
00000001
00000000
00000000
00000000
;

//--------------- dance-double - forcednature ----------------
#NOTEDATA:;
#STEPSTYPE:dance-double;
#DESCRIPTION:forcednature;
#DIFFICULTY:Hard;
#METER:14;
#RADARVALUES:0,0,0,0,0;
#CREDIT:forcednature;
#NOTES:
00000000
00000000
00000000
00000000
,
00000000
00000000
00000000
00000000
,
00000000
00000000
00000000
00000000
,
00000000
00000000
00000000
00000000
,
00000000
00000000
00000000
00000000
,
00000000
00000000
00000000
00000000
,
00000000
00000000
00000000
00000000
,
00000000
00000000
00000000
00000000
,
00000000
00000000
00000000
00000000
,
00011000
00010000
00100000
00100000
,
10000000
10000000
01000000
00010000
,
00001000
00001000
00000010
00000010
,
00000001
00000001
00000100
00001000
,
00010000
00001000
00010000
00001000
01000000
00010000
01000000
00010000
,
10000000
01000000
10000000
01000000
00100000
00010000
00100000
00010000
,
01000000
00001000
00010000
00000100
00001000
00000010
00010000
00001000
,
00100000
00010000
00001000
00000100
,
00002002
00000000
00000000
00003003
,
00000001
00000100
00000010
00001000
00000010
00010000
00001000
00010000
,
00000100
00001000
00000100
00010000
00001000
01000000
00010000
00100000
,
01000000
10000000
01000000
00100000
00010000
00100000
00001000
00010000
,
00001000
01000000
00010000
01000000
00001000
00100000
00010000
00000000
,
01000000
00001000
00010000
00001000
00100000
00010000
10000000
00100000
,
10000000
01000000
00100000
00010000
01000000
00010000
00100000
00001000
,
00010000
00000010
00010000
00000100
00001000
00000100
00000010
00000000
,
00002002
00000000
00000000
00003003
,
00000101
00000000
00001100
00000000
00000101
00000000
00000001
00000010
,
00000100
00010000
00000000
00001000
00010000
00000010
00001000
00000000
,
00001010
00000000
00011000
00000000
00001010
00000000
00010000
00001000
,
00100000
00010000
00000000
01000000
00001000
00010000
00100000
00000000
,
01100000
00000000
01010000
00000000
01100000
00000000
00100000
10000000
,
01000000
00100000
00000000
01000000
10000000
00010000
01000000
00000000
,
01010000
00000000
00011000
00000000
01010000
00000000
00001000
00010000
,
00000100
00001000
00000001
00000000
00000010
00000010
00000010
00000000
,
00000101
00000000
00000110
00000000
00001010
00000000
00001000
00000100
,
00010000
00001000
01000000
00010000
00100000
01000000
10000000
00000000
,
10100000
00000000
01100000
00000000
01010000
00000000
00010000
00100000
,
00001000
00010000
00000010
00010000
00001000
01000000
00010000
00000000
,
00110000
00000000
01100000
00000000
11000000
00000000
10000000
00010000
,
01000000
00001000
00010000
00001000
00100000
00010000
00100000
00000000
,
01100000
00000000
00010000
00000000
00011000
00000000
00001000
00000010
,
00000100
00000220
00000000
00000000
00000000
00000000
00000330
00000000
,
00001001
00000001
00000100
00001000
,
00010000
00100000
10000000
00010000
,
10000000
01000000
00010000
00001000
,
00000010
00000001
00001000
00000001
,
00000100
00001000
00010000
00100000
,
10000000
00010000
10000000
01000000
,
00010000
00001000
00000010
00000001
,
00001000
00000000
00000001
00000000
00000100
00000010
00000100
00001000
,
00010000
00000000
00100000
00000000
10000000
00000000
00010000
10000000
,
00000000
01000000
00000000
00010000
00000000
00001000
00100000
00010000
,
01000000
00000000
00001000
00000000
00010000
00000000
00000100
00001000
,
00000000
00000010
00000000
00010000
00000000
00001000
00000010
00000100
,
00001000
00000001
00001000
00000001
00000100
00001000
00000100
00001000
,
00010000
00001000
00010000
00001000
00010000
01000000
00010000
01000000
,
00100000
00001000
00010000
00001000
01000000
00001000
00010000
00001000
,
00100000
00010000
00100000
00000000
01000000
00100000
01000000
00000000
10000000
00000000
10000000
00000000
00010000
00000000
00010000
00000000
,
01000000
00000000
10000000
00000000
01000000
00000000
00010000
00100000
,
00000000
00001000
00000000
00000010
00000000
00000100
00001000
00000001
,
00000000
00000100
00001000
00010000
00001000
00100000
00110000
00000000
,
00010000
01000000
10000000
01000000
00010000
00100000
01000000
00010000
,
00001000
00000010
00000100
00001000
00000010
00010000
00011000
00000000
,
00001000
00000010
00000100
00001000
00000001
00000100
00001000
00000100
,
00000001
00000010
00001000
00010000
00000100
00001000
00001010
00000000
,
00010000
00011000
00000000
00101000
00000000
00100000
01000000
00010000
,
00001000
00100000
00001000
00010000
00000010
00000100
00001000
00010000
,
00000000
00000100
00000010
00000001
00001000
00000001
00000100
00001000
,
00000000
00010000
00100000
01000000
00010000
10000000
11000000
00000000
,
01000000
00010000
00001000
00100000
00001000
00010000
00000010
00010000
,
00001000
00000010
00000100
00001000
00000001
00000100
00000010
00000001
,
00000010
00001000
00000100
00010000
00001000
01000000
00000000
01010000
,
00000000
00010000
00100000
01000000
00100000
00001000
00000010
00000100
,
00000110
00000000
00000010
00000001
00000100
00000010
00000100
00000001
,
00000011
00000000
00000010
00000100
00001100
00000000
00001000
00000010
,
00010000
00000000
00011000
00000000
00000000
00000000
00001000
00000000
00100000
00000000
00010000
00100000
00010000
00000000
10000000
00000000
,
00100000
00000000
01000000
00000000
00001000
00000000
00100000
01000000
,
00000000
00100000
00000000
00010000
00001000
00000000
00000100
00000000
,
00010000
00000000
00000010
00000000
00000100
00000000
00000010
00010000
,
00000000
00001000
00000000
00000010
00000001
00000000
00001000
00000000
,
00000001
00000000
00000100
00000000
00001000
00000000
00010000
00001000
,
00000000
01000000
00000000
00010000
00000000
00100000
01000000
00100000
,
00001000
00000000
00010000
00000000
00100000
00000000
10000000
01000000
,
00000000
00010000
00001000
00000000
00000010
00000000
00000100
00000000
,
00001000
00000000
00000000
00000000
;
