#VERSION:0.83;
#TITLE:Cold Moon;
#SUBTITLE:;
#ARTIST:Ryu☆;
#TITLETRANSLIT:;
#SUBTITLETRANSLIT:;
#ARTISTTRANSLIT:;
#GENRE:MOON CORE;
#CREDIT:;
#MUSIC:Cold Moon.ogg;
#BANNER:Cold Moon.png;
#BACKGROUND:Cold Moon-bg.png;
#CDTITLE:./CDTitles/bm IIDX ULTIMATE MOBILE.png;
#SAMPLESTART:91.521;
#SAMPLELENGTH:15.000;
#SELECTABLE:YES;
#OFFSET:1.140;
#BPMS:0.000=202.000
,205.000=101.000
,236.000=202.000
;
#STOPS:71.500=0.495
,72.000=0.248
,72.500=0.149
,236.000=0.297
,268.500=0.495
,269.000=0.248
,269.500=0.149
;
#TIMESIGNATURES:0.000=4=4,
68.000=5=4,
73.000=4=4,
265.000=5=4,
270.000=4=4
;
#BGCHANGES:0.000=../BGAs/14te.mp4=1.000=0=0=0=StretchNoLoop====,
99999.000=-nosongbg-=1.000=0=0=0=StretchNoLoop====
;
#FGCHANGES:;

//--------------- dance-single - forcednature ----------------
#NOTEDATA:;
#STEPSTYPE:dance-single;
#DESCRIPTION:forcednature;
#DIFFICULTY:Beginner;
#METER:3;
#RADARVALUES:0,0,0,0,0;
#CREDIT:forcednature;
#NOTES:
0000
0000
0000
0000
,
0000
0000
0000
0000
,
0000
0000
0000
0000
,
0000
0000
0000
0000
,
0000
0000
0000
0000
,
0000
0000
0000
0000
,
0000
0000
0000
0000
,
0000
0000
0000
0000
,
0000
0000
0000
0000
,
0000
0000
0000
0000
,
1000
0000
0000
0000
,
1000
0000
0000
0000
,
0001
0000
0000
0000
,
0001
0000
0000
0000
,
0100
0000
0000
0000
,
0100
0000
0000
0000
,
0010
0000
0000
0000
,
1000
0000
0000
0000
,
0000
0000
0000
0000
,
0000
0001
0000
0000
,
0000
0010
0000
0000
,
0000
0001
0000
0000
,
0000
0100
0000
0000
,
0000
0010
0000
0000
,
0000
1000
0000
0000
,
0000
0100
0000
0000
,
0000
1000
0000
0000
,
0000
0001
0000
0000
,
0000
0100
0000
0000
,
0000
0001
0000
0000
,
0000
0010
0000
0000
,
0000
0100
0000
0000
,
0000
1000
0000
0000
,
0000
0010
0000
0000
,
0000
1000
0000
0000
,
0000
0100
0000
0000
,
0000
0000
0000
0000
,
0000
0100
0000
0100
,
0000
0100
0000
0000
,
0000
0010
0000
0000
,
0000
0000
0000
0000
,
0000
0010
0000
0010
,
0000
0001
0000
0000
,
0000
0001
0000
0000
,
0000
0001
0000
0001
,
0000
0001
0000
0000
,
0000
1000
0000
1000
,
0000
1000
0000
0000
,
0000
0010
0000
0010
,
0000
0010
0000
0000
,
0000
0100
0000
0000
,
0000
0001
0000
0000
,
0000
1000
0000
0000
,
0000
0100
0000
0000
,
0000
0010
0000
0000
,
0000
0001
0000
0000
,
0000
0100
0000
0000
,
0000
0010
0000
0000
,
0000
1000
0000
0000
,
0000
0100
0000
0000
,
0000
0100
0000
0000
,
0000
1000
0000
0000
,
0000
1000
0000
0000
,
0000
0001
0000
0000
,
0000
0100
0000
0000
,
0000
0010
0000
0000
,
0000
1000
0000
0000
,
0000
0000
0000
0000
,
0000
0000
0001
0000
,
0100
0000
0001
0000
,
0000
0000
1000
0000
,
0100
0000
1000
0000
,
0000
0000
0001
0000
,
0010
0000
0001
0000
,
0000
0000
1000
0000
,
0010
0000
1000
0000
,
0000
0000
0100
0000
,
1000
0000
0010
0000
,
0000
0000
0100
0000
,
0001
0000
0010
0000
,
0000
0000
0100
0000
,
1000
0000
0001
0000
,
0000
0000
0100
0000
,
0001
0000
1000
0000
,
0001
0000
0010
0000
;

//--------------- dance-single - forcednature ----------------
#NOTEDATA:;
#STEPSTYPE:dance-single;
#DESCRIPTION:forcednature;
#DIFFICULTY:Easy;
#METER:7;
#RADARVALUES:0,0,0,0,0;
#CREDIT:forcednature;
#NOTES:
0000
0000
0000
0000
,
0000
0000
0000
0000
,
0000
0000
0000
0000
,
0000
0000
0000
0000
,
0000
0000
0000
0000
,
0000
0000
0000
0000
,
0000
0000
0000
0000
,
0000
0000
0000
0000
,
0000
0000
0000
0000
,
0000
0000
0000
0000
,
0001
0000
0001
0000
,
0100
0000
0001
0000
,
1000
0000
1000
0000
,
0100
0000
1000
0000
,
0010
0000
0010
0000
,
0100
0000
0010
0000
,
1000
0000
0100
0000
,
0010
0000
0002
0000
,
0000
0003
0000
0000
,
0000
0100
0000
0001
,
0000
0100
0001
0100
,
0000
0010
0000
1000
,
0000
0010
1000
0010
,
0000
1000
0000
0100
,
0000
1000
0100
1000
,
0000
0001
0000
0000
,
0000
0010
0000
0100
,
0000
1000
0000
0001
,
0000
0100
0001
0100
,
0000
0001
0000
1000
,
0000
0100
1000
0100
,
0000
1000
0000
0001
,
0000
0010
0001
0010
,
0000
0100
0000
0000
,
0000
1000
0000
0001
,
0000
0100
0000
0100
,
0000
0100
0001
0100
,
0000
0010
0000
0010
,
0000
0010
1000
0010
,
0000
1000
0000
1000
,
0000
1000
0100
1000
,
0000
0002
0000
0100
,
0000
2003
0000
3020
,
0000
1030
0000
1000
,
0100
1000
0000
1000
,
0000
0001
0000
0001
,
0100
0001
0000
0001
,
0000
0010
0000
0010
,
0100
0010
0000
0010
,
0000
0001
0000
0100
,
0000
0010
1000
0010
,
1000
0002
0000
0000
,
0003
0020
0000
0000
,
0030
0200
0000
0000
,
0300
2000
0000
0000
,
3000
0001
0100
0001
,
0000
1000
0100
1000
,
0000
0001
0010
0001
,
0000
1000
0010
1000
,
0000
0100
0000
0100
,
1000
0100
1000
0100
,
0000
0010
0000
0010
,
0001
0010
0001
0010
,
0000
0001
0000
0001
,
0100
0001
0100
0001
,
0000
1000
0100
1000
,
0000
0010
1000
0020
,
0000
0000
0030
0000
,
0000
0000
0100
0001
,
0100
0001
1000
0010
,
1000
0000
0100
1000
,
0100
1000
0001
0010
,
0001
0000
0100
0010
,
0100
0010
1000
0001
,
1000
0000
0100
0010
,
0100
0010
0001
1000
,
0001
0000
1000
0010
,
0100
0001
0100
0010
,
1000
0000
0001
0010
,
0100
1000
0100
0010
,
0001
0000
1000
1000
,
0100
1000
0001
0001
,
0100
0001
0010
0010
,
0100
0010
0001
1000
,
0010
0100
2002
0000
,
0000
0000
3003
0000
;

//--------------- dance-single - forcednature ----------------
#NOTEDATA:;
#STEPSTYPE:dance-single;
#DESCRIPTION:forcednature;
#DIFFICULTY:Medium;
#METER:12;
#RADARVALUES:0,0,0,0,0;
#CREDIT:forcednature;
#NOTES:
0000
0000
0000
0000
,
0000
0000
0000
0000
,
0000
0000
0000
0000
,
0000
0000
0000
0000
,
0000
0000
0000
0000
,
0000
0000
0000
0000
,
0000
0000
0000
0000
,
0000
0000
0000
0000
,
0000
0000
0000
0000
,
0000
0000
0000
0000
,
1000
0100
1000
0100
,
0010
0001
1000
0001
,
0100
0001
0100
0001
,
1000
0010
1000
0001
,
0010
0010
0100
0100
,
1000
1000
0001
0001
,
0100
0010
1000
0001
,
0020
0230
2300
3002
,
0000
0003
0000
0000
,
0000
0100
0001
0010
,
0001
0100
0010
1000
,
0000
0100
1000
0001
,
0100
0010
1000
0001
,
0000
1000
0100
0010
,
0001
0100
0010
0100
,
0001
1002
0000
0023
,
0000
0230
0000
2300
,
0000
3010
1000
0100
,
1000
0010
1000
0100
,
0010
0001
0100
0001
,
0010
0001
0100
0010
,
1000
0100
1000
0010
,
1000
0100
0010
0001
,
0100
2002
0000
0000
,
3003
0200
0000
0000
,
0300
0000
0001
0010
0001
0000
0010
0000
,
0001
0000
1000
0100
1000
0000
0100
1000
,
0100
0000
1000
0010
1000
0000
0010
0000
,
1000
0000
0001
0100
0001
0000
0100
0001
,
0100
0000
0001
0010
0001
0000
0010
0000
,
0001
0000
1000
0010
1000
0000
0010
1000
,
0010
0200
0001
0001
,
0320
2030
0000
3200
,
0000
0000
0310
0001
0010
0000
0001
0100
,
0001
1000
0100
0010
,
1001
0000
1000
0010
1000
0000
0100
1000
,
0100
0010
1001
0100
,
1001
0000
0001
0100
0001
0000
1000
0100
,
1000
1001
1000
0001
,
0001
0000
0100
0001
0100
0000
0010
1000
,
0010
0200
0302
0023
,
0032
2003
0000
3200
,
2300
3002
0000
0203
,
0302
2003
0000
3200
,
0000
0320
0032
2003
,
3020
0000
0130
0000
0100
0000
0001
1000
,
0001
0000
0010
0000
0010
0000
0001
1000
,
0001
0100
0010
0000
0010
0000
1000
0100
,
1000
0000
0100
0010
0100
0000
0010
0001
,
0020
0030
0000
0000
1001
0000
0000
0000
0000
0000
0000
0000
1000
0000
0000
0000
,
0001
0100
0010
1000
,
0001
1001
0000
0001
,
1000
0100
0110
0010
,
0110
0000
0100
1000
0100
0000
1000
0010
,
1000
0000
0001
0010
0001
0000
0100
0001
,
0100
0000
0010
1000
0001
0000
0010
0001
,
1000
0000
0100
0010
0100
0000
1000
0000
,
1000
0002
0000
0000
0003
0000
0000
0000
,
0000
0000
0000
0000
1000
0100
1000
0000
,
1000
0001
1000
0000
1000
0010
1000
0000
,
0100
0000
1001
0000
0001
0100
0001
0000
,
0001
1000
0001
0000
0010
0000
1001
0000
,
0100
0000
1000
0000
0010
1000
0010
0000
,
0010
0100
0010
0000
1000
0001
1000
0000
,
1000
0100
1000
0000
0001
0010
0001
0000
,
1000
0010
1000
0000
0200
0000
1000
0000
,
0010
0000
1300
0000
0100
0010
0100
0010
,
0001
1000
0001
1000
0100
0010
0100
0010
,
0001
0000
1000
0000
0010
0100
0010
0100
,
0001
1000
0001
1000
0010
0000
1001
0000
,
0100
0000
1001
0000
1000
0100
1000
0100
,
0010
0001
0010
0000
0001
0100
0001
0100
,
0010
1000
0010
0000
1000
0100
1000
0100
,
0010
0001
0010
0001
1000
0010
0100
0001
,
0100
0010
1000
0000
2002
0000
0000
0000
,
0000
0000
3003
0000
;

//--------------- dance-single - forcednature ----------------
#NOTEDATA:;
#STEPSTYPE:dance-single;
#DESCRIPTION:forcednature;
#DIFFICULTY:Hard;
#METER:14;
#RADARVALUES:0,0,0,0,0;
#CREDIT:forcednature;
#NOTES:
0000
0000
0000
0000
,
0000
0000
0000
0000
,
0000
0000
0000
0000
,
0000
0000
0000
0000
,
0000
0000
0000
0000
,
0000
0000
0000
0000
,
0000
0000
0000
0000
,
0000
0000
0000
0000
,
0000
0000
0000
0000
,
0000
0000
0000
0000
,
1000
1000
0100
1000
,
0001
0010
0001
0000
0100
0000
1001
0000
,
0001
0001
0100
0001
,
0010
0000
1001
0000
1000
0010
1000
0000
,
0100
0100
0010
0100
,
1000
0010
1000
0000
0001
0010
0001
0000
,
0100
0001
1000
0000
0100
1000
0001
0000
,
0100
0010
1000
0001
0010
0100
1000
0020
,
0000
0030
0000
0000
,
0000
0101
0001
0010
,
0100
0001
0000
0100
1000
0000
0010
0000
,
1001
1100
1000
0010
,
0001
0010
0100
0000
0001
0000
0010
0001
,
0010
0110
0100
1000
,
0010
0001
0000
0010
0100
0000
0001
0000
,
1000
1200
0000
0301
,
0100
0020
0001
0230
,
1300
0110
0010
0001
,
0100
1000
0100
0000
0100
0001
0010
0000
,
0100
0110
0100
1000
,
0010
0001
0010
0000
0010
1000
0100
0000
,
0010
0000
0110
0000
0100
1000
0001
0000
,
0100
0001
1000
0000
0010
1000
0001
0010
,
0100
0220
0000
0000
,
0330
1000
1000
1000
,
0001
0000
0100
0001
0100
0001
0010
0001
,
0010
0001
0100
0001
0010
0001
1000
0001
,
0010
0000
0100
1000
0100
1000
0010
1000
,
0010
1000
0100
1000
0010
1000
0001
1000
,
0010
0000
0100
1000
0100
1000
0100
0001
,
0100
0001
0010
0001
1000
0010
1000
0001
,
0010
1200
0010
0001
,
0010
2300
0000
3002
,
0000
0000
0103
1000
0100
1000
0100
0001
,
0100
0001
0010
0100
1000
0000
0110
0000
,
1001
0000
0001
0010
0001
0010
1000
0010
,
1000
0010
0100
0000
0110
0000
0010
0000
,
0110
0000
0100
1000
0100
1000
0010
1000
,
0010
1000
0001
0010
0001
0010
0001
0100
,
0001
0100
0010
0001
0010
0100
0010
1000
,
0001
1000
0200
0000
0302
0000
2003
0000
,
3020
0032
0000
0203
,
0320
2030
0000
3200
,
0320
0032
0000
0203
,
0000
0320
2030
3002
,
2003
0000
0000
0000
3100
0000
0100
0000
0010
0000
0010
0000
0001
0010
0001
0000
,
1000
0010
0100
0100
0001
0001
1000
0100
,
0010
0001
0010
0000
0100
0000
0100
0000
1000
0000
1000
0000
0001
0100
0001
0000
,
1000
0010
1000
0000
0100
1000
0100
0000
0010
0001
0010
0000
0100
0000
0100
0000
,
2000
3000
0000
0000
0001
0000
0100
0000
0001
0000
0100
0000
0010
0000
1000
0000
,
0010
1000
0001
0010
0100
1000
0010
0000
,
1001
0000
1000
0100
1000
0100
0010
0001
,
0010
0001
0100
0000
0110
0000
0100
0001
,
1000
0000
0010
1000
0010
1000
0001
0010
,
0001
0010
0100
1000
0001
0100
0001
1000
,
0100
0010
0001
0100
0001
1000
0100
1000
,
0001
0010
0001
0100
0010
1000
0100
0010
,
0001
0200
0000
0000
0300
0000
0000
0000
,
0000
0000
0000
0000
0010
1000
0010
1000
,
0100
0010
0001
0010
0100
0001
0100
1000
,
0010
0000
0110
0000
0100
1000
0100
1000
,
0100
0001
0010
0001
0011
0000
1010
0000
,
1000
0100
0001
0000
0100
1000
0100
1000
,
0010
0100
0001
0010
0100
0001
0100
1000
,
0001
0010
0001
1000
0010
0001
0010
1000
,
0001
0100
1000
0100
0020
0000
0001
0000
,
0100
0000
1030
0000
0010
0100
0010
0100
,
0001
0010
1000
0010
0100
0001
1000
0010
,
0110
0000
1100
0000
1000
0010
1000
0010
,
0100
1000
0001
0010
1000
0000
1100
0000
,
0001
0000
0101
0000
1000
0010
0010
0001
,
0001
1000
1000
0100
0001
0010
0010
1000
,
1000
0001
0001
0100
1000
0010
0001
1000
,
0100
0001
0010
0100
0001
1000
0010
0001
,
1000
0010
0100
1000
0002
0000
0000
0000
,
0000
0000
0003
0000
;

//--------------- dance-double - forcednature ----------------
#NOTEDATA:;
#STEPSTYPE:dance-double;
#DESCRIPTION:forcednature;
#DIFFICULTY:Easy;
#METER:5;
#RADARVALUES:0,0,0,0,0;
#CREDIT:forcednature;
#NOTES:
00000000
00000000
00000000
00000000
,
00000000
00000000
00000000
00000000
,
00000000
00000000
00000000
00000000
,
00000000
00000000
00000000
00000000
,
00000000
00000000
00000000
00000000
,
00000000
00000000
00000000
00000000
,
00000000
00000000
00000000
00000000
,
00000000
00000000
00000000
00000000
,
00000000
00000000
00000000
00000000
,
00000000
00000000
00000000
00000000
,
00001000
00000000
00001000
00000000
,
00010000
00000000
00000000
00000000
,
00010000
00000000
00010000
00000000
,
00001000
00000000
00000000
00000000
,
00100000
00000000
00010000
00000000
,
00100000
00000000
00001000
00000000
,
00010000
00000000
00000010
00000000
,
00001000
00000000
00000010
00000000
,
00000000
00000000
00000000
00000000
,
00000000
00000110
00000000
00000000
,
00000000
00000100
00000000
00000001
,
00000000
00001000
00000000
00000000
,
00000000
00000001
00000000
00000010
,
00000000
00000100
00000000
00000000
,
00000000
00001000
00000000
00000100
,
00000000
00020000
00000000
00030000
,
00000000
00002000
00000000
00003000
,
00000000
01000000
00000000
00010000
,
00000000
00000000
00000000
00100000
,
00000000
00001000
00000000
00010000
,
00000000
00000000
00000000
00000010
,
00000000
00001000
00000000
00000100
,
00000000
00000000
00000000
00010000
,
00000000
00002000
00000000
00003000
,
00000000
01000000
00000000
01000000
,
00000000
00010000
00000000
00100000
,
00000000
00010000
00000000
00100000
,
00000000
00001000
00000000
00010000
,
00000000
00001000
00000000
00010000
,
00000000
00000010
00000000
00001000
,
00000000
00000010
00000000
00001000
,
00000000
00000002
00000000
00000000
,
00000000
00000023
00000000
00000230
,
00000000
00001300
00000000
00000100
,
00000000
00010000
00000000
00011000
,
00000000
00001000
00000000
01000000
,
00000000
10010000
00000000
01100000
,
00000000
10000000
00000000
00010000
,
00000000
00100000
00000000
00001000
,
00000000
00010000
00000000
00000010
,
00000000
00000220
00000000
00000330
,
00000000
00002001
00000000
00000000
,
00000000
00003200
00000000
00000000
,
00000000
00020300
00000000
00000000
,
00000000
00032000
00000000
00000000
,
00000000
01003000
00000000
01000000
,
00000000
00010000
00000000
10000000
,
00000000
01000000
00000000
00100000
,
00000000
00001000
00000000
00010000
,
00000000
00000100
00000000
00000100
,
00000000
00000100
00000000
00000000
,
00000000
00001000
00000000
00001000
,
00000000
00001000
00000000
00000000
,
00000000
00000001
00000000
00000001
,
00000000
00000001
00000000
00000000
,
00000000
00000100
00000000
00000010
,
00000000
00000100
00000000
00000020
,
00000000
00000000
00000030
00000000
,
00000000
00000000
00001000
00000000
,
00000001
00000000
00001000
00000001
,
00001000
00000000
00000100
00000000
,
00010000
00000000
00000100
00010000
,
00000100
00000000
00010000
00000000
,
00001000
00000000
00010000
00001000
,
00010000
00000000
00001000
00000000
,
01000000
00000000
00001000
01000000
,
00001000
00000000
01000000
00000000
,
00010000
00000000
10000000
00010000
,
10000000
00000000
01000000
00000000
,
10000000
00000000
01000000
00100000
,
01000000
00000000
00100000
00000000
,
00001000
00000000
00010000
00001000
,
00010000
00000000
00000010
00000000
,
00001000
00000000
00000001
00001000
,
00000001
00000000
00002002
00000000
,
00000000
00000000
00003003
00000000
;

//--------------- dance-double - forcednature ----------------
#NOTEDATA:;
#STEPSTYPE:dance-double;
#DESCRIPTION:forcednature;
#DIFFICULTY:Medium;
#METER:11;
#RADARVALUES:0,0,0,0,0;
#CREDIT:forcednature;
#NOTES:
00000000
00000000
00000000
00000000
,
00000000
00000000
00000000
00000000
,
00000000
00000000
00000000
00000000
,
00000000
00000000
00000000
00000000
,
00000000
00000000
00000000
00000000
,
00000000
00000000
00000000
00000000
,
00000000
00000000
00000000
00000000
,
00000000
00000000
00000000
00000000
,
00000000
00000000
00000000
00000000
,
00000000
00000000
00000000
00000000
,
00010000
00001000
00010000
00001000
,
01000000
00010000
00100000
00000000
,
00001000
00010000
00001000
00010000
,
00000100
00001000
00000010
00000000
,
00010000
00001000
00010000
00001000
,
00100000
00010000
01000000
00001000
,
00010000
00000100
00001000
00000010
,
00010000
00001000
00100000
00020000
,
00000000
00030000
00000000
00000000
,
00000000
01000000
00100000
10000000
,
00100000
01000000
00010000
00100000
,
00000000
01000000
00010000
00001000
,
00010000
01000000
00010000
00001000
,
00000000
00010000
00001000
00000010
,
00001000
00010000
00001000
00000010
,
00000000
00000210
00000000
00001000
,
00000000
00020300
00000000
00032000
,
00000000
01003000
00010000
00100000
,
00110000
00010000
01000000
00001000
,
00011000
00010000
00000100
00001000
,
00001010
00000010
00000100
00000001
,
00000011
00000000
00000010
00000100
00010000
00000000
00001000
00000000
,
00100000
00000000
01000000
00010000
00001000
00000000
00100000
00000000
,
00010000
20000000
00000000
00000000
,
00000000
30200000
00000000
00320000
,
00000000
00031000
00100000
00001000
,
00010000
00000000
00000100
00010000
00000100
00000000
00010000
00001000
,
00010000
00000010
00001000
00000010
,
00010000
00000000
00001000
01000000
00001000
00000000
00010000
00001000
,
00010000
00000100
00001000
00000100
,
00010000
00000000
00001000
00100000
00001000
00000000
00100000
00010000
,
00100000
00102000
00010000
01000000
,
00010000
00203000
00000000
02300000
,
00000000
03100000
00001000
00010000
,
00000100
00000000
00001000
00000001
00001000
00000000
00000010
00000000
,
00001001
00001000
00000100
00010000
,
00001000
01000000
10010000
00100000
,
10010000
00010000
01000000
00001000
,
00010000
00000000
00000100
00001000
00000100
00000000
00000010
00000000
,
00000001
00000000
00000100
00000010
00001000
00000000
00000010
00010000
,
00001000
00200000
00001000
00010000
,
01300000
10020000
00000000
02030000
,
03002000
00023000
00000000
00030200
,
00002300
00003002
00000000
00000203
,
00000000
00002300
00023000
00230000
,
20300000
00000000
30010000
00010000
00100000
00100000
00010000
00100000
,
00001000
00000000
00010000
00010000
00000010
00000010
00010000
00000010
,
00001000
00000000
00000100
00000100
00000010
00000010
00000100
00000010
,
00000001
00000000
00001000
00001000
00000010
00000010
00010000
00001000
,
00020000
00030000
00000000
00000000
00001000
00000000
00000000
00000000
00100000
00000000
00000000
00000000
01000000
00000000
00000000
00000000
,
00100000
00000000
00001000
00100000
01000000
00000000
00100000
00000000
,
00011000
00010000
00000010
00000100
,
00000010
00000000
00010000
00000010
00000100
00000000
00000010
00010000
,
00000100
00001000
00000001
00000100
,
00000001
00000000
00000010
00000100
00010000
00000000
00001000
00100000
,
01000000
00000000
00100000
00010000
00100000
00000000
00001000
00010000
,
00001000
00000000
01000000
00010000
01000000
00100000
10000000
00100000
,
01000000
00020000
00000000
00000000
00030000
00000000
00000000
00000000
,
00000000
00000000
00000000
00000000
10000000
01000000
00100000
00000000
,
01000000
00100000
00001000
00000000
00010000
00000100
00000010
00000000
,
00000110
00000000
00001001
00000000
00000001
00000100
00000010
00000000
,
00000100
00000010
00010000
00000000
00011000
00000000
00011000
00000000
,
00001000
00100000
00010000
00000000
01000000
00010000
10000000
00000000
,
01000000
10000000
00010000
00000000
01000000
00000000
01100000
00000000
,
00100000
10000000
00010000
00000000
00100000
00001000
00010000
00000000
,
00000100
00010000
00001000
00000000
02000000
00000000
00100000
00000000
,
00010000
00000000
03001000
00000000
00010000
00000100
00001000
00000000
,
00000100
00010000
00001000
00000000
00100000
00001000
00010000
00000000
,
00011000
00000000
00010010
00000000
00000010
00001000
00000001
00000000
,
00000010
00000001
00001000
00000000
00000100
00000000
00001001
00000000
,
00000010
00000000
00001001
00000000
00001000
00000100
00001000
00000100
,
00010000
00001000
00010000
00000000
00001000
01000000
00001000
01000000
,
00010000
01000000
00010000
00000000
10000000
01000000
10000000
01000000
,
00100000
00010000
00100000
00010000
02000000
00000000
03002000
00000000
,
00023000
00030010
00002002
00000000
,
00000000
00000000
00003003
00000000
;

//--------------- dance-double - forcednature ----------------
#NOTEDATA:;
#STEPSTYPE:dance-double;
#DESCRIPTION:forcednature;
#DIFFICULTY:Hard;
#METER:14;
#RADARVALUES:0,0,0,0,0;
#CREDIT:forcednature;
#NOTES:
00000000
00000000
00000000
00000000
,
00000000
00000000
00000000
00000000
,
00000000
00000000
00000000
00000000
,
00000000
00000000
00000000
00000000
,
00000000
00000000
00000000
00000000
,
00000000
00000000
00000000
00000000
,
00000000
00000000
00000000
00000000
,
00000000
00000000
00000000
00000000
,
00000000
00000000
00000000
00000000
,
00000000
00000000
00000000
00000000
,
00011000
00000000
00001000
00000000
01000000
00000000
00010000
00100000
,
01000000
00000000
00100000
00001000
00010000
00000000
00000010
00000000
,
00011000
00000000
00010000
00000000
00000100
00000000
00001000
00000010
,
00000200
00000000
00000302
00000000
00000013
00001000
00010000
00000000
,
00001000
00100000
00010000
00000000
00100000
00000000
00001000
00000000
,
00010000
00000010
00001000
00000000
00000010
00010000
00001000
00000000
,
01000000
00010000
01000000
00001000
00010000
00001000
00100000
00010000
,
00100000
01000000
10000000
01000000
00010000
00001000
00100000
00020000
,
00000000
00030000
00000000
00000000
,
00000000
00000000
01000000
00010000
00100000
00000000
01100000
00000000
,
00100000
00000000
00001000
00010000
00000010
00000000
00001010
00000000
,
00001000
00000000
00000100
00000001
00000100
00000000
00000110
00000000
,
00000010
00000000
00000001
00000100
00001000
00000000
00010000
01000000
,
10000000
00000000
00100000
10000000
01000000
00000000
01100000
00000000
,
00100000
00000000
00001000
00010000
00000010
00000000
00001010
00000000
,
00001000
00000000
00000100
00000001
00000100
00000000
00001000
00000100
,
00001000
00000000
00000010
00001000
00000010
00000000
00000001
00000010
,
00000001
00000000
00000010
00001000
00000100
00000000
00000001
00000000
,
00000100
00000000
00001000
00000010
00010000
00000000
00011000
00000000
,
00001000
00000000
00100000
00010000
01000000
00000000
10000000
00000000
,
01000000
00000000
00010000
00100000
01000000
00000000
01100000
00000000
,
00100000
00000000
00001000
00010000
00000010
00000000
00000110
00000000
,
00000100
00000000
00000001
00000010
00000100
00000000
00001100
00000000
,
00001000
00020010
00000000
00000000
,
00000000
00000100
00000100
00001000
,
00031000
00000000
00010000
00001000
01000000
00010000
01000000
00001000
,
00010000
00001000
00100000
00010000
00100000
00001000
00010000
00000000
,
00011000
00000000
00001000
00010000
00000100
00001000
00000100
00010000
,
00001000
00010000
00000010
00001000
00000010
00010000
00001000
00000000
,
00011000
00000000
00100000
00010000
00100000
00001000
00010000
00001000
,
01000000
00010000
01000000
00001000
00010000
00001000
00100000
00000000
,
01100000
02000000
00100000
10000000
,
00100000
03020000
00001000
00030010
,
00001010
00000000
00001000
00000100
00000010
00000100
00001000
00000001
,
00000010
00000001
00000100
00001000
00010000
00000000
00100000
00000000
,
01100000
00000000
01000000
00010000
00100000
00010000
10000000
00100000
,
10000000
01000000
00010000
00000000
00101000
00000000
00010000
00000000
,
00101000
00000000
00001000
00010000
00000010
00001000
00000010
00010000
,
00001000
00000010
00000100
00001000
00000001
00000000
00000100
00000001
,
00001000
00000000
00000100
00000010
00000100
00000010
00001000
00010000
,
01000000
00100000
00020000
00000000
01000000
00000000
10000000
00000000
,
00130000
20010000
00000000
32000000
,
03020000
00032000
00000000
00003020
,
00000032
00002003
00000000
00003020
,
00000000
00000230
00002300
00023000
,
00230000
00000000
00000000
00000000
01300000
00000000
01000000
00000000
00010000
00000000
00010000
00000000
01000000
00010000
01000000
00000000
,
00100000
10000000
01000000
01000000
10000000
10000000
01000000
00010000
,
00001000
00010000
00001000
00000000
00000010
00000000
00000010
00000000
00001000
00000000
00001000
00000000
00000010
00001000
00000010
00000000
,
00000001
00000000
00001000
00000000
00000010
00001000
00000010
00000000
00000100
00000000
00000001
00000000
00000010
00000001
00000010
00000000
,
00000200
00000300
00000000
00000000
00001000
00000000
00000100
00000000
00001000
00000000
00000100
00000000
00010000
00000000
00001000
00000000
,
00010000
00001000
00100000
00001000
00010000
00001000
01000000
00000000
,
01100000
00000000
00100000
10000000
00100000
10000000
00010000
01000000
,
00010000
01000000
00001000
00000000
00011000
00000000
00010000
00000100
,
00000010
00000000
00001000
00000010
00001000
00000010
00000001
00000010
,
00000001
00000010
00000001
00000100
00000010
00000100
00001000
00000100
,
00001000
00010000
00100000
01000000
00010000
00100000
01000000
10000000
,
00100000
01000000
10000000
01000000
00010000
00100000
01000000
00010000
,
00001000
00000020
00000000
00000000
00000030
00000000
00000000
00000000
,
00000000
00000000
00000000
00000000
00000100
00010000
00001000
00010000
,
00000010
00001000
00000010
00000100
00001000
00010000
00100000
01000000
,
01100000
00000000
10010000
00000000
10000000
01000000
00010000
00001000
,
00100000
00010000
01000000
00001000
00011000
00000000
00010100
00000000
,
00000100
00001000
00000010
00000000
00000100
00001000
00000100
00001000
,
00000100
00000001
00000100
00000001
00000010
00000100
00010000
00001000
,
00100000
01000000
00100000
00001000
00010000
00100000
01000000
00010000
,
10000000
01000000
00010000
00001000
00100000
00000000
01100000
00000000
,
01000000
00010000
00001000
00000000
00000010
00000100
00010000
00000010
,
00000100
00001000
00000100
00000001
00000010
00001000
00010000
01000000
,
01100000
00000000
10010000
00000000
10000000
00100000
00010000
00001000
,
00100000
00010000
00100000
00001000
00011000
00000000
00010010
00000000
,
00010000
00001000
00000010
00000000
00000100
00001000
00000100
00010000
,
00001000
00010000
00000010
00001000
00010000
01000000
00010000
00100000
,
01000000
00010000
00001000
00000100
00000010
00001000
00000100
00000001
,
00000100
00001000
00000010
00010000
00001000
00000010
00001000
00010000
,
01000000
00100000
00010000
10000000
20200000
00000000
00000000
00000000
,
00000000
00000000
30300000
00000000
;
