#VERSION:0.83;
#TITLE:Cold Inflation;
#SUBTITLE:;
#ARTIST:kanone vs. Yooh;
#TITLETRANSLIT:;
#SUBTITLETRANSLIT:;
#ARTISTTRANSLIT:;
#GENRE:;
#CREDIT:;
#MUSIC:Cold Inflation.ogg;
#BANNER:Cold Inflation.png;
#BACKGROUND:Cold Inflation-bg.png;
#CDTITLE:./CDTitles/SDVX III GRAVITY WARS.png;
#SAMPLESTART:89.129;
#SAMPLELENGTH:15.000;
#SELECTABLE:YES;
#OFFSET:0.000;
#BPMS:0.000=175.000;
#STOPS:;
#TIMESIGNATURES:0.000=4=4;
#BGCHANGES:0.000=../BGAs/28bk.mp4=1.000=0=0=0=StretchNoLoop====,
99999.000=-nosongbg-=1.000=0=0=0=StretchNoLoop====
;
#FGCHANGES:;

//--------------- dance-single - forcednature ----------------
#NOTEDATA:;
#STEPSTYPE:dance-single;
#DESCRIPTION:forcednature;
#DIFFICULTY:Beginner;
#METER:4;
#RADARVALUES:0,0,0,0,0;
#CREDIT:forcednature;
#NOTES:
0000
0000
0000
0000
,
0000
0000
0000
0000
,
0000
0000
0000
0000
,
0000
0000
0000
0000
,
0000
0000
0000
0000
,
0000
0000
0000
0000
,
0000
0000
0000
0000
,
0000
0000
0000
0000
,
0000
0000
0000
0000
,
1000
0000
0000
0000
,
0001
0000
0000
0000
,
0100
0000
0000
0000
,
0010
0000
0000
0000
,
1000
0000
0000
0000
,
0001
0000
0001
0000
,
0010
0010
0010
0010
,
0000
0000
0000
0000
,
1001
0000
0000
0000
,
1000
0000
0000
0000
,
0010
0000
0000
0000
,
0100
0000
0000
0000
,
0001
0000
0000
0000
,
0010
0000
0000
0000
,
0100
0000
0100
0000
,
1000
0000
1000
0000
,
1001
0000
0000
0000
,
0001
0000
0000
0000
,
0010
0000
0000
0000
,
0100
0000
0000
0000
,
1000
0000
1000
0000
,
0010
0000
0010
0000
,
0100
0100
0001
0001
,
0010
0000
0000
0000
,
1001
0000
0000
0000
,
0100
0000
0010
0000
,
0100
0000
0001
0000
,
0100
0000
0010
0000
,
0000
1000
0000
0000
,
1000
0000
1000
0000
,
0000
0001
0000
0000
,
0001
0000
0001
0000
,
0110
0000
1000
0000
,
0001
0000
0100
0000
,
0010
0000
1000
0000
,
0001
0000
0010
0000
,
0000
0100
0000
0000
,
0100
0000
0100
0000
,
0010
0010
0010
0010
,
0010
0000
0000
0000
,
0100
0000
1001
0000
,
0000
0000
0110
0000
,
0000
0000
1001
0000
,
0000
0000
0110
0000
,
0000
0000
0110
0000
,
0000
0000
1001
0000
,
0000
0000
0110
0000
,
0000
0000
1001
0000
,
1000
0000
1000
0000
,
0001
0000
0001
0000
,
0100
0000
0010
0000
,
0100
0000
0010
0000
,
1000
0000
0001
0000
,
1000
0000
0001
0000
,
0010
0000
0100
0000
,
2000
0000
0000
3000
,
0001
0000
0000
0000
,
0100
0000
0000
0000
,
0010
0000
0010
0000
,
1000
0000
1000
0000
,
0100
0000
0000
0000
,
0010
0000
0010
0000
,
0001
0000
0001
0000
,
0100
0000
0100
0000
,
1001
0000
1000
0000
,
0010
0000
1000
0000
,
0100
0000
0100
0000
,
0010
0000
0001
0000
,
1001
0000
0001
0000
,
0100
0000
0001
0000
,
0010
0010
0100
0100
,
1000
0000
0001
0000
,
2002
0000
0000
0000
,
0000
0000
0000
0000
,
3003
0000
0000
0000
;

//--------------- dance-single - forcednature ----------------
#NOTEDATA:;
#STEPSTYPE:dance-single;
#DESCRIPTION:forcednature;
#DIFFICULTY:Easy;
#METER:10;
#RADARVALUES:0,0,0,0,0;
#CREDIT:forcednature;
#NOTES:
0000
0000
0000
0000
,
0000
0000
0000
0000
,
0000
0000
0000
0000
,
0000
0000
0000
0000
,
0000
0000
0000
0000
,
0000
0000
0000
0000
,
0000
0000
0000
0000
,
0000
0000
0000
0000
,
0000
0000
0000
0000
,
1000
1000
0001
0001
,
0100
0100
0010
0010
,
1000
1000
0001
0001
,
0010
0010
0100
0100
,
1000
0001
0100
0010
,
1000
0100
1000
0000
0001
0100
0001
0000
,
0020
0100
1000
0100
,
0032
0000
0000
1003
,
1001
0000
1000
0000
0100
0000
0010
0001
,
0000
0001
0100
0000
0010
0000
1000
0001
,
1000
0000
0100
0000
0010
0000
0001
1000
,
0000
1000
0010
0000
0100
0000
0001
1000
,
0001
0000
0010
0000
0100
0000
1000
0010
,
0000
0010
0100
0000
0001
0000
0010
0100
,
0010
0000
0001
0100
0001
0000
1000
0100
,
2000
0010
0001
3100
,
0110
0000
0001
0000
1000
0000
0010
0100
,
0000
0010
1000
0000
0001
0000
0010
0100
,
0010
0000
0001
0000
1000
0000
0010
0100
,
0000
0001
0010
0000
0100
0000
0010
0001
,
0010
0000
0100
0000
1000
0001
1000
0000
,
0010
0000
0100
0000
0001
1000
0001
0000
,
0100
0001
0100
0001
1000
0100
1000
0100
,
0020
0000
0000
0030
,
0001
0100
0010
1000
,
0100
0010
0110
1000
,
0001
0100
1001
0001
,
1000
0010
0110
0000
,
0000
0000
1100
0000
0000
1100
0000
0000
,
1100
0010
2002
3003
,
0000
0000
0101
0000
0000
0101
0000
0000
,
0101
0010
2002
3003
,
0110
0001
1000
0100
,
1000
0010
0100
0001
,
0010
0100
1002
0103
,
0010
1000
0001
0010
,
0100
1000
0100
0000
1000
0100
1000
0000
,
0001
0100
0001
0000
0100
0001
0100
0000
,
0010
1000
0001
0010
,
0100
0000
0000
0100
0000
0000
0100
0000
0000
0100
0000
0000
0100
0000
0000
0000
,
0010
0000
1001
0000
,
1000
0000
0110
0000
,
0001
0000
0110
0000
,
1000
0000
0000
0000
0001
0100
0001
0000
,
0010
0000
1001
0000
,
1000
0000
1100
0000
,
0001
0000
0101
0000
,
0010
0000
0000
0000
0100
1000
0100
0000
,
0110
0001
1000
0001
,
0100
0010
0100
0010
,
1000
0001
1000
0001
,
0010
0100
0010
0100
,
1000
0010
1000
0000
0001
0000
0100
0000
,
0001
0010
0001
0000
1000
0000
0100
0000
,
0010
0100
0010
0000
0001
1000
0001
0000
,
0200
0000
0000
0300
,
0010
0000
1000
0000
0001
0010
0100
0000
,
0010
0000
0001
0000
1000
0010
0100
0000
,
0010
0010
1000
1000
,
0000
0001
0000
0000
0001
0000
0000
1000
0000
0000
1000
0000
0000
0000
0000
0000
,
0010
0100
0001
1000
,
0100
0010
0100
0000
1000
0001
1000
0000
,
0010
0100
0010
0100
0001
1000
0001
0000
,
0020
0000
0100
0000
0130
1000
0100
0000
,
0110
0001
1010
0100
,
0011
1000
0110
0001
,
1001
0000
0001
0100
0001
0100
0010
0000
,
0000
1000
0000
0000
1000
0000
0000
0001
0000
0000
0001
0000
0000
0000
0000
0000
,
0100
0010
0100
0000
0001
1000
0001
0000
,
0010
0100
0010
0000
0001
1000
0001
0000
,
0100
0100
0100
0000
0010
0010
0010
0000
,
1000
0000
0001
0000
0010
0100
0010
0000
,
2002
0000
0000
0000
,
0000
0000
0000
0000
,
3003
0000
0000
0000
;

//--------------- dance-single - forcednature ----------------
#NOTEDATA:;
#STEPSTYPE:dance-single;
#DESCRIPTION:forcednature;
#DIFFICULTY:Medium;
#METER:12;
#RADARVALUES:0,0,0,0,0;
#CREDIT:forcednature;
#NOTES:
0000
0000
0000
0000
,
0000
0000
0000
0000
,
0000
0000
0000
0000
,
0000
0000
0000
0000
,
0000
0000
0000
0000
,
0000
0000
0000
0000
,
0000
0000
0000
0000
,
0000
0000
0000
0000
,
0000
0000
0000
0000
,
1000
0100
1000
0100
,
0010
0001
0010
0001
,
0100
0010
0100
0010
,
1000
0001
1000
0001
,
1000
0010
0100
0001
,
0010
0100
0010
0100
1000
0001
1000
0001
,
0100
0001
1000
0100
0010
0001
1000
0010
,
0200
0000
0310
0010
1000
0001
0010
0000
,
0110
0000
0000
0000
1001
0000
0000
0000
0001
0000
0000
0100
0000
0000
0010
0000
,
0000
0000
1000
0000
0100
0000
1000
0000
0010
0000
0000
0100
0000
0000
0001
0000
,
0010
0000
0000
0000
0110
0000
0000
0000
0100
0000
0000
1000
0000
0000
0001
0000
,
0000
0100
0001
1000
0010
1000
0001
0000
,
0010
0000
0000
0000
0110
0000
0000
0000
0100
0000
0000
1000
0000
0000
0001
0000
,
0000
0100
0010
0100
0001
1000
0010
0000
,
1000
0000
0000
0100
0000
0000
1000
0000
0001
0000
0000
0100
0000
0000
0001
0000
,
0010
0000
0000
0100
0000
0000
0010
0000
0001
0000
0000
1000
0000
0000
0010
0000
,
0110
0000
0000
0000
1001
0000
0000
0000
1000
0000
0000
0010
0000
0000
0100
0000
,
0000
0000
0001
0000
0010
0000
0100
0000
1000
0000
0000
0100
0000
0000
0010
0000
,
0001
0000
0000
0000
1001
0000
0000
0000
1000
0000
0000
0010
0000
0000
0100
0000
,
0000
0001
0010
0001
1000
0010
0100
0000
,
0001
1000
0001
1000
0001
1000
0001
1000
,
0100
0010
0100
0010
0100
0010
0100
0010
,
0001
0000
0000
0100
0000
0000
0010
0000
1000
0000
0000
0100
0000
0000
0010
0000
,
0002
0000
2000
3003
,
0001
0000
0100
0000
0010
1000
0010
0000
,
0100
0001
0010
0000
0110
0000
0100
1000
,
0001
0100
0010
0000
0110
0000
0100
0001
,
1000
0000
0000
0100
0000
0000
0010
0000
0000
0000
0000
0000
0110
0000
0000
0000
0000
0000
0001
0000
1000
0000
0001
0000
,
1000
0000
0101
0000
0000
1010
0000
0000
,
0101
0110
1001
0000
,
0000
0000
1100
0000
0000
0011
0000
0000
,
1100
0000
0010
0000
1001
0000
0001
0100
,
1000
0000
0100
0000
0010
1000
0100
0000
,
0010
0001
0100
0000
0010
1000
0001
0000
,
0010
0100
1000
0000
0010
0100
0100
0000
,
0010
1000
0001
0000
0010
0100
1000
0000
,
0001
0100
0001
0100
0010
1000
0010
1000
,
0001
0010
0001
0010
0100
1000
0100
1000
,
0010
0100
0001
1000
0100
0010
0001
1000
,
0010
0000
0000
0010
0000
0000
0010
0000
0000
0010
0000
0000
0100
0000
0001
0000
,
2000
3000
2200
3300
,
0010
0000
0000
0010
0000
0000
0010
0000
2002
0000
0000
0000
3003
0000
0000
0000
,
0002
0003
0220
0330
,
1000
0000
0000
1000
0000
0000
1000
0000
0022
0000
0000
0000
0033
0000
0000
0000
,
0200
0300
2020
3030
,
0001
0000
0000
0001
0000
0000
0001
0000
0220
0000
0000
0000
0330
0000
0000
0000
,
2000
3000
0202
0303
,
0010
0000
0000
0010
0000
0000
0010
0000
2002
0000
0000
0000
3003
0000
0000
0000
,
1100
1000
0002
0100
,
2003
0010
3002
0010
,
2003
0000
0100
0000
3001
0100
0010
1000
,
0002
0000
0013
0100
1000
0001
0100
0000
,
0110
0000
0010
1000
0001
1000
0100
0000
,
0110
0000
0010
0001
1000
0001
0100
0000
,
0010
1000
0001
0100
0001
0010
0100
1000
,
0020
0230
0302
0003
,
1000
0000
0000
0100
0000
0000
1000
0000
0000
0010
0000
0000
0100
0000
0001
0000
,
0010
0000
0000
0100
0000
0000
0010
0000
0001
0000
1000
0000
0001
0000
0000
0000
,
0100
0010
1000
0001
0010
0100
1000
0001
,
0000
0100
0000
0000
0010
0000
0000
1000
0000
0000
0001
0000
0010
0000
0100
0000
,
1000
0000
0000
0001
0000
0000
0100
0000
0001
0000
0000
1000
0000
0000
0100
0000
,
0010
0100
1000
0001
0100
0010
1000
0001
,
0010
0100
0001
0100
0010
0100
1000
0010
,
0200
0000
0001
0000
1000
0000
0310
0100
,
0001
0010
0100
0000
1001
0000
1000
0010
,
0100
0001
0010
0000
0110
0000
0100
1000
,
0001
1000
0010
0100
0001
1000
0100
0010
,
0000
0001
0000
0000
0100
0000
0000
0010
0000
0000
1000
0000
0001
0000
1000
0000
,
0100
0010
0001
0100
0010
0100
0001
0010
,
0100
1000
0010
0100
0010
1000
0100
0010
,
0001
0001
1000
1000
0010
0010
0100
0100
,
0001
0000
0000
0010
0000
0000
0100
0000
0000
1000
0000
0000
0010
0000
0100
0000
,
2002
0000
0000
0000
,
0000
0000
0000
0000
,
3003
0000
0000
0000
;

//--------------- dance-single - forcednature ----------------
#NOTEDATA:;
#STEPSTYPE:dance-single;
#DESCRIPTION:forcednature;
#DIFFICULTY:Hard;
#METER:17;
#RADARVALUES:0,0,0,0,0;
#CREDIT:forcednature;
#NOTES:
0000
0000
0000
0000
,
0000
0000
0000
0000
,
0000
0000
0000
0000
,
0000
0000
0000
0000
,
0000
0000
0000
0000
,
0000
0000
0000
0000
,
0000
0000
0000
0000
,
0000
0000
0000
0000
,
0000
0000
0000
0000
,
0001
0101
1001
0011
,
1000
1100
1001
1010
,
0001
0011
1001
0101
,
1000
1010
1001
1100
,
0110
1001
0110
1001
,
1000
0100
1000
0010
0100
0001
0010
0001
,
0100
0001
0100
0001
1000
0100
1000
0100
1000
0001
1000
0001
1000
0001
1000
0001
,
0010
0000
0000
0000
0100
1000
0100
1000
0010
0000
0100
0001
0020
0000
0030
0000
,
1001
0000
0000
0000
1100
0000
0000
0000
0001
0000
0010
0100
0000
0010
0001
0000
,
0000
0000
0100
0000
0001
0000
1000
0000
0010
0000
1000
0001
0000
1000
0100
0010
,
0001
0000
0000
0000
0101
0000
0000
0000
1000
0000
0001
0010
0000
0100
1000
0000
,
0000
0000
0010
0000
0100
0000
0001
1000
0100
0000
0010
0000
0001
1000
0001
0100
,
0010
0000
0000
0000
1010
0000
0000
0000
1000
0000
0001
0010
0000
0100
0010
0000
,
0001
0000
1000
0000
0010
0000
0000
0010
0100
0000
0001
0000
1000
0000
0100
0000
,
0010
0000
0000
0001
1000
0000
0001
0100
0010
0000
0000
1000
0001
0000
1000
0100
,
0010
0001
1000
0001
0100
0000
0010
1000
0001
1000
0100
0000
0010
0001
1000
0010
,
0100
0000
0000
0000
0101
0000
0000
0000
0001
0000
1000
0010
0000
0100
0001
0100
,
0010
0000
1000
0000
0001
0000
1000
0000
0100
0000
0010
0001
0000
1000
0001
0100
,
0010
0000
0000
0000
1010
0000
0000
0000
1000
0000
0100
0010
0000
0001
1000
0010
,
0100
0000
0001
0000
1000
0000
0100
0010
0001
0000
0100
0000
0010
1000
0001
1000
,
0100
0100
0010
0010
0001
0001
1000
1000
,
1001
0001
0100
0100
0010
0010
1000
1000
,
0100
1000
0100
1000
0001
0100
0001
0100
0001
1000
0001
1000
0001
1000
0001
1000
,
0100
0000
0000
0100
0000
0000
0010
0001
1000
0000
0010
0000
0200
0000
0000
0000
,
0301
0010
1000
0010
0100
1000
0001
0100
,
0010
1000
0001
0000
1200
0000
0301
0100
,
1000
0001
0010
0000
0201
0000
1300
0100
,
0001
0000
0000
0000
0000
0000
1000
0000
0000
0000
0000
0000
0010
0000
0000
0000
0000
0000
1000
0000
0000
0000
0000
0000
0001
0000
0000
0000
0000
0000
1000
0000
0000
0100
0000
0000
0010
0000
0000
0000
0001
0000
0000
0000
1000
0000
0000
0000
,
0001
0000
1010
MMMM
0000
1010
MMMM
0000
,
1010
0000
0110
0000
1002
0000
0013
0001
,
0100
0000
0011
MMMM
0000
0011
MMMM
0000
,
0011
0000
0000
0000
0110
0000
0000
0000
1000
0100
0010
0001
1000
0001
0100
0000
,
0010
1000
0010
0100
1000
0100
0001
1000
,
0100
0001
0100
0010
0001
1000
0010
0100
,
0101
0000
0001
1000
0010
0001
0010
1000
,
0100
0000
0010
0000
0100
0000
1000
0000
0001
0000
0100
0001
0200
0000
0000
0000
,
0310
0010
1000
1000
0001
0001
0010
0010
,
0100
0100
0001
0001
0100
0100
1000
1000
,
0001
0100
0010
1000
0001
1000
0100
0010
0001
0100
0010
1000
0100
1000
0001
0100
,
0010
0000
0000
0010
0000
0000
0010
0000
0000
0010
0000
0010
1000
0000
0001
0010
,
0200
0300
0022
0033
,
0100
0000
0000
0100
0000
0000
0100
0000
2002
0000
0000
0000
3003
0000
0000
0000
,
0002
0000
0000
0000
0003
0000
0100
0000
0001
1000
0010
1000
0100
0000
0010
0001
,
0100
0000
0000
0100
0000
0000
0100
0010
1000
0000
1000
0000
0001
0000
0010
0100
,
2000
0000
3000
0010
2002
0000
3003
0000
,
0001
0000
0000
0001
0000
0000
0001
0000
0220
0000
0000
0000
0330
0000
0000
0000
,
2002
0000
0000
0000
3003
0000
1000
0000
0001
0100
0010
0100
0001
1000
0100
0010
,
0001
0000
0000
0001
0100
0000
0010
1000
0010
0000
0010
0000
0100
0000
0100
0000
,
0110
0110
0101
0101
,
1001
0000
1001
0000
1100
0000
1000
0100
,
0110
0110
1100
1100
,
1001
0000
0000
0000
1001
0000
0000
0000
0101
0000
0000
0000
0001
0000
0100
0010
,
1000
0000
0100
0000
1000
0000
0010
0000
1000
0000
0100
0000
1000
0000
0001
1000
,
0001
0000
0100
0000
0001
0000
0010
0000
0001
0000
0100
0000
0001
0000
1000
0001
,
1000
0100
0010
0001
0100
0010
1000
0100
0010
0001
0100
0010
1000
0001
1000
0001
,
0200
0320
2030
3000
,
0001
0000
0010
0001
0000
0100
0001
0000
1000
0001
0000
1000
0010
1000
0100
0010
,
0001
0000
1000
0010
0000
0010
0100
0000
0001
0000
0010
0000
0001
0100
0010
1000
,
0001
0000
0010
0100
1000
0000
0010
1000
0100
0000
0010
0100
1000
0010
0100
0001
,
0100
0010
0000
0010
1000
0000
1000
0001
0000
0001
0010
0000
0100
1000
0001
1000
,
0010
0000
0000
1000
0001
0000
1000
0100
0010
0000
0000
0001
1000
0000
0001
0100
,
0010
0000
1000
0001
0000
0001
0010
0000
0100
1000
0100
0010
0100
1000
0001
0100
,
0010
1000
0001
1000
0100
0010
0001
0000
0100
0001
1000
0001
0010
0100
1000
0000
,
0010
0100
0000
0001
0100
0000
0001
0010
0000
0100
1000
0000
0010
1000
0001
0010
,
0100
0000
1000
0001
0100
0000
0001
1000
0010
0100
0001
1000
0100
0010
0001
1000
,
0001
0000
0001
0100
0000
0100
0010
0000
1000
0100
0010
0000
0100
1000
0001
0100
,
0010
1000
0100
0010
0001
0100
0001
0010
0100
1000
0001
0100
0010
1000
0100
1000
,
0001
0010
0000
0100
0010
0000
1000
0010
0000
0100
1000
0000
0001
0100
0010
1000
,
0001
0000
0010
0001
1000
0001
0100
0000
0010
0000
1000
0100
0010
0100
1000
0000
,
0011
0000
0010
0001
0010
0100
1000
0000
0010
0000
0100
0001
1000
0001
0010
0000
,
0100
1000
0100
1000
0001
0100
0001
0100
0010
1000
0001
0010
0100
1000
0001
0100
,
0010
1000
0000
1000
0100
0000
0100
0010
0000
0010
0001
0000
0100
0010
1000
0001
,
0020
0000
0000
0000
,
0000
0000
0000
0000
,
0030
0000
0000
0000
;

//--------------- dance-double - forcednature ----------------
#NOTEDATA:;
#STEPSTYPE:dance-double;
#DESCRIPTION:forcednature;
#DIFFICULTY:Easy;
#METER:10;
#RADARVALUES:0,0,0,0,0;
#CREDIT:forcednature;
#NOTES:
00000000
00000000
00000000
00000000
,
00000000
00000000
00000000
00000000
,
00000000
00000000
00000000
00000000
,
00000000
00000000
00000000
00000000
,
00000000
00000000
00000000
00000000
,
00000000
00000000
00000000
00000000
,
00000000
00000000
00000000
00000000
,
00000000
00000000
00000000
00000000
,
00000000
00000000
00000000
00000000
,
00001000
00010000
00001000
00010000
,
00001000
01000000
00001000
01000000
,
00010000
01000000
00010000
01000000
,
00010000
10000000
00010000
10000000
,
01000000
10000000
01000000
10000000
,
00100000
00100000
01000000
01000000
,
00001000
00001000
00020000
00000000
,
00030100
00000000
00001000
00000001
00001000
00000000
00000010
00000000
,
00001001
00000000
00000001
00000000
00000100
00000000
00000010
00001000
,
00000000
00001000
00000100
00000000
00010000
00000000
00001000
00000000
,
01000000
00000000
00010000
00000000
00100000
00000000
01000000
10000000
,
00000000
10000000
00100000
00000000
01000000
00000000
00010000
00000000
,
00100000
00000000
00001000
00000000
00010000
00000000
00000010
00001000
,
00000000
00001000
00000100
00000000
00000010
00000000
00000001
00000000
,
00000100
00000100
00001000
00001000
,
00010000
00010000
01000000
01000000
,
01100000
00000000
00100000
00000000
00010000
00000000
10000000
00100000
,
00000000
00100000
01000000
00000000
00001000
00000000
00010000
00000100
,
00010000
00000000
00001000
00000000
00100000
00000000
00001000
00010000
,
00000000
00010000
00000010
00000000
00001000
00000000
00000100
00000000
,
00000110
00000010
00000001
00001000
,
00001010
00000010
00010000
00001000
,
00100000
00010000
00100000
00000000
01000000
10000000
01000000
00000000
,
20020000
00000000
00000000
30030000
,
10000000
01000000
00010000
00001000
,
00000010
00000100
00000110
00000010
,
00000001
00001000
00001001
00000001
,
00000100
00001000
00000000
00001000
00000000
00001000
00020000
00000000
,
00130000
00000000
01100000
00000000
00000000
01100000
00000000
00000000
,
01100000
10000000
00020000
00030000
,
00000000
00000000
00011000
00000000
00000000
00011000
00000000
00000000
,
00011000
00000100
00000020
00000030
,
00000001
00001000
00000010
00000100
,
00001000
00010000
01000000
00100000
,
00010000
10000000
20020000
30030000
,
00010000
00000000
01000000
00000000
00001000
00010000
00001000
00000000
,
00000010
00000100
00000010
00000100
,
00010000
00001000
00010000
00001000
,
01000000
00010000
01000000
00000000
00100000
10000000
00100000
00000000
,
02000000
00000000
00000000
03000000
,
00100000
00000000
20020000
30030000
,
01000000
00000000
20020000
30030000
,
00100000
00000000
00001000
00010000
,
00000200
00000000
00001300
00000001
,
00001000
00000000
00000220
00000330
,
00000001
00000000
00000220
00000330
,
00000100
00000000
00002002
00003003
,
00000010
00001000
00000020
00000000
,
00010030
00001000
00010000
00001000
,
00100000
00010000
00100000
00010000
,
10000000
00100000
10000000
00100000
,
01000000
00010000
01000000
00010000
,
00100000
01000000
00100000
00000000
00010000
00000000
00001000
00000000
,
00000010
00000100
00000010
00000000
00001000
00000000
00010000
00000000
,
01000000
01000000
01000000
00000000
00100000
00100000
00100000
00000000
,
20000000
00000000
00000000
30000000
,
01000000
00100000
00010000
01000000
,
00001000
00000000
00010000
00000000
00000100
00001000
00000100
00000000
,
00000010
00000001
00001000
00000001
,
00000100
00000000
00000010
00000000
00001000
00000001
00001000
00000000
,
00000100
00010000
00001000
01000000
,
00010000
00000000
10000000
00000000
01000000
00100000
01000000
00000000
,
00010000
00010000
00001000
00001000
,
00000010
00000100
00001000
00000001
,
00000110
00000001
00001000
00000010
,
00001000
00000100
00001000
00010000
,
01000000
00100000
01000000
00000000
00100000
01000000
00100000
00000000
,
10000000
00010000
00100000
01000000
,
10010000
00010000
01000000
00001000
,
00011000
00010000
00000100
00001000
,
00000001
00000100
00000001
00000000
00001000
00000100
00001000
00000000
,
00000010
00000000
00000000
00000100
00000000
00000000
00001000
00000000
,
00022000
00000000
00000000
00000000
,
00000000
00000000
00000000
00000000
,
00033000
00000000
00000000
00000000
;

//--------------- dance-double - forcednature ----------------
#NOTEDATA:;
#STEPSTYPE:dance-double;
#DESCRIPTION:forcednature;
#DIFFICULTY:Medium;
#METER:13;
#RADARVALUES:0,0,0,0,0;
#CREDIT:forcednature;
#NOTES:
00000000
00000000
00000000
00000000
,
00000000
00000000
00000000
00000000
,
00000000
00000000
00000000
00000000
,
00000000
00000000
00000000
00000000
,
00000000
00000000
00000000
00000000
,
00000000
00000000
00000000
00000000
,
00000000
00000000
00000000
00000000
,
00000000
00000000
00000000
00000000
,
00000000
00000000
00000000
00000000
,
00010000
00010000
00001000
00001000
,
00000010
00000010
00000001
00000001
,
00000100
00000100
00001000
00001000
,
00010000
00010000
00100000
00100000
,
10000000
10000000
01000000
01000000
,
00100000
00001000
00100000
00001000
00010000
00000010
00010000
00000010
,
00001000
00001000
00000001
00000001
00000010
00000010
00000100
00000100
,
00002000
00000000
00003001
00000001
00000010
00000100
00001000
00000000
,
00001010
00000000
00000000
00000000
00000001
00000000
00000100
00000000
00000010
00000000
00000000
00000010
00000000
00000000
00001000
00000000
,
00000000
00000000
00000100
00000000
00010000
00000000
00001000
00000000
01000000
00000000
00000000
01000000
00000000
00000000
00010000
00000000
,
00100000
00000000
00000000
00000000
01000000
00000000
10000000
00000000
00010000
00000000
00000000
00010000
00000000
00000000
01000000
00000000
,
00000000
00100000
10000000
00010000
10000000
01000000
00100000
00010000
,
01000000
00000000
00000000
00000000
00001000
00000000
00010000
00000000
00000100
00000000
00000000
00000100
00000000
00000000
00001000
00000000
,
00000000
00000010
00000100
00000001
00000010
00000100
00001000
00000000
,
00000010
00000000
00000000
00010000
00000000
00000000
00001000
00000000
00100000
00000000
00000000
00001000
00000000
00000000
00010000
00000000
,
00000100
00000000
00000000
00010000
00000000
00000000
00001000
00000000
01000000
00000000
00000000
00001000
00000000
00000000
00010000
00000000
,
00011000
00000000
00000000
00000000
01000000
00000000
00010000
00000000
10000000
00000000
00000000
10000000
00000000
00000000
01000000
00000000
,
00000000
00000000
00100000
00000000
00010000
00000000
00100000
00000000
00001000
00000000
00000000
00010000
00000000
00000000
00000010
00000000
,
00001000
00000000
00000000
00000000
00000001
00000000
00000010
00000000
00000100
00000000
00000000
00000100
00000000
00000000
00001000
00000000
,
00000000
00000010
00000100
00000001
00001000
00000100
00010000
00001000
,
00010000
00000000
00001000
01000000
00001000
00010000
00001000
00100000
,
00001000
00000000
00010000
00000100
00010000
00001000
00010000
00000010
,
00010000
00010000
00001000
00001000
01000000
00010000
00100000
01000000
,
20000000
00000000
00000000
30000000
,
01000000
00000000
00100000
00000000
00010000
01000000
00010000
00000000
,
00100000
00001000
00010000
00000000
00011000
00000000
00000100
00000000
,
00001000
00000010
00001000
00000000
00000110
00000000
00000001
00000000
,
00000010
00000000
00000000
00000100
00000000
00000000
00000000
00000000
00000000
00000100
00000000
00000000
00000000
00000000
00000000
00000100
00000000
00000000
00001000
00000000
00000001
00000000
00001000
00000000
,
00000001
00000000
00000110
00000000
00000000
00011000
00000000
00000000
,
01100000
01000000
20020000
30030000
,
00000000
00000000
01100000
00000000
00000000
00011000
00000000
00000000
,
00000110
00000100
00002002
00003003
,
00001001
00000000
00001000
00000000
00000010
00000100
00000010
00000000
,
00001000
00000001
00001000
00000000
00000100
00010000
00000100
00000000
,
00001000
00000000
00000010
00000000
00010000
00001000
00010000
00000000
,
00100000
01000000
00000000
01000000
00000000
01000000
00020000
00000000
,
00130000
00010000
00100000
00010000
00001000
00000100
00001000
00000000
,
00000010
00001000
00000010
00001000
00010000
01000000
00010000
00000000
,
00100000
00100000
01000000
01000000
10000000
10000000
00010000
00010000
,
01000000
00000000
00000000
01000000
00000000
00000000
01000000
00000000
00000000
01000000
00000000
00000000
01000000
00000000
00000000
00000000
,
00002000
00003000
00022000
00033000
,
00000100
00000000
00000000
00000100
00000000
00000000
00000100
00000000
00002200
00000000
00000000
00000000
00003300
00000000
00000000
00000000
,
00000020
00000030
00002002
00003003
,
00000100
00000000
00000000
00000100
00000000
00000000
00000100
00000000
00000202
00000000
00000000
00000000
00000303
00000000
00000000
00000000
,
00000020
00000030
00002020
00003030
,
00010000
00000000
00000000
00010000
00000000
00000000
00010000
00000000
00022000
00000000
00000000
00000000
00033000
00000000
00000000
00000000
,
00200000
00300000
02200000
03300000
,
10000000
00000000
00000000
10000000
00000000
00000000
10000000
00000000
20020000
00000000
00000000
00000000
30030000
00000000
00000000
00000000
,
10000000
01000000
00020000
01030000
,
00200000
00301000
00020000
00030010
,
00000200
00000000
00000301
00000000
00000010
00000100
00001000
00000001
,
00000200
00000000
00000000
00000310
00001000
00000001
00001000
00000100
,
00000010
00000000
00000100
00001000
00000100
00010000
00001000
01000000
,
00100000
00000000
01000000
00010000
01000000
00001000
00010000
00000100
,
00000010
00000000
00000100
00001000
00000010
00000100
00001000
00010000
,
00200000
20300000
30020000
00030000
,
10000000
00000000
00000000
01000000
00000000
00000000
00100000
00000000
00000000
00010000
00000000
00000000
01000000
00000000
00001000
00000000
,
00010000
00000000
00000000
00000100
00000000
00000000
00001000
00000000
00000010
00000000
00001000
00000000
00000100
00000000
00000000
00000000
,
00000010
00000000
00000000
00000010
00000001
00000000
00000000
00000001
00000100
00000000
00000000
00000100
00000010
00000000
00000000
00000000
,
00000000
00001000
00000000
00000000
00000001
00000000
00000000
00000100
00000000
00000000
00001000
00000000
00010000
00000000
00001000
00000000
,
00010000
00000000
00000000
00010000
00000000
00000000
00100000
00000000
10000000
00000000
00000000
10000000
00000000
00000000
01000000
00000000
,
00100000
00010000
00100000
00000000
00001000
00010000
00000010
00001000
,
00000010
00000100
00000001
00001000
00000100
00000010
00000001
00000100
,
00000010
00001000
00000100
00010000
00001000
01000000
00010000
00000000
,
01100000
00000000
10000000
01000000
00100000
00010000
00001000
00000100
,
00000010
00000000
00000001
00000100
00000010
00001000
00010000
01000000
,
00100000
00000000
10000000
01000000
00100000
01000000
00010000
00001000
,
00000010
00000100
00001000
00000001
00000100
00000010
00001000
00000001
,
00000010
00000000
00000100
00010000
00001000
00010000
00100000
01000000
,
00100000
00000000
01000000
00001000
00010000
00001000
00000010
00000100
,
00000010
00000000
00000001
00000100
00001000
00010000
01000000
10000000
,
00100000
00000000
00000000
00100000
00000000
00000000
01000000
00000000
00000000
01000000
00000000
00000000
00010000
00000000
00100000
00000000
,
02000000
00000000
00000000
00000000
,
00000000
00000000
00000000
00000000
,
03000000
00000000
00000000
00000000
;

//--------------- dance-double - forcednature ----------------
#NOTEDATA:;
#STEPSTYPE:dance-double;
#DESCRIPTION:forcednature;
#DIFFICULTY:Hard;
#METER:17;
#RADARVALUES:0,0,0,0,0;
#CREDIT:forcednature;
#NOTES:
00000000
00000000
00000000
00000000
,
00000000
00000000
00000000
00000000
,
00000000
00000000
00000000
00000000
,
00000000
00000000
00000000
00000000
,
00000000
00000000
00000000
00000000
,
00000000
00000000
00000000
00000000
,
00000000
00000000
00000000
00000000
,
00000000
00000000
00000000
00000000
,
00000000
00000000
00000000
00000000
,
00001000
00010000
00001000
00010000
,
00100000
01000000
00100000
01000000
,
00010000
10000000
00010000
10000000
,
01000000
00010000
01000000
00010000
,
00001000
00000010
00001000
00000010
,
00000001
00000100
00000010
00001000
00010000
01000000
00100000
10000000
,
01000000
10000000
01000000
10000000
00010000
01000000
00010000
01000000
00001000
00010000
00001000
00010000
00001000
00010000
00001000
00010000
,
00000100
00000000
00000000
00000000
00001000
00000100
00000010
00000001
00001000
00000000
00000010
00001000
00000200
00000000
00000000
00000000
,
00000310
00000000
00000000
00000000
00000001
00000000
00000100
00000000
00000010
00000000
00010000
00001000
00000000
00010000
00000100
00000000
,
00001000
00000000
00000010
00000000
00010000
00000000
00001000
00000000
00100000
00000000
00010000
00100000
00000000
01000000
10000000
00010000
,
01000000
00000000
00000000
00000000
00100000
00000000
10000000
00000000
00010000
00000000
10000000
01000000
00000000
10000000
00100000
00000000
,
01000000
00000000
00001000
00000000
00010000
00000000
00000100
00001000
00000100
00000000
00000010
00000000
00000001
00000100
00000010
00001000
,
00000001
00000000
00000000
00000000
00000010
00000000
00000100
00000000
00001000
00000000
00000010
00001000
00000000
00000010
00010000
00000000
,
00001000
00000000
00100000
00000000
00010000
00000000
10000000
00100000
00000000
00000000
01000000
00000000
00010000
00000000
01000000
00000000
,
00100000
00000000
00000000
10000000
00010000
00000000
01000000
00001000
00010000
00000000
00000000
00000100
00001000
00000000
00000001
00000100
,
00000010
00001000
00000001
00001000
00000100
00000000
00000010
00000001
00001000
00000100
00000010
00000000
00000100
00001000
00000100
00010000
,
00001000
00000000
00000000
00000000
01000000
00000000
00010000
00000000
00100000
00000000
01000000
10000000
00000000
10000000
00100000
00000000
,
01000000
00000000
00010000
00000000
00100000
00000000
00001000
00000000
00010000
00000000
00000010
00001000
00000000
00000001
00000010
00000100
,
00001000
00000000
00000000
00000000
00000001
00000000
00000100
00000000
00001000
00000000
00010000
00000100
00000000
00000100
00001000
00000000
,
00000010
00000000
00010000
00000000
00001000
00000000
00100000
00010000
10000000
00000000
00100000
00000000
10000000
01000000
00100000
00010000
,
01000000
00010000
01000000
00001000
00010000
00000100
00001000
00000100
,
00000010
00000001
00000100
00001000
00010000
01000000
10000000
00100000
,
01000000
00010000
01000000
00010000
01000000
00001000
01000000
00001000
00010000
00000100
00010000
00000100
00001000
00000100
00001000
00000100
,
00000010
00000000
00000000
00000010
00000000
00000000
00000001
00000100
00000010
00000000
00001000
00000000
00020000
00000000
00000000
00000000
,
01030000
00010000
00100000
00000000
01000000
00010000
00001000
00000010
,
00000100
00001000
00000010
00000000
00000201
00000000
00001300
00010000
,
00100000
01000000
00010000
00000000
12000000
00000000
03010000
00001000
,
00000010
00000000
00000000
00000100
00000000
00000000
00001000
00000000
00000000
00000100
00000000
00000000
00000001
00000000
00000000
00000100
00000000
00000000
00000010
00000000
00000001
00000000
00001000
00000000
,
00000001
00000000
00000101
0000MMMM
00000000
00011000
MMMMMMMM
00000000
,
11000000
00000000
01100000
00000000
10020000
00000000
01030000
00010000
,
00100000
00000000
11000000
MMMM0000
00000000
00011000
MMMMMMMM
00000000
,
00000201
00000000
00000000
00000000
00000010
00000000
00000000
00000000
00000301
00000100
00000010
00001000
00000001
00000000
00000010
00000100
,
00001000
00000010
00000001
00000010
00000100
00000001
00000010
00000100
,
00010000
00001000
00100000
01000000
10000000
00010000
01000000
00100000
,
00020000
00000000
00031000
00000010
00000100
00001000
00000001
00000100
,
00000010
00000000
00010000
00000000
00001000
00000000
00010000
00000000
01000000
00000000
00100000
00010000
00200000
00000000
00000000
00000000
,
01300000
00010000
01000000
00010000
00001000
00000100
00001000
00000100
,
00000010
00010000
00000010
00010000
00001000
00100000
00001000
00100000
,
00010000
10000000
01000000
00100000
00010000
10000000
00010000
01000000
00010000
01000000
00001000
00010000
00000100
00001000
00000100
00000010
,
00000001
00000000
00000000
00000001
00000000
00000000
00000001
00000000
00000000
00000001
00000000
00000001
00000100
00000000
00000001
00001000
,
00000020
00000030
00022000
00033000
,
00100000
00000000
00000000
00100000
00000000
00000000
00100000
00000000
20020000
00000000
00000000
00000000
30030000
00000000
00000000
00000000
,
00002000
00000000
00000000
00000000
00003000
00000000
01000000
00000000
00010000
00100000
01000000
10000000
00100000
00000000
01000000
00010000
,
01000000
00000000
00000000
01000000
00000000
00000000
01000000
00001000
00010000
00000000
00000100
00000000
00001000
00000000
00000100
00000010
,
00000002
00000000
00000003
00000100
00002002
00000000
00003003
00000000
,
00010000
00000000
00000000
00010000
00000000
00000000
00010000
00000000
02002000
00000000
00000000
00000000
03003000
00000000
00000000
00000000
,
00220000
00000000
00000000
00000000
00330000
00000000
10000000
00000000
00010000
01000000
00010000
01000000
00001000
00010000
00000100
00001000
,
00000100
00000000
00000000
00000100
00000010
00000000
00000001
00001000
00000001
00000000
00000100
00000000
00001000
00000000
00010000
00000000
,
00012000
00003100
00021000
01030000
,
00012000
00003010
00021000
00130000
,
00012000
00000000
00000000
00000000
01003000
00000000
00000000
00000000
00001000
00010000
00001000
00010000
00001000
01000000
00010000
01000000
,
00200000
00000000
00000000
00000000
10300000
00000000
01000000
00100000
00010000
00000000
00010000
00000000
01000000
00000000
00001000
00000000
,
00010000
00000100
00001000
00000010
00001000
00000100
00010000
00001000
,
01000000
00000000
00010000
00000000
00100000
00000000
00010000
00000000
01000000
00000000
00001000
00000000
00010000
00000000
00000100
00001000
,
00000100
00000010
00000001
00001000
00000001
00000100
00000010
00001000
00000010
00010000
00001000
00100000
00010000
00100000
01000000
10000000
,
00200000
02300000
03020000
00030000
,
00100000
00000000
01000000
10000000
00000000
10000000
00010000
00000000
00010000
01000000
00000000
01000000
00001000
00010000
00000100
00001000
,
00000100
00000000
00000010
00000001
00000000
00000001
00000100
00000000
00000010
00000000
00001000
00000000
00000100
00001000
00000100
00010000
,
00001000
00000000
01000000
00010000
00100000
00000000
01000000
10000000
00100000
00000000
01000000
00001000
00010000
00000000
00001000
01000000
,
00010000
10000000
00000000
10000000
01000000
00000000
01000000
00100000
00000000
00100000
00010000
00000000
01000000
00001000
00010000
00001000
,
00100000
00000000
00000000
00010000
01000000
00000000
00001000
00010000
00000010
00000000
00000000
00001000
00000100
00000000
00010000
00001000
,
00100000
00000000
01000000
10000000
00000000
10000000
00100000
00000000
01000000
00010000
01000000
00001000
00010000
00000100
00001000
00000100
,
00000010
00000001
00001000
00000001
00000100
00000010
00001000
00000000
00000100
00010000
00001000
00010000
00000010
00001000
00000100
00000000
,
00010000
00001000
00000000
01000000
00001000
00000000
00010000
00001000
00000000
00100000
00001000
00000000
01000000
00010000
10000000
00100000
,
01000000
00000000
00010000
00100000
01000000
00000000
00100000
00010000
00100000
00001000
00010000
00000010
00001000
00000010
00000100
00000001
,
00001000
00000000
00000010
00010000
00000000
00010000
00001000
00000000
00100000
00010000
00100000
00000000
01000000
10000000
00010000
10000000
,
00100000
01000000
00010000
01000000
00001000
00010000
00000100
00001000
00000100
00000010
00000001
00001000
00000001
00000100
00000010
00001000
,
00000100
00010000
00000000
00001000
00010000
00000000
00000010
00010000
00000000
00001000
00010000
00000000
00000100
00001000
00000100
00000010
,
00000001
00000000
00000100
00000010
00001000
00000001
00001000
00000100
00010000
00000000
00001000
01000000
00010000
01000000
00100000
10000000
,
00010000
00000000
00100000
01000000
10000000
00010000
01000000
00100000
10000000
00000000
00010000
01000000
00001000
00010000
00000100
00001000
,
00000100
00000010
00000001
00000010
00000100
00001000
00000001
00000100
00000010
00001000
00000010
00010000
00001000
00100000
00010000
00100000
,
01000000
10000000
00000000
10000000
00100000
00000000
00100000
01000000
00000000
01000000
00001000
00000000
00010000
00000100
00001000
00000010
,
00000200
00000000
00000000
00000000
,
00000000
00000000
00000000
00000000
,
00000300
00000000
00000000
00000000
;
