#VERSION:0.83;
#TITLE:Clumsy thoughts;
#SUBTITLE:;
#ARTIST:猫叉Master feat. *spiLa*;
#TITLETRANSLIT:;
#SUBTITLETRANSLIT:;
#ARTISTTRANSLIT:Nekomata Master feat. *spiLa*;
#GENRE:;
#CREDIT:;
#MUSIC:Clumsy thoughts.ogg;
#BANNER:Clumsy thoughts.png;
#BACKGROUND:Clumsy thoughts-bg.png;
#CDTITLE:./CDTitles/REFLEC BEAT colette.png;
#SAMPLESTART:75.189;
#SAMPLELENGTH:15.000;
#SELECTABLE:YES;
#OFFSET:2.262;
#BPMS:0.000=153.000;
#STOPS:197.000=0.784;
#TIMESIGNATURES:0.000=4=4,
196.000=2=4,
198.000=4=4
;
#BGCHANGES:0.000=../BGAs/10di.mp4=1.000=0=0=0=StretchNoLoop====,
99999.000=-nosongbg-=1.000=0=0=0=StretchNoLoop====
;
#FGCHANGES:;

//--------------- dance-single - forcednature ----------------
#NOTEDATA:;
#STEPSTYPE:dance-single;
#DESCRIPTION:forcednature;
#DIFFICULTY:Beginner;
#METER:1;
#RADARVALUES:0,0,0,0,0;
#CREDIT:forcednature;
#NOTES:
0000
0000
0000
0000
,
0000
0000
0000
0000
,
0000
0000
0000
0000
,
0000
0000
0000
0000
,
0000
0000
0000
0000
,
0000
0000
0000
0000
,
0001
0000
0000
0000
,
0000
0000
0000
0000
,
1000
0000
0000
0000
,
0010
0000
0000
0000
,
0000
0000
0000
0000
,
0100
0000
0000
0000
,
0000
0000
0000
0000
,
0001
0000
0000
0000
,
0000
0000
0000
0000
,
1000
0000
0000
0000
,
0000
0000
0000
0000
,
0001
0000
0000
0000
,
0010
0000
0000
0000
,
0100
0000
0000
0000
,
0000
0000
0000
0000
,
1000
0000
0000
0000
,
0000
0000
0000
0000
,
0001
0000
0000
0000
,
0000
0000
0000
0000
,
1000
0000
0000
0000
,
0000
0000
0000
0000
,
0010
0000
0000
0000
,
0000
0000
0000
0000
,
0100
0000
0000
0000
,
0000
0000
0000
0000
,
0001
0000
0000
0000
,
1000
0000
0000
0000
,
0001
0000
0000
0000
,
0000
0000
0000
0000
,
0010
0000
0000
0000
,
0000
0000
0000
0000
,
0100
0000
0000
0000
,
0000
0000
0000
0000
,
1000
0000
0000
0000
,
0000
0000
0000
0000
,
0001
0000
0000
0000
,
0000
0000
0000
0000
,
0100
0000
0000
0000
,
0000
0000
0000
0000
,
0010
0000
0000
0000
,
0000
0000
0000
0000
,
1000
0000
0000
0000
,
0001
0000
0000
0000
,
0000
0000
1001
0000
,
0000
0000
0000
0000
,
0000
0000
0001
0000
,
0000
0000
0100
0000
,
0000
0000
0001
0000
,
0000
0000
1000
0000
,
0000
0000
0100
0000
,
0000
0000
0010
0000
,
0000
0000
1001
0000
,
0000
0000
0000
0000
,
0000
0000
1000
0000
,
0000
0100
0000
0000
,
0000
0000
1001
0000
,
0000
0000
0000
0000
,
0000
0000
0110
0000
,
0000
0000
0000
0000
,
0000
0000
0001
0000
,
0000
0000
0000
0000
,
0000
0000
1000
0000
,
0000
0000
0000
0000
,
0000
0000
0010
0000
,
0000
0000
0100
0000
,
0000
0000
0001
0000
,
0000
0000
0000
0000
,
0000
0000
0000
0000
,
0000
1001
0000
0000
;

//--------------- dance-single - forcednature ----------------
#NOTEDATA:;
#STEPSTYPE:dance-single;
#DESCRIPTION:forcednature;
#DIFFICULTY:Easy;
#METER:4;
#RADARVALUES:0,0,0,0,0;
#CREDIT:forcednature;
#NOTES:
0000
0000
0000
0000
,
0000
0000
0000
0000
,
0000
0000
0000
0000
,
0000
0000
0000
0000
,
0000
0000
0000
0000
,
0000
0000
0000
0000
,
0001
0000
1000
0000
,
1000
0000
0001
0000
,
0100
0000
0010
0000
,
2002
0000
0000
0000
,
3003
0000
0001
0001
,
1000
0000
0001
0000
,
1000
0000
1000
0000
,
0001
0000
0010
0000
,
0100
0000
0010
0000
,
0001
0000
1000
0000
,
0001
0000
0001
0000
,
0010
0000
0100
0000
,
1001
0000
0000
0000
,
1000
0000
0100
0000
,
1000
0000
0010
0000
,
0100
0000
0001
0000
,
0010
0000
0001
0000
,
0001
0000
0100
0000
,
0010
0000
1000
0000
,
0001
0000
0010
0000
,
0100
0000
0010
0000
,
0001
0000
1000
0000
,
0100
0000
1000
0000
,
1000
0000
0010
0000
,
0100
0000
0010
0000
,
1000
0000
0001
0000
,
0200
0000
0300
0000
,
0010
0000
1000
0000
,
0010
1000
0010
0000
,
1000
0000
0100
0000
,
1000
0100
1000
0000
,
0001
0000
0100
0000
,
0001
0100
0001
0000
,
0010
0000
0001
0000
,
0010
0001
0010
0000
,
0100
0000
1000
0000
,
0010
1000
0010
0000
,
0100
0000
0001
0000
,
0010
0001
0010
0000
,
0100
0000
1000
0000
,
0001
0010
0001
0000
,
0100
0000
0000
0000
,
0010
1000
0010
1000
,
0000
0000
0000
0000
0002
0003
0000
0000
1001
0000
0000
0000
0000
0000
0000
0000
,
1000
0000
0100
0000
,
1000
0000
0001
0010
,
0001
0000
0010
0000
,
0100
0000
1001
0000
,
0001
0000
0100
0001
,
0100
0000
0010
0000
,
1000
0000
0001
1000
,
0001
0000
1001
0000
,
1000
0000
0100
1000
,
0100
0000
0000
0000
0010
0000
0000
0010
,
0000
0000
0020
0000
0000
0030
0000
0000
,
0001
1000
2002
0000
,
3003
0000
0001
0000
,
0100
0000
2002
0000
,
3003
0000
1000
0001
,
1000
0000
0010
0000
,
0100
0000
0001
0000
,
0100
0000
0010
0000
,
1000
0000
0001
0000
,
1000
0000
0100
0000
,
0010
0000
0001
0000
,
0010
0000
0100
0000
,
1000
0000
0002
0000
,
0003
0000
0100
0000
,
0010
0000
0000
0000
2000
0000
0000
0000
0000
0000
0000
3000
0000
0000
0000
0000
;

//--------------- dance-single - forcednature ----------------
#NOTEDATA:;
#STEPSTYPE:dance-single;
#DESCRIPTION:forcednature;
#DIFFICULTY:Medium;
#METER:8;
#RADARVALUES:0,0,0,0,0;
#CREDIT:forcednature;
#NOTES:
0000
0000
0000
0000
,
0000
0000
0000
0000
,
0000
0000
0000
0000
,
0000
0000
0000
0000
,
0000
0000
0000
0000
,
0000
0000
0000
0000
,
0002
0100
0003
0001
,
2000
0100
3000
1000
,
0020
0100
0030
0010
,
2002
0000
3003
0000
,
0100
0100
0010
0110
,
1000
0001
0100
0001
,
1000
0000
0001
0000
0010
0100
0010
0000
,
0001
0000
1000
0000
0100
1000
0100
0000
,
0010
0000
0001
0000
0010
0001
0010
0000
,
0100
0000
1000
0000
0001
1000
0001
0000
,
0100
0000
0001
0000
1000
0001
1000
0000
,
0010
0100
0001
0100
,
1001
0000
0000
0000
0100
0010
0010
0000
,
1001
0000
1000
0100
1000
0000
0001
0000
,
0010
0000
0001
0100
0001
0000
1000
0000
,
0010
0000
0100
0010
0100
0000
0001
0000
,
0010
0000
0100
0010
0100
0000
1000
0000
,
1001
0000
0001
0000
0100
0001
0100
0000
,
0010
1010
0100
0101
,
1001
0000
1000
0010
1000
0000
0001
0000
,
0100
0000
0001
0010
0001
0000
1000
0000
,
0100
0000
0010
0100
0010
0000
0001
0000
,
1000
0000
0010
0100
0010
0000
1000
0000
,
1001
0000
0001
0000
0010
0001
0010
0000
,
0100
0000
1000
0000
0100
1000
0100
0000
,
1000
1010
0001
0011
,
0200
1000
0301
0000
,
1000
0010
1000
0010
,
0100
0000
0010
1000
0010
0000
0100
0000
,
0001
0010
0100
0010
,
0001
1001
0220
0330
,
0001
0100
0010
0100
,
0001
0000
0100
0010
0100
0000
0001
0000
,
1000
0100
0010
0100
,
1000
1001
0220
0330
,
0001
0010
0100
0010
,
0001
0000
0010
0100
0010
0000
0100
0000
,
1000
0010
0100
0010
,
1000
1001
0220
0330
,
0001
1000
0100
1000
,
0001
0000
1000
0100
1000
0000
0001
0000
,
0200
0010
0300
0100
,
0001
1000
0100
0010
,
1001
0000
0000
0000
0220
0330
0000
0000
2002
0000
0000
0000
3003
0000
0000
0000
,
0001
0100
0000
0010
0000
1000
0000
0001
,
1000
0000
0100
0000
0010
0000
0001
0100
,
0000
0001
0020
0000
0000
0000
0130
0000
,
1000
0001
1000
0000
1020
0000
0100
0000
,
0000
0130
0010
1000
,
0001
0010
0001
0000
0100
0001
0100
0000
,
0010
1000
0010
0000
1000
0000
1100
0000
,
0001
0010
0001
0000
2002
0000
3003
0000
,
1000
0000
0010
0200
0000
0000
0301
0000
,
1000
0100
1000
0000
1001
0000
0000
0110
,
0000
2002
3003
0001
,
0100
0010
0100
0000
0002
0000
0010
0000
,
1000
0103
0001
1000
,
0100
0010
0100
0000
2000
0000
0010
0000
,
0001
3100
1000
0001
,
0100
0010
0100
0000
0001
0000
0010
0000
,
0100
1000
0100
0000
1000
0000
0010
0000
,
0100
0001
0100
0000
0010
0000
1000
0000
,
0001
0010
0001
0000
0100
0010
0100
0000
,
0001
0010
0001
0000
1000
0000
0010
0000
,
1000
0100
1000
0000
0001
0000
0010
0000
,
0001
0100
0001
0000
1000
0000
0100
0000
,
0010
0001
0010
0000
0100
1000
0000
0010
,
0000
1000
0000
0010
0000
1000
0100
0000
,
0010
0000
0000
0000
0001
0000
0002
0000
0000
0000
0000
0003
0000
0000
0000
0000
;

//--------------- dance-single - forcednature ----------------
#NOTEDATA:;
#STEPSTYPE:dance-single;
#DESCRIPTION:forcednature;
#DIFFICULTY:Hard;
#METER:13;
#RADARVALUES:0,0,0,0,0;
#CREDIT:forcednature;
#NOTES:
0000
0000
0000
0000
,
0000
0000
0000
0000
,
0000
0000
0000
0000
,
0000
0000
0000
0000
,
0000
0000
0000
0000
,
0000
0000
0000
0000
,
1002
0000
0100
0000
0000
0010
0013
0000
,
2001
0000
0100
0000
0000
0010
3010
0000
,
0210
0000
0001
0000
0000
0010
0310
0100
,
1001
0000
1000
0001
0000
0100
0001
0010
,
0000
0000
0100
0000
1000
0000
0010
0000
1000
0000
0001
0010
0001
0000
0100
0000
,
0010
1000
0100
1000
0001
0100
0001
0020
,
0000
0130
1000
0010
0100
1000
0100
0001
,
0000
0000
0010
0000
0001
0000
0100
0000
0010
1000
0010
0000
0100
0000
0001
0000
,
1000
0000
0100
0000
0010
0001
0010
0000
0001
0000
0100
0000
1000
0000
0100
0000
,
0010
0000
1000
0010
1000
0000
0001
0000
0010
0000
0100
0000
1000
0000
0200
0000
,
0000
0000
1300
0001
1000
0000
0010
0000
0100
0000
0001
0000
0010
0000
0100
0000
,
0000
0000
0010
0000
0001
0000
1000
0000
0001
0100
0001
0000
1000
0000
0010
0000
,
1001
0000
0000
0000
0000
0000
1000
0000
1000
0000
0001
0100
0001
0000
0010
0000
,
0200
0000
1300
0001
0100
0000
0010
1000
,
0001
0010
0100
0010
1000
0000
0010
0001
,
2000
0000
3010
0100
0001
0000
1000
0010
,
0001
0010
0100
0010
1000
0001
0010
0001
,
0200
0000
0010
0000
1300
0100
0001
0010
,
0001
0000
0101
0000
1000
0010
0001
0000
,
0210
0000
0301
1000
0010
0000
0100
0001
,
1000
0000
0010
0001
0010
0000
0100
0001
,
0020
0000
0130
1000
0001
0000
0100
0010
,
1000
0001
0010
0001
0100
1000
0100
0010
,
2000
0000
0100
0000
3001
1000
0010
0001
,
0010
0000
0000
0000
0110
0000
0000
0000
0100
0000
0001
0000
1000
0000
0000
1000
,
0100
0000
1001
0000
0001
0100
1000
0100
,
0020
0000
0001
0000
1030
0010
0010
0100
,
0001
0010
0001
0100
0010
1000
0100
1000
,
0001
0010
1000
0010
0100
0000
1000
0001
,
0100
0001
0010
0001
1000
0100
1000
0010
,
0100
0000
0000
0000
0110
0000
0000
0000
1001
0000
0000
0000
1000
0000
0100
1000
,
0100
0010
0100
1000
0001
0010
0001
0100
,
0010
0001
0010
1000
0001
0100
1000
0100
,
0010
1000
0100
1000
0001
0100
0001
0010
,
0100
0000
0000
0000
0110
0000
0000
0000
0010
0000
1001
0000
0000
0000
1000
0010
,
1000
0001
0100
0001
0010
0100
1000
0100
,
0010
1000
0010
0001
1000
0000
0001
0100
,
0010
1000
0100
1000
0001
0100
1000
0100
,
0010
0000
0110
0000
1001
0000
0001
0010
,
0100
1000
0010
1000
0001
0010
0100
0010
,
0001
0100
1000
0100
0010
1000
0001
1000
,
0200
0000
0010
0000
1300
0000
0001
1000
,
0010
0101
1001
1100
,
0010
0000
0000
0000
2002
3003
0000
0000
1020
0000
0000
0000
0001
0000
0000
0000
,
0130
0001
0010
0001
1000
0010
1000
0100
,
0010
0000
0001
0000
0100
0000
0010
0000
1000
0010
1000
0000
0001
0000
0100
0001
,
0100
0001
0020
0000
0100
0000
0031
0010
,
0100
1000
0010
0100
0201
0000
0010
0000
,
1300
0100
0010
0100
0001
0000
1000
0001
,
0010
0000
0001
0000
0100
0000
0000
0000
0010
0000
1000
0010
1000
0000
0001
0000
,
0010
0000
0100
0010
0100
0000
1000
0000
1001
0000
0000
0000
0001
0000
0100
0000
,
1000
0010
0001
0000
0021
0000
1000
0000
,
0130
1000
0010
1000
0001
0010
0001
0100
,
0010
0000
1000
0000
0100
0000
0010
0000
0001
0100
0001
0000
0001
0000
1000
0100
,
1000
1000
0020
0000
0001
0000
0130
0010
,
1000
0001
1000
0100
1200
0000
0001
0000
,
0310
0001
1000
0001
0100
0000
0010
1000
,
0100
1000
0010
0100
0201
0000
1000
0000
,
0310
0100
0001
1000
1001
0000
1000
0100
,
0001
0010
1000
0000
0001
0100
0010
0100
,
1000
0100
0001
1000
0001
0010
0100
0010
,
1000
0010
0001
1000
0010
0100
1000
0100
,
0001
0010
0001
0100
0000
0010
1000
0100
,
0000
0010
0001
0100
0010
1000
0100
1000
,
0001
0000
0010
0100
0010
0000
0100
0000
1000
0000
0001
0000
0100
0000
0001
0000
,
0010
0000
0100
1000
0100
0000
1000
0000
0001
0000
0100
0000
1000
0000
0100
0000
,
0010
1000
0001
0010
0000
0001
0100
1000
,
0000
0001
0010
1000
0000
0001
0100
0001
,
1000
0000
0100
1000
0100
0000
0020
0000
0000
0000
0000
0030
0000
0000
0000
0000
;

//--------------- dance-double - forcednature ----------------
#NOTEDATA:;
#STEPSTYPE:dance-double;
#DESCRIPTION:forcednature;
#DIFFICULTY:Easy;
#METER:3;
#RADARVALUES:0,0,0,0,0;
#CREDIT:forcednature;
#NOTES:
00000000
00000000
00000000
00000000
,
00000000
00000000
00000000
00000000
,
00000000
00000000
00000000
00000000
,
00000000
00000000
00000000
00000000
,
00000000
00000000
00000000
00000000
,
00000000
00000000
00000000
00000000
,
00002000
00000000
00003000
00000000
,
00020000
00000000
00030000
00000000
,
00000200
00000000
00000300
00000000
,
00000020
00000000
00000000
00000000
,
00000000
00000000
00000000
00000030
,
00000001
00000000
00000000
00000000
,
00001000
00000000
00000100
00000000
,
00001000
00000000
00000000
00000000
,
00000100
00000000
00010000
00000000
,
00001000
00000000
00000000
00000000
,
01000000
00000000
00010000
00000000
,
01000000
00000000
00000000
00000000
,
10010000
00000000
00000000
00000000
,
10000000
00000000
00000000
00000000
,
01000000
00000000
00100000
00000000
,
00010000
00000000
00000000
00000000
,
00100000
00000000
00001000
00000000
,
00010000
00000000
00000000
00000000
,
00000010
00000000
00001000
00000000
,
00000001
00000000
00000000
00000000
,
00001000
00000000
00000001
00000000
,
00000100
00000000
00000000
00000000
,
00000010
00000000
00010000
00000000
,
00001000
00000000
00000000
00000000
,
00100000
00000000
00010000
00000000
,
10000000
00000000
00010000
00000000
,
02000000
00000000
03000000
00000000
,
00100000
00000000
00100000
00000000
,
00100000
00000000
00000000
00000000
,
10000000
00000000
10000000
00000000
,
01000000
01000000
01000000
00000000
,
00100000
00000000
00100000
00000000
,
00100000
00000000
00000000
00000000
,
00001000
00000000
00001000
00000000
,
00010000
00010000
00010000
00000000
,
00000010
00000000
00000010
00000000
,
00000010
00000000
00000000
00000000
,
00001000
00000000
00001000
00000000
,
00000001
00000001
00000001
00000000
,
00000010
00000000
00000010
00000000
,
00000010
00000000
00000000
00000000
,
00000200
00000000
00000300
00000000
,
00010000
00000000
00001000
00000000
,
00000000
00011000
00022000
00000000
,
00033000
00000000
00001000
00000000
,
01000000
00000000
00010000
00000000
,
10000000
00000000
00010000
00000000
,
00100000
00000000
10010000
00000000
,
00000000
00000000
00010000
00000000
,
01000000
00000000
00001000
00000000
,
00000000
00000000
00010000
00000000
,
00001000
00000000
00022000
00000000
,
00033000
00000000
00001000
00000000
,
00010000
00000000
00000100
00000000
,
00000000
00000220
00000000
00000330
,
00000000
00000000
00002002
00000000
,
00000000
00000000
00003003
00000000
,
00010000
00000000
00022000
00000000
,
00000000
00000000
00000000
00000000
,
00033000
00000000
01000000
00000000
,
00000000
00000000
00010000
00000000
,
01000000
00000000
00010000
00000000
,
00000000
00000000
00100000
00000000
,
00001000
00000000
00100000
00000000
,
00000000
00000000
00001000
00000000
,
00010000
00000000
00001000
00000000
,
00000000
00000000
00020000
00000000
,
00030000
00000000
00000010
00000000
,
00000000
00000000
00000000
00000000
00002002
00000000
00000000
00000000
00000000
00000000
00000000
00003003
00000000
00000000
00000000
00000000
;

//--------------- dance-double - forcednature ----------------
#NOTEDATA:;
#STEPSTYPE:dance-double;
#DESCRIPTION:forcednature;
#DIFFICULTY:Medium;
#METER:8;
#RADARVALUES:0,0,0,0,0;
#CREDIT:forcednature;
#NOTES:
00000000
00000000
00000000
00000000
,
00000000
00000000
00000000
00000000
,
00000000
00000000
00000000
00000000
,
00000000
00000000
00000000
00000000
,
00000000
00000000
00000000
00000000
,
00000000
00000000
00000000
00000000
,
00002000
01000000
00003000
00001000
,
00020000
00000100
00030000
00010000
,
00002000
00100000
00003000
00001000
,
00022000
00000000
00033000
00000000
,
01000000
01000000
00010000
00100000
,
01000000
10000000
01000000
00010000
,
00001000
00000000
00010000
00000000
00000100
00001000
00000100
00000000
,
00001000
00000000
00000010
00000000
00000100
00000010
00000100
00000000
,
00000010
00000000
00000001
00000000
00000010
00001000
00000010
00000000
,
00010000
00000000
00001000
00000000
00100000
00010000
00100000
00000000
,
00001000
00000000
00010000
00000000
00000010
00001000
00000010
00000000
,
00010000
00001000
00000100
00001000
,
00011000
00000000
00000000
00000000
01000000
00010000
00010000
00000000
,
10000000
00000000
01000000
00100000
01000000
00000000
10000000
00000000
,
00010000
00000000
01000000
00100000
01000000
00000000
00001000
00000000
,
00010000
00000000
00000100
00001000
00000100
00000000
00010000
00000000
,
00000010
00000000
00001000
00000001
00001000
00000000
00000100
00000000
,
00000110
00000000
00000010
00000000
00000001
00001000
00000001
00000000
,
00000200
00002300
00023000
00130000
,
01100000
00000000
01000000
00010000
01000000
00000000
00100000
00000000
,
10000000
00000000
01000000
10000000
01000000
00000000
00010000
00000000
,
00001000
00000000
00010000
00001000
00010000
00000000
00000100
00000000
,
00001000
00000000
00000001
00001000
00000001
00000000
00000100
00000000
,
00000110
00000000
00000010
00000000
00001000
00000010
00001000
00000000
,
00000100
00010000
00001000
00100000
,
00010000
00101000
00001000
00010010
,
00020000
00000100
00030010
00000000
,
00010000
00001000
01000000
00001000
,
00010000
00000000
00001000
00100000
00001000
00000000
00010000
00000000
,
00000100
00010000
00000010
00010000
,
00001000
00000010
00000220
00000330
,
00000100
00010000
00001000
00010000
,
00000010
00000000
00010000
00001000
00010000
00000000
00001000
00000000
,
01000000
00001000
00010000
00001000
,
00100000
01000000
02200000
03300000
,
00100000
00010000
01000000
00010000
,
00100000
00000000
00001000
00010000
00001000
00000000
00010000
00000000
,
00000010
00001000
00000100
00001000
,
00000010
00000100
00000220
00000330
,
00000010
00010000
00001000
00010000
,
00000100
00000000
00010000
00001000
00010000
00000000
00100000
00000000
,
02000000
00000000
03000000
00010000
,
00200000
00302000
00023000
00030020
,
00000130
00000000
00000000
00000000
00002002
00003003
00000000
00000000
00002200
00000000
00000000
00000000
00003300
00000000
00000000
00000000
,
00000100
00010000
00000000
00001000
00000000
01000000
00000000
00010000
,
10000000
00000000
01000000
00000000
10000000
00000000
00100000
10000000
,
00000000
00010000
00200000
00000000
00000000
00000000
01300000
00000000
,
00100000
00010000
00100000
00000000
00022000
00000000
00000000
00000000
,
00000000
00033000
00010000
00000010
,
00001000
00000010
00001000
00000000
00000001
00000000
00000010
00000000
,
00000100
00010000
00011000
00011000
,
00001000
01000000
00001000
00000000
00022000
00000000
00033000
00000000
,
00010000
00000000
00001000
02000000
00000000
00000000
03100000
00000000
,
10000000
00010000
10000000
00000000
01000000
00000000
00000000
01100000
,
00000000
20020000
30030000
00010000
,
01000000
00001000
01000000
00000000
00022000
00000000
00000000
00000000
,
00000000
00033000
00010000
00000100
,
00001000
00000100
00001000
00000000
00002002
00000000
00000000
00000000
,
00000000
00003003
00001000
00000100
,
00010000
00001000
00010000
00000000
00000010
00000000
00001000
00000000
,
00000100
00001000
00000100
00000000
00010000
00000000
00001000
00000000
,
01000000
00010000
01000000
00000000
00100000
00000000
10000000
00000000
,
00010000
00100000
00010000
00000000
01000000
00010000
01000000
00000000
,
00010000
00100000
00010000
00000000
01000000
00000000
00001000
00000000
,
00010000
00000010
00010000
00000000
00000100
00000000
00001000
00000000
,
00000100
00000010
00000100
00000000
00001000
00000000
00000001
00000000
,
00000100
00000001
00000100
00000000
00000000
00000020
00000000
00000030
,
00000000
00000020
00000000
00000030
00000000
00010000
00001000
00000000
,
00100000
00000000
00000000
00000000
00010000
00000000
20000000
00000000
00000000
00000000
00000000
30000000
00000000
00000000
00000000
00000000
;

//--------------- dance-double - forcednature ----------------
#NOTEDATA:;
#STEPSTYPE:dance-double;
#DESCRIPTION:forcednature;
#DIFFICULTY:Hard;
#METER:13;
#RADARVALUES:0,0,0,0,0;
#CREDIT:forcednature;
#NOTES:
00000000
00000000
00000000
00000000
,
00000000
00000000
00000000
00000000
,
00000000
00000000
00000000
00000000
,
00000000
00000000
00000000
00000000
,
00000000
00000000
00000000
00000000
,
00000000
00000000
00000000
00000000
,
00020100
00000000
00001000
00000000
00000000
00000010
00030010
00000000
,
01002000
00000000
00010000
00000000
00000000
00100000
00103000
00000000
,
00020010
00000000
00001000
00000000
00000000
00000100
00030100
00010000
,
00001000
00000000
00000010
00000001
00000000
00000100
00000001
00000010
,
00000000
00000000
00000100
00000000
00010000
00000000
00001000
00000000
00100000
00000000
01000000
00100000
01000000
00000000
10000000
00000000
,
00100000
01000000
00010000
01000000
00001000
00010000
00000100
00002000
,
00000000
00003010
00000100
00000001
00000010
00001000
00010000
01000000
,
00000000
00000000
00100000
00000000
00010000
00000000
01000000
00000000
00100000
10000000
00100000
00000000
01000000
00000000
00010000
00000000
,
00100000
00000000
00001000
00000000
00010000
00000010
00010000
00000000
00000010
00000000
00000100
00000000
00000001
00000000
00000100
00000000
,
00000010
00000000
00001000
00000001
00001000
00000000
00000100
00000000
00010000
00000000
00001000
00000000
00100000
00000000
00020000
00000000
,
00000000
00000000
01030000
00010000
01000000
00000000
00100000
00000000
10000000
00000000
01000000
00000000
00100000
00000000
00001000
00000000
,
00000000
00000000
00010000
00000000
00000010
00000000
00001000
00000000
00000010
00000100
00000010
00000000
00001000
00000000
00000001
00000000
,
00001001
00000000
00000000
00000000
00000000
00000000
00001000
00000000
00001000
00000000
00000100
00010000
00000100
00000000
00001000
00000000
,
00000020
00000000
00000130
00001000
00010000
00000000
00100000
10000000
,
00010000
10000000
01000000
00010000
00001000
00000000
00100000
00010000
,
02000000
00000000
03001000
00010000
00000010
00000000
00000100
00001000
,
00000100
00000001
00000010
00000001
00001000
00000100
00000010
00001000
,
00020000
00000000
00000010
00000000
00031000
00010000
00100000
01000000
,
00100000
00000000
10010000
00000000
10000000
01000000
00010000
00000000
,
00012000
00000000
00003010
00000100
00001000
00000000
00000001
00000100
,
00001000
00000000
00010000
00100000
10000000
00000000
01000000
00010000
,
00002000
00000000
01003000
00010000
00100000
00000000
01000000
00010000
,
00001000
00000010
00000100
00010000
00001000
00000100
00000001
00000010
,
00000200
00000000
00001000
00000000
00010300
00000100
00001000
00000010
,
00010000
00000000
00000000
00000000
00011000
00000000
00000000
00000000
00001000
00000000
00010000
00000000
00100000
00000000
00000000
00100000
,
10000000
00000000
10010000
00000000
00010000
00100000
10000000
00100000
,
02000000
00000000
00010000
00000000
13000000
01000000
01000000
00100000
,
00010000
00001000
00000100
00001000
00000010
00000001
00000010
00000100
,
00000001
00000010
00000001
00001000
00000010
00000000
00000100
00001000
,
00010000
00001000
01000000
00010000
00100000
00010000
10000000
00100000
,
10000000
00000000
00000000
00000000
11000000
00000000
00000000
00000000
00110000
00000000
00000000
00000000
00001000
00000000
00010000
00001000
,
00010000
00000010
00001000
00000010
00000100
00001000
00010000
00100000
,
01000000
00010000
10000000
00010000
00100000
01000000
10000000
01000000
,
00010000
00001000
00010000
00000010
00001000
00000010
00000100
00001000
,
00010000
00000000
00000000
00000000
00011000
00000000
00000000
00000000
01000000
00000000
10010000
00000000
00000000
00000000
00010000
00100000
,
00010000
00100000
01000000
10000000
01000000
00010000
00001000
00010000
,
00000010
00001000
00000010
00000100
00001000
00000000
00000100
00000001
,
00000010
00000001
00001000
00000010
00001000
00010000
01000000
00010000
,
00100000
00000000
00101000
00000000
00010100
00000000
00000100
00010000
,
00001000
00010000
00100000
01000000
00010000
01000000
00001000
00100000
,
00010000
00001000
00000100
00000010
00000001
00001000
00000010
00001000
,
00020000
00000000
01000000
00000000
00130000
00000000
00010000
10000000
,
00100000
00110000
00011000
00010100
,
00000010
00000000
00000000
00000000
00002002
00003003
00000000
00000000
00020100
00000000
00000000
00000000
00001000
00000000
00000000
00000000
,
00030010
00010000
00001000
00010000
00100000
01000000
00100000
10000000
,
00010000
00000000
00100000
00000000
01000000
00000000
00100000
00000000
00001000
00010000
00001000
00000000
00010000
00000000
00000100
00001000
,
00000100
00000010
00000002
00000000
00000100
00000000
00001003
00000001
,
00000010
00001000
00010000
01000000
01200000
00000000
00010000
00000000
,
00301000
00100000
00010000
00001000
00000100
00000000
00010000
00001000
,
00000010
00000000
00000001
00000000
00000100
00000000
00000000
00000000
00000010
00000000
00001000
00000010
00001000
00000000
00000100
00000000
,
00010000
00000000
00001000
00010000
00001000
00000000
01000000
00000000
01010000
00000000
00000000
00000000
00010000
00000000
00100000
00000000
,
00001000
00000010
00000100
00000000
00020100
00000000
00001000
00000000
,
00130000
01000000
00100000
10000000
00010000
00100000
01000000
00100000
,
00001000
00010000
00000010
00001000
00001100
00000000
00010000
00011000
,
00000000
01000000
01020000
00000000
00100000
00000000
10030000
00100000
,
00010000
00001000
00000100
00000001
00000021
00000000
00000100
00000000
,
00001030
00000010
00000100
00010000
00001000
00000000
01000000
00010000
,
00100000
00010000
00001000
00000100
00020100
00000000
00000010
00000000
,
00031000
00010000
01000000
00100000
01100000
00000000
01000000
00010000
,
00000100
00001000
00000010
00000000
00000100
00001000
00010000
00001000
,
00100000
00010000
01000000
00010000
10000000
01000000
00010000
01000000
,
00100000
00001000
00010000
00001000
00000100
00000001
00000010
00000001
,
00000100
00001000
00010000
00100000
00000000
00010000
00001000
00000010
,
00000000
00001000
00010000
00100000
01000000
00010000
00100000
00010000
,
10000000
00000000
00100000
10000000
00100000
00000000
01000000
00000000
00010000
00000000
01000000
00000000
00001000
00000000
00010000
00000000
,
00000100
00000000
00001000
00000100
00001000
00000000
00000001
00000000
00000100
00000000
00000001
00000000
00000010
00000000
00000001
00000000
,
00000100
00001000
00010000
00100000
00000000
00010000
00001000
00000010
,
00000000
00001000
00010000
00100000
00000000
00010000
00001000
00010000
,
01000000
00000000
10000000
01000000
10000000
00000000
00200000
00000000
00000000
00000000
00000000
00300000
00000000
00000000
00000000
00000000
;
