#VERSION:0.83;
#TITLE:中華急行;
#SUBTITLE:;
#ARTIST:Ryu☆;
#TITLETRANSLIT:Chuuka kyuukou;
#SUBTITLETRANSLIT:;
#ARTISTTRANSLIT:;
#GENRE:HAPPY HARDCORE;
#CREDIT:;
#MUSIC:Chuuka kyuukou.ogg;
#BANNER:Chuuka kyuukou.png;
#BACKGROUND:Chuuka kyuukou-bg.png;
#CDTITLE:./CDTitles/REFLEC BEAT.png;
#SAMPLESTART:71.806;
#SAMPLELENGTH:15.000;
#SELECTABLE:YES;
#OFFSET:1.059;
#BPMS:0.000=171.000;
#STOPS:40.000=1.053
,103.000=0.351
,200.000=1.053
;
#TIMESIGNATURES:40.000=1=4,
41.000=4=4,
101.000=3=4,
104.000=4=4,
200.000=1=4,
201.000=4=4
;
#BGCHANGES:0.000=../BGAs/07da.mp4=1.000=0=0=0=StretchNoLoop====,
99999.000=-nosongbg-=1.000=0=0=0=StretchNoLoop====
;
#FGCHANGES:;

//--------------- dance-single - forcednature ----------------
#NOTEDATA:;
#STEPSTYPE:dance-single;
#DESCRIPTION:forcednature;
#DIFFICULTY:Beginner;
#METER:1;
#RADARVALUES:0,0,0,0,0;
#CREDIT:forcednature;
#NOTES:
0000
0000
0000
0000
,
0000
0000
0000
0000
,
0000
0000
0000
0000
,
0000
0000
0000
0000
,
0000
0000
0000
0000
,
0000
0000
0000
0000
,
0001
0000
0000
0000
,
0000
0000
0000
0000
,
1000
0000
0000
0000
,
0000
0000
0000
0000
,
0010
0000
0000
0000
,
0000
0100
0000
0000
,
0000
0000
0000
0000
,
0000
0001
0000
0000
,
0000
0000
0000
0000
,
0000
1000
0000
0000
,
0000
0100
0000
0000
,
0000
0100
0000
0000
,
0000
0010
0000
0000
,
0000
0000
0000
0000
,
0000
0001
0000
0000
,
0000
0000
0000
0000
,
0000
1000
0000
0000
,
0000
0000
0000
0000
,
0000
0010
0000
0000
,
0000
0000
0000
0010
,
0000
0000
0000
0000
,
0100
0000
0000
0000
,
0000
0000
0000
0000
,
0001
0000
0000
0000
,
1000
0000
0000
0000
,
0000
0000
0000
0000
,
0100
0000
0000
0000
,
0000
0000
0000
0000
,
0010
0000
0000
0000
,
0000
0000
0000
0000
,
0001
0000
0000
0000
,
0000
0000
0000
0000
,
1000
0000
0000
0000
,
0000
0000
0000
0000
,
0001
0000
0000
0000
,
0000
0000
0000
0000
,
0100
0000
0000
0000
,
0000
0000
0000
0000
,
0010
0000
0000
0000
,
0000
0000
0000
0000
,
1000
0000
0000
0000
,
0000
0000
0000
0000
,
0001
0000
0000
0000
,
0000
0000
0000
0000
,
0010
0000
0000
0000
,
0000
0100
0000
0000
,
0000
1000
0000
0000
,
0000
0100
0000
0000
,
0000
0010
0000
0000
,
0000
0001
0000
0000
,
0000
1000
0000
0000
,
0000
0001
0000
0000
,
0000
0100
0000
0000
,
0000
0010
0000
0000
,
0000
1000
0000
0000
,
0000
0010
0000
0000
,
0000
0100
0000
0000
,
0000
0001
0000
0000
,
0000
1000
0000
0000
,
0000
0001
0000
0000
,
0000
0010
0000
0000
;

//--------------- dance-single - forcednature ----------------
#NOTEDATA:;
#STEPSTYPE:dance-single;
#DESCRIPTION:forcednature;
#DIFFICULTY:Easy;
#METER:5;
#RADARVALUES:0,0,0,0,0;
#CREDIT:forcednature;
#NOTES:
0000
0000
0000
0000
,
0000
0000
0000
0000
,
0000
0000
0000
0000
,
0000
0000
0000
0000
,
0000
0000
0000
0000
,
0000
0000
0000
0000
,
2000
0000
0000
3000
,
0002
0000
0000
0003
,
0200
0000
0000
0300
,
0002
0000
0000
0003
,
0010
0100
0000
1000
,
0000
0100
0000
0000
,
0000
1000
0000
0010
,
0000
1000
0000
0000
,
0000
0001
0000
0010
,
0000
0001
0000
0000
,
0000
0100
0000
0001
,
0000
0100
0000
0000
,
0000
0010
0000
1000
,
0000
0001
0000
0000
,
0000
0010
0000
0100
,
0000
1000
0000
0000
,
0000
0100
0000
0010
,
0000
0001
0000
0000
,
0000
1000
0000
0001
,
0000
0100
0000
0100
,
0020
0000
0000
0030
,
2000
0000
0000
3000
,
0002
0000
0000
0003
,
0200
0000
0000
0300
,
0001
0000
0010
0000
,
0000
0100
0000
0000
,
1000
0000
0100
0000
,
0000
0010
0000
0000
,
0010
0000
0001
0000
,
0100
0000
0001
0000
,
1000
0000
0100
0000
,
1000
0000
0010
0000
,
1000
0000
0001
0000
,
0010
0000
0001
0000
,
1000
0000
0010
0000
,
0000
1000
0000
0000
,
0002
0000
0000
0003
,
0020
0000
0000
0030
,
0200
0000
0000
0300
,
2000
0000
0000
3000
,
0002
0000
0000
0003
,
0200
0000
0000
0300
,
0010
0000
1000
0000
,
0020
0000
0030
0000
,
1001
1000
0000
0100
,
0000
1000
0000
0010
,
0000
0100
0000
0001
,
0000
0010
0010
0010
,
0000
0001
0000
0100
,
0000
0001
0000
0010
,
0000
0100
0000
1000
,
0000
0010
0010
0010
,
0000
1000
0000
0100
,
0000
1000
0000
0001
,
0000
1000
0000
0010
,
0000
0100
0100
0100
,
0000
0001
0000
0100
,
0000
0001
0000
1000
,
0000
0001
0000
0010
,
0000
0100
0100
0100
,
0000
2002
0000
0000
,
0000
3003
0000
0000
;

//--------------- dance-single - forcednature ----------------
#NOTEDATA:;
#STEPSTYPE:dance-single;
#DESCRIPTION:forcednature;
#DIFFICULTY:Medium;
#METER:11;
#RADARVALUES:0,0,0,0,0;
#CREDIT:forcednature;
#NOTES:
0000
0000
0000
0000
,
0000
0000
0000
0000
,
0000
0000
0000
0000
,
0000
0000
0000
0000
,
0000
0000
0000
0000
,
0000
0000
0000
0000
,
2000
0000
0000
3000
,
0200
0000
0000
0300
,
0020
0000
0000
0030
,
0002
0000
0000
0003
,
2002
3003
0000
0000
1000
0000
0000
0000
1000
0000
0010
0000
0100
0000
0000
0000
,
0100
0001
0010
0001
0010
0000
0100
1000
,
0100
0000
1000
0000
0010
0100
0001
0100
,
0010
0000
0000
0000
1000
0000
0001
0000
0010
0000
0000
0010
0100
0000
1000
0000
,
1000
0000
0001
0000
0001
0100
0010
0000
,
0010
1000
0100
1000
0100
0000
0010
0001
,
0010
0110
1000
0110
,
0001
0000
0100
0010
0100
0010
0200
0000
,
0300
0000
1001
0000
0001
0100
0010
0000
,
0010
1000
0001
0010
0001
0000
1000
0010
,
1000
0000
0100
0000
0100
0010
0001
0010
,
0100
0000
1000
0001
0100
0001
0010
0000
,
0100
0000
1001
0000
1000
0010
0100
0000
,
0100
0001
0010
0000
0010
0100
1000
0001
,
1000
0000
1001
0000
0001
0100
0010
0010
,
1000
0000
0000
0000
0100
0000
0010
0000
0100
0000
0010
0000
0200
0300
0000
0000
,
2000
0010
0001
3100
,
0002
0010
1000
0103
,
2000
0100
0001
3010
,
0002
0000
0100
0000
1003
0001
0010
0000
,
0100
0000
0100
1000
0100
0010
0001
0010
,
0000
0001
0100
0010
1000
0010
0100
0000
,
1001
0000
1000
0100
0010
0001
0010
0100
,
0000
2000
0000
0010
0000
0001
3001
0000
,
1010
0000
0010
0100
0001
0100
0010
1000
,
0000
0001
0010
0100
1000
0100
0010
0000
,
1001
0000
1000
0100
1000
0001
0100
0001
,
0000
0010
0100
0010
0001
1000
1000
0000
,
1010
0000
0010
0100
0001
0100
0010
1000
,
0000
0001
0010
0100
1000
0100
0010
0000
,
0100
0000
1000
0001
0100
0001
0010
0001
,
0000
0100
0100
0010
1000
0001
0100
0000
,
0020
0000
1000
0030
,
0200
0000
0001
0300
,
0010
1000
0001
0000
0100
0001
1000
0000
,
0100
0010
0001
1000
0200
0000
0300
0000
,
2000
0000
0000
0010
0010
0000
3000
0000
,
0002
0000
0000
0010
0010
0000
0003
0000
,
0100
0100
0100
0000
0010
0010
0010
0000
,
1000
0100
0001
0100
0020
0000
0030
0000
,
2002
3003
0000
0000
1000
0000
0100
0000
0001
0000
0000
0000
0001
0000
0100
0000
,
1000
0000
1000
0001
0010
0001
0200
0000
,
0320
0000
0031
0010
1000
0000
1000
0010
,
0001
0000
0010
1000
0100
1000
0002
0000
,
0013
0010
0001
0100
1000
0000
1000
0100
,
0001
0000
1000
0010
1000
0001
0020
0000
,
0230
0000
1300
0010
0100
0001
0100
0010
,
1000
0001
0010
0000
0110
0000
2002
0000
,
3003
0000
1000
0100
0001
0000
1000
0010
,
0001
0000
1000
0010
0100
0001
0020
0000
,
0230
0000
0301
0100
1000
0000
0001
0010
,
1000
0000
0010
0001
0100
0001
2000
0000
,
3010
0010
1000
1000
0100
0000
0001
0001
,
0100
0000
0010
0001
0010
0001
2000
0000
,
3020
0000
0130
0001
0010
0001
1000
1000
,
0010
0010
0000
1000
0100
0010
0002
0000
,
0003
0220
0000
0000
,
0000
0330
0000
0000
;

//--------------- dance-single - forcednature ----------------
#NOTEDATA:;
#STEPSTYPE:dance-single;
#DESCRIPTION:forcednature;
#DIFFICULTY:Hard;
#METER:14;
#RADARVALUES:0,0,0,0,0;
#CREDIT:forcednature;
#NOTES:
0000
0000
0000
0000
,
0000
0000
0000
0000
,
0000
0000
0000
0000
,
0000
0000
0000
0000
,
0000
0000
0000
0000
,
0000
0000
0000
0000
,
0002
0000
0000
0003
,
0200
0000
0000
0300
,
0020
0000
0000
0030
,
2000
0000
0000
3000
,
0200
0300
0000
0000
1000
0000
0000
0000
1000
0000
0010
0000
0001
0000
0000
0000
,
0001
0010
0100
0001
0010
0001
1000
0010
,
1000
0000
0100
0000
0010
0000
0000
0000
0010
0000
1000
0000
0010
0000
0001
0010
,
0001
0000
0100
0000
0001
0000
0010
0000
0100
0000
1000
0100
1000
0000
0010
0000
,
0010
0100
1001
0000
0001
0100
1000
0000
,
1000
0100
0001
0010
1000
0010
0100
1000
,
0001
0000
0001
0000
0101
0000
0000
0000
1000
0000
0100
0000
1000
0000
0001
0100
,
0001
0010
0100
0100
0010
0010
2002
0000
,
3003
0000
2000
0000
3100
0001
0200
0000
,
1300
0010
0001
0010
0100
0001
0010
0001
,
1000
0000
0100
0000
0002
0000
0000
0000
0103
0000
1000
0000
0010
0000
1000
0010
,
1000
0000
0001
0000
0010
0000
0001
0000
0100
0000
0001
0000
1000
0000
0100
0010
,
0001
1000
0002
0000
0103
1000
0200
0000
,
0301
0010
0001
1000
0010
1000
0100
0010
,
0001
0000
0001
0000
0200
0000
0000
0000
0310
0000
0010
0000
0010
0000
1000
0010
,
1000
0000
0001
0000
0010
0000
0110
0000
0100
0000
0110
0000
2002
3003
0000
0000
,
2100
0001
0010
3001
,
0102
1000
0010
1003
,
1020
0001
0100
1030
,
0201
0000
1000
0000
0310
0100
0001
0001
,
1000
0000
0000
0000
0100
0010
0100
0010
0001
0000
1000
0000
0010
0000
0100
0000
,
0000
0000
0001
1000
0001
0000
0010
0000
0100
0000
1000
0000
0001
0000
0000
0000
,
1000
0000
0000
0000
0010
0100
0010
0100
0001
0000
1000
0000
0001
0000
0010
0000
,
0000
0000
0100
1000
0100
0000
0010
0000
0001
0000
1000
0000
0010
0000
0000
0000
,
0100
0000
0001
0000
1000
0010
1000
0010
1000
0000
0001
0000
0010
0000
0100
0000
,
0010
0000
0001
0010
0001
0000
1000
0000
0010
0000
1000
0000
0100
0000
0000
0000
,
0010
0000
0001
0000
0100
0010
0100
0010
1000
0000
0001
0000
0010
0000
0001
0000
,
0100
0000
0010
1000
0010
0000
0100
0000
0001
0000
0010
0000
0010
0000
0000
0000
,
0100
0000
1000
0000
0100
0010
0100
0010
0001
0000
1000
0000
0001
0000
0100
0000
,
0010
0000
1000
0001
1000
0000
0100
0000
0010
0000
0001
0000
0100
0000
0000
0000
,
0010
0000
0000
0000
1000
0001
1000
0001
1000
0000
0100
0000
0010
0000
0001
0000
,
0000
0000
0100
0010
0100
0000
0100
0000
0001
0000
0001
0000
1001
0000
0000
0000
,
0102
0000
0010
0003
,
2000
0000
0001
3000
,
0100
0010
0001
0000
0100
0010
1000
0000
,
0001
0100
1000
0100
0020
0000
0030
0000
,
2001
0000
0000
0010
0010
0000
3000
0000
,
1002
0000
0000
0010
0010
0000
0013
0000
,
0001
0100
1000
0100
0010
0001
0010
1000
,
0100
0000
0001
0000
0100
0000
1000
0000
0010
0000
0100
0000
0001
1000
0001
1000
,
0020
0030
0000
0000
1000
0000
0100
0000
1010
0000
0000
0000
0001
0000
0100
0000
,
0011
0000
1000
0001
0100
0010
2000
0000
,
3002
0000
1003
0010
1100
0000
0001
0010
,
0101
0000
1000
0010
0001
0010
1002
0000
,
0013
0010
0100
1000
0011
0000
0100
0001
,
1010
0000
0001
1000
0100
0010
0002
0000
,
2003
0000
3010
0100
1000
0100
0001
0010
,
0100
0010
0001
0100
1000
0100
2002
0000
,
3003
0000
0000
0000
1000
0100
1000
0000
0100
0000
0010
0000
0001
0100
0001
0000
,
0100
0000
0010
0000
1000
0001
1000
0000
0001
0000
0010
0000
0200
0000
0000
0000
,
2300
0000
0000
0000
3010
1000
0010
0000
1000
0000
0001
0000
0010
0001
0010
0000
,
0001
0000
1000
0000
0001
0100
0001
0000
1000
0100
1000
0000
0020
0000
0000
0000
,
0130
0000
0100
0000
0001
0100
0001
0100
0001
0000
0010
0000
0100
1000
0100
1000
,
0100
0000
0010
0000
0001
1000
0001
1000
0001
0000
0100
0000
0020
0000
0000
0000
,
2030
0000
0000
0000
3100
1000
0100
0000
0010
0000
0001
0000
0100
0001
0100
0001
,
0100
0010
0100
0010
0000
0000
1000
0000
0100
0000
0001
0000
0220
0000
0000
0000
,
0330
2002
0000
0000
,
0000
3003
0000
0000
;

//--------------- dance-double - forcednature ----------------
#NOTEDATA:;
#STEPSTYPE:dance-double;
#DESCRIPTION:forcednature;
#DIFFICULTY:Easy;
#METER:5;
#RADARVALUES:0,0,0,0,0;
#CREDIT:forcednature;
#NOTES:
00000000
00000000
00000000
00000000
,
00000000
00000000
00000000
00000000
,
00000000
00000000
00000000
00000000
,
00000000
00000000
00000000
00000000
,
00000000
00000000
00000000
00000000
,
00000000
00000000
00000000
00000000
,
00002000
00000000
00000000
00003000
,
00020000
00000000
00000000
00030000
,
00002000
00000000
00000000
00003000
,
00020000
00000000
00000000
00030000
,
00000100
00001000
00000000
00000100
,
00000000
00001000
00000000
00000000
,
00000000
00000001
00000000
00000100
,
00000000
00000001
00000000
00000000
,
00000000
00001000
00000000
00000010
,
00000000
00001000
00000000
00000000
,
00000000
00000010
00000000
00010000
,
00000000
00001000
00000000
00000000
,
00000000
00100000
00000000
00010000
,
00000000
00100000
00000000
00000000
,
00000000
01000000
00000000
10000000
,
00000000
01000000
00000000
00000000
,
00000000
10000000
00000000
00100000
,
00000000
10000000
00000000
00000000
,
00000000
00010000
00000000
00100000
,
00000000
00010000
00000000
01000000
,
00002000
00000000
00000000
00003000
,
00020000
00000000
00000000
00030000
,
00000200
00000000
00000000
00000300
,
00002000
00000000
00000000
00003000
,
00000001
00000000
00000100
00000000
,
00000000
00000100
00000000
00000000
,
00000010
00000000
00001000
00000000
,
00000000
00001000
00000000
00000000
,
00000100
00000000
00010000
00000000
,
00001000
00000000
00010000
00000000
,
00001000
00000000
01000000
00000000
,
00010000
00000000
01000000
00000000
,
00100000
00000000
10000000
00000000
,
00010000
00000000
10000000
00000000
,
01000000
00000000
00100000
00000000
,
00000000
00100000
00000000
00000000
,
00020000
00000000
00000000
00030000
,
00200000
00000000
00000000
00300000
,
00002000
00000000
00000000
00003000
,
00020000
00000000
00000000
00030000
,
00000020
00000000
00000000
00000030
,
00002000
00000000
00000000
00003000
,
00000100
00000000
00001000
00000000
,
00000002
00000000
00000003
00000000
,
00001001
00001000
00000000
00000100
,
00000000
00001000
00000000
00000010
,
00000000
00010000
00000000
00001000
,
00000000
00100000
00100000
00100000
,
00000000
00010000
00000000
01000000
,
00000000
00010000
00000000
00100000
,
00000000
00001000
00000000
00010000
,
00000000
00000010
00000010
00000010
,
00000000
00001000
00000000
00000010
,
00000000
00001000
00000000
00000100
,
00000000
00010000
00000000
00001000
,
00000000
01000000
01000000
01000000
,
00000000
00010000
00000000
01000000
,
00000000
00010000
00000000
00100000
,
00000000
00001000
00000000
00010000
,
00000000
00000100
00000100
00000100
,
00000000
00002002
00000000
00000000
,
00000000
00003003
00000000
00000000
;

//--------------- dance-double - forcednature ----------------
#NOTEDATA:;
#STEPSTYPE:dance-double;
#DESCRIPTION:forcednature;
#DIFFICULTY:Medium;
#METER:11;
#RADARVALUES:0,0,0,0,0;
#CREDIT:forcednature;
#NOTES:
00000000
00000000
00000000
00000000
,
00000000
00000000
00000000
00000000
,
00000000
00000000
00000000
00000000
,
00000000
00000000
00000000
00000000
,
00000000
00000000
00000000
00000000
,
00000000
00000000
00000000
00000000
,
00002000
00000000
00000000
00003000
,
02000000
00000000
00000000
03000000
,
00000200
00000000
00000000
00000300
,
00020000
00000000
00000000
00030000
,
00022000
00033000
00000000
00000000
00001000
00000000
00000000
00000000
00001000
00000000
01000000
00000000
00010000
00000000
00000000
00000000
,
00010000
00100000
01000000
10000000
01000000
00000000
00100000
01000000
,
00100000
00000000
00001000
00000000
00001000
00010000
00000010
00010000
,
00001000
00000000
00000000
00000000
00001000
00000000
00000010
00000000
00000100
00000000
00000000
00000100
00001000
00000000
00000001
00000000
,
00000001
00000000
00000100
00000000
00000100
00001000
00010000
00000000
,
00010000
00100000
10000000
00100000
10000000
00000000
01000000
10000000
,
01000000
01100000
00100000
00101000
,
00100000
00000000
00001000
00010000
00001000
00010000
00002000
00000000
,
00003000
00000000
00011000
00000000
00010000
00000100
00001000
00000000
,
00001000
00000010
00000100
00000001
00000100
00000000
00000001
00000010
,
00000001
00000000
00000010
00000000
00000010
00000100
00001000
00000100
,
00010000
00000000
00001000
01000000
00010000
01000000
00100000
00000000
,
01000000
00000000
10010000
00000000
10000000
01000000
00010000
00000000
,
00010000
00001000
00100000
00000000
00100000
00010000
01000000
00001000
,
00010000
00000000
00011000
00000000
00001000
00000010
00000001
00000001
,
00001000
00000000
00000000
00000000
00000010
00000000
00000100
00000000
00000010
00000000
00000100
00000000
00000020
00000030
00000000
00000000
,
00000200
00002300
00023000
00230000
,
20300000
32000000
03020000
00032000
,
00003020
00000230
00020300
00032000
,
00003200
00000000
00000302
00000000
00000013
00000001
00000001
00000000
,
00001001
00000000
00001000
00000100
00010000
00001000
00100000
00010000
,
00000000
00010000
01000000
00100000
10000000
00100000
01000000
00000000
,
10010000
00000000
00010000
01000000
00001000
00010000
00000010
00001000
,
00000000
00000200
00000000
00001000
00000000
00000010
00000310
00000000
,
00001001
00000000
00001000
00000100
00010000
00001000
01000000
00010000
,
00000000
00100000
00001000
00010000
00001000
01000000
00010000
00000000
,
10010000
00000000
00010000
01000000
00001000
00010000
00000100
00001000
,
00000000
00000010
00010000
00001000
00010000
00000100
00001000
00000000
,
00001001
00000000
00000001
00000010
00000100
00010000
00001000
00100000
,
00000000
00010000
01000000
00100000
10000000
00100000
01000000
00000000
,
10010000
00000000
10000000
01000000
00100000
00001000
00010000
00000100
,
00000000
00001000
00001000
00000001
00000100
00000010
00001000
00000000
,
00020200
00000000
00000000
00030300
,
02002000
00000000
00000000
03003000
,
00001000
00100000
00010000
00000000
00001000
00000010
00010000
00000000
,
00001000
01000000
00010000
00100000
02000000
00000000
03000000
00000000
,
00200000
00000000
00000000
00001000
00001000
00000000
00300000
00000000
,
00000020
00000000
00000000
00010000
00010000
00000000
00000030
00000000
,
01000000
00001000
00010000
00000000
00000100
00010000
00001000
00000000
,
01000000
00010000
10000000
00010000
00200000
00000000
00300000
00000000
,
20020000
30030000
00000000
00000000
10000000
00000000
01000000
00000000
00010000
00000000
00000000
00000000
00001000
00000000
00000100
00000000
,
00000001
00000000
00000001
00000010
00000001
00000100
00000020
00000000
,
00002030
00000000
00003001
00000100
00001000
00000000
00010000
01000000
,
10000000
00000000
00100000
10000000
01000000
10000000
00020000
00000000
,
00130000
00100000
01000000
00010000
00001000
00000000
00000100
00001000
,
00010000
00000000
00100000
01000000
00010000
00100000
00002000
00000000
,
00023000
00000000
00030010
00001000
00000100
00010000
00001000
01000000
,
00010000
00100000
01000000
00000000
01100000
00000000
20020000
00000000
,
30030000
00000000
10000000
01000000
00010000
00000000
00001000
00000010
,
00000001
00000000
00000001
00000100
00000001
00001000
00000200
00000000
,
00000320
00000000
00000031
00000100
00001000
00000000
00010000
00100000
,
10000000
00000000
10000000
01000000
00100000
00010000
02000000
00000000
,
03100000
00100000
10000000
10000000
00010000
00000000
00001000
00001000
,
00000001
00000000
00000100
00000100
00000010
00000010
00002000
00000000
,
00003002
00000000
00000013
00000100
00001000
00000100
00010000
00010000
,
00001000
00001000
00000000
01000000
00010000
00100000
02000000
00000000
,
03000000
02200000
00000000
00000000
,
00000000
03300000
00000000
00000000
;

//--------------- dance-double - forcednature ----------------
#NOTEDATA:;
#STEPSTYPE:dance-double;
#DESCRIPTION:forcednature;
#DIFFICULTY:Hard;
#METER:15;
#RADARVALUES:0,0,0,0,0;
#CREDIT:forcednature;
#NOTES:
00000000
00000000
00000000
00000000
,
00000000
00000000
00000000
00000000
,
00000000
00000000
00000000
00000000
,
00000000
00000000
00000000
00000000
,
00000000
00000000
00000000
00000000
,
00000000
00000000
00000000
00000000
,
00002000
00000000
00000000
00003000
,
00020000
00000000
00000000
00030000
,
00200000
00000000
00000000
00300000
,
20000000
00000000
00000000
30000000
,
02000000
03000000
00000000
00000000
00100000
00000000
00000000
00000000
00100000
00000000
00001000
00000000
00010000
00000000
00000000
00000000
,
00010000
00000010
00001000
00000100
00000010
00000100
00001000
00000001
,
00000010
00000000
00000001
00000000
00000100
00000000
00000000
00000000
00000100
00000000
00001000
00000000
00000100
00000000
00000001
00000100
,
00000001
00000000
00000010
00000000
00000100
00000000
00001000
00000000
00000100
00000000
00010000
00001000
00010000
00000000
00100000
00000000
,
00100000
01000000
00010000
00000000
00010000
00100000
10000000
00000000
,
10000000
00100000
00010000
01000000
00001000
01000000
00010000
00100000
,
01000000
00000000
01000000
00000000
01100000
00000000
00000000
00000000
00100000
00000000
00001000
00000000
00010000
00000000
00000010
00001000
,
00000010
00000100
00000001
00000001
00001000
00001000
00002002
00000000
,
00003003
00000000
00020000
00000000
00031000
00000010
00002000
00000000
,
00013000
00000100
00001000
00000010
00001000
00010000
01000000
00010000
,
00100000
00000000
01000000
00000000
20000000
00000000
00000000
00000000
30100000
00000000
00010000
00000000
00100000
00000000
10000000
00100000
,
10000000
00000000
01000000
00000000
00010000
00000000
01000000
00000000
00100000
00000000
00001000
00000000
00010000
00000000
00000100
00001000
,
00000001
00000100
00002000
00000000
00013000
00100000
00020000
00000000
,
00031000
01000000
00010000
01000000
00100000
10000000
01000000
10000000
,
00100000
00000000
00100000
00000000
00020000
00000000
00000000
00000000
00031000
00000000
00001000
00000000
00001000
00000000
00010000
00001000
,
00010000
00000000
00000100
00000000
00001000
00000000
00000010
00000000
00010000
00000000
00100000
00000000
02000000
03000000
00000000
00000000
,
00020000
00100000
10000000
01030000
,
00002000
00000010
00000001
00003100
,
00020000
00100000
10000000
01030000
,
00002000
00000000
00000010
00000000
00003001
00001000
00001000
00000100
,
00010000
00000000
00000000
00000000
00001000
01000000
00001000
01000000
00010000
00000000
00100000
00000000
01000000
00000000
10000000
00000000
,
00000000
00000000
00100000
10000000
00100000
00000000
01000000
00000000
00001000
00000000
00010000
00000000
00000010
00000000
00000000
00000000
,
00001000
00000000
00000000
00000000
00000100
00000010
00000100
00000010
00000001
00000000
00001000
00000000
00000001
00000000
00000100
00000000
,
00000000
00000000
00000010
00001000
00000010
00000000
00010000
00000000
00001000
00000000
01000000
00000000
00010000
00000000
00000000
00000000
,
10000000
00000000
01000000
00000000
00100000
00010000
00100000
00010000
00100000
00000000
00001000
00000000
00010000
00000000
00000010
00000000
,
00001000
00000000
00000100
00001000
00000100
00000000
00000010
00000000
00000001
00000000
00000100
00000000
00000001
00000000
00000000
00000000
,
00001000
00000000
00000010
00000000
00010000
00001000
00010000
00001000
01000000
00000000
00010000
00000000
00100000
00000000
00010000
00000000
,
10000000
00000000
01000000
10000000
01000000
00000000
00100000
00000000
00001000
00000000
00010000
00000000
00010000
00000000
00000000
00000000
,
00000010
00000000
00001000
00000000
00000001
00000010
00000001
00000010
00000100
00000000
00001000
00000000
00000100
00000000
00010000
00000000
,
00001000
00000000
01000000
00010000
01000000
00000000
00010000
00000000
10000000
00000000
01000000
00000000
00100000
00000000
00000000
00000000
,
00001000
00001000
00010000
00010000
00000010
00000010
00001000
00001000
,
00000000
00000000
00000001
00000010
00000001
00000000
00000100
00000000
00001000
00000000
00010000
00000000
00100000
00000000
00000000
00000000
,
02020000
00000000
00000000
03030000
,
00002200
00000000
00000000
00003300
,
00000100
00010000
00000010
00000000
01000000
00001000
00100000
00000000
,
00001000
00010000
00100000
10000000
02000000
00000000
03000000
00000000
,
00102000
00000000
00000000
01000000
01000000
00000000
00003000
00000000
,
00020010
00000000
00000000
00000100
00000100
00000000
00030100
00000000
,
00010000
00001000
00000010
00000001
00000100
00001000
00010000
00100000
,
10000000
00000000
01000000
00000000
00010000
00000000
00001000
00000000
00000020
00000000
00000000
00000000
00000130
00001000
00000100
00001000
,
00000002
00000003
00000000
00000000
00000100
00000000
00001000
00000000
00010000
00000000
00000000
00000000
01000000
00000000
00010000
00000000
,
00001000
00000000
00000100
00001000
00010000
00100000
20000000
00000000
,
30020000
00000000
00130000
01000000
00010000
00000000
00001000
00000010
,
00000100
00000000
00001000
00000010
00000001
00000010
00000210
00000000
,
00000301
00000001
00000010
00001000
00010000
00000000
00100000
00010000
,
00001000
00000000
00010000
01000000
10000000
00100000
00020000
00000000
,
00032000
00000000
00003010
00000100
00010000
00000100
00001000
00000001
,
00000010
00000001
00000100
00001000
00010000
01000000
02200000
00000000
,
03300000
00000000
00000000
00000000
00100000
00010000
00100000
00000000
00001000
00000000
00010000
00000000
00000010
00001000
00000010
00000000
,
00010000
00000000
00001000
00000000
01000000
00010000
01000000
00000000
00001000
00000000
00010000
00000000
00000200
00000000
00000000
00000000
,
00002300
00000000
00000000
00000000
00003010
00001000
00000010
00000000
00010000
00000000
00001000
00000000
01000000
00010000
01000000
00000000
,
00001000
00000000
00010000
00000000
00000100
00001000
00000100
00000000
00000010
00000001
00000010
00000000
00000200
00000000
00000000
00000000
,
00000300
00000000
00000000
00000000
00010000
00000010
00010000
00000010
00010000
00000000
00000000
00000000
00001000
00100000
00001000
00100000
,
00001000
00000000
00000000
00000000
00010000
00000100
00010000
00000100
00010000
00000000
00001000
00000000
02000000
00000000
00000000
00000000
,
03020000
00000000
00000000
00000000
00130000
00010000
00100000
00000000
00001000
00000000
00010000
00000000
00000010
00001000
00000010
00001000
,
00000001
00000100
00000001
00000100
00000000
00000000
00000001
00000000
00000010
00000000
00001000
00000000
00020000
00000000
00000000
00000000
,
00030000
00022000
00000000
00000000
,
00000000
00033000
00000000
00000000
;
