#VERSION:0.83;
#TITLE:Chrono Diver -PENDULUMs-;
#SUBTITLE:;
#ARTIST:猫叉L.E.D.Master+;
#TITLETRANSLIT:;
#SUBTITLETRANSLIT:;
#ARTISTTRANSLIT:Nekomata L.E.D.Master+;
#GENRE:CHRONO BREAKS;
#CREDIT:;
#MUSIC:Chrono Diver -PENDULUMs-.ogg;
#BANNER:Chrono Diver -PENDULUMs-.png;
#BACKGROUND:Chrono Diver -PENDULUMs--bg.png;
#CDTITLE:./CDTitles/bm IIDX 22 PENDUAL.png;
#SAMPLESTART:92.835;
#SAMPLELENGTH:15.000;
#SELECTABLE:YES;
#OFFSET:0.207;
#BPMS:0.000=196.000;
#STOPS:;
#TIMESIGNATURES:0.000=4=4;
#BGCHANGES:0.000=Chrono Diver -PENDULUMs-.mp4=1.000=0=0=0=StretchNoLoop====,
99999.000=-nosongbg-=1.000=0=0=0=StretchNoLoop====
;
#FGCHANGES:;

//--------------- dance-single - forcednature ----------------
#NOTEDATA:;
#STEPSTYPE:dance-single;
#DESCRIPTION:forcednature;
#CREDIT:forcednature;
#DIFFICULTY:Beginner;
#METER:9;
#RADARVALUES:0,0,0,0,0;
#NOTES:
0000
0000
0000
0000
,
0000
0000
0000
0000
,
0000
0000
0000
0000
,
0000
0000
0000
0000
,
0000
0000
0000
0000
,
0000
0000
0000
0000
,
0000
0000
0000
0000
,
0000
0000
0000
0000
,
0000
0000
0000
0000
,
0002
0000
0000
0000
,
0203
0000
0000
0000
,
0320
0000
0000
0000
,
2030
0000
0000
0000
,
3100
0100
0000
0100
,
0000
0010
0000
0010
,
0000
0001
0000
0001
,
1000
1000
0010
0100
,
1001
0000
0001
0010
,
0100
0000
1000
0001
,
0100
0000
0010
1000
,
0001
1000
0100
0000
,
0110
0000
0010
0001
,
1000
0000
0010
0100
,
0001
0000
1000
0100
,
0010
0001
0100
0000
,
0010
1000
0010
1000
,
0001
0010
0001
0010
,
0100
0000
0000
1000
0000
0000
0100
0000
,
0000
1000
0000
0000
0010
0000
0000
0000
,
0100
0001
0100
0001
,
1000
0100
1000
0100
,
0010
0000
0000
0001
0000
0000
0010
0000
,
0000
0001
0000
0000
0100
0000
0000
0000
,
0010
1000
0001
0100
,
0001
0010
0100
1000
,
0010
0000
0000
0100
0000
0000
0010
0000
,
0000
0100
0000
0000
0010
0000
0000
0000
,
1000
0100
0010
0001
,
1000
0010
0100
0001
,
0010
0000
0000
0100
0000
0000
0010
0000
,
0000
0001
0000
0001
0000
0000
1000
0000
,
1001
0000
0000
0110
0000
0000
1001
0000
,
0000
0110
0000
0000
1000
0000
0001
0000
,
0110
0000
0000
1001
0000
0000
0110
0000
,
0000
1001
0000
0000
0001
0000
1000
0000
,
1001
0000
0000
0110
0000
0000
1001
0000
,
0000
0110
0000
0000
0010
0000
0100
0000
,
1000
0000
1000
0000
0000
0000
0001
0000
0001
0000
0000
0000
,
2002
0000
0000
0000
,
3003
0000
2000
3200
,
0320
0000
0000
0000
,
0032
0000
2003
0000
,
3020
0000
0000
0000
,
0000
0000
0230
0302
,
2003
0000
0000
0000
,
3200
0000
0320
0000
,
0032
0000
0000
0000
,
0000
0000
0000
0000
,
0003
0000
0000
0000
,
0000
0000
0000
0000
,
1000
0001
0100
0001
,
1000
0100
0010
0000
,
0001
1000
0010
1000
,
0001
0010
0100
0000
,
0010
0001
0100
0010
,
1000
0100
0010
0000
,
0001
0100
0010
1000
,
0001
0010
0100
1000
,
0001
0100
0010
1000
,
0100
0010
0001
0000
,
1000
0010
0100
0001
,
0010
0100
1000
0000
,
0001
0100
0010
1000
,
0100
0010
0001
0000
,
1000
1000
0010
0100
,
0001
0001
0010
0100
,
0100
0000
1000
0001
0000
0100
0010
0000
,
1000
0001
0000
0010
0100
0000
1000
0002
,
0000
0103
0010
1000
,
0001
0010
0001
0000
,
0010
0000
0100
1000
0000
0001
0100
0000
,
0010
1000
0000
0001
0010
0000
0100
2000
,
0000
3001
1000
0010
,
0100
0001
1000
0000
,
0001
0100
0001
0100
0001
0100
0010
1000
,
0010
1000
0010
1000
0001
0010
0100
2000
,
0000
3001
0100
0010
,
1000
0100
0010
0000
,
0001
0010
0001
0010
0001
0010
0100
1000
,
0100
1000
0100
1000
0001
0100
0010
2000
,
0000
3100
0010
0001
,
1000
0010
1000
0000
0001
0010
0001
0000
,
2002
0000
0000
0000
,
0000
0000
0000
3003
,
0200
0000
0000
0000
,
0000
0000
0000
0000
,
0000
0300
0000
0000
0000
0000
0000
0000
0000
0000
0000
0000
0000
0000
0000
0000
0000
0000
0000
0000
0000
0000
0000
0000
0000
0000
0000
0000
0000
0000
0000
0000
0000
0000
0000
0000
0000
0000
0000
0000
0000
0000
0000
0000
0000
0000
0000
0000
0000
0000
0000
0000
0000
0000
0000
0000
0000
0000
0000
0000
0000
0000
0000
0000
,
0000
0000
0000
0000
0000
0000
0000
0000
0000
0000
0000
0000
0000
0000
0000
0000
0000
0000
0000
0000
0000
0000
0000
0000
0000
0000
0000
0000
0000
0000
0000
0000
0000
0000
0000
0000
0000
0000
0000
0000
0000
0000
0000
0000
0000
0000
0000
0020
0000
0000
0000
0000
0000
0000
0000
0000
0000
0000
0000
0000
0000
0000
0000
0000
0000
0000
0000
0000
0000
0000
0000
0000
0000
0000
0000
0000
0000
0000
0000
0000
0000
0000
0000
0000
0000
0000
0000
0000
0000
0000
0000
0000
0000
0000
0000
0000
0000
0000
0000
0000
0000
0000
0000
0000
0000
0000
0000
0000
0000
0000
0000
0000
0000
0000
0000
0000
0000
0000
0000
0000
0000
0000
0000
0000
0000
0000
0000
0000
0000
0000
0000
0000
0000
0000
0000
0000
0000
0000
0000
0000
0000
0000
0000
0000
0000
0000
0000
0000
0000
0000
0000
0000
0000
0000
0000
0000
0000
0000
0000
0000
0000
0000
0000
0000
0000
0000
0000
0000
0000
0000
0000
0000
0000
0000
0000
0000
0000
0000
0000
0000
0000
0000
0000
0000
0000
0000
0000
0000
0000
0000
0000
0000
,
0000
0000
0000
0000
,
0000
0000
0000
0000
0000
0000
0000
0000
0000
0000
0000
0000
0000
0000
0000
0000
0000
0000
0000
0000
0000
0000
0000
0000
0000
0000
0000
0000
0000
0000
0000
0000
0000
0000
0000
0000
0000
0000
0000
0000
0000
0000
0000
0000
0000
0000
0000
0000
0000
0000
0000
0000
0000
0000
0000
0000
0000
0000
0000
0000
0000
0000
0000
0000
0000
0000
0000
0000
0000
0000
0000
0000
0000
0000
0000
0000
0000
0000
0000
0000
0000
0000
0000
0000
0000
0000
0000
0000
0000
0000
0000
0000
0000
0000
0000
0000
0000
0000
0000
0000
0000
0000
0000
0000
0000
0000
0000
0000
0000
0000
0000
0000
0000
0000
0000
0000
0000
0000
0000
0000
0000
0000
0000
0000
0000
0000
0000
0000
0000
0000
0000
0000
0000
0000
0000
0000
0000
0000
0000
0000
0000
0000
0000
0000
0000
0000
0000
0000
0000
0000
0000
0000
0000
0000
0000
0000
0000
0000
0000
0000
0000
0000
0000
0000
0000
0000
0000
0030
0000
0000
0000
0000
0000
0000
0000
0000
0000
0000
0000
0000
0000
0000
0000
0000
0000
0000
0000
0000
0000
0000
0000
0000
;

//--------------- dance-single - forcednature ----------------
#NOTEDATA:;
#STEPSTYPE:dance-single;
#DESCRIPTION:forcednature;
#CREDIT:forcednature;
#DIFFICULTY:Easy;
#METER:13;
#RADARVALUES:0,0,0,0,0;
#NOTES:
0000
0000
0000
0000
,
0000
0000
0000
0000
,
0000
0000
0000
0000
,
0000
0000
0000
0000
,
0000
0000
0000
0000
,
0000
0000
0000
0000
,
0000
0000
0000
0000
,
0000
0000
0000
0000
,
0000
0000
0000
0000
,
2000
0000
0000
0000
,
3002
0000
0000
0000
,
0203
0000
0000
0000
,
0320
0000
0000
0000
,
1030
0100
0000
0100
,
0000
0010
0000
0010
,
0000
0001
0000
1000
,
1001
1001
0110
0110
,
1001
0000
1000
0100
,
0010
0100
1000
0010
,
0100
0001
0010
0100
,
1000
0000
0001
0000
0100
0010
0100
0010
,
1000
0001
0010
0001
,
0000
2000
0000
3000
0001
0010
0100
1000
,
0000
1000
0010
0100
,
0001
0000
1000
0000
0100
0010
0001
0000
,
1000
0001
0100
0010
,
1000
0001
0010
0100
,
2000
0000
3010
0002
0000
0013
2000
0000
,
3010
0002
0000
0013
1000
0001
0010
0000
,
0100
1000
0001
0100
,
0010
1000
0001
0010
,
0200
0000
0301
0200
0000
1300
0200
0000
,
0301
0200
0000
1300
0100
0010
0001
0000
,
0200
2300
3200
0302
,
0023
2030
3020
0032
,
2003
0000
3100
0002
0000
0103
2000
0000
,
3100
0002
0000
0103
1000
0001
0100
0000
,
0002
0203
0320
2030
,
3002
0023
0230
2300
,
3020
0000
1030
0020
0000
0031
0020
0000
,
1030
0010
0100
0010
1000
0001
0010
0000
,
0101
0000
0000
1010
0000
0000
0101
0000
,
0000
1010
0000
0000
1000
0100
0010
0000
,
1100
0000
0000
0011
0000
0000
1100
0000
,
0000
0011
0000
0000
0001
0100
0010
0000
,
1001
0000
0000
0110
0000
0000
1001
0000
,
0000
0110
0000
0000
1000
0100
0001
0000
,
0100
0000
0110
0000
0000
0000
1001
0000
0110
0000
0000
0000
,
2002
0000
0000
0000
,
3000
0000
0023
0032
,
0203
0000
0000
0000
,
0320
0000
2030
0000
,
3002
0000
0000
0000
,
0000
0000
2003
3002
,
0023
0000
0000
0000
,
0230
0000
2300
0000
,
3020
0000
0000
0000
,
0000
0000
0000
0000
,
0230
0000
0000
0000
,
0000
0000
0000
0300
,
1001
0000
1000
0100
0010
0000
0001
0000
,
1000
0010
0100
0000
0001
0001
1000
0000
,
0100
0000
0010
0001
1000
0000
0010
0000
,
0100
0001
1000
0000
0100
0000
0010
0000
,
0110
0000
0100
1000
0001
0000
0100
0000
,
0010
1000
0001
0000
0010
0010
0100
0000
,
2000
3020
0032
0023
,
0230
2300
3200
0302
,
0013
0000
0001
1000
0100
0000
0010
0000
,
0001
1000
0010
0000
0100
0100
0001
0000
,
1000
0000
0100
0010
0001
0000
1000
0000
,
0010
0100
0001
0000
0010
0000
0100
0000
,
0110
0000
0010
0001
1000
0000
0010
0000
,
0100
0001
1000
0000
0100
0100
1000
0001
,
0200
2300
3200
0302
,
0023
0230
2300
3020
,
1030
0100
0010
0001
0100
0010
1000
0100
,
0010
0001
0100
0010
1000
0100
0010
0002
,
0000
0000
0103
0000
0010
1000
0010
0000
,
0100
0001
1000
0000
0100
0010
0001
0000
,
0100
0001
0010
0100
1000
0010
0100
0001
,
0010
0100
1000
0010
0100
0001
0010
0200
,
0000
0000
1300
0000
0001
0100
0010
0000
,
1000
1000
0001
1000
,
0001
0100
1000
0001
0010
1000
0001
0100
,
1000
0001
0010
1000
0001
0100
1000
0200
,
0000
0000
0310
0000
1000
0100
0010
0000
,
0001
1000
0010
0000
0100
0001
1000
0000
,
1000
0100
0001
1000
0010
0001
1000
0100
,
0001
1000
0010
0001
1000
0100
0001
0200
,
0000
0000
0310
0000
0001
1000
0010
0000
,
0100
0001
0100
0000
0001
0100
0001
0000
1000
0000
0100
0000
0010
0000
0001
0000
,
0200
0000
0000
0000
,
0000
0000
0000
0000
,
0320
0000
0000
0000
,
0000
0000
0000
0000
,
0000
0000
0000
0000
,
0000
0000
0000
0000
0000
0000
0000
0000
0000
0000
0000
0000
0000
0000
0000
0000
0000
0000
0000
0000
0000
0000
0000
0000
0000
0000
0000
0000
0000
0000
0000
0000
0000
0000
0000
0000
0000
0000
0000
0000
0000
0000
0000
0000
0000
0000
0000
2030
0000
0000
0000
0000
0000
0000
0000
0000
0000
0000
0000
0000
0000
0000
0000
0000
0000
0000
0000
0000
0000
0000
0000
0000
0000
0000
0000
0000
0000
0000
0000
0000
0000
0000
0000
0000
0000
0000
0000
0000
0000
0000
0000
0000
0000
0000
0000
0000
0000
0000
0000
0000
0000
0000
0000
0000
0000
0000
0000
0000
0000
0000
0000
0000
0000
0000
0000
0000
0000
0000
0000
0000
0000
0000
0000
0000
0000
0000
0000
0000
0000
0000
0000
0000
0000
0000
0000
0000
0000
0000
0000
0000
0000
0000
0000
0000
0000
0000
0000
0000
0000
0000
0000
0000
0000
0000
0000
0000
0000
0000
0000
0000
0000
0000
0000
0000
0000
0000
0000
0000
0000
0000
0000
0000
0000
0000
0000
0000
0000
0000
0000
0000
0000
0000
0000
0000
0000
0000
0000
0000
0000
0000
0000
0000
,
0000
0000
0000
0000
,
0000
0000
0000
0000
0000
0000
0000
0000
0000
0000
0000
0000
0000
0000
0000
0000
0000
0000
0000
0000
0000
0000
0000
0000
0000
0000
0000
0000
0000
0000
0000
0000
0000
0000
0000
0000
0000
0000
0000
0000
0000
0000
0000
0000
0000
0000
0000
0000
0000
0000
0000
0000
0000
0000
0000
0000
0000
0000
0000
0000
0000
0000
0000
0000
0000
0000
0000
0000
0000
0000
0000
0000
0000
0000
0000
0000
0000
0000
0000
0000
0000
0000
0000
0000
0000
0000
0000
0000
0000
0000
0000
0000
0000
0000
0000
0000
0000
0000
0000
0000
0000
0000
0000
0000
0000
0000
0000
0000
0000
0000
0000
0000
0000
0000
0000
0000
0000
0000
0000
0000
0000
0000
0000
0000
0000
0000
0000
0000
0000
0000
0000
0000
0000
0000
0000
0000
0000
0000
0000
0000
0000
0000
0000
0000
0000
0000
0000
0000
0000
0000
0000
0000
0000
0000
0000
0000
0000
0000
0000
0000
0000
0000
0000
0000
0000
0000
0000
3000
0000
0000
0000
0000
0000
0000
0000
0000
0000
0000
0000
0000
0000
0000
0000
0000
0000
0000
0000
0000
0000
0000
0000
0000
;

//--------------- dance-single - forcednature ----------------
#NOTEDATA:;
#STEPSTYPE:dance-single;
#DESCRIPTION:forcednature;
#CREDIT:forcednature;
#DIFFICULTY:Medium;
#METER:15;
#RADARVALUES:0,0,0,0,0;
#NOTES:
0000
0000
0000
0000
,
0000
0000
0000
0000
,
0000
0000
0000
0000
,
0000
0000
0000
0000
,
0000
0000
0000
0000
,
0000
0000
0000
0000
,
0000
0000
0000
0000
,
0000
0000
0000
0000
,
0000
0000
0000
0000
,
0002
0000
0000
0000
,
0203
0000
0000
0000
,
0320
0000
0000
0000
,
2030
0000
0000
0000
,
0001
3000
0000
0000
0000
0000
0000
0000
0010
0000
0000
0000
0000
0000
0000
0000
0000
0000
0000
0000
0000
0000
0000
0000
0010
0000
0000
0000
0000
0000
0000
0000
,
0000
0100
0000
0100
,
0000
1000
0000
0001
,
1001
0000
0000
0000
1001
0000
0000
0000
0001
0100
0001
0100
0010
1000
0010
1000
,
0001
0000
2000
3200
,
0320
0032
2003
3020
,
0032
0023
0230
0302
,
2003
0000
3200
0000
0310
0010
0100
0100
,
1001
0002
0203
0320
,
0030
0000
1000
0000
2000
0000
0000
0000
3001
0100
0001
0000
1000
0100
1000
0000
,
0010
0000
0100
0001
1000
0001
0020
0000
,
0230
0000
0000
0000
1300
0000
0001
0000
0100
0000
0010
1000
0010
0000
0100
0000
,
0002
0023
0230
2300
,
3002
0203
0320
2030
,
3001
0100
0001
0000
1000
0000
0001
0010
0001
0000
1000
0000
0001
0100
0001
0000
,
1000
0000
0001
0010
0001
0000
1000
0000
0001
0100
0001
0000
1000
0100
0010
0001
,
2000
3200
0320
0032
,
2003
3020
0230
0302
,
1003
0100
1000
0000
0001
0000
1000
0010
1000
0000
0001
0000
1000
0100
1000
0000
,
0001
0000
1000
0010
1000
0010
0100
0000
0001
0010
0100
0000
1000
0010
0100
0000
,
0002
0023
2030
3020
,
0032
0203
2300
3200
,
0301
0100
0010
0000
1000
0000
0001
0010
0100
0000
1000
0000
0001
0100
0010
0000
,
1000
0000
0001
0010
0100
0000
1000
0000
0001
0100
0010
0000
1000
0100
0010
0001
,
2000
3020
0032
0023
,
2030
3200
0302
0203
,
1300
0100
0010
0000
0001
0000
1000
0010
0100
0000
0001
0000
1000
0100
0010
0000
,
0001
0000
1000
0010
0100
0001
0100
0000
0010
1000
0001
0000
0010
0001
1000
0000
,
1001
0000
1000
1100
0000
0001
0101
0000
,
0010
0110
0000
1000
0001
0001
1001
0000
,
0110
0000
0001
0011
0000
1000
1010
0000
,
0100
0110
0000
0001
1000
1000
1001
0000
,
0110
0000
1000
1100
0000
0001
0101
0000
,
0010
1001
0000
0100
0010
0010
0110
0000
,
1000
0100
0010
0001
0100
0010
1000
0100
1000
0010
0100
0001
,
0020
0000
0000
0000
,
0000
0000
0230
2300
,
3002
0000
0000
0000
,
0203
0000
0320
0000
,
2030
0000
0000
0000
,
0000
0000
3200
0320
,
0032
0000
0000
0000
,
0203
0000
0302
0000
,
0023
0000
0000
0000
,
0000
0000
0000
0000
,
0230
0000
0000
0000
,
0000
0000
0000
0300
,
1001
0000
1000
0100
0001
0100
1000
0000
,
0010
0000
0100
0000
0001
0010
0100
0000
,
0010
0000
0001
0100
1000
0100
0010
0000
,
1000
0000
0000
0000
0100
0000
0000
0000
0010
0001
0010
0000
0100
1000
0100
0000
,
0110
0000
1000
0010
0001
0010
0100
0000
,
0001
0000
0000
0000
1000
0000
0000
0000
0001
0010
0001
0010
0100
0000
0000
0000
,
1000
0010
1000
0100
0010
0001
0100
0001
,
0010
0100
1000
0001
0100
1000
0100
0001
,
0010
0000
0001
0100
1000
0100
0010
0000
,
0110
0000
1001
0000
1000
0100
0010
0000
,
0110
0000
1000
0100
0001
0100
1000
0000
,
0110
0000
0000
0000
1001
0000
0000
0000
0001
0100
0001
0000
1000
0100
1000
0000
,
1001
0000
0100
0001
0100
1000
0100
0000
,
0110
0000
0000
0000
1001
0000
0000
0000
0001
0100
0010
1000
0001
0000
0000
0000
,
0100
1000
0100
0010
0100
0001
1000
0001
,
0010
0100
1000
0001
0100
0010
1000
0001
,
1000
0100
1000
0100
0010
0000
0001
0100
0001
0100
0010
0000
1000
0100
1000
0100
,
0010
0000
0001
0100
0001
0100
0010
0000
1000
0100
0010
0001
1000
0000
0020
0000
,
0000
0000
0130
0000
0001
0010
0100
0000
,
0010
0001
1000
0000
0010
1000
0001
0010
,
0001
0100
0001
0100
0010
0000
1000
0100
1000
0100
0010
0000
0001
0100
0001
0100
,
0010
0000
1000
0100
1000
0100
0010
0000
0001
0100
0010
1000
0001
0000
0020
0000
,
0000
0000
0130
0000
1000
0001
0100
0000
,
0010
0010
1000
1000
0100
0010
0001
0000
,
1000
0100
0010
0001
1000
0000
0001
0100
0010
1000
0001
0000
1000
0100
0010
0001
,
1000
0000
0001
0100
0010
1000
0001
0000
1000
0100
0010
0001
1000
0001
0200
0000
,
0000
0000
0310
0000
1000
0001
0010
0000
,
0100
1000
0001
0000
0100
0010
1000
0000
,
0001
0100
0010
1000
0001
0000
1000
0100
0010
0001
1000
0000
0001
0100
0010
1000
,
0001
0000
1000
0100
0010
0001
1000
0000
0001
0100
0010
1000
0001
1000
0200
0000
,
0000
0000
0310
0000
0001
1000
0010
1000
,
0001
0010
0100
0000
1000
0010
0100
0000
0001
1000
0100
0000
1000
0001
0100
0000
,
0020
0000
0000
0000
,
0000
0000
0000
0000
,
0130
0000
0000
0000
0000
0000
0000
0000
0000
0000
0000
0000
0000
0000
0000
0000
0000
0001
0000
0000
0000
0000
0000
0000
0000
0000
0000
0000
0000
0000
0000
0000
0000
0000
0000
0000
1000
0000
0000
0000
0000
0000
0000
0000
0000
0000
0000
0000
0000
0000
0000
0000
0000
0000
0000
0000
0000
0000
0100
0000
0000
0000
0000
0000
,
0000
0000
0000
0000
0000
0000
0000
0000
0000
0000
0000
0000
0000
0000
0000
0000
0000
0000
0000
0000
0000
0000
0000
0000
0000
0000
0000
0000
0000
0000
0000
0000
0000
0000
0000
0000
0000
0000
0000
0000
0000
0000
0000
0000
0000
0000
0000
0000
0000
0000
0000
0000
0000
0000
0000
0010
0000
0000
0000
0000
0000
0000
0000
0000
0000
0000
0000
0000
0000
0000
0000
0000
0000
0000
0000
0000
0000
0000
0000
0000
0000
0000
0000
0000
0000
0000
0000
0000
0000
0000
0000
0000
0000
0000
0000
0000
0000
0000
0000
0000
0000
0000
0000
0000
0000
0000
0000
0000
0000
0000
0000
0000
0000
0000
0000
0000
0000
0000
0000
0000
0000
0000
0000
0000
0000
0000
0000
0000
0000
0000
0000
0000
0001
0000
0000
0000
0000
0000
0000
0000
0000
0000
0000
0000
0000
0000
0000
0000
0000
0000
0000
0000
0000
0000
0000
0000
0000
0000
0000
0000
0000
0000
0000
0000
0000
0000
0000
0000
0000
0000
0000
0000
0000
0000
0000
0000
0000
0000
0000
0000
0000
0000
0000
0000
0000
0000
0000
0000
0000
0000
0000
0000
,
0000
0000
0000
0000
0000
0000
0000
0000
0000
0000
0000
0000
0000
0000
0000
0000
0000
0000
0000
0000
1000
0000
0000
0000
0000
0000
0000
0000
0000
0000
0000
0000
0000
0000
0000
0000
0000
0000
0000
0000
0000
0000
0000
0000
0000
0000
0000
0000
0000
0000
0000
0000
0000
0000
0000
0000
0000
0000
0000
0000
0000
0000
0000
0000
0000
0000
0000
0000
0000
0000
0000
0000
0000
0000
0000
0000
0000
0000
0000
0000
0000
0000
0000
0000
0000
0000
0000
0000
0000
0000
0000
0000
0000
0000
0000
0000
0000
0000
0000
0000
0000
0000
0000
0000
0000
0000
0000
0000
0000
0000
0000
0000
0000
0000
0000
0000
0000
0010
0000
0000
0000
0000
0000
0000
0000
0000
0000
0000
0000
0000
0000
0000
0000
0000
0000
0000
0000
0000
0000
0000
0000
0000
0000
0000
0000
0000
0000
0000
0000
0000
0000
0000
0000
0000
0000
0000
0000
0000
0000
0000
0000
0000
0000
0000
0000
0000
0000
0000
0000
0000
0000
0000
0000
0000
0000
0000
0000
0000
0000
0000
0000
0000
0000
0000
0000
0000
0000
0000
0000
0000
0000
0000
,
0000
0000
0000
0000
0000
0000
0000
0000
0000
0000
0000
0000
0000
0000
0000
0000
0000
0000
0000
0000
0000
0000
0000
0000
0000
0000
0000
0000
0000
0000
0000
0000
0000
0000
0000
0000
0000
0000
0000
0000
0000
0000
0000
0000
0000
0000
0000
0200
0000
0000
0000
0000
0000
0000
0000
0000
0000
0000
0000
0000
0000
0000
0000
0000
0000
0000
0000
0000
0000
0000
0000
0000
0000
0000
0000
0000
0000
0000
0000
0000
0000
0000
0000
0000
0000
0000
0000
0000
0000
0000
0000
0000
0000
0000
0000
0000
0000
0000
0000
0000
0000
0000
0000
0000
0000
0000
0000
0000
0000
0000
0000
0000
0000
0000
0000
0000
0000
0000
0000
0000
0000
0000
0000
0000
0000
0000
0000
0000
0000
0000
0000
0000
0000
0000
0000
0000
0000
0000
0000
0000
0000
0000
0000
0000
0000
0000
0000
0000
0000
0000
0000
0000
0000
0000
0000
0000
0000
0000
0000
0000
0000
0000
0000
0000
0000
0000
0000
0000
0000
0000
0000
0000
0000
0000
0000
0000
0000
0000
0000
0000
0000
0000
0000
0000
0000
0000
0000
0000
0000
0000
0000
0000
,
0000
0000
0000
0000
,
0000
0000
0000
0000
0000
0000
0000
0000
0000
0000
0000
0000
0000
0000
0000
0000
0000
0000
0000
0000
0000
0000
0000
0000
0000
0000
0000
0000
0000
0000
0000
0000
0000
0000
0000
0000
0000
0000
0000
0000
0000
0000
0000
0000
0000
0000
0000
0000
0000
0000
0000
0000
0000
0000
0000
0000
0000
0000
0000
0000
0000
0000
0000
0000
0000
0000
0000
0000
0000
0000
0000
0000
0000
0000
0000
0000
0000
0000
0000
0000
0000
0000
0000
0000
0000
0000
0000
0000
0000
0000
0000
0000
0000
0000
0000
0000
0000
0000
0000
0000
0000
0000
0000
0000
0000
0000
0000
0000
0000
0000
0000
0000
0000
0000
0000
0000
0000
0000
0000
0000
0000
0000
0000
0000
0000
0000
0000
0000
0000
0000
0000
0000
0000
0000
0000
0000
0000
0000
0000
0000
0000
0000
0000
0000
0000
0000
0000
0000
0000
0000
0000
0000
0000
0000
0000
0000
0000
0000
0000
0000
0000
0000
0000
0000
0000
0000
0000
0300
0000
0000
0000
0000
0000
0000
0000
0000
0000
0000
0000
0000
0000
0000
0000
0000
0000
0000
0000
0000
0000
0000
0000
0000
;

//--------------- dance-single - forcednature ----------------
#NOTEDATA:;
#STEPSTYPE:dance-single;
#DESCRIPTION:forcednature;
#CREDIT:forcednature;
#DIFFICULTY:Hard;
#METER:18;
#RADARVALUES:0,0,0,0,0;
#NOTES:
0000
0000
0000
0000
,
0000
0000
0000
0000
,
0000
0000
0000
0000
,
0000
0000
0000
0000
,
0000
0000
0000
0000
,
0000
0000
0000
0000
,
0000
0000
0000
0000
,
0000
0000
0000
0000
,
0000
0000
0000
0000
,
2000
0000
0000
0000
,
3200
0000
0000
0000
,
0320
0000
0000
0000
,
0032
0000
0000
0000
,
1003
0010
1000
0010
,
0100
0001
0100
0001
,
0010
0100
0010
0100
,
0110
0000
0000
0000
1001
0000
0000
0000
1000
0100
0010
0001
0010
0100
1000
0001
,
0100
0000
0020
2030
,
3200
0302
0203
0320
,
0032
0000
2003
0000
3100
0010
0001
0100
,
0010
0000
0000
0000
1000
0000
0000
0000
0001
0100
0001
0100
0010
1000
0010
1000
,
0001
0000
0011
0000
1000
0010
0100
0001
,
0000
0000
0020
0000
0001
0000
0030
0000
0010
0100
1000
0001
1000
0010
0100
0001
,
1000
0000
0010
0100
1000
0001
0010
1000
,
0001
0000
0000
0000
0000
0000
0100
0000
0000
0001
0000
0000
1000
0000
0000
0100
0010
0001
0010
0000
0000
0001
0000
0000
,
2000
3200
2300
3020
,
0032
0023
0230
0302
,
1003
0100
0010
0001
1000
0000
0001
0100
0010
1000
0001
0000
1000
0100
0010
0001
,
1000
0000
0001
0100
0010
1000
0001
0000
1000
0100
0010
0001
0010
0100
1000
0000
,
0002
0203
2300
3200
,
0320
2030
3002
2003
,
3001
0100
0010
1000
0001
0000
1000
0100
0010
0001
1000
0000
0001
0100
0010
1000
,
0001
0000
1000
0100
1000
0010
0100
0001
0010
0100
0010
0001
0100
0010
1000
0001
,
0020
0230
2300
3002
,
0203
0320
2030
3002
,
1003
0100
0010
0100
1000
0000
0001
0100
0010
0100
0001
0000
1000
0100
0010
0100
,
1000
0000
0001
0100
0010
0100
0001
0000
1000
0100
0010
0001
1000
0001
0100
0010
,
2000
3200
0302
0203
,
0320
0032
2003
3020
,
0130
0001
0010
0001
1000
0000
0100
1000
0010
1000
0001
0000
0100
0001
0010
0001
,
1000
0000
0100
1000
0001
0010
0100
0010
0001
1000
0010
1000
0001
0010
0100
1000
,
0010
0000
1100
1010
0000
0101
0011
0000
,
0110
1001
0000
1001
0100
0010
0110
0000
,
1001
0000
1010
0101
0000
0011
1100
0000
,
0110
1001
0000
1001
0010
0100
0110
0000
,
1001
0000
1100
1001
0000
0101
1001
0000
,
1010
1001
0000
0011
0001
1000
0010
1000
,
0100
0001
0100
1000
0001
1000
0010
0001
1000
0100
0001
0010
,
0002
0000
0000
0000
,
0000
0000
0203
0320
,
2030
0000
0000
0000
,
3002
0000
0023
0000
,
0230
0000
0000
0000
,
0000
0000
2300
3002
,
0203
0000
0000
0000
,
0320
0000
2030
0000
,
0002
0000
0000
0000
,
0000
0000
0000
0000
,
3003
0000
0000
0000
,
0000
0000
0000
0000
0000
0000
0000
0000
0000
0000
0000
0000
1000
0100
0010
0001
,
1000
0000
0000
0000
1100
0000
0000
0000
0001
0000
0100
0010
1000
0000
0000
0000
,
1100
0000
0000
0000
0011
0000
0000
0000
1000
0000
0100
0010
0001
0000
0000
0000
,
0101
0000
0000
0000
1100
0000
0000
0000
1001
0000
0000
0000
1000
0010
0100
0001
,
1000
0000
0000
0000
0101
0000
0000
0000
1000
0100
0010
0000
0001
0100
0010
0000
,
1010
0000
0000
0000
1001
0000
0000
0000
0011
0000
0000
0000
0001
0100
0010
1000
,
0001
0000
0000
0000
1001
0000
0000
0000
1000
0100
0010
0001
1000
0000
0000
0000
,
0100
0000
0000
0001
0000
0000
0100
0000
0000
1000
0000
0000
0010
0000
0000
0100
0001
0100
0001
0000
0000
1000
0000
0000
,
0100
0000
0000
1000
0000
0000
0010
0000
0000
0010
0000
0000
0100
0000
0000
0001
1000
0001
1000
0000
0000
0100
0000
0000
,
0110
0000
0000
0000
1001
0000
0000
0000
0001
0000
0010
0100
1000
0000
0000
0000
,
1010
0000
0000
0000
0011
0000
0000
0000
0001
0100
0010
1000
0001
0000
0000
0000
,
1010
0000
0000
0000
0011
0000
0000
0000
1001
0000
0000
0000
1000
0001
0100
0010
,
1000
0000
0000
0000
1001
0000
0000
0000
0001
1000
0100
0000
1000
0001
0100
0000
,
0110
0000
0000
0000
1001
0000
0000
0000
0001
0000
1000
0100
0010
0001
0010
0100
,
1000
0000
0000
0000
0101
0000
0000
0000
0100
0001
0100
0010
1000
0000
0001
0000
,
0010
0100
1000
0100
0010
0001
1000
0001
,
0100
0010
1000
0010
0100
0001
1000
0010
,
1000
0100
0010
0001
0010
0100
1000
0010
0100
0001
0100
0010
1000
0100
0010
0001
,
0010
0100
1000
0010
0100
0001
0100
0010
1000
0100
0010
0001
0100
0010
2000
0000
,
0000
3100
0010
0001
0100
1000
0100
0001
,
0010
0000
0100
0000
0010
0000
0001
0000
1000
0000
0010
0000
0100
0001
0100
0000
,
0001
0010
0001
0100
0010
1000
0001
0100
0001
0010
0100
1000
0001
0010
0001
0100
,
0010
1000
0001
0100
0001
0010
0100
1000
0001
0010
0001
0100
0010
1000
0200
0000
,
0000
0310
0001
1000
0001
0100
1000
0100
,
0010
1000
0010
1000
0001
0100
0010
1000
0001
0010
0001
0010
0100
1000
0100
0000
,
0010
0001
1000
0010
0100
0001
0010
0100
1000
0010
0100
0001
0010
0001
1000
0010
,
0100
0001
0010
0100
1000
0010
0100
0001
0010
0001
1000
0001
0100
0010
2000
0000
,
0000
3100
0010
0001
0100
1000
0100
0010
,
1000
0000
0001
0000
0010
0000
0001
0000
0100
0000
0010
0000
1000
0100
1000
0000
,
0001
0010
0001
0100
0010
1000
0100
1000
0010
0100
0001
0010
0001
0100
0010
1000
,
0100
1000
0010
0100
0001
0010
0001
0100
0010
1000
0001
1000
0100
0010
0002
0000
,
0000
0103
0010
1000
0100
0001
0100
1000
,
0001
0010
0100
1000
0100
0010
0001
1000
0001
0100
0010
1000
0001
0010
0100
1000
,
0002
0000
0000
0000
,
0000
0000
0000
0000
,
0103
0000
0000
0000
0000
0000
0000
0000
0000
0000
0000
0000
0000
0000
0000
0000
0000
0000
0000
0000
0000
0000
0000
0000
0000
0000
0001
0000
0000
0000
0000
0000
0000
0000
0000
0000
0000
0000
0000
0000
0000
0000
0000
0000
0000
0000
0000
0000
0000
0000
0000
1000
0000
0000
0000
0000
0000
0000
0000
0000
0000
0000
0000
0000
0000
0000
0000
0000
0000
0000
0000
0000
0000
0000
0000
0000
0000
0000
0000
0000
0000
0000
0001
0000
0000
0000
0000
0000
0000
0000
0000
0000
0000
0000
0000
0000
0000
0000
0000
0000
0000
0000
0000
0000
0000
0000
0000
0000
0010
0000
0000
0000
0000
0000
0000
0000
0000
0000
0000
0000
0000
0000
0000
0000
0000
0000
0000
0000
0000
0000
0000
0000
0000
0000
0000
0000
0000
0000
0000
0000
0000
0100
0000
0000
0000
0000
0000
0000
0000
0000
0000
0000
0000
0000
0000
0000
0000
0000
0000
0000
0000
0000
0000
0000
0000
0000
0000
0000
0000
0000
0000
0000
0000
0000
1000
0000
0000
0000
0000
0000
0000
0000
0000
0000
0000
0000
0000
0000
0000
0000
0000
0000
,
0000
0000
0000
0000
0000
0000
0000
0000
0000
0000
0000
0000
0000
0000
0000
0000
0000
0000
0100
0000
0000
0000
0000
0000
0000
0000
0000
0000
0000
0000
0000
0000
0000
0000
0000
0000
0000
0000
0000
0000
0000
0000
0000
0000
0000
0000
0000
0000
0000
0000
0000
0000
0000
0000
0000
0010
0000
0000
0000
0000
0000
0000
0000
0000
0000
0000
0000
0000
0000
0000
0000
0000
0000
0000
0000
0000
0000
0000
0000
0000
0000
0000
0000
0000
0000
0000
0000
0000
0000
0000
0000
0000
0000
0001
0000
0000
0000
0000
0000
0000
0000
0000
0000
0000
0000
0000
0000
0000
0000
0000
0000
0000
0000
0000
0000
0000
0000
0000
0000
0000
0000
0000
0000
0000
0000
0000
0000
0000
0000
0000
0000
0000
1000
0000
0000
0000
0000
0000
0000
0000
0000
0000
0000
0000
0000
0000
0000
0000
0000
0000
0000
0000
0000
0000
0000
0000
0000
0000
0000
0000
0000
0000
0000
0000
0000
0000
0000
0000
0000
0000
0000
0001
0000
0000
0000
0000
0000
0000
0000
0000
0000
0000
0000
0000
0000
0000
0000
0000
0000
0000
0000
0000
,
0000
0000
0000
0000
0000
0000
0000
0000
0000
0000
0000
0000
0000
0000
0000
0000
0000
0000
0000
0000
0100
0000
0000
0000
0000
0000
0000
0000
0000
0000
0000
0000
0000
0000
0000
0000
0000
0000
0000
0000
0000
0000
0000
0000
0000
0000
0000
0000
0000
0000
0000
0000
0000
0000
0000
0000
0000
0000
0000
0000
0000
0000
0000
0000
0000
0000
0000
0000
0000
0010
0000
0000
0000
0000
0000
0000
0000
0000
0000
0000
0000
0000
0000
0000
0000
0000
0000
0000
0000
0000
0000
0000
0000
0000
0000
0000
0000
0000
0000
0000
0000
0000
0000
0000
0000
0000
0000
0000
0000
0000
0000
0000
0000
0000
0000
0000
0000
1000
0000
0000
0000
0000
0000
0000
0000
0000
0000
0000
0000
0000
0000
0000
0000
0000
0000
0000
0000
0000
0000
0000
0000
0000
0000
0000
0000
0000
0000
0000
0000
0000
0000
0000
0000
0000
0000
0000
0000
0000
0000
0000
0000
0000
0000
0000
0000
0000
0000
0000
0000
0000
0000
0000
0000
0000
0000
0000
0001
0000
0000
0000
0000
0000
0000
0000
0000
0000
0000
0000
0000
0000
0000
0000
,
0000
0000
0000
0000
0000
0000
0000
0000
0000
0000
0000
0000
0000
0000
0000
0000
0000
0000
0000
0000
0000
0000
0000
0000
0000
0000
0000
0000
0000
0000
0000
0000
0000
0000
0000
0000
0000
0000
0000
0000
0000
0000
0000
0000
0000
0000
0000
0020
0000
0000
0000
0000
0000
0000
0000
0000
0000
0000
0000
0000
0000
0000
0000
0000
0000
0000
0000
0000
0000
0000
0000
0000
0000
0000
0000
0000
0000
0000
0000
0000
0000
0000
0000
0000
0000
0000
0000
0000
0000
0000
0000
0000
0000
0000
0000
0000
0000
0000
0000
0000
0000
0000
0000
0000
0000
0000
0000
0000
0000
0000
0000
0000
0000
0000
0000
0000
0000
0000
0000
0000
0000
0000
0000
0000
0000
0000
0000
0000
0000
0000
0000
0000
0000
0000
0000
0000
0000
0000
0000
0000
0000
0000
0000
0000
0000
0000
0000
0000
0000
0000
0000
0000
0000
0000
0000
0000
0000
0000
0000
0000
0000
0000
0000
0000
0000
0000
0000
0000
0000
0000
0000
0000
0000
0000
0000
0000
0000
0000
0000
0000
0000
0000
0000
0000
0000
0000
0000
0000
0000
0000
0000
0000
,
0000
0000
0000
0000
,
0000
0000
0000
0000
0000
0000
0000
0000
0000
0000
0000
0000
0000
0000
0000
0000
0000
0000
0000
0000
0000
0000
0000
0000
0000
0000
0000
0000
0000
0000
0000
0000
0000
0000
0000
0000
0000
0000
0000
0000
0000
0000
0000
0000
0000
0000
0000
0000
0000
0000
0000
0000
0000
0000
0000
0000
0000
0000
0000
0000
0000
0000
0000
0000
0000
0000
0000
0000
0000
0000
0000
0000
0000
0000
0000
0000
0000
0000
0000
0000
0000
0000
0000
0000
0000
0000
0000
0000
0000
0000
0000
0000
0000
0000
0000
0000
0000
0000
0000
0000
0000
0000
0000
0000
0000
0000
0000
0000
0000
0000
0000
0000
0000
0000
0000
0000
0000
0000
0000
0000
0000
0000
0000
0000
0000
0000
0000
0000
0000
0000
0000
0000
0000
0000
0000
0000
0000
0000
0000
0000
0000
0000
0000
0000
0000
0000
0000
0000
0000
0000
0000
0000
0000
0000
0000
0000
0000
0000
0000
0000
0000
0000
0000
0000
0000
0000
0000
0030
0000
0000
0000
0000
0000
0000
0000
0000
0000
0000
0000
0000
0000
0000
0000
0000
0000
0000
0000
0000
0000
0000
0000
0000
;

//--------------- dance-single - forcednature ----------------
#NOTEDATA:;
#STEPSTYPE:dance-single;
#DESCRIPTION:forcednature;
#CREDIT:forcednature;
#DIFFICULTY:Challenge;
#METER:19;
#RADARVALUES:0,0,0,0,0;
#NOTES:
0000
0000
0000
0000
,
0000
0000
0000
0000
,
0000
0000
0000
0000
,
0000
0000
0000
0000
,
0000
0000
0000
0000
,
0000
0000
0000
0000
,
0000
0000
0000
0000
,
0000
0000
0000
0000
,
0000
0000
0000
0000
,
1000
0100
0010
0001
0000
1000
0001
0100
,
0000
0001
1000
0010
0000
1000
0001
0010
,
0000
0100
1000
0010
0100
0001
1000
0001
,
0010
0100
1000
0001
0100
1000
0100
0010
,
0000
1000
0100
0010
0000
0001
0100
0010
,
0000
1000
0001
0010
0000
0001
1000
0010
,
0100
0001
1000
0001
0010
0100
1000
0001
,
1001
0000
0000
0000
0110
0000
0000
0000
0001
0010
0100
1000
0100
0010
0001
1000
,
0010
0000
0000
0000
0100
1000
0001
0010
,
1000
0001
1000
0100
0001
0100
0010
0001
,
1000
0010
0100
1000
0001
0010
0100
0001
,
1000
0000
0100
0000
0010
0000
1000
0000
0010
0001
0010
0001
1000
0100
1000
0100
,
0010
0001
1000
0001
0100
0010
0001
0010
,
1000
0000
0002
0000
0010
0000
0003
0000
0100
0001
1000
0010
1000
0001
1000
0100
,
0010
0001
0100
0001
0010
1000
0010
0001
,
1000
0000
0000
0001
0000
0000
0100
0000
0000
0010
0000
0000
1000
0000
0000
0001
0010
0100
1000
0000
0000
0010
0000
0000
,
0100
1000
0100
0010
0100
0001
1000
0001
,
0010
1000
0010
0100
0010
0001
1000
0000
,
0001
0100
0010
1000
0001
0000
1000
0100
0010
0001
1000
0000
0001
0100
0010
1000
,
0100
0000
1000
0100
0010
0001
0100
0000
0001
0100
0010
1000
0100
1000
0010
0100
,
0001
0010
0100
0010
1000
0001
0100
1000
,
0001
0100
1000
0100
0010
1000
0001
0010
,
0001
0100
0010
1000
0001
0000
1000
0100
0010
0001
1000
0000
0010
1000
0001
1000
,
0100
0000
0010
0001
1000
0001
0100
0010
1000
0001
0010
0001
1000
0010
0100
0000
,
0001
0100
0001
0000
1000
0010
1000
0000
0001
0010
0001
0000
1000
0100
1000
0000
,
0001
0010
0100
0000
1000
0010
0100
0000
0001
1000
0100
0000
1000
0001
0100
0000
,
0001
0010
0001
0100
0010
0000
1000
0100
0010
0100
1000
0000
0001
0100
0010
1000
,
0001
0000
0010
0100
1000
0001
0100
0000
0010
0100
0001
1000
0001
0010
0100
1000
,
0001
0010
0001
0000
1000
0100
1000
0000
0001
0100
0001
0000
1000
0010
1000
0000
,
0010
0100
0001
0000
0010
0100
1000
0000
0010
1000
0001
0000
0010
0001
1000
0000
,
0100
1000
0010
0100
0001
0000
0010
0001
0100
0010
1000
0000
0100
1000
0010
0100
,
0001
0000
0010
1000
0010
0100
0010
0001
1000
0001
0100
0010
1000
0001
0010
0100
,
1000
0000
0001
0100
1000
0000
1000
0000
0100
0001
0010
0000
0001
0000
1000
0100
,
0001
0000
0001
0000
0100
1000
0010
0000
0100
0000
0110
0000
1001
0000
0000
0000
,
0001
0000
1000
0100
0001
0000
0001
0000
0100
1000
0010
0000
1000
0000
0001
0100
,
1000
0000
1000
0000
0100
0001
0010
0000
0100
0000
0110
0000
1001
0000
0000
0000
,
1100
0000
0100
0010
0001
0000
0101
0000
0001
0100
0010
0000
1010
0000
1000
0100
,
0010
0000
0011
0000
0001
0100
0010
0000
0100
0000
0110
0000
1001
0000
0000
0000
,
1000
0100
0001
0100
0010
0001
0100
0010
0001
0010
1000
0100
,
0020
0000
0000
0100
0000
0000
1000
0000
0000
0100
0000
0001
,
0000
0000
0001
0001
0000
0000
0230
0000
0000
2300
0000
0000
,
3002
0000
0000
0100
0000
0000
1000
0000
0000
0010
0000
1000
,
2003
0000
0100
0100
0000
0000
3020
0000
0000
0001
0000
0100
,
0230
0000
0000
1000
0000
0000
0010
0000
0000
0001
0000
1000
,
0000
0000
1000
1000
0000
0000
0302
0000
0000
0023
0000
0000
,
0230
0000
0001
0000
0001
0000
0010
1000
0000
0010
0000
0000
,
2300
0000
0010
0000
0100
0000
3002
0000
0100
0100
0000
1000
,
0023
0000
0000
0000
,
0000
0000
0000
0000
,
0030
0000
0000
0000
,
0000
0000
0000
0000
0000
0000
0000
0000
0000
0000
0000
0000
1000
0100
0010
0001
,
0100
0001
0010
0100
1000
0000
0001
0100
1000
0000
0100
0001
1000
0000
0001
0010
,
0001
0010
0100
0000
1000
0010
0100
0000
0001
1000
0100
1000
0010
0000
0000
0000
,
0100
0001
0010
0100
1000
0000
0010
0100
0001
0000
1000
0100
0001
0000
0100
0010
,
0001
1000
0010
0000
0100
0001
1000
0000
0001
0010
0100
0000
0010
0100
1000
0000
,
0001
0100
0010
1000
0001
1000
0010
0000
0100
0000
1000
0100
0001
0000
0010
0001
,
0100
0001
1000
0000
0100
1000
0001
0000
0010
0100
1000
0010
0100
0000
1000
0000
,
0001
0000
0000
0010
0000
0000
0100
0000
0000
0010
0000
0000
1000
0000
0000
0001
0010
0100
1000
0000
0000
0010
0000
0000
,
0100
0000
0000
1000
0000
0000
0001
0000
0000
0010
0000
0000
1000
0000
0000
0100
0010
0001
1000
0000
0000
0010
0000
0000
,
0100
1000
0100
0001
0010
0001
0100
0000
0010
1000
0100
0010
0001
0000
0100
0010
,
1000
0100
0001
0000
0100
1000
0010
0000
0100
0001
1000
0001
0010
0000
0000
0000
,
0100
0001
0100
1000
0010
1000
0100
0000
0010
0001
0100
0010
1000
0000
0100
0010
,
0001
1000
0010
0000
1000
0001
0010
0000
0001
0100
1000
0000
1000
0100
0001
0000
,
0010
1000
0010
0001
0100
0001
0010
0000
0100
1000
0010
0100
0001
0000
0010
0100
,
1000
0010
0001
0000
0010
1000
0001
1000
0100
0010
0001
1000
0010
0000
0100
0000
,
0001
0010
0001
0100
0010
1000
0100
1000
,
1000
0010
0100
0001
1000
0100
0010
0001
,
1000
0100
0010
0001
0100
0010
0001
0010
0100
1000
0100
0010
1000
0100
0010
0001
,
0100
0010
0001
0010
0100
1000
0100
0010
1000
0001
0010
0001
0100
0010
2000
0000
,
0000
3010
0100
1000
0001
0010
0100
0001
,
0010
0000
0100
0000
0001
0000
0100
0000
1000
0000
0001
0000
0010
0100
1000
0000
,
0001
0010
1000
0010
0001
0100
0010
0001
0010
1000
0001
0100
0001
0010
1000
0010
,
0001
0100
0010
0001
0010
1000
0001
0100
0001
0010
0100
1000
0010
0100
0002
0000
,
0000
0103
0010
1000
0100
0001
0100
1000
,
0010
1000
0100
1000
0001
0010
0001
0100
0010
1000
0001
1000
0100
0010
0001
0000
,
1000
0100
0001
0100
0010
0001
1000
0010
0001
0010
0100
0001
1000
0100
0001
0100
,
0010
0001
1000
0010
0001
0010
0100
0001
1000
0010
0100
0001
0010
0100
2000
0000
,
0000
3010
0100
1000
0001
0010
1000
0010
,
0100
0000
0001
0000
1000
0000
0100
0000
1000
0000
0010
0000
0100
0001
1000
0000
,
0100
0001
0100
1000
0001
0010
0001
0100
1000
0100
0010
1000
0100
0001
0100
1000
,
0001
0010
0001
0100
1000
0100
0001
0010
0100
0001
0100
1000
0001
1000
0020
0000
,
0000
0130
1000
0100
0001
1000
0001
0010
,
0100
1000
0100
1000
0001
0100
0001
0100
0010
0001
0010
1000
0001
1000
0100
0010
,
0002
0000
0000
0000
,
0000
0000
0000
0000
,
0103
0000
0000
0000
0000
0000
0000
0000
0000
0000
0000
0000
0000
0000
0000
0000
0000
0000
0000
0000
0000
0000
0000
0000
0000
0000
0001
0000
0000
0000
0000
0000
0000
0000
0000
0000
0000
0000
0000
0000
0000
0000
0000
0000
0000
0000
0000
0000
0000
0000
0000
1000
0000
0000
0000
0000
0000
0000
0000
0000
0000
0000
0000
0000
0000
0000
0000
0000
0000
0000
0000
0000
0000
0000
0000
0000
0000
0000
0000
0000
0000
0000
0100
0000
0000
0000
0000
0000
0000
0000
0000
0000
0000
0000
0000
0000
0000
0000
0000
0000
0000
0000
0000
0000
0000
0000
0000
0000
0010
0000
0000
0000
0000
0000
0000
0000
0000
0000
0000
0000
0000
0000
0000
0000
0000
0000
0000
0000
0000
0000
0000
0000
0000
0000
0000
0000
0000
0000
0000
0000
0000
0001
0000
0000
0000
0000
0000
0000
0000
0000
0000
0000
0000
0000
0000
0000
0000
0000
0000
0000
0000
0000
0000
0000
0000
0000
0000
0000
0000
0000
0000
0000
0000
0000
1000
0000
0000
0000
0000
0000
0000
0000
0000
0000
0000
0000
0000
0000
0000
0000
0000
0000
,
0000
0000
0000
0000
0000
0000
0000
0000
0000
0000
0000
0000
0000
0000
0000
0000
0000
0000
0010
0000
0000
0000
0000
0000
0000
0000
0000
0000
0000
0000
0000
0000
0000
0000
0000
0000
0000
0000
0000
0000
0000
0000
0000
0000
0000
0000
0000
0000
0000
0000
0000
0000
0000
0000
0000
0100
0000
0000
0000
0000
0000
0000
0000
0000
0000
0000
0000
0000
0000
0000
0000
0000
0000
0000
0000
0000
0000
0000
0000
0000
0000
0000
0000
0000
0000
0000
0000
0000
0000
0000
0000
0000
0000
0001
0000
0000
0000
0000
0000
0000
0000
0000
0000
0000
0000
0000
0000
0000
0000
0000
0000
0000
0000
0000
0000
0000
0000
0000
0000
0000
0000
0000
0000
0000
0000
0000
0000
0000
0000
0000
0000
0000
1000
0000
0000
0000
0000
0000
0000
0000
0000
0000
0000
0000
0000
0000
0000
0000
0000
0000
0000
0000
0000
0000
0000
0000
0000
0000
0000
0000
0000
0000
0000
0000
0000
0000
0000
0000
0000
0000
0000
0001
0000
0000
0000
0000
0000
0000
0000
0000
0000
0000
0000
0000
0000
0000
0000
0000
0000
0000
0000
0000
,
0000
0000
0000
0000
0000
0000
0000
0000
0000
0000
0000
0000
0000
0000
0000
0000
0000
0000
0000
0000
0010
0000
0000
0000
0000
0000
0000
0000
0000
0000
0000
0000
0000
0000
0000
0000
0000
0000
0000
0000
0000
0000
0000
0000
0000
0000
0000
0000
0000
0000
0000
0000
0000
0000
0000
0000
0000
0000
0000
0000
0000
0000
0000
0000
0000
0000
0000
0000
0000
0100
0000
0000
0000
0000
0000
0000
0000
0000
0000
0000
0000
0000
0000
0000
0000
0000
0000
0000
0000
0000
0000
0000
0000
0000
0000
0000
0000
0000
0000
0000
0000
0000
0000
0000
0000
0000
0000
0000
0000
0000
0000
0000
0000
0000
0000
0000
0000
1000
0000
0000
0000
0000
0000
0000
0000
0000
0000
0000
0000
0000
0000
0000
0000
0000
0000
0000
0000
0000
0000
0000
0000
0000
0000
0000
0000
0000
0000
0000
0000
0000
0000
0000
0000
0000
0000
0000
0000
0000
0000
0000
0000
0000
0000
0000
0000
0000
0000
0000
0000
0000
0000
0000
0000
0000
0000
0000
0001
0000
0000
0000
0000
0000
0000
0000
0000
0000
0000
0000
0000
0000
0000
0000
,
0000
0000
0000
0000
0000
0000
0000
0000
0000
0000
0000
0000
0000
0000
0000
0000
0000
0000
0000
0000
0000
0000
0000
0000
0000
0000
0000
0000
0000
0000
0000
0000
0000
0000
0000
0000
0000
0000
0000
0000
0000
0000
0000
0000
0000
0000
0000
0200
0000
0000
0000
0000
0000
0000
0000
0000
0000
0000
0000
0000
0000
0000
0000
0000
0000
0000
0000
0000
0000
0000
0000
0000
0000
0000
0000
0000
0000
0000
0000
0000
0000
0000
0000
0000
0000
0000
0000
0000
0000
0000
0000
0000
0000
0000
0000
0000
0000
0000
0000
0000
0000
0000
0000
0000
0000
0000
0000
0000
0000
0000
0000
0000
0000
0000
0000
0000
0000
0000
0000
0000
0000
0000
0000
0000
0000
0000
0000
0000
0000
0000
0000
0000
0000
0000
0000
0000
0000
0000
0000
0000
0000
0000
0000
0000
0000
0000
0000
0000
0000
0000
0000
0000
0000
0000
0000
0000
0000
0000
0000
0000
0000
0000
0000
0000
0000
0000
0000
0000
0000
0000
0000
0000
0000
0000
0000
0000
0000
0000
0000
0000
0000
0000
0000
0000
0000
0000
0000
0000
0000
0000
0000
0000
,
0000
0000
0000
0000
,
0000
0000
0000
0000
0000
0000
0000
0000
0000
0000
0000
0000
0000
0000
0000
0000
0000
0000
0000
0000
0000
0000
0000
0000
0000
0000
0000
0000
0000
0000
0000
0000
0000
0000
0000
0000
0000
0000
0000
0000
0000
0000
0000
0000
0000
0000
0000
0000
0000
0000
0000
0000
0000
0000
0000
0000
0000
0000
0000
0000
0000
0000
0000
0000
0000
0000
0000
0000
0000
0000
0000
0000
0000
0000
0000
0000
0000
0000
0000
0000
0000
0000
0000
0000
0000
0000
0000
0000
0000
0000
0000
0000
0000
0000
0000
0000
0000
0000
0000
0000
0000
0000
0000
0000
0000
0000
0000
0000
0000
0000
0000
0000
0000
0000
0000
0000
0000
0000
0000
0000
0000
0000
0000
0000
0000
0000
0000
0000
0000
0000
0000
0000
0000
0000
0000
0000
0000
0000
0000
0000
0000
0000
0000
0000
0000
0000
0000
0000
0000
0000
0000
0000
0000
0000
0000
0000
0000
0000
0000
0000
0000
0000
0000
0000
0000
0000
0000
0300
0000
0000
0000
0000
0000
0000
0000
0000
0000
0000
0000
0000
0000
0000
0000
0000
0000
0000
0000
0000
0000
0000
0000
0000
;

//--------------- dance-double - forcednature ----------------
#NOTEDATA:;
#STEPSTYPE:dance-double;
#DESCRIPTION:forcednature;
#CREDIT:forcednature;
#DIFFICULTY:Easy;
#METER:13;
#RADARVALUES:0,0,0,0,0;
#NOTES:
00000000
00000000
00000000
00000000
,
00000000
00000000
00000000
00000000
,
00000000
00000000
00000000
00000000
,
00000000
00000000
00000000
00000000
,
00000000
00000000
00000000
00000000
,
00000000
00000000
00000000
00000000
,
00000000
00000000
00000000
00000000
,
00000000
00000000
00000000
00000000
,
00000000
00000000
00000000
00000000
,
00002000
00000000
00000000
00000000
,
00023000
00000000
00000000
00000000
,
00030200
00000000
00000000
00000000
,
00002300
00000000
00000000
00000000
,
00003010
00000100
00000000
00000100
,
00000000
00000001
00000000
00000001
,
00000000
00000010
00000000
00000100
,
00000110
00001100
00010100
00011000
,
01001000
00000000
01000000
00010000
,
10000000
01000000
00100000
00001000
,
00010000
00100000
10000000
00010000
,
00100000
00000000
00001000
00000000
00010000
00000010
00010000
00000010
,
00001000
00000100
00000010
00000001
,
00000000
00000200
00000000
00000300
00001000
00010000
00001000
00010000
,
00000000
00100000
10000000
00010000
,
10000000
00000000
01000000
00000000
00100000
00001000
00010000
00000000
,
00100000
10000000
00100000
00010000
,
00001000
00000010
00000001
00000010
,
00000200
00000000
00001300
00000200
00000000
00000301
00000200
00000000
,
00001300
00000200
00000000
00000301
00000100
00000010
00000001
00000000
,
00000100
00001000
00010000
00100000
,
01000000
00001000
00010000
01000000
,
00200000
00000000
10300000
00200000
00000000
00310000
00200000
00000000
,
10300000
00200000
00000000
00310000
00100000
00001000
00010000
00000000
,
00000020
00000230
00002300
00023000
,
00030200
00000320
00002030
00023000
,
02030000
00000000
13000000
02000000
00000000
03010000
02000000
00000000
,
13000000
02000000
00000000
03010000
01000000
00100000
00001000
00000000
,
00020000
00230000
02300000
03002000
,
00023000
00030200
00002300
00003020
,
00000230
00000000
00001300
00000200
00000000
00000301
00000200
00000000
,
00001300
00000100
00000010
00001000
00010000
01000000
00100000
00000000
,
10010000
00000000
00000000
01100000
00000000
00000000
00011000
00000000
,
00000000
00000110
00000000
00000000
00000001
00000100
00000010
00000000
,
00001001
00000000
00000000
00000110
00000000
00000000
00011000
00000000
,
00000000
01100000
00000000
00000000
10000000
01000000
00100000
00000000
,
11000000
00000000
00000000
00101000
00000000
00000000
00010010
00000000
,
00000000
00000101
00000000
00000000
00000001
00000010
00000100
00000000
,
00010000
00000000
00010100
00000000
00000000
00000000
01001000
00000000
01010000
00000000
00000000
00000000
,
20200000
00000000
00000000
00000000
,
30000000
00000000
02300000
03020000
,
00230000
00000000
00000000
00000000
,
00302000
00000000
00023000
00000000
,
00030020
00000000
00000000
00000000
,
00000000
00000000
00002030
00003200
,
00000320
00000000
00000000
00000000
,
00000032
00000000
00002003
00000000
,
00003020
00000000
00000000
00000000
,
00000000
00000000
00000000
00000000
,
00000230
00000000
00000000
00000000
,
00000000
00000000
00000000
00000300
,
00001001
00000000
00000001
00000100
00000010
00000000
00010000
00000000
,
00001000
01000000
00010000
00000000
00100000
01000000
00100000
00000000
,
00010000
00000000
10000000
01000000
00100000
00000000
00001000
00000000
,
00010000
00000100
00001000
00000000
00000010
00000000
00010000
00000000
,
00001100
00000000
00000001
00001000
00000100
00000000
00010000
00000000
,
00001000
00100000
00010000
00000000
01000000
00100000
01000000
00000000
,
00020000
00230000
00302000
00023000
,
00030020
00002030
00003200
00000320
,
00000031
00000000
00000100
00001000
00010000
00000000
00001000
00000000
,
00000100
00001000
00010000
00000000
00100000
01000000
00100000
00000000
,
10000000
00000000
01000000
00010000
00001000
00000000
00010000
00000000
,
01000000
00010000
00001000
00000000
00000010
00000000
00000100
00000000
,
00001001
00000000
00000001
00000100
00000010
00000000
00001000
00000000
,
00010000
01000000
00100000
00000000
10000000
00010000
10000000
00010000
,
20000000
32000000
03200000
00320000
,
00032000
00003200
00000320
00000032
,
00000103
00001000
00010000
00000100
00001000
00000010
00000100
00001000
,
00010000
00000100
00001000
00000010
00000100
00001000
00010000
00200000
,
00000000
00000000
01300000
00000000
00100000
10000000
00010000
00000000
,
00100000
00001000
00010000
00000000
01000000
10000000
00010000
00000000
,
01000000
00100000
00010000
00100000
10000000
00010000
01000000
00100000
,
00010000
00100000
10000000
00010000
01000000
00100000
00010000
00002000
,
00000000
00000000
00003010
00000000
00000100
00001000
00000001
00000000
,
00000100
00000100
00001000
00010000
,
00001000
00010000
00100000
00010000
00000100
00000010
00001000
00010000
,
00100000
00010000
00000100
00000010
00001000
00010000
00100000
02000000
,
00000000
00000000
03010000
00000000
10000000
01000000
00010000
00000000
,
00001000
00000010
00000100
00000000
00001000
00000001
00000100
00000000
,
00001000
00010000
00000010
00001000
00000100
00000010
00001000
00010000
,
00000010
00001000
00000100
00000010
00001000
00010000
00000010
00000200
,
00000000
00000000
00001300
00000000
00010000
00100000
10000000
00000000
,
00010000
10000000
00010000
00000000
10000000
00010000
10000000
00000000
01000000
00000000
00010000
00000000
00001000
00000000
00010000
00000000
,
00000020
00000000
00000000
00000000
,
00000000
00000000
00000000
00000000
,
00002030
00000000
00000000
00000000
,
00000000
00000000
00000000
00000000
,
00000000
00000000
00000000
00000000
,
00000000
00000000
00000000
00000000
00000000
00000000
00000000
00000000
00000000
00000000
00000000
00000000
00000000
00000000
00000000
00000000
00000000
00000000
00000000
00000000
00000000
00000000
00000000
00000000
00000000
00000000
00000000
00000000
00000000
00000000
00000000
00000000
00000000
00000000
00000000
00000000
00000000
00000000
00000000
00000000
00000000
00000000
00000000
00000000
00000000
00000000
00000000
00003002
00000000
00000000
00000000
00000000
00000000
00000000
00000000
00000000
00000000
00000000
00000000
00000000
00000000
00000000
00000000
00000000
00000000
00000000
00000000
00000000
00000000
00000000
00000000
00000000
00000000
00000000
00000000
00000000
00000000
00000000
00000000
00000000
00000000
00000000
00000000
00000000
00000000
00000000
00000000
00000000
00000000
00000000
00000000
00000000
00000000
00000000
00000000
00000000
00000000
00000000
00000000
00000000
00000000
00000000
00000000
00000000
00000000
00000000
00000000
00000000
00000000
00000000
00000000
00000000
00000000
00000000
00000000
00000000
00000000
00000000
00000000
00000000
00000000
00000000
00000000
00000000
00000000
00000000
00000000
00000000
00000000
00000000
00000000
00000000
00000000
00000000
00000000
00000000
00000000
00000000
00000000
00000000
00000000
00000000
00000000
00000000
00000000
00000000
00000000
00000000
00000000
00000000
00000000
00000000
00000000
00000000
00000000
00000000
00000000
00000000
00000000
00000000
00000000
00000000
00000000
00000000
00000000
00000000
00000000
00000000
00000000
00000000
00000000
00000000
00000000
00000000
00000000
00000000
00000000
00000000
00000000
00000000
00000000
00000000
00000000
00000000
00000000
00000000
00000000
00000000
00000000
00000000
00000000
00000000
,
00000000
00000000
00000000
00000000
,
00000000
00000000
00000000
00000000
00000000
00000000
00000000
00000000
00000000
00000000
00000000
00000000
00000000
00000000
00000000
00000000
00000000
00000000
00000000
00000000
00000000
00000000
00000000
00000000
00000000
00000000
00000000
00000000
00000000
00000000
00000000
00000000
00000000
00000000
00000000
00000000
00000000
00000000
00000000
00000000
00000000
00000000
00000000
00000000
00000000
00000000
00000000
00000000
00000000
00000000
00000000
00000000
00000000
00000000
00000000
00000000
00000000
00000000
00000000
00000000
00000000
00000000
00000000
00000000
00000000
00000000
00000000
00000000
00000000
00000000
00000000
00000000
00000000
00000000
00000000
00000000
00000000
00000000
00000000
00000000
00000000
00000000
00000000
00000000
00000000
00000000
00000000
00000000
00000000
00000000
00000000
00000000
00000000
00000000
00000000
00000000
00000000
00000000
00000000
00000000
00000000
00000000
00000000
00000000
00000000
00000000
00000000
00000000
00000000
00000000
00000000
00000000
00000000
00000000
00000000
00000000
00000000
00000000
00000000
00000000
00000000
00000000
00000000
00000000
00000000
00000000
00000000
00000000
00000000
00000000
00000000
00000000
00000000
00000000
00000000
00000000
00000000
00000000
00000000
00000000
00000000
00000000
00000000
00000000
00000000
00000000
00000000
00000000
00000000
00000000
00000000
00000000
00000000
00000000
00000000
00000000
00000000
00000000
00000000
00000000
00000000
00000000
00000000
00000000
00000000
00000000
00000000
00000003
00000000
00000000
00000000
00000000
00000000
00000000
00000000
00000000
00000000
00000000
00000000
00000000
00000000
00000000
00000000
00000000
00000000
00000000
00000000
00000000
00000000
00000000
00000000
00000000
;

//--------------- dance-double - forcednature ----------------
#NOTEDATA:;
#STEPSTYPE:dance-double;
#DESCRIPTION:forcednature;
#CREDIT:forcednature;
#DIFFICULTY:Medium;
#METER:16;
#RADARVALUES:0,0,0,0,0;
#NOTES:
00000000
00000000
00000000
00000000
,
00000000
00000000
00000000
00000000
,
00000000
00000000
00000000
00000000
,
00000000
00000000
00000000
00000000
,
00000000
00000000
00000000
00000000
,
00000000
00000000
00000000
00000000
,
00000000
00000000
00000000
00000000
,
00000000
00000000
00000000
00000000
,
00000000
00000000
00000000
00000000
,
00002000
00000000
00000000
00000000
,
02003000
00000000
00000000
00000000
,
03020000
00000000
00000000
00000000
,
00230000
00000000
00000000
00000000
,
01300000
00010000
00000000
00010000
,
00000000
00001000
00000000
00001000
,
00000000
00000100
00000000
00000100
,
00000110
00000000
00000000
00000000
00000110
00000000
00000000
00000000
00000001
00000010
00000100
00001000
00000100
00000010
00000001
00001000
,
00000010
00000000
00000200
00002300
,
00023000
00230000
02300000
03020000
,
20030000
30020000
00230000
02300000
,
03020000
00000000
00032000
00000000
00003100
00000100
00000010
00000010
,
00001001
00002000
00003200
00020300
,
00030000
00000000
00001000
00000000
00002000
00000000
00000000
00000000
01003000
00010000
01000000
00010000
10000000
00100000
10000000
00100000
,
00000000
00000000
01000000
00001000
00010000
00001000
00000020
00000000
,
00000230
00000000
00000000
00000000
00001300
00000000
00000001
00000000
00000100
00000000
00000010
00001000
00000010
00000000
00000000
00000000
,
00000200
00002300
00023000
00230000
,
20300000
32000000
03020000
00032000
,
00013000
00000010
00010000
00000000
00010000
00000000
00001000
00100000
00001000
00000000
00001000
00000000
00010000
00000100
00010000
00000000
,
00010000
00000000
00001000
01000000
00001000
00000000
00001000
00000000
00010000
00000100
00010000
00000000
00001000
01000000
00010000
01000000
,
00200000
20300000
32000000
03020000
,
00032000
00003200
00000320
00020030
,
00031000
01000000
00001000
00000000
00001000
00000000
00010000
00000100
00010000
00000000
00010000
00000000
00001000
00100000
00001000
00000000
,
00001000
00000000
00010000
00000010
00010000
00000010
00001000
00000000
00000100
00000010
00000001
00000000
00000100
00000010
00001000
00000000
,
00000002
00000203
00000320
00002030
,
00023000
02030000
03200000
20300000
,
31000000
00100000
00010000
00000000
00100000
00000000
00001000
00010000
00000010
00000000
00001000
00000000
00000100
00010000
00001000
00000000
,
01000000
00000000
00010000
00100000
00001000
00000000
00010000
00000000
00000010
00001000
00000010
00000000
00000100
00000001
00001000
00000001
,
00000020
00002030
00023000
00230000
,
02300000
03002000
00023000
00030200
,
00001300
00000010
00000100
00000000
00001000
00000000
00010000
00001000
01000000
00000000
00010000
00000000
00100000
01000000
10000000
00000000
,
00100000
00000000
01000000
00010000
01000000
00001000
00010000
00000000
00000100
00010000
00001000
00000000
01000000
00001000
00010000
00000000
,
00011000
00000000
00001000
01001000
00000000
00010000
00010100
00000000
,
00001000
00101000
00000000
00001000
00010000
00010000
00010010
00000000
,
00011000
00000000
00010000
00010100
00000000
00001000
01001000
00000000
,
00010000
00010010
00000000
00010000
00001000
00001000
00101000
00000000
,
00011000
00000000
01000000
01010000
00000000
00000100
00001100
00000000
,
00100000
00110000
00000000
00001000
00010000
00010000
00010010
00000000
,
00000001
00000100
00000010
00001000
00000010
00010000
00001000
00100000
00010000
00100000
01000000
10000000
,
00200000
00000000
00000000
00000000
,
00000000
00000000
02300000
03002000
,
00023000
00000000
00000000
00000000
,
00030200
00000000
00002300
00000000
,
00003002
00000000
00000000
00000000
,
00000000
00000000
00000203
00002300
,
00023000
00000000
00000000
00000000
,
00230000
00000000
20300000
00000000
,
30020000
00000000
00000000
00000000
,
00000000
00000000
00000000
00000000
,
00230000
00000000
00000000
00000000
,
00000000
00000000
00000000
00300000
,
01100000
00000000
10000000
01000000
00010000
00001000
00100000
00000000
,
00010000
00000000
01000000
00000000
00001000
00010000
00000100
00000000
,
00000010
00000000
00000001
00000100
00001000
00010000
00000010
00000000
,
00001000
00000000
00000000
00000000
00000100
00000000
00000000
00000000
00010000
00001000
00000000
00000000
00001000
01000000
00000000
00000000
,
01100000
00000000
00010000
01000000
10000000
01000000
00100000
00000000
,
10000000
00000000
00000000
00000000
00010000
00000000
00000000
00000000
00100000
00001000
00100000
00001000
00010000
00000000
00000000
00000000
,
00000010
00001000
00000100
00010000
00001000
01000000
00010000
00100000
,
01000000
00010000
00001000
00000010
00000100
00001000
00000010
00000100
,
00000001
00000000
00000100
00001000
00010000
00000100
00000010
00000000
,
00000110
00000000
00001001
00000000
00001000
00000100
00010000
00000000
,
00011000
00000000
00001000
00010000
01000000
10000000
00100000
00000000
,
10100000
00000000
00000000
00000000
11000000
00000000
00000000
00000000
00100000
00010000
00000000
00000000
00010000
01000000
00000000
00000000
,
00011000
00000000
00000100
00001000
00000010
00010000
00001000
00000000
,
00000110
00000000
00000000
00000000
00001001
00000000
00000000
00000000
00000001
00000100
00000010
00001000
00000001
00000000
00000000
00000000
,
00000010
00000100
00001000
00000100
00010000
00001000
01000000
00001000
,
00010000
00100000
01000000
00100000
10000000
01000000
00100000
00010000
,
01000000
00001000
01000000
00001000
00010000
00000000
00000100
00010000
00000100
00010000
00001000
00000000
00100000
00001000
00100000
00001000
,
00010000
00000000
00000010
00010000
00000010
00010000
00001000
00000000
00100000
00010000
10000000
00010000
01000000
00000000
00002000
00000000
,
00000000
00000000
00013000
00000000
00000100
00001000
00000010
00000000
,
00010000
00001000
00000010
00000000
00000100
00001000
00000001
00000100
,
00000010
00010000
00000010
00010000
00001000
00000000
00100000
00001000
00100000
00001000
00010000
00000000
00000100
00010000
00000100
00010000
,
00001000
00000000
01000000
00001000
01000000
00001000
00010000
00000000
00000100
00001000
00000001
00001000
00000010
00000000
00000200
00000000
,
00000000
00000000
00001300
00000000
00010000
00100000
01000000
00000000
,
00010000
00010000
10000000
10000000
01000000
00010000
00001000
00000000
,
01000000
00001000
00100000
00001000
00010000
00000000
00000100
00010000
00000010
00010000
00001000
00000000
00100000
00001000
01000000
00001000
,
00010000
00000000
00000010
00010000
00000100
00010000
00001000
00000000
00100000
00010000
10000000
00010000
01000000
00001000
00020000
00000000
,
00000000
00000000
00030100
00000000
00001000
00000001
00000100
00000000
,
00000010
00001000
00010000
01000000
00100000
10000000
00010000
00000000
,
00100000
00010000
01000000
00001000
00010000
00000000
00000010
00001000
00000100
00010000
00001000
00000000
01000000
00010000
00100000
00001000
,
00010000
00000000
00000100
00001000
00000010
00010000
00001000
00000000
01000000
00001000
00010000
00000100
00001000
00000100
00000020
00000000
,
00000000
00000000
00000031
00001000
00000001
00000100
00001000
00010000
,
00100000
10000000
00100000
00000000
01000000
00010000
01000000
00001000
00010000
00000100
00001000
00000100
00000010
00000001
00001000
00000000
,
00000020
00000000
00000000
00000000
,
00000000
00000000
00000000
00000000
,
00000130
00000000
00000000
00000000
00000000
00000000
00000000
00000000
00000000
00000000
00000000
00000000
00000000
00000000
00000000
00000000
00000000
00001000
00000000
00000000
00000000
00000000
00000000
00000000
00000000
00000000
00000000
00000000
00000000
00000000
00000000
00000000
00000000
00000000
00000000
00000000
00010000
00000000
00000000
00000000
00000000
00000000
00000000
00000000
00000000
00000000
00000000
00000000
00000000
00000000
00000000
00000000
00000000
00000000
00000000
00000000
00000000
00000000
00100000
00000000
00000000
00000000
00000000
00000000
,
00000000
00000000
00000000
00000000
00000000
00000000
00000000
00000000
00000000
00000000
00000000
00000000
00000000
00000000
00000000
00000000
00000000
00000000
00000000
00000000
00000000
00000000
00000000
00000000
00000000
00000000
00000000
00000000
00000000
00000000
00000000
00000000
00000000
00000000
00000000
00000000
00000000
00000000
00000000
00000000
00000000
00000000
00000000
00000000
00000000
00000000
00000000
00000000
00000000
00000000
00000000
00000000
00000000
00000000
00000000
10000000
00000000
00000000
00000000
00000000
00000000
00000000
00000000
00000000
00000000
00000000
00000000
00000000
00000000
00000000
00000000
00000000
00000000
00000000
00000000
00000000
00000000
00000000
00000000
00000000
00000000
00000000
00000000
00000000
00000000
00000000
00000000
00000000
00000000
00000000
00000000
00000000
00000000
00000000
00000000
00000000
00000000
00000000
00000000
00000000
00000000
00000000
00000000
00000000
00000000
00000000
00000000
00000000
00000000
00000000
00000000
00000000
00000000
00000000
00000000
00000000
00000000
00000000
00000000
00000000
00000000
00000000
00000000
00000000
00000000
00000000
00000000
00000000
00000000
00000000
00000000
00000000
00010000
00000000
00000000
00000000
00000000
00000000
00000000
00000000
00000000
00000000
00000000
00000000
00000000
00000000
00000000
00000000
00000000
00000000
00000000
00000000
00000000
00000000
00000000
00000000
00000000
00000000
00000000
00000000
00000000
00000000
00000000
00000000
00000000
00000000
00000000
00000000
00000000
00000000
00000000
00000000
00000000
00000000
00000000
00000000
00000000
00000000
00000000
00000000
00000000
00000000
00000000
00000000
00000000
00000000
00000000
00000000
00000000
00000000
00000000
00000000
,
00000000
00000000
00000000
00000000
00000000
00000000
00000000
00000000
00000000
00000000
00000000
00000000
00000000
00000000
00000000
00000000
00000000
00000000
00000000
00000000
10000000
00000000
00000000
00000000
00000000
00000000
00000000
00000000
00000000
00000000
00000000
00000000
00000000
00000000
00000000
00000000
00000000
00000000
00000000
00000000
00000000
00000000
00000000
00000000
00000000
00000000
00000000
00000000
00000000
00000000
00000000
00000000
00000000
00000000
00000000
00000000
00000000
00000000
00000000
00000000
00000000
00000000
00000000
00000000
00000000
00000000
00000000
00000000
00000000
00000000
00000000
00000000
00000000
00000000
00000000
00000000
00000000
00000000
00000000
00000000
00000000
00000000
00000000
00000000
00000000
00000000
00000000
00000000
00000000
00000000
00000000
00000000
00000000
00000000
00000000
00000000
00000000
00000000
00000000
00000000
00000000
00000000
00000000
00000000
00000000
00000000
00000000
00000000
00000000
00000000
00000000
00000000
00000000
00000000
00000000
00000000
00000000
01000000
00000000
00000000
00000000
00000000
00000000
00000000
00000000
00000000
00000000
00000000
00000000
00000000
00000000
00000000
00000000
00000000
00000000
00000000
00000000
00000000
00000000
00000000
00000000
00000000
00000000
00000000
00000000
00000000
00000000
00000000
00000000
00000000
00000000
00000000
00000000
00000000
00000000
00000000
00000000
00000000
00000000
00000000
00000000
00000000
00000000
00000000
00000000
00000000
00000000
00000000
00000000
00000000
00000000
00000000
00000000
00000000
00000000
00000000
00000000
00000000
00000000
00000000
00000000
00000000
00000000
00000000
00000000
00000000
00000000
00000000
00000000
00000000
00000000
00000000
,
00000000
00000000
00000000
00000000
00000000
00000000
00000000
00000000
00000000
00000000
00000000
00000000
00000000
00000000
00000000
00000000
00000000
00000000
00000000
00000000
00000000
00000000
00000000
00000000
00000000
00000000
00000000
00000000
00000000
00000000
00000000
00000000
00000000
00000000
00000000
00000000
00000000
00000000
00000000
00000000
00000000
00000000
00000000
00000000
00000000
00000000
00000000
00200000
00000000
00000000
00000000
00000000
00000000
00000000
00000000
00000000
00000000
00000000
00000000
00000000
00000000
00000000
00000000
00000000
00000000
00000000
00000000
00000000
00000000
00000000
00000000
00000000
00000000
00000000
00000000
00000000
00000000
00000000
00000000
00000000
00000000
00000000
00000000
00000000
00000000
00000000
00000000
00000000
00000000
00000000
00000000
00000000
00000000
00000000
00000000
00000000
00000000
00000000
00000000
00000000
00000000
00000000
00000000
00000000
00000000
00000000
00000000
00000000
00000000
00000000
00000000
00000000
00000000
00000000
00000000
00000000
00000000
00000000
00000000
00000000
00000000
00000000
00000000
00000000
00000000
00000000
00000000
00000000
00000000
00000000
00000000
00000000
00000000
00000000
00000000
00000000
00000000
00000000
00000000
00000000
00000000
00000000
00000000
00000000
00000000
00000000
00000000
00000000
00000000
00000000
00000000
00000000
00000000
00000000
00000000
00000000
00000000
00000000
00000000
00000000
00000000
00000000
00000000
00000000
00000000
00000000
00000000
00000000
00000000
00000000
00000000
00000000
00000000
00000000
00000000
00000000
00000000
00000000
00000000
00000000
00000000
00000000
00000000
00000000
00000000
00000000
00000000
00000000
00000000
00000000
00000000
00000000
,
00000000
00000000
00000000
00000000
,
00000000
00000000
00000000
00000000
00000000
00000000
00000000
00000000
00000000
00000000
00000000
00000000
00000000
00000000
00000000
00000000
00000000
00000000
00000000
00000000
00000000
00000000
00000000
00000000
00000000
00000000
00000000
00000000
00000000
00000000
00000000
00000000
00000000
00000000
00000000
00000000
00000000
00000000
00000000
00000000
00000000
00000000
00000000
00000000
00000000
00000000
00000000
00000000
00000000
00000000
00000000
00000000
00000000
00000000
00000000
00000000
00000000
00000000
00000000
00000000
00000000
00000000
00000000
00000000
00000000
00000000
00000000
00000000
00000000
00000000
00000000
00000000
00000000
00000000
00000000
00000000
00000000
00000000
00000000
00000000
00000000
00000000
00000000
00000000
00000000
00000000
00000000
00000000
00000000
00000000
00000000
00000000
00000000
00000000
00000000
00000000
00000000
00000000
00000000
00000000
00000000
00000000
00000000
00000000
00000000
00000000
00000000
00000000
00000000
00000000
00000000
00000000
00000000
00000000
00000000
00000000
00000000
00000000
00000000
00000000
00000000
00000000
00000000
00000000
00000000
00000000
00000000
00000000
00000000
00000000
00000000
00000000
00000000
00000000
00000000
00000000
00000000
00000000
00000000
00000000
00000000
00000000
00000000
00000000
00000000
00000000
00000000
00000000
00000000
00000000
00000000
00000000
00000000
00000000
00000000
00000000
00000000
00000000
00000000
00000000
00000000
00000000
00000000
00000000
00000000
00000000
00000000
00300000
00000000
00000000
00000000
00000000
00000000
00000000
00000000
00000000
00000000
00000000
00000000
00000000
00000000
00000000
00000000
00000000
00000000
00000000
00000000
00000000
00000000
00000000
00000000
00000000
;

//--------------- dance-double - forcednature writes an 18.999 ----------------
#NOTEDATA:;
#STEPSTYPE:dance-double;
#DESCRIPTION:forcednature writes an 18.999;
#DIFFICULTY:Hard;
#METER:18;
#RADARVALUES:0,0,0,0,0;
#NOTES:
00000000
00000000
00000000
00000000
,
00000000
00000000
00000000
00000000
,
00000000
00000000
00000000
00000000
,
00000000
00000000
00000000
00000000
,
00000000
00000000
00000000
00000000
,
00000000
00000000
00000000
00000000
,
00000000
00000000
00000000
00000000
,
00000000
00000000
00000000
00000000
,
00000000
00000000
00000000
00000000
,
00020000
00000000
00000000
00030000
,
00002000
00000000
00000000
00003000
,
02000000
00000000
00000000
03000000
,
00020000
00000000
00000000
00030000
,
10000000
01000000
10000000
01000000
,
00010000
00001000
00010000
00001000
,
00000100
00000001
00000100
00000001
,
00001001
00000000
00000000
00000000
00001001
00000000
00000000
00000000
00000001
00000100
00000010
00001000
00000010
00010000
00001000
01000000
,
00010000
00000000
20000000
32000000
,
03020000
00032000
00003200
00000320
,
00020030
00000000
00032000
00000000
00003010
00000100
00001000
00000010
,
00010000
00000000
00000000
00000000
00001000
00000000
00000000
00000000
01000000
00010000
01000000
00001000
00010000
00000100
00001000
00000100
,
00000010
00000000
00000011
00000000
00000001
00000100
00001000
00000100
,
00000000
00000000
00020000
00000000
01000000
00000000
00030000
00000000
00010000
00100000
01000000
10000000
00010000
00100000
01000000
00010000
,
00001000
00000000
00000100
00000010
00000100
00000001
00000010
00001000
,
00010000
00000000
00000000
00000000
00000000
00000000
00100000
00000000
00000000
00010000
00000000
00000000
00001000
00000000
00000000
01000000
00010000
10000000
00010000
00000000
00000000
00100000
00000000
00000000
,
02000000
03020000
00030200
00020300
,
00030020
00002030
00203000
00302000
,
00003100
00001000
00000100
00010000
00001000
00000000
01000000
00010000
01000000
00001000
00010000
00000000
00000010
00001000
00000010
00010000
,
00001000
00000000
00100000
00010000
00100000
00001000
00010000
00000000
00000100
00001000
00000010
00010000
00001000
00100000
00001000
00000000
,
00002000
00023000
00230000
20300000
,
32000000
03020000
00032000
00003020
,
00000130
00001000
00000010
00010000
00001000
00000000
01000000
00010000
00100000
00001000
00010000
00000000
00000010
00001000
00000100
00010000
,
00001000
00000000
00100000
00010000
01000000
00001000
00010000
00000100
00001000
00000010
00000100
00000001
00000010
00000100
00001000
00000001
,
00000200
00020300
02030000
03002000
,
00203000
00320000
00030020
00002030
,
01003000
00001000
00010000
00001000
00000010
00000000
00000100
00010000
00001000
00010000
00100000
00000000
01000000
00001000
00010000
00001000
,
00000010
00000000
00000100
00010000
00001000
00010000
00100000
00000000
01000000
00010000
10000000
01000000
00100000
00010000
00100000
00001000
,
00020000
00230000
02300000
03002000
,
00003020
00000230
00020300
00032000
,
00003100
00001000
00010000
00001000
01000000
00000000
00100000
00010000
00001000
00010000
00000010
00000000
00000100
00001000
00010000
00001000
,
01000000
00000000
00100000
00010000
00001000
00010000
00000010
00010000
00001000
00000010
00000100
00000010
00000001
00001000
00000001
00000100
,
00001000
00000000
01001000
00101000
00000000
00010100
00010010
00000000
,
01001000
00010100
00000000
00010010
00010000
00001000
00101000
00000000
,
00011000
00000000
00010100
00010010
00000000
01001000
00101000
00000000
,
00010100
01001000
00000000
00101000
00001000
00010000
00010010
00000000
,
00011000
00000000
01100000
10010000
00000000
01100000
00011000
00000000
,
00000110
00001001
00000000
00000110
00000001
00000100
00001000
00010000
,
00100000
01000000
00010000
00100000
01000000
00010000
00001000
00000010
00000100
00010000
00001000
00000100
,
00000020
00000000
00000000
00000000
,
00000000
00000000
00020030
00032000
,
02003000
00000000
00000000
00000000
,
03020000
00000000
20030000
00000000
,
32000000
00000000
00000000
00000000
,
00000000
00000000
03020000
00032000
,
00003020
00000000
00000000
00000000
,
00000230
00000000
00020300
00000000
,
00002000
00000000
00000000
00000000
,
00000000
00000000
00000000
00000000
,
00033000
00000000
00000000
00000000
,
00000000
00000000
00000000
00000000
00000000
00000000
00000000
00000000
00000000
00000000
00000000
00000000
00001000
00010000
00001000
01000000
,
00010000
00000000
00000000
00000000
10010000
00000000
00000000
00000000
10000000
00000000
01000000
00100000
00010000
00000000
00000000
00000000
,
00101000
00000000
00000000
00000000
00010010
00000000
00000000
00000000
00000010
00000000
00001000
00000100
00000010
00000000
00000000
00000000
,
00010100
00000000
00000000
00000000
00011000
00000000
00000000
00000000
01001000
00000000
00000000
00000000
00010000
10000000
00010000
00100000
,
01000000
00000000
00000000
00000000
01100000
00000000
00000000
00000000
00100000
00001000
00010000
00000000
00000010
00010000
00001000
00000000
,
01001000
00000000
00000000
00000000
00010100
00000000
00000000
00000000
00101000
00000000
00000000
00000000
00001000
00010000
00000010
00001000
,
00000100
00000000
00000000
00000000
00000110
00000000
00000000
00000000
00000010
00000001
00001000
00000001
00000100
00000000
00000000
00000000
,
00000001
00000000
00000000
00000010
00000000
00000000
00000100
00000000
00000000
00001000
00000000
00000000
00010000
00000000
00000000
00100000
01000000
00100000
01000000
00000000
00000000
10000000
00000000
00000000
,
00010000
00000000
00000000
01000000
00000000
00000000
00100000
00000000
00000000
00100000
00000000
00000000
00010000
00000000
00000000
00000100
00001000
00000100
00001000
00000000
00000000
00000010
00000000
00000000
,
00000110
00000000
00000000
00000000
00001001
00000000
00000000
00000000
00000001
00000000
00000100
00001000
00010000
00000000
00000000
00000000
,
00011000
00000000
00000000
00000000
01100000
00000000
00000000
00000000
10000000
01000000
00100000
00010000
01000000
00000000
00000000
00000000
,
01001000
00000000
00000000
00000000
00010100
00000000
00000000
00000000
00001010
00000000
00000000
00000000
00000001
00000010
00000100
00001000
,
00000010
00000000
00000000
00000000
00000110
00000000
00000000
00000000
00000100
00001000
00010000
00000000
00100000
00010000
00001000
00000000
,
00011000
00000000
00000000
00000000
01001000
00000000
00000000
00000000
01000000
00000000
00010000
10000000
01000000
00100000
00010000
00100000
,
00001000
00000000
00000000
00000000
00011000
00000000
00000000
00000000
00010000
00001000
00000100
00000010
00000100
00000000
00000001
00000000
,
00000010
00000100
00001000
00000010
00000100
00010000
01000000
00010000
,
00100000
00001000
00010000
00100000
10000000
01000000
00100000
00010000
,
10000000
01000000
00100000
00010000
01000000
00100000
01000000
00001000
00010000
00001000
00100000
00010000
00100000
01000000
00010000
00001000
,
00000010
00000100
00001000
00000100
00000010
00000001
00001000
00000001
00000100
00001000
00010000
00001000
00100000
00010000
02000000
00000000
,
00000000
03100000
10000000
01000000
00010000
00001000
00000100
00000010
,
00001000
00000000
00000001
00000000
00000010
00000000
00001000
00000000
00010000
00000000
00100000
00000000
01000000
00010000
01000000
00000000
,
00001000
00010000
00001000
00000100
00000010
00000100
00001000
00010000
01000000
00100000
01000000
00010000
00001000
00000010
00000100
00000010
,
00000001
00000100
00001000
00010000
00100000
00010000
00001000
00010000
01000000
10000000
00010000
10000000
00100000
00010000
00002000
00000000
,
00000000
00103000
01000000
00010000
00001000
00000100
00000010
00001000
,
00000001
00000010
00000001
00000010
00000100
00001000
00000100
00001000
00010000
00100000
00010000
00100000
01000000
10000000
01000000
00000000
,
00100000
00001000
00010000
00100000
00010000
00001000
00010000
00000100
00000010
00000100
00001000
00000100
00010000
00001000
00000100
00000010
,
00000100
00000001
00001000
00000010
00001000
00000100
00000010
00001000
00010000
00001000
01000000
00010000
00100000
01000000
20000000
00000000
,
00000000
31000000
00010000
00001000
00000100
00001000
00010000
00001000
,
00000010
00000000
00000100
00000000
00001000
00000000
00000001
00000000
00000100
00000000
00001000
00000000
01000000
00010000
01000000
00000000
,
00100000
10000000
01000000
00100000
00010000
00001000
00000100
00000010
00000001
00001000
00000001
00000100
00000010
00001000
00010000
01000000
,
00100000
10000000
00010000
10000000
01000000
00100000
00010000
00001000
00000100
00000010
00000001
00000100
00001000
00010000
00200000
00000000
,
00000000
01300000
00010000
10000000
00010000
00100000
01000000
00010000
,
00001000
00000010
00001000
00000010
00000001
00000010
00000001
00000100
00001000
00010000
00001000
00010000
00100000
01000000
00100000
10000000
,
02000000
00000000
00000000
00000000
,
00000000
00000000
00000000
00000000
,
03010000
00000000
00000000
00000000
00000000
00000000
00000000
00000000
00000000
00000000
00000000
00000000
00000000
00000000
00000000
00000000
00000000
00000000
00000000
00000000
00000000
00000000
00000000
00000000
00000000
00000000
00001000
00000000
00000000
00000000
00000000
00000000
00000000
00000000
00000000
00000000
00000000
00000000
00000000
00000000
00000000
00000000
00000000
00000000
00000000
00000000
00000000
00000000
00000000
00000000
00000000
00000010
00000000
00000000
00000000
00000000
00000000
00000000
00000000
00000000
00000000
00000000
00000000
00000000
00000000
00000000
00000000
00000000
00000000
00000000
00000000
00000000
00000000
00000000
00000000
00000000
00000000
00000000
00000000
00000000
00000000
00000000
00000100
00000000
00000000
00000000
00000000
00000000
00000000
00000000
00000000
00000000
00000000
00000000
00000000
00000000
00000000
00000000
00000000
00000000
00000000
00000000
00000000
00000000
00000000
00000000
00000000
00000000
00010000
00000000
00000000
00000000
00000000
00000000
00000000
00000000
00000000
00000000
00000000
00000000
00000000
00000000
00000000
00000000
00000000
00000000
00000000
00000000
00000000
00000000
00000000
00000000
00000000
00000000
00000000
00000000
00000000
00000000
00000000
00000000
00000000
00001000
00000000
00000000
00000000
00000000
00000000
00000000
00000000
00000000
00000000
00000000
00000000
00000000
00000000
00000000
00000000
00000000
00000000
00000000
00000000
00000000
00000000
00000000
00000000
00000000
00000000
00000000
00000000
00000000
00000000
00000000
00000000
00000000
00000100
00000000
00000000
00000000
00000000
00000000
00000000
00000000
00000000
00000000
00000000
00000000
00000000
00000000
00000000
00000000
00000000
00000000
,
00000000
00000000
00000000
00000000
00000000
00000000
00000000
00000000
00000000
00000000
00000000
00000000
00000000
00000000
00000000
00000000
00000000
00000000
00000001
00000000
00000000
00000000
00000000
00000000
00000000
00000000
00000000
00000000
00000000
00000000
00000000
00000000
00000000
00000000
00000000
00000000
00000000
00000000
00000000
00000000
00000000
00000000
00000000
00000000
00000000
00000000
00000000
00000000
00000000
00000000
00000000
00000000
00000000
00000000
00000000
00000010
00000000
00000000
00000000
00000000
00000000
00000000
00000000
00000000
00000000
00000000
00000000
00000000
00000000
00000000
00000000
00000000
00000000
00000000
00000000
00000000
00000000
00000000
00000000
00000000
00000000
00000000
00000000
00000000
00000000
00000000
00000000
00000000
00000000
00000000
00000000
00000000
00000000
00001000
00000000
00000000
00000000
00000000
00000000
00000000
00000000
00000000
00000000
00000000
00000000
00000000
00000000
00000000
00000000
00000000
00000000
00000000
00000000
00000000
00000000
00000000
00000000
00000000
00000000
00000000
00000000
00000000
00000000
00000000
00000000
00000000
00000000
00000000
00000000
00000000
00000000
00000000
00010000
00000000
00000000
00000000
00000000
00000000
00000000
00000000
00000000
00000000
00000000
00000000
00000000
00000000
00000000
00000000
00000000
00000000
00000000
00000000
00000000
00000000
00000000
00000000
00000000
00000000
00000000
00000000
00000000
00000000
00000000
00000000
00000000
00000000
00000000
00000000
00000000
00000000
00000000
00001000
00000000
00000000
00000000
00000000
00000000
00000000
00000000
00000000
00000000
00000000
00000000
00000000
00000000
00000000
00000000
00000000
00000000
00000000
00000000
00000000
,
00000000
00000000
00000000
00000000
00000000
00000000
00000000
00000000
00000000
00000000
00000000
00000000
00000000
00000000
00000000
00000000
00000000
00000000
00000000
00000000
01000000
00000000
00000000
00000000
00000000
00000000
00000000
00000000
00000000
00000000
00000000
00000000
00000000
00000000
00000000
00000000
00000000
00000000
00000000
00000000
00000000
00000000
00000000
00000000
00000000
00000000
00000000
00000000
00000000
00000000
00000000
00000000
00000000
00000000
00000000
00000000
00000000
00000000
00000000
00000000
00000000
00000000
00000000
00000000
00000000
00000000
00000000
00000000
00000000
00100000
00000000
00000000
00000000
00000000
00000000
00000000
00000000
00000000
00000000
00000000
00000000
00000000
00000000
00000000
00000000
00000000
00000000
00000000
00000000
00000000
00000000
00000000
00000000
00000000
00000000
00000000
00000000
00000000
00000000
00000000
00000000
00000000
00000000
00000000
00000000
00000000
00000000
00000000
00000000
00000000
00000000
00000000
00000000
00000000
00000000
00000000
00000000
00010000
00000000
00000000
00000000
00000000
00000000
00000000
00000000
00000000
00000000
00000000
00000000
00000000
00000000
00000000
00000000
00000000
00000000
00000000
00000000
00000000
00000000
00000000
00000000
00000000
00000000
00000000
00000000
00000000
00000000
00000000
00000000
00000000
00000000
00000000
00000000
00000000
00000000
00000000
00000000
00000000
00000000
00000000
00000000
00000000
00000000
00000000
00000000
00000000
00000000
00000000
00000000
00000000
00000000
00000000
00000000
00000000
00000000
00000000
00000100
00000000
00000000
00000000
00000000
00000000
00000000
00000000
00000000
00000000
00000000
00000000
00000000
00000000
00000000
00000000
,
00000000
00000000
00000000
00000000
00000000
00000000
00000000
00000000
00000000
00000000
00000000
00000000
00000000
00000000
00000000
00000000
00000000
00000000
00000000
00000000
00000000
00000000
00000000
00000000
00000000
00000000
00000000
00000000
00000000
00000000
00000000
00000000
00000000
00000000
00000000
00000000
00000000
00000000
00000000
00000000
00000000
00000000
00000000
00000000
00000000
00000000
00000000
00000020
00000000
00000000
00000000
00000000
00000000
00000000
00000000
00000000
00000000
00000000
00000000
00000000
00000000
00000000
00000000
00000000
00000000
00000000
00000000
00000000
00000000
00000000
00000000
00000000
00000000
00000000
00000000
00000000
00000000
00000000
00000000
00000000
00000000
00000000
00000000
00000000
00000000
00000000
00000000
00000000
00000000
00000000
00000000
00000000
00000000
00000000
00000000
00000000
00000000
00000000
00000000
00000000
00000000
00000000
00000000
00000000
00000000
00000000
00000000
00000000
00000000
00000000
00000000
00000000
00000000
00000000
00000000
00000000
00000000
00000000
00000000
00000000
00000000
00000000
00000000
00000000
00000000
00000000
00000000
00000000
00000000
00000000
00000000
00000000
00000000
00000000
00000000
00000000
00000000
00000000
00000000
00000000
00000000
00000000
00000000
00000000
00000000
00000000
00000000
00000000
00000000
00000000
00000000
00000000
00000000
00000000
00000000
00000000
00000000
00000000
00000000
00000000
00000000
00000000
00000000
00000000
00000000
00000000
00000000
00000000
00000000
00000000
00000000
00000000
00000000
00000000
00000000
00000000
00000000
00000000
00000000
00000000
00000000
00000000
00000000
00000000
00000000
00000000
00000000
00000000
00000000
00000000
00000000
00000000
,
00000000
00000000
00000000
00000000
,
00000000
00000000
00000000
00000000
00000000
00000000
00000000
00000000
00000000
00000000
00000000
00000000
00000000
00000000
00000000
00000000
00000000
00000000
00000000
00000000
00000000
00000000
00000000
00000000
00000000
00000000
00000000
00000000
00000000
00000000
00000000
00000000
00000000
00000000
00000000
00000000
00000000
00000000
00000000
00000000
00000000
00000000
00000000
00000000
00000000
00000000
00000000
00000000
00000000
00000000
00000000
00000000
00000000
00000000
00000000
00000000
00000000
00000000
00000000
00000000
00000000
00000000
00000000
00000000
00000000
00000000
00000000
00000000
00000000
00000000
00000000
00000000
00000000
00000000
00000000
00000000
00000000
00000000
00000000
00000000
00000000
00000000
00000000
00000000
00000000
00000000
00000000
00000000
00000000
00000000
00000000
00000000
00000000
00000000
00000000
00000000
00000000
00000000
00000000
00000000
00000000
00000000
00000000
00000000
00000000
00000000
00000000
00000000
00000000
00000000
00000000
00000000
00000000
00000000
00000000
00000000
00000000
00000000
00000000
00000000
00000000
00000000
00000000
00000000
00000000
00000000
00000000
00000000
00000000
00000000
00000000
00000000
00000000
00000000
00000000
00000000
00000000
00000000
00000000
00000000
00000000
00000000
00000000
00000000
00000000
00000000
00000000
00000000
00000000
00000000
00000000
00000000
00000000
00000000
00000000
00000000
00000000
00000000
00000000
00000000
00000000
00000000
00000000
00000000
00000000
00000000
00000000
00000030
00000000
00000000
00000000
00000000
00000000
00000000
00000000
00000000
00000000
00000000
00000000
00000000
00000000
00000000
00000000
00000000
00000000
00000000
00000000
00000000
00000000
00000000
00000000
00000000
;

//--------------- dance-double - forcednature ----------------
#NOTEDATA:;
#STEPSTYPE:dance-double;
#DESCRIPTION:forcednature;
#CREDIT:forcednature;
#DIFFICULTY:Challenge;
#METER:19;
#RADARVALUES:0,0,0,0,0;
#NOTES:
00000000
00000000
00000000
00000000
,
00000000
00000000
00000000
00000000
,
00000000
00000000
00000000
00000000
,
00000000
00000000
00000000
00000000
,
00000000
00000000
00000000
00000000
,
00000000
00000000
00000000
00000000
,
00000000
00000000
00000000
00000000
,
00000000
00000000
00000000
00000000
,
00000000
00000000
00000000
00000000
,
00001000
00010000
00100000
01000000
00000000
00010000
00100000
10000000
,
00000000
00100000
00010000
01000000
00000000
00001000
00010000
00000010
,
00000000
00000100
00001000
00010000
00000100
00001000
00000010
00010000
,
00001000
00000010
00000100
00000010
00000001
00000100
00001000
00010000
,
00000000
00100000
10000000
01000000
00000000
00100000
00001000
00010000
,
00000000
00000010
00010000
00001000
00000000
00000010
00000100
00001000
,
00000001
00000100
00001000
00000100
00000010
00001000
00010000
01000000
,
00100000
00000000
00000000
00000000
01100000
00000000
00000000
00000000
10000000
01000000
00100000
00010000
00100000
00001000
00010000
00000010
,
00001000
00000000
00000000
00000000
00000100
00000001
00000100
00001000
,
00000010
00000100
00001000
00010000
01000000
00100000
00001000
00010000
,
00100000
10000000
01000000
00010000
01000000
10000000
00100000
00010000
,
00001000
00000000
00000010
00000000
00000100
00000000
00000010
00000000
00000001
00000100
00001000
00000100
00000001
00000100
00001000
00000100
,
00000010
00001000
00010000
01000000
00010000
00100000
01000000
00010000
,
00001000
00000000
00000020
00000000
00000001
00000000
00000030
00000000
00000010
00000100
00001000
00000100
00010000
00001000
01000000
00010000
,
01000000
00100000
00010000
00100000
10000000
00010000
10000000
01000000
,
00010000
00000000
00000000
00001000
00000000
00000000
00000100
00000000
00000000
00000001
00000000
00000000
00000010
00000000
00000000
00000100
00010000
00001000
00010000
00000000
00000000
00100000
00000000
00000000
,
01000000
10000000
01000000
00010000
00100000
01000000
00010000
01000000
,
00100000
00001000
00010000
00001000
00000100
00000001
00001000
00000000
,
00000001
00000010
00000100
00010000
00001000
00000000
10000000
00100000
01000000
00001000
00010000
00000000
00000001
00000010
00000100
00010000
,
00001000
00000000
10000000
00100000
01000000
00001000
00010000
00000000
00000001
00000010
00000100
00001000
00000010
00010000
00001000
01000000
,
00010000
00100000
01000000
00100000
10000000
00010000
01000000
10000000
,
00100000
01000000
00100000
00010000
00001000
00000010
00000100
00000010
,
00000001
00000010
00000100
00010000
00001000
00000000
10000000
00100000
01000000
00001000
00010000
00000000
00000001
00000010
00000100
00010000
,
00001000
00000000
10000000
00100000
01000000
00010000
00100000
01000000
00100000
00001000
00010000
00000010
00000100
00000001
00001000
00000000
,
00000010
00010000
00001000
00000000
01000000
00001000
00010000
00000000
00000100
00010000
00001000
00000000
00100000
00001000
00010000
00000000
,
00100000
00010000
00001000
00000000
00000100
00001000
00010000
00000000
01000000
00010000
00001000
00000000
00000010
00001000
00010000
00000000
,
00000100
00001000
00000010
00010000
00001000
00000000
01000000
00010000
00100000
00001000
00010000
00000000
00000100
00001000
00000010
00010000
,
00001000
00000000
01000000
00010000
00100000
00001000
00010000
00000000
00000010
00001000
00000100
00000001
00000100
00001000
00000100
00010000
,
00001000
01000000
00010000
00000000
00001000
00000100
00010000
00000000
00001000
00100000
00010000
00000000
00001000
00000010
00010000
00000000
,
00001000
00010000
00100000
00000000
00010000
00001000
00000010
00000000
00001000
00010000
01000000
00000000
00010000
00001000
00000100
00000000
,
00000001
00000010
00000100
00001000
00000010
00000000
00000100
00001000
00010000
00001000
00100000
00000000
00010000
01000000
10000000
01000000
,
00100000
00000000
10000000
00010000
10000000
01000000
00010000
00001000
00010000
00000010
00001000
00000010
00000100
00001000
00000100
00000001
,
00000010
00001000
00010000
00100000
00010000
00001000
00000100
00001000
,
00010000
00000000
01000000
00000000
00010000
00000000
00001000
00000000
00000010
00000100
00000010
00000000
00000110
00000000
00000000
00000000
,
00000001
00000100
00001000
00010000
01000000
10000000
00100000
00010000
,
00001000
00000000
00000010
00000000
00001000
00000000
00010000
00000000
00100000
01000000
00100000
00000000
01100000
00000000
00000000
00000000
,
10000000
01000000
00001000
00010000
00000010
00000001
00000001
00000100
,
00010000
00000000
00001000
00000000
00100000
00000000
10000000
00000000
01000000
00100000
01000000
00000000
10010000
00000000
00000000
00000000
,
10000000
01000000
00100000
00010000
01000000
00100000
00010000
00001000
00100000
00010000
00001000
00000100
,
00000020
00000000
00000000
00000000
,
00000000
00000000
00000032
00000203
,
00002300
00000000
00000000
00000000
,
00023000
00000000
02030000
00000000
,
03200000
00000000
00000000
00000000
,
00000000
00000000
00302000
00023000
,
00230000
00000000
00000000
00000000
,
20300000
00000000
30020000
00000000
,
00032000
00000000
00000000
00000000
,
00000010
00000000
00000000
00000000
,
00003100
00000000
00000000
00000000
,
00001000
00000000
00000000
00000000
00000000
00000000
00000000
00000000
00000000
00000000
00000000
00000000
00000001
00000100
00000010
00001000
,
00000100
00000010
00000100
00010000
00001000
00000000
01000000
00001000
00010000
00000000
01000000
10000000
00100000
00000000
01000000
00010000
,
01000000
00100000
00010000
00000000
00001000
00100000
00010000
00000000
00001000
00000100
00000010
00000100
00001000
00000000
00000000
00000000
,
00000001
00000100
00001000
00000100
00000010
00000000
00001000
00010000
01000000
00000000
00100000
10000000
01000000
00000000
00100000
00010000
,
01000000
10000000
01000000
00000000
00100000
10000000
00010000
00000000
00100000
01000000
00010000
00000000
00001000
00000010
00000100
00000000
,
00001000
00000001
00000100
00000001
00000010
00001000
00010000
00000000
00100000
00000000
01000000
00001000
00010000
00000000
01000000
10000000
,
00100000
01000000
00010000
00000000
00100000
01000000
00010000
00000000
00001000
00000010
00000100
00000010
00000001
00000000
00001000
00000000
,
00000010
00000000
00000000
00000100
00000000
00000000
00001000
00000000
00000000
00010000
00000000
00000000
00100000
00000000
00000000
10000000
00010000
10000000
01000000
00000000
00000000
00100000
00000000
00000000
,
00010000
00000000
00000000
00001000
00000000
00000000
00000100
00000000
00000000
00000010
00000000
00000000
00000001
00000000
00000000
00001000
00000010
00000100
00000001
00000000
00000000
00000010
00000000
00000000
,
00000100
00010000
00001000
00010000
00100000
01000000
00010000
00000000
00100000
01000000
10000000
01000000
00010000
00000000
01000000
10000000
,
00010000
01000000
10000000
00000000
01000000
00010000
00100000
00000000
01000000
00010000
00001000
00010000
00000010
00000000
00000000
00000000
,
00000100
00001000
00000100
00000001
00001000
00000001
00000010
00000000
00000100
00010000
00001000
00100000
00010000
01000000
00100000
00010000
,
00001000
01000000
00010000
00000000
00001000
00000100
00010000
00000000
00100000
00010000
00001000
00000000
00000010
00001000
00010000
00000000
,
01000000
00010000
00100000
00001000
00010000
00100000
01000000
00000000
00100000
10000000
00010000
10000000
01000000
00000000
00010000
00001000
,
00000010
00000100
00001000
00000000
00000001
00000100
00000010
00000100
00001000
00010000
00001000
00100000
00010000
00000000
01000000
00000000
,
00100000
00010000
00000010
00010000
01000000
10000000
00100000
10000000
,
10000000
01000000
00100000
00010000
00001000
00000100
00000010
00000001
,
00000100
00000010
00000100
00001000
00010000
00100000
01000000
00100000
00010000
00001000
00000010
00000100
00000010
00001000
00010000
01000000
,
00100000
01000000
00010000
00001000
00000100
00000010
00000100
00001000
00010000
00100000
01000000
10000000
01000000
00010000
20000000
00000000
,
00000000
31000000
00010000
00001000
00000100
00010000
01000000
00010000
,
00100000
00000000
01000000
00000000
00010000
00000000
00001000
00000000
00000010
00000000
00000100
00000000
00001000
00000001
00000100
00000000
,
00000001
00000010
00000100
00001000
00010000
00100000
01000000
00100000
00010000
00001000
00000100
00000010
00000001
00000100
00000010
00001000
,
00010000
01000000
00100000
01000000
00010000
00001000
00000010
00001000
00000001
00000010
00001000
00010000
00000010
00000100
00002000
00000000
,
00000000
00013000
00100000
10000000
01000000
00010000
00000100
00010000
,
00001000
00000100
00001000
00010000
00001000
00100000
00001000
00010000
00100000
10000000
00010000
10000000
01000000
00010000
00001000
00000000
,
00000010
00000100
00010000
00001000
01000000
00100000
00010000
00100000
10000000
01000000
00010000
00001000
00000100
00000010
00010000
00001000
,
00100000
01000000
00010000
01000000
10000000
00100000
00010000
00001000
00000010
00000100
00001000
00000010
00000100
00001000
00020000
00000000
,
00000000
00130000
10000000
01000000
00010000
00001000
00000100
00001000
,
00100000
00000000
00010000
00000000
00000010
00000000
00000001
00000000
00001000
00000000
00000010
00000000
00001000
00000001
00000100
00000000
,
00001000
00010000
00100000
00010000
00001000
00000010
00001000
00010000
01000000
00010000
00001000
00000100
00000001
00000010
00001000
00010000
,
00100000
10000000
00100000
00010000
00001000
00000010
00000001
00000100
00001000
00010000
01000000
10000000
00100000
01000000
00020000
00000000
,
00000000
00130000
01000000
00010000
00001000
00000100
00000010
00001000
,
00000001
00000010
00000100
00001000
00000010
00000100
00001000
00010000
00000100
00001000
00010000
00100000
01000000
00010000
00001000
00010000
,
00000020
00000000
00000000
00000000
,
00000000
00000000
00000000
00000000
,
00000130
00000000
00000000
00000000
00000000
00000000
00000000
00000000
00000000
00000000
00000000
00000000
00000000
00000000
00000000
00000000
00000000
00000000
00000000
00000000
00000000
00000000
00000000
00000000
00000000
00000000
00001000
00000000
00000000
00000000
00000000
00000000
00000000
00000000
00000000
00000000
00000000
00000000
00000000
00000000
00000000
00000000
00000000
00000000
00000000
00000000
00000000
00000000
00000000
00000000
00000000
00010000
00000000
00000000
00000000
00000000
00000000
00000000
00000000
00000000
00000000
00000000
00000000
00000000
00000000
00000000
00000000
00000000
00000000
00000000
00000000
00000000
00000000
00000000
00000000
00000000
00000000
00000000
00000000
00000000
00000000
00000000
00001000
00000000
00000000
00000000
00000000
00000000
00000000
00000000
00000000
00000000
00000000
00000000
00000000
00000000
00000000
00000000
00000000
00000000
00000000
00000000
00000000
00000000
00000000
00000000
00000000
00000000
00100000
00000000
00000000
00000000
00000000
00000000
00000000
00000000
00000000
00000000
00000000
00000000
00000000
00000000
00000000
00000000
00000000
00000000
00000000
00000000
00000000
00000000
00000000
00000000
00000000
00000000
00000000
00000000
00000000
00000000
00000000
00000000
00000000
01000000
00000000
00000000
00000000
00000000
00000000
00000000
00000000
00000000
00000000
00000000
00000000
00000000
00000000
00000000
00000000
00000000
00000000
00000000
00000000
00000000
00000000
00000000
00000000
00000000
00000000
00000000
00000000
00000000
00000000
00000000
00000000
00000000
00010000
00000000
00000000
00000000
00000000
00000000
00000000
00000000
00000000
00000000
00000000
00000000
00000000
00000000
00000000
00000000
00000000
00000000
,
00000000
00000000
00000000
00000000
00000000
00000000
00000000
00000000
00000000
00000000
00000000
00000000
00000000
00000000
00000000
00000000
00000000
00000000
00001000
00000000
00000000
00000000
00000000
00000000
00000000
00000000
00000000
00000000
00000000
00000000
00000000
00000000
00000000
00000000
00000000
00000000
00000000
00000000
00000000
00000000
00000000
00000000
00000000
00000000
00000000
00000000
00000000
00000000
00000000
00000000
00000000
00000000
00000000
00000000
00000000
00000100
00000000
00000000
00000000
00000000
00000000
00000000
00000000
00000000
00000000
00000000
00000000
00000000
00000000
00000000
00000000
00000000
00000000
00000000
00000000
00000000
00000000
00000000
00000000
00000000
00000000
00000000
00000000
00000000
00000000
00000000
00000000
00000000
00000000
00000000
00000000
00000000
00000000
00000001
00000000
00000000
00000000
00000000
00000000
00000000
00000000
00000000
00000000
00000000
00000000
00000000
00000000
00000000
00000000
00000000
00000000
00000000
00000000
00000000
00000000
00000000
00000000
00000000
00000000
00000000
00000000
00000000
00000000
00000000
00000000
00000000
00000000
00000000
00000000
00000000
00000000
00000000
00000010
00000000
00000000
00000000
00000000
00000000
00000000
00000000
00000000
00000000
00000000
00000000
00000000
00000000
00000000
00000000
00000000
00000000
00000000
00000000
00000000
00000000
00000000
00000000
00000000
00000000
00000000
00000000
00000000
00000000
00000000
00000000
00000000
00000000
00000000
00000000
00000000
00000000
00000000
00001000
00000000
00000000
00000000
00000000
00000000
00000000
00000000
00000000
00000000
00000000
00000000
00000000
00000000
00000000
00000000
00000000
00000000
00000000
00000000
00000000
,
00000000
00000000
00000000
00000000
00000000
00000000
00000000
00000000
00000000
00000000
00000000
00000000
00000000
00000000
00000000
00000000
00000000
00000000
00000000
00000000
00010000
00000000
00000000
00000000
00000000
00000000
00000000
00000000
00000000
00000000
00000000
00000000
00000000
00000000
00000000
00000000
00000000
00000000
00000000
00000000
00000000
00000000
00000000
00000000
00000000
00000000
00000000
00000000
00000000
00000000
00000000
00000000
00000000
00000000
00000000
00000000
00000000
00000000
00000000
00000000
00000000
00000000
00000000
00000000
00000000
00000000
00000000
00000000
00000000
00100000
00000000
00000000
00000000
00000000
00000000
00000000
00000000
00000000
00000000
00000000
00000000
00000000
00000000
00000000
00000000
00000000
00000000
00000000
00000000
00000000
00000000
00000000
00000000
00000000
00000000
00000000
00000000
00000000
00000000
00000000
00000000
00000000
00000000
00000000
00000000
00000000
00000000
00000000
00000000
00000000
00000000
00000000
00000000
00000000
00000000
00000000
00000000
10000000
00000000
00000000
00000000
00000000
00000000
00000000
00000000
00000000
00000000
00000000
00000000
00000000
00000000
00000000
00000000
00000000
00000000
00000000
00000000
00000000
00000000
00000000
00000000
00000000
00000000
00000000
00000000
00000000
00000000
00000000
00000000
00000000
00000000
00000000
00000000
00000000
00000000
00000000
00000000
00000000
00000000
00000000
00000000
00000000
00000000
00000000
00000000
00000000
00000000
00000000
00000000
00000000
00000000
00000000
00000000
00000000
00000000
00000000
01000000
00000000
00000000
00000000
00000000
00000000
00000000
00000000
00000000
00000000
00000000
00000000
00000000
00000000
00000000
00000000
,
00000000
00000000
00000000
00000000
00000000
00000000
00000000
00000000
00000000
00000000
00000000
00000000
00000000
00000000
00000000
00000000
00000000
00000000
00000000
00000000
00000000
00000000
00000000
00000000
00000000
00000000
00000000
00000000
00000000
00000000
00000000
00000000
00000000
00000000
00000000
00000000
00000000
00000000
00000000
00000000
00000000
00000000
00000000
00000000
00000000
00000000
00000000
00020000
00000000
00000000
00000000
00000000
00000000
00000000
00000000
00000000
00000000
00000000
00000000
00000000
00000000
00000000
00000000
00000000
00000000
00000000
00000000
00000000
00000000
00000000
00000000
00000000
00000000
00000000
00000000
00000000
00000000
00000000
00000000
00000000
00000000
00000000
00000000
00000000
00000000
00000000
00000000
00000000
00000000
00000000
00000000
00000000
00000000
00000000
00000000
00000000
00000000
00000000
00000000
00000000
00000000
00000000
00000000
00000000
00000000
00000000
00000000
00000000
00000000
00000000
00000000
00000000
00000000
00000000
00000000
00000000
00000000
00000000
00000000
00000000
00000000
00000000
00000000
00000000
00000000
00000000
00000000
00000000
00000000
00000000
00000000
00000000
00000000
00000000
00000000
00000000
00000000
00000000
00000000
00000000
00000000
00000000
00000000
00000000
00000000
00000000
00000000
00000000
00000000
00000000
00000000
00000000
00000000
00000000
00000000
00000000
00000000
00000000
00000000
00000000
00000000
00000000
00000000
00000000
00000000
00000000
00000000
00000000
00000000
00000000
00000000
00000000
00000000
00000000
00000000
00000000
00000000
00000000
00000000
00000000
00000000
00000000
00000000
00000000
00000000
00000000
00000000
00000000
00000000
00000000
00000000
00000000
,
00000000
00000000
00000000
00000000
,
00000000
00000000
00000000
00000000
00000000
00000000
00000000
00000000
00000000
00000000
00000000
00000000
00000000
00000000
00000000
00000000
00000000
00000000
00000000
00000000
00000000
00000000
00000000
00000000
00000000
00000000
00000000
00000000
00000000
00000000
00000000
00000000
00000000
00000000
00000000
00000000
00000000
00000000
00000000
00000000
00000000
00000000
00000000
00000000
00000000
00000000
00000000
00000000
00000000
00000000
00000000
00000000
00000000
00000000
00000000
00000000
00000000
00000000
00000000
00000000
00000000
00000000
00000000
00000000
00000000
00000000
00000000
00000000
00000000
00000000
00000000
00000000
00000000
00000000
00000000
00000000
00000000
00000000
00000000
00000000
00000000
00000000
00000000
00000000
00000000
00000000
00000000
00000000
00000000
00000000
00000000
00000000
00000000
00000000
00000000
00000000
00000000
00000000
00000000
00000000
00000000
00000000
00000000
00000000
00000000
00000000
00000000
00000000
00000000
00000000
00000000
00000000
00000000
00000000
00000000
00000000
00000000
00000000
00000000
00000000
00000000
00000000
00000000
00000000
00000000
00000000
00000000
00000000
00000000
00000000
00000000
00000000
00000000
00000000
00000000
00000000
00000000
00000000
00000000
00000000
00000000
00000000
00000000
00000000
00000000
00000000
00000000
00000000
00000000
00000000
00000000
00000000
00000000
00000000
00000000
00000000
00000000
00000000
00000000
00000000
00000000
00000000
00000000
00000000
00000000
00000000
00000000
00030000
00000000
00000000
00000000
00000000
00000000
00000000
00000000
00000000
00000000
00000000
00000000
00000000
00000000
00000000
00000000
00000000
00000000
00000000
00000000
00000000
00000000
00000000
00000000
00000000
;
