#VERSION:0.83;
#TITLE:超☆超☆光☆速☆出☆前☆最☆速!!! スピード★スター★かなで;
#SUBTITLE:;
#ARTIST:かめりあ feat. ななひら;
#TITLETRANSLIT:Chou chou kou soku de mae sai soku!!! Speed star Kanade;
#SUBTITLETRANSLIT:;
#ARTISTTRANSLIT:Camellia feat. Nanahira;
#GENRE:;
#CREDIT:;
#MUSIC:Chou chou kou soku de mae sai soku!!! Speed star Kanade.ogg;
#BANNER:Chou chou kou soku de mae sai soku!!! Speed star Kanade.png;
#BACKGROUND:Chou chou kou soku de mae sai soku!!! Speed star Kanade-bg.png;
#CDTITLE:./CDTitles/SDVX IV HEAVENLY HAVEN.png;
#SAMPLESTART:18.353;
#SAMPLELENGTH:15.000;
#SELECTABLE:YES;
#OFFSET:0.000;
#BPMS:0.000=130.000
,28.000=120.000
,30.000=110.000
,32.000=80.000
,33.000=60.000
,34.000=250.000
,325.000=125.000
,327.000=140.000
,329.000=155.000
,331.000=170.000
,333.000=185.000
,335.000=200.000
,337.000=215.000
,339.000=230.000
,341.000=240.000
,349.000=249.750
,417.000=120.000
,419.000=110.000
,421.000=80.000
,422.000=60.000
;
#STOPS:34.000=1.440
,208.000=1.680
;
#TIMESIGNATURES:0.000=4=4,
32.000=2=4,
36.000=4=4,
208.000=1=4,
209.000=4=4,
349.000=2=4,
351.000=4=4,
405.000=6=4,
413.000=4=4,
421.000=2=4
;
#DISPLAYBPM:60.000:250.000;
#BGCHANGES:0.000=../BGAs/24vi.mp4=1.000=0=0=0=StretchNoLoop====,
99999.000=-nosongbg-=1.000=0=0=0=StretchNoLoop====
;
#FGCHANGES:;

//--------------- dance-single - forcednature ----------------
#NOTEDATA:;
#STEPSTYPE:dance-single;
#DESCRIPTION:forcednature;
#DIFFICULTY:Beginner;
#METER:8;
#RADARVALUES:0,0,0,0,0;
#CREDIT:forcednature;
#CREDIT:forcednature;
#NOTES:
0000
0000
0000
0000
,
0000
0000
0000
0000
,
0000
0000
0000
0000
,
0000
0000
0000
0000
,
0000
0000
0000
0000
,
1000
0000
0000
0000
1000
0000
0000
0000
1000
0000
0000
0000
,
0001
0000
0000
0000
0001
0000
0000
0000
0001
0000
0000
0000
,
0100
0000
0000
0000
0010
0000
0000
0000
0100
0000
0000
0000
,
0001
0000
0000
0000
0000
0000
0000
0000
0000
0000
0000
0000
0000
0000
0000
0000
1000
0000
0000
0000
0000
0000
0000
0000
0000
0000
0000
0000
0000
0000
0000
0000
0001
0000
0000
0000
0000
0000
0000
0000
0000
0000
0000
0000
0000
0000
0000
0000
0200
0000
0000
0300
0000
0000
0000
0000
0000
0000
0000
0000
0000
0000
0000
0000
0000
0000
0000
0000
0000
0000
0000
0000
0000
0000
0000
0000
0000
0000
0000
0000
0000
0000
0000
0000
0000
0000
0000
0000
0000
0000
0000
0000
0000
0000
0000
0000
,
0001
0001
0001
0000
,
1000
1000
1000
0000
,
0100
0000
0000
0010
0000
0000
0100
0000
,
0010
0000
0000
0000
,
0001
0000
0100
0000
,
0010
0000
1000
0000
,
0100
0000
0010
0000
,
0001
1000
0001
1000
,
0010
0000
0100
0000
,
0001
0000
0010
0000
,
0000
0100
0000
1000
,
0010
0100
0010
0100
,
0000
0000
0000
0000
,
1001
0000
0000
0000
,
0000
0000
0000
0010
,
1000
0001
1000
0000
,
0001
1000
0001
0000
,
0110
0000
0000
0000
,
0000
0000
0000
0000
,
1000
0100
1000
0000
,
0001
0100
0001
0000
,
0010
0000
0000
0000
,
0100
0000
0000
0000
,
1000
0000
1000
0000
,
0001
0000
0001
0000
,
0000
0000
0100
0000
,
0000
0000
0010
0000
,
1000
0000
0001
0000
,
0100
0000
0010
0000
,
1000
0000
0100
0000
,
1000
0000
0010
0000
,
0100
0000
0001
0000
,
0010
0000
0100
0000
,
1001
0000
0000
0000
,
0000
0000
0000
0010
,
0110
0000
0000
0000
,
0000
0000
0100
0000
,
1001
0000
0000
0000
,
0010
0000
0000
0010
0000
0000
0010
0000
,
1000
0000
1000
0000
,
0001
0000
0001
0000
,
0010
0000
0100
0000
,
1000
0000
0001
0000
,
0200
0300
0000
0000
0000
0000
0000
0000
0010
0000
0000
0000
0000
0000
0000
0000
0000
0000
0000
0000
0000
0000
0000
0000
0010
0000
0000
0000
0000
0000
0000
0000
,
0000
1000
0001
1000
,
0000
0001
0000
0010
,
0000
0100
1000
0100
,
0000
0010
0010
0010
,
0000
0100
0100
0100
,
0000
0010
0000
0001
,
0000
1000
0000
0010
,
0000
0100
0000
0001
,
0000
1000
0100
1000
,
0000
0010
0000
0100
,
0000
0001
0010
0001
,
0000
0100
0100
0100
,
0000
0010
0010
0010
,
0000
1000
0001
1000
,
0000
0001
0000
0001
,
0000
0000
0010
0000
,
0100
1000
0100
0000
,
0000
0010
0010
0100
,
0000
0010
0010
0100
,
0000
0000
1000
0001
,
0000
0100
0010
0000
,
0000
1000
1000
0001
,
0000
1000
1000
0001
,
0001
0000
0000
0000
,
0000
1000
1000
1000
,
0000
0001
0001
0001
,
0000
0000
0100
0000
0000
0010
0000
0000
,
0100
0010
0000
0000
,
0000
1000
0000
0001
,
0000
1000
0001
1000
,
0001
1000
0001
1000
,
0001
1000
0001
1000
,
0001
1000
0001
1000
,
0001
1000
0001
1000
,
0001
0000
0000
0100
,
0000
0100
0000
0001
,
0010
0100
1000
0010
,
0000
0010
0000
0100
,
0100
0010
0010
1000
,
0000
1000
0000
0001
,
0100
0001
1000
0010
,
0000
1000
0000
0100
,
0100
0010
0010
0000
,
0000
0000
0000
0000
,
0000
0000
0000
0001
,
0100
0001
0000
1000
,
0100
1000
0000
0010
,
0000
0100
0000
0000
0010
0000
0000
0000
,
0000
2002
0000
0000
,
0000
3003
0000
0000
,
0000
0000
0000
0000
,
0000
0000
0000
1000
0000
0000
0000
1000
0000
0001
0000
0000
,
0000
0001
0000
0100
0000
0100
0000
0010
0000
2002
0000
0000
,
0000
3003
0000
0000
;

//--------------- dance-single - forcednature ----------------
#NOTEDATA:;
#STEPSTYPE:dance-single;
#DESCRIPTION:forcednature;
#DIFFICULTY:Easy;
#METER:13;
#RADARVALUES:0,0,0,0,0;
#CREDIT:forcednature;
#CREDIT:forcednature;
#NOTES:
0000
0000
0000
0000
,
0000
0000
0000
0000
,
0000
0000
0000
0000
,
0000
0000
0000
0000
,
0000
0000
0000
0000
,
1000
0000
0000
0001
0100
0000
0010
0000
1000
0000
0000
0000
,
0001
0000
0000
1000
0100
0000
0010
0000
0001
0000
0000
0000
,
1000
0000
0010
0000
0100
0000
0001
0000
0010
0000
0100
0000
,
2000
0000
0000
0000
0000
0000
0000
0000
0000
0000
0000
0000
0000
0000
0000
0000
3002
0000
0000
0000
0000
0000
0000
0000
0000
0000
0000
0000
0000
0000
0000
0000
0203
0000
0000
0000
0000
0000
0000
0000
0000
0000
0000
0000
0000
0000
0000
0000
0320
0000
0000
0030
0000
0000
0000
0000
0000
0000
0000
0000
0000
0000
0000
0000
0000
0000
0000
0000
0000
0000
0000
0000
0000
0000
0000
0000
0000
0000
0000
0000
0000
0000
0000
0000
0000
0000
0000
0000
0000
0000
0000
0000
0000
0000
0000
0000
,
0001
0100
0001
0100
0001
0000
0000
0000
,
1000
0100
1000
0100
1000
0000
0000
0000
,
0010
0100
0000
0010
0100
0000
0010
0000
,
2002
0000
0000
3003
0000
0000
0000
0000
,
0001
0100
0010
1000
,
0001
0010
0001
0000
1000
0000
0100
0000
,
1000
0010
0100
0001
,
0010
0010
0100
0100
,
1000
0001
0100
0010
,
1000
0100
1000
0000
0010
0000
0100
0000
,
0000
1001
0001
0010
,
0100
0100
0010
0010
,
0000
0000
0000
0000
,
2002
0000
0000
3003
0000
0000
0000
0000
,
0000
0000
0000
0010
,
1000
0001
1000
0010
,
0100
0000
0000
0000
0001
0000
0000
0000
1000
0000
0000
0001
0000
0000
1000
0000
,
0002
0000
0000
0003
0000
0000
0000
0000
,
0000
0000
0010
0010
,
0100
1000
0100
0010
,
0001
1000
0001
0000
0000
0000
0000
0000
,
1000
0000
0010
0000
,
0100
0001
0010
0001
,
0100
0000
0010
0000
,
1000
0000
0001
0000
2002
0000
0000
3003
,
0000
0001
0010
0100
,
2000
0000
0002
3003
,
1100
0000
0101
0000
,
1010
0000
0011
0000
,
1000
0010
1000
0001
,
0100
0001
0010
0000
,
0100
1000
0100
0010
,
0001
0000
0000
0000
1000
0000
0000
0000
0010
0000
0000
0100
0000
0000
0010
0000
,
0200
0000
0300
0000
,
0000
0000
0000
0110
,
2002
0000
3003
0000
,
0000
0000
0000
0000
0000
0000
1000
0000
0001
0000
1000
0000
,
0002
0000
0003
0000
,
0100
0000
0000
0100
0000
0000
0100
0000
,
0001
0000
0000
0101
0000
0000
1000
0000
,
0000
1100
0000
0000
0010
0000
0100
0000
,
0001
0000
0000
0011
0000
0000
1000
0000
,
0000
1010
0000
0000
0001
0000
1000
0000
,
2002
3003
0000
0000
0000
0000
0000
0000
0001
0000
0000
0000
0000
0000
0000
0000
0100
0000
0000
0000
0000
0000
0000
0000
0010
0000
0000
0000
0000
0000
0000
0000
,
1000
0000
0100
0000
0010
0000
0001
1000
,
0000
1001
0000
0000
0001
0000
0100
0000
,
0010
0000
1000
0000
0100
0000
0010
0100
,
0000
1001
0000
0000
0001
0000
0100
0000
,
0000
1001
0000
0000
1000
0000
0100
0000
,
0000
0110
0000
0000
0001
0000
1000
0000
,
0010
0000
0100
0001
0000
0100
0001
0000
,
0010
0100
1000
0100
,
0010
0000
0001
0000
1000
0000
0010
0100
,
0000
1001
0000
0000
1000
0000
0010
0000
,
0100
0000
0001
0000
0010
0000
0100
1000
,
0000
0110
0000
0000
0001
0000
1000
0000
,
0000
0110
0000
0000
1000
0000
0001
0000
,
0000
1001
0000
0000
0001
0000
0100
0000
,
0010
0000
0000
0000
1000
0000
0001
0000
0000
1000
0000
0000
0001
0000
0000
1000
,
0000
0001
0000
0000
0110
0000
0001
0000
,
1000
0000
0100
0000
1000
0010
0000
0100
,
0000
0101
0000
0001
1000
0000
1000
0000
,
0000
0000
0101
0000
0000
0000
0001
0000
1000
0000
0000
0000
0001
0000
0000
0010
,
0000
0100
0000
0000
1001
0000
1000
0000
,
0010
0000
1000
0000
0001
0010
0000
0100
,
0000
1100
0000
1000
0001
0000
0001
0000
,
0000
1100
0000
1000
0001
0000
0110
0000
,
1001
0000
0000
0000
,
0000
0000
1000
0100
1000
0100
1000
0000
,
0000
0000
0001
0100
0001
0100
0001
0000
,
0000
0000
0010
0100
0000
0010
0100
0000
,
0010
2002
0000
3003
,
0000
1001
0000
1001
,
0000
1000
0001
1000
,
0001
0000
0000
0000
1000
0000
0000
0001
0000
0000
0000
1000
0000
0000
0001
0000
,
1000
0001
1000
0001
1000
0001
1000
0001
,
1000
0001
1000
0001
1000
0001
1000
0001
,
1000
0001
1000
0001
1000
0001
1000
0001
,
1000
0001
0000
0000
0000
0000
0100
0001
,
0100
0001
0100
0000
0010
0000
1000
0100
,
1000
0000
0100
1000
0100
0000
0010
0001
,
0010
0001
0010
0000
0100
0000
1100
0000
,
1100
0000
1100
0000
1100
0000
1000
0010
,
1000
0010
1000
0000
0001
0000
0100
0010
,
0100
0000
0001
1000
0001
1000
0000
0000
,
0010
1000
0010
0101
,
0101
0101
0101
0000
,
0000
0000
0000
0000
,
0000
0000
0000
0000
0000
0000
1000
0100
,
1000
0100
0010
0000
0000
0000
0001
0100
,
0001
0100
0010
0000
0000
0000
1000
0001
,
1000
0001
0100
0010
0100
0010
0000
0000
,
0000
2002
0000
0000
,
0000
3003
0000
0000
,
0000
0000
0000
0000
,
0000
0000
0000
1000
0000
0100
0000
0010
0000
0001
0000
0100
,
0000
0010
0000
2000
0000
3002
0000
0203
0000
0320
0000
0000
,
0000
0030
0000
0000
;

//--------------- dance-single - forcednature ----------------
#NOTEDATA:;
#STEPSTYPE:dance-single;
#DESCRIPTION:forcednature;
#DIFFICULTY:Medium;
#METER:14;
#RADARVALUES:0,0,0,0,0;
#CREDIT:forcednature;
#CREDIT:forcednature;
#NOTES:
0000
0000
0000
0000
,
0000
0000
0000
0000
,
0000
0000
0000
0000
,
0000
0000
0000
0000
,
0000
0000
0000
0000
,
0101
0000
0000
1000
0010
0000
1000
0000
1001
0000
0000
0000
,
1100
0000
0000
0001
0010
0000
0001
0000
1001
0000
0000
0000
,
0110
0000
1000
0000
0001
0000
0110
0000
1000
0000
0001
0000
,
1100
0000
0000
0000
0000
0000
0000
0000
0000
0000
0000
0000
0000
0000
0000
0000
0101
0000
0000
0000
0000
0000
0000
0000
0000
0000
0000
0000
0000
0000
0000
0000
0110
0000
0000
0000
0000
0000
0000
0000
0000
0000
0000
0000
0000
0000
0000
0000
2002
0000
0000
3003
0000
0000
0000
0000
0000
0000
0000
0000
0000
0000
0000
0000
0000
0000
0000
0000
0000
0000
0000
0000
0000
0000
0000
0000
0000
0000
0000
0000
0000
0000
0000
0000
0000
0000
0000
0000
0000
0000
0000
0000
0000
0000
0000
0000
,
1000
0100
0010
0001
1000
0000
0000
0000
,
0001
0100
0010
1000
0001
0000
0000
0000
,
1000
0100
1000
0001
0100
0001
0010
0100
,
0020
0000
0000
0030
0000
0000
0000
0000
,
0100
1000
0001
0010
0100
0000
1000
0000
,
0001
0100
0001
0000
1000
0100
1000
0000
,
0010
0100
0001
1000
0100
0000
0010
0000
,
0110
0110
1001
1001
,
0001
0010
0001
1000
0010
0000
0100
0000
,
0001
1000
0100
0000
1000
0001
0100
0000
,
0000
0000
0110
0000
0010
1000
0001
0000
,
0101
0101
1100
1100
,
0000
0000
0000
0000
,
2002
0000
0000
3003
0000
0000
0000
0000
,
0000
0000
0000
1000
,
0001
0100
0010
1000
0001
1000
0100
0000
,
0010
0000
0100
0000
0010
0000
0001
0000
1000
0000
0000
0001
0000
0000
0100
0000
,
0020
0000
0000
0030
0000
0000
0000
0000
,
0000
0000
0110
1001
,
1000
0100
1000
0001
0100
0001
1000
0000
,
0010
0100
0010
0100
0001
0000
1000
0000
,
1100
0000
0100
0010
0000
0001
0000
1000
,
0000
0001
0100
0010
,
1000
0000
0001
0010
0000
0100
0000
1000
,
0000
0000
0010
0000
2002
0000
0000
3003
,
0000
0001
0100
1000
,
0220
0330
2002
3003
,
1000
0100
1000
0000
0001
0100
0001
0000
,
1000
0010
1000
0000
0001
0010
0001
0000
,
1000
0100
0010
0001
0000
0100
0010
0000
,
1000
0010
1000
0000
0001
0010
0001
0000
,
0100
0001
1000
0001
0000
0010
0100
0000
,
1000
0000
0010
0000
1000
0000
0000
0000
0001
0000
0000
0001
0000
0000
1000
0000
,
0002
0000
0003
0000
,
0000
0000
0000
0110
,
2002
0000
3003
0000
,
0000
0000
0000
0000
0000
0000
0010
0000
0010
0000
0010
0000
,
2002
0000
3003
0000
,
0110
0000
0000
0110
0000
0000
0110
0000
,
1000
0100
0000
0001
0100
0000
1000
0010
,
0000
0001
0010
0000
0100
0010
0100
0000
,
0001
0100
0000
1000
0100
0000
0001
0010
,
0000
1000
0010
0000
0100
0010
0100
0000
,
2002
3003
0000
0000
0000
0000
0000
0000
1000
0000
0000
0000
0100
0000
0000
0000
1000
0000
0000
0000
0000
0000
0000
0000
0001
0000
0000
0000
0100
0000
0000
0000
,
0001
0000
1000
0000
0010
0000
0100
0001
,
0000
1001
0000
0000
0001
0000
0010
0100
,
0010
0000
0001
1000
0001
0000
1000
0010
,
0000
1100
0000
1000
0100
0000
1100
0000
,
0000
0101
0000
0001
0100
0000
0101
0000
,
0000
1001
0000
0001
0100
0001
1000
0001
,
0010
0100
1000
0001
0000
1000
0001
0000
,
0100
0000
0001
0010
0001
0000
1000
0010
,
1000
0000
0001
0010
0100
1000
0010
1000
,
0000
1001
0000
0000
0001
0000
0100
0001
,
0100
0000
0010
1000
0001
1000
0100
0010
,
0000
0011
0000
0001
0010
0000
0011
0000
,
0000
1010
0000
1000
0010
0000
1010
0000
,
0000
1001
0000
0100
0010
0000
0010
0100
,
0010
0000
0000
0000
1000
0000
1000
0000
0000
1000
0000
0000
0001
0000
0000
0001
,
0000
0001
0000
0000
1001
0000
1000
0010
,
1000
0000
0001
0010
0100
1000
0000
0001
,
0000
0110
0000
0100
0010
0000
0110
0000
,
0000
0000
1001
0000
0000
0000
1000
0000
0001
0000
0000
0000
0010
0000
0000
0010
,
0000
0110
0000
0000
0001
0010
0001
0000
,
1000
0010
0100
0001
1000
0100
0000
0010
,
0000
0011
0000
1000
0100
0000
0011
0000
,
0000
1010
0000
0001
0100
0000
1010
0000
,
1001
0000
0000
0000
,
0000
0000
0001
0100
0001
0010
0100
0000
,
0000
0000
1000
0100
1000
0010
0100
0000
,
0000
0000
0001
0100
0001
0010
0100
1000
,
0010
1000
0200
0000
0000
0000
0300
0000
,
0000
2002
3003
2002
,
3003
1001
1001
1001
,
1001
0000
0000
0000
0001
1000
0000
0001
1000
0001
0000
1000
0001
0000
1000
0000
,
0001
0000
0000
1000
0000
0000
0001
0000
0000
1000
0000
0000
0001
0000
0000
1000
0000
0000
0001
0000
1000
0000
0001
0000
,
1000
0001
1000
0001
1000
0001
1000
0001
1000
0001
1000
0001
,
1000
0001
1000
0001
1000
0001
1000
0001
1000
0001
1000
0001
,
1000
0000
0001
0000
1000
0000
0000
0000
0000
0000
0000
0000
0000
0000
0000
0000
0000
0000
0001
0000
0000
0010
0000
0000
,
0100
1000
0100
0010
0001
0000
1000
0010
,
1000
0000
0001
0100
0001
0000
1000
0010
,
1000
0100
0010
0001
0100
0000
0101
0000
,
0101
0000
1010
0000
1010
0000
0001
0010
,
0001
1000
0010
0100
0001
0000
1000
0100
,
0010
0000
0001
0010
0100
1000
0000
0000
,
0001
0100
0001
1000
0010
0000
1100
0000
,
1100
0011
0011
0000
,
0000
0000
0000
0000
,
0000
0000
0000
0000
0000
0000
1000
0100
,
0001
0100
1000
0000
0000
0000
0001
0100
,
1000
0100
0001
0000
0000
0000
1000
0100
,
0001
0100
0010
0001
1000
0010
0000
0000
,
0000
2002
0000
0000
,
0000
3003
0000
0000
,
0000
0000
0000
0000
,
0000
0000
0000
0101
0000
1000
0000
0010
0000
1100
0000
0001
,
0000
0010
0000
1100
0000
0101
0000
0110
0000
2002
0000
0000
,
0000
3003
0000
0000
;

//--------------- dance-single - forcednature ----------------
#NOTEDATA:;
#STEPSTYPE:dance-single;
#DESCRIPTION:forcednature;
#DIFFICULTY:Hard;
#METER:18;
#RADARVALUES:0,0,0,0,0;
#CREDIT:forcednature;
#CREDIT:forcednature;
#NOTES:
0000
0000
0000
0000
,
0000
0000
0000
0000
,
0000
0000
0000
0000
,
0000
0000
0000
0000
,
0000
0000
0000
0000
,
2001
0000
0000
0100
0100
0000
0001
0000
0010
3000
0000
0000
,
1002
0000
0000
0100
0100
0000
1000
0000
0010
0003
0000
0000
,
0210
0000
0001
0000
1300
0000
0120
0000
1000
0000
0031
0000
,
2200
0000
0000
0000
0000
0000
0000
0000
3300
0000
0000
0000
0000
0000
0000
0000
0202
0000
0000
0000
0000
0000
0000
0000
0303
0000
0000
0000
0000
0000
0000
0000
0220
0000
0000
0000
0000
0000
0000
0000
0330
0000
0000
0000
0000
0000
0000
0000
2002
0000
0000
3003
0000
0000
0000
0000
0000
0000
0000
0000
0000
0000
0000
0000
0000
0000
0000
0000
0000
0000
0000
0000
0000
0000
0000
0000
0000
0000
0000
0000
0000
0000
0000
0000
0000
0000
0000
0000
0000
0000
0000
0000
0000
0000
0000
0000
,
1000
0100
1000
0100
0010
0001
0010
0001
1000
0000
0000
0000
0000
0000
0000
0000
,
0001
0100
0001
0100
0010
1000
0010
1000
0001
0000
0000
0000
0000
0000
0000
0000
,
1000
0100
1000
0100
1000
0000
0001
0100
0001
0100
0001
0000
1000
0001
1000
0001
,
0200
0000
0000
0300
0000
0000
0000
0000
,
0010
1000
0010
0000
0100
0000
0001
1000
0001
0000
0010
0000
0100
1000
0100
0000
,
0010
0000
0001
0000
0100
0000
0001
0000
0010
0100
1000
0000
0001
0000
0100
0000
,
0001
0010
0001
0000
0100
0000
0010
0000
1000
0000
0001
0100
0001
0000
0010
0000
,
0011
0101
1010
1100
,
1000
0001
1000
0000
0010
0000
1000
0100
1000
0000
0001
0000
0100
0010
0100
0000
,
0001
0000
0010
0000
0001
0000
0100
0000
0010
1000
0010
0000
0100
0001
0200
0000
,
0000
0000
0301
1000
0001
0000
0010
0000
0100
0000
1000
0001
1000
0000
0010
0000
,
1010
1100
0011
0101
,
0000
0000
0000
0000
,
2002
0000
0000
3003
0000
0000
0000
0000
,
0000
0000
0000
0110
,
0001
0000
1000
0000
0001
0000
0100
0000
0010
1000
0010
0000
0100
0000
0001
1000
,
0001
0000
0001
0000
1000
0000
1000
0000
0100
0000
0000
0010
0000
0000
0001
0000
,
2002
0000
0000
3003
0000
0000
0000
0000
,
0000
0000
0110
0110
,
1000
0000
0001
0000
0100
0000
0001
0000
1000
0100
1000
0000
0010
0000
0100
0001
,
0100
0100
0010
0010
0000
0000
0000
0000
,
1001
0000
0001
0100
0000
1000
0000
0100
,
0010
1000
0001
0010
,
0100
0000
0001
0100
0000
1000
0000
0001
,
0100
0010
2000
3000
,
0001
0100
1000
0100
,
0220
0330
2002
3003
,
1000
0100
1000
0000
0000
0000
0000
0000
0001
0100
0001
0000
0000
0000
0000
0000
,
1000
0010
1000
0000
0000
0000
0000
0000
0001
0010
0001
0000
0000
0000
0000
0000
,
1001
0000
1000
0010
0000
0001
0010
0100
,
0000
0001
1000
0000
0100
0010
0001
0100
,
0010
0000
1000
0001
0000
0010
1000
0010
,
0000
0000
0100
0000
1000
0000
0000
0000
0001
0000
0000
0001
0000
0000
1000
0100
,
2000
0000
3000
0000
,
0000
0000
0000
0110
,
2002
0000
3003
0000
,
0000
0000
0000
0000
0000
0000
0010
0000
0100
0000
0010
0000
,
2002
0000
3003
0000
,
0110
0000
0000
1001
0000
0000
0110
0000
,
0001
0100
0001
0000
1000
0000
0001
0010
0001
0000
1000
0000
0001
0100
0001
0000
,
1000
0000
0001
0010
0001
0000
1000
0000
0001
0100
0001
0000
0010
0000
0100
0000
,
1000
0100
1000
0000
0001
0000
1000
0010
1000
0000
0001
0000
1000
0100
1000
0000
,
0001
0000
1000
0010
1000
0000
0001
0000
1000
0100
1000
0000
0001
0100
0001
0000
,
0020
0030
0000
0000
0000
0000
0000
0000
0001
0000
0000
0000
0100
0000
0000
0000
1000
0000
0000
0000
0100
0000
0000
0000
0010
0000
0000
0000
1000
0000
0000
0000
,
0001
1000
0100
0010
1000
0010
0001
1000
,
0000
0110
0000
0001
1000
0010
0001
0010
,
0100
0001
1000
0001
0010
0100
1000
0010
,
0000
0110
0000
1000
0001
0000
0110
0000
,
0000
1001
0000
0100
0010
0000
1001
0000
,
0000
0000
0110
0000
0000
0000
1000
0100
1000
0000
0001
0100
0001
0000
1000
0001
,
1000
0010
0100
1000
0000
0100
0001
0000
,
0020
0000
0130
0001
0100
1000
0010
1000
,
0001
0000
0010
0000
0001
0100
0001
0000
1000
0100
1000
0000
0001
0000
1000
0000
,
0000
0110
0000
0001
0100
1000
0100
0001
,
1000
0000
0001
0000
1000
0100
1000
0000
0001
0100
0001
0000
0010
0000
0100
0000
,
0000
1001
0000
0100
0010
0000
1001
0000
,
0000
0110
0000
1000
0001
0000
0110
0000
,
0000
0000
1001
0000
0000
0000
0001
0010
0100
0000
1000
0010
0100
0000
0001
1000
,
0001
0000
0010
0000
0001
0000
0011
0000
0000
0101
0000
0000
1000
0000
0000
1010
,
0000
1100
0000
0000
0001
0100
1000
0100
,
0010
0001
0010
1000
0001
0010
0000
0101
,
0000
1010
0000
0001
1000
0000
0110
0000
,
0000
0000
1001
0000
0000
0000
0100
0000
0010
0000
0000
0000
1100
0000
0000
0101
,
0000
1001
0000
0000
1000
0100
0001
0100
,
0010
1000
0010
0001
0100
0010
0000
1001
,
0000
0110
0000
1000
0001
0000
0110
0000
,
0000
1001
0000
0100
0010
0000
1001
0000
,
0110
0000
0000
0000
,
0000
0000
0000
0000
1000
0100
0010
0001
1000
0100
0010
0001
1000
0000
0000
0000
,
0000
0000
0000
0000
0001
0100
0010
1000
0001
0100
0010
1000
0001
0000
0000
0000
,
0000
0000
0000
0000
1000
0100
0010
0001
1000
0000
0001
0100
0010
1000
0001
0000
,
1000
0001
1000
0001
0200
0000
0000
0000
0000
0000
0000
0000
0300
0000
0000
0000
,
0000
2002
3003
2002
,
3003
0000
0000
2002
0000
3003
2002
0000
3003
2002
0000
3003
,
2002
0000
0000
0000
0000
0000
0000
0000
3003
0000
0000
0000
1000
0000
0000
0001
0000
0000
0000
0000
0000
1000
0000
0000
0001
0000
0000
1000
0000
0000
0000
0000
0000
0001
0000
0000
1000
0000
0000
0000
0000
0000
0001
0000
0000
0000
0000
0000
,
1000
0000
0001
0000
1000
0001
1000
0001
1000
0001
1000
0001
1000
0001
1000
0001
,
1000
0001
1000
0001
1000
0001
1000
0001
1000
0001
1000
0001
1000
0001
1000
0001
,
1000
0001
1000
0001
1000
0001
1000
0001
1000
0001
1000
0001
1000
0001
1000
0001
,
1000
0001
1000
0001
0000
0000
0000
0000
0000
0000
0000
0000
1000
0100
1000
0100
,
0010
0000
0001
0000
0100
0000
0010
1000
0001
0000
1000
0000
0001
0010
0100
1000
,
0001
0000
0100
0000
0010
1000
0010
1000
0001
0000
0010
0000
0100
0010
0001
1000
,
0001
0000
0100
0000
0010
0000
1000
0001
1000
0000
0100
0000
1000
0000
0001
0010
,
0100
1000
0001
0000
1000
0000
0001
0100
0010
1000
0001
0000
1000
0001
1000
0001
,
0010
0000
0100
0000
0010
0000
0001
0100
0010
0000
1000
0000
0001
1000
0100
1000
,
0010
0000
0100
0000
0001
0010
0100
1000
0010
0000
1001
0000
0000
0000
0000
0000
,
1000
0100
1000
0100
0010
0001
0010
0001
0100
0000
0100
0000
0001
0000
1000
0010
,
0100
0001
1000
0000
0001
0000
1000
0100
0010
0001
1000
0000
0000
0000
0000
0000
,
0000
0000
0000
0000
,
0000
0000
0000
0000
0000
0000
0000
0000
0000
0000
0000
0000
0001
0100
0001
0010
,
0100
1000
0010
1000
0001
0000
0000
0000
0000
0000
0000
0000
1000
0100
1000
0010
,
0100
0001
0010
0001
1000
0000
0000
0000
0000
0000
0000
0000
0001
0100
0001
0010
,
0001
0000
1000
0100
1000
0010
1000
0000
0001
1000
0001
1000
0001
0010
0100
1000
,
0100
0010
0001
0000
2002
0000
0000
0000
0000
0000
0000
0000
0000
0000
0000
0000
,
0000
3003
0000
0000
,
0000
0000
0000
0000
,
0000
0000
0000
2001
0000
0100
0000
0010
3000
1002
0000
0100
,
0000
0010
0003
2200
3300
0202
0303
0220
0330
2002
0000
0000
,
0000
3003
0000
0000
;

//--------------- dance-single - forcednature (BPM 30-999) ----------------
#NOTEDATA:;
#STEPSTYPE:dance-single;
#DESCRIPTION:forcednature (BPM 30-999);
#DIFFICULTY:Challenge;
#METER:19;
#RADARVALUES:0,0,0,0,0;
#OFFSET:1.847;
#BPMS:0.000=65.000
,16.000=60.000
,17.000=55.000
,18.000=40.000
,18.500=30.000
,19.000=500.000
,609.000=560.000
,617.000=620.000
,625.000=680.000
,633.000=740.000
,641.000=800.000
,649.000=860.000
,657.000=920.000
,665.000=960.000
,697.000=999.000
,969.000=60.000
,970.000=55.000
,971.000=40.000
,971.500=30.000
;
#STOPS:19.000=1.440
,367.000=1.680
;
#TIMESIGNATURES:0.000=4=4,
4.000=3=4,
19.000=4=4,
367.000=2=4,
369.000=4=4
;
#DISPLAYBPM:60.000:250.000;
#CREDIT:forcednature (BPM 30-999);
#NOTES:
0000
0000
0000
0000
,
0000
0000
0000
0000
,
0000
0000
0000
0000
,
1002
0000
0000
0100
0100
0000
1000
0000
0010
0003
0000
0000
2001
0000
0000
0100
0100
0000
0001
0000
0010
3000
0000
0000
,
0210
0000
0000
0000
0000
0000
0000
0000
0000
0000
0000
0000
0000
0000
0000
0000
1000
0000
0000
0000
0000
0000
0000
0000
0000
0000
0000
0000
0000
0000
0000
0000
0301
0000
0000
0000
0000
0000
0000
0000
0000
0000
0000
0000
0000
0000
0000
0000
0120
0000
0000
0000
0000
0000
0000
0000
0000
0000
0000
0000
0000
0000
0000
0000
0001
0000
0000
0000
0000
0000
0000
0000
0000
0000
0000
0000
0000
0000
0000
0000
1030
0000
0000
0000
0000
0000
0000
0000
0000
0000
0000
0000
0000
0000
0000
0000
0202
0000
0000
0000
0000
0000
0000
0000
0303
0000
0000
0000
0000
0000
0000
0000
2200
0000
0000
0000
0000
0000
0000
0000
3300
0000
0000
0000
0000
0000
0000
0000
0220
0000
0000
0000
0000
0000
0000
0000
0330
0000
0000
0000
0000
0000
0000
0000
2002
0000
0000
3003
0000
0000
0000
0000
0000
0000
0000
0000
0000
0000
0000
0000
0000
0000
0000
0000
0000
0000
0000
0000
0000
0000
0000
0000
0000
0000
0000
0000
0000
0000
0000
0000
0000
0000
0000
0000
0000
0000
0000
0000
0000
0000
0000
0000
,
0000
0000
0000
0000
0000
0000
0001
0100
,
0001
0100
0010
1000
0010
1000
0001
0000
,
0000
0000
0000
0000
0000
0000
1000
0100
,
1000
0100
0010
0001
0010
0001
1000
0000
,
0000
0000
0000
0000
0000
0000
0001
0100
,
0001
0100
0001
0000
1000
0100
1000
0100
,
1000
0000
0001
1000
0001
1000
0200
0000
,
0000
0000
0300
0000
,
0000
0000
0000
0000
0000
0000
0010
0001
,
0010
0000
0100
0000
1000
0001
1000
0000
,
0010
0000
0100
0001
0100
0000
0010
0000
,
1000
0000
0100
0000
1000
0000
0010
0100
,
0001
0000
1000
0000
0100
0000
1000
0010
,
1000
0100
0010
0001
,
1000
0100
1000
0000
0010
0000
1010
0000
,
0000
1100
0000
0011
,
0000
0000
0101
0000
0000
0000
0001
1000
,
0001
0000
0010
0000
0001
0100
0001
0000
,
1000
0000
0100
0010
0100
0000
1000
0000
,
0010
0000
1000
0000
0100
0000
0010
0001
,
0010
0000
0100
1000
0200
0000
0000
0000
,
1300
0001
1000
0000
0010
0000
0100
0000
,
0001
1000
0001
0000
0010
0000
0011
0000
,
0000
0101
0000
1010
,
0000
1100
0000
0000
,
0000
0000
0000
0000
,
0000
0000
0000
2002
,
0000
0000
3003
0000
,
0000
0000
0000
0000
,
0000
0000
0000
0000
,
0000
0110
0000
1000
,
0001
0000
1000
0000
0100
0000
0010
0001
,
0010
0000
0100
0000
1000
0001
1000
0000
,
1000
0001
0001
0100
,
0000
0010
0000
0000
1000
0000
2002
0000
,
0000
0000
3003
0000
,
0000
0000
0000
0000
,
0000
0000
0000
0110
,
0000
0110
0000
0001
,
1000
0000
0100
0000
1000
0000
0001
0100
,
0001
0000
0010
0000
0100
1000
0100
0000
,
0100
0010
0010
0000
,
0000
0000
0000
1001
,
0000
1000
0100
0000
,
0001
0000
0100
0010
,
0000
0001
0000
1000
,
0000
0010
0000
0100
,
0000
1000
0100
0000
,
0001
0000
1000
0100
,
0000
0010
0000
0002
,
0000
0003
0000
1000
,
0000
0100
0000
0001
,
0000
0100
0000
0220
,
0000
0330
0000
2002
,
0000
0000
3003
0000
0000
0000
0001
0100
,
0001
0000
0000
0000
0000
0000
1000
0100
,
1000
0000
0000
0000
0000
0000
0001
0010
,
0001
0000
0000
0000
0000
0000
1000
0010
,
1000
0000
0000
1001
,
0000
0001
0010
0000
,
1000
0010
0100
0000
,
1000
0001
0000
0100
,
0010
1000
0100
0010
,
0000
0001
1000
0000
,
0010
0001
0010
0000
,
0100
0001
0000
1000
,
0000
1000
0000
0000
0001
0100
0002
0000
,
0000
0000
0000
0003
,
0000
0000
0000
0000
,
0000
0000
0000
0000
,
0000
0110
0000
2002
,
0000
0000
0000
3003
,
0000
0000
0000
0000
,
0000
0000
0000
0010
,
0000
0100
0000
0000
0000
0010
0000
0000
0000
2002
0000
0000
,
0000
0000
0000
3003
,
0000
0000
0000
0110
,
0000
0000
1001
0000
,
0000
0000
0110
0000
0000
0000
1000
0100
,
1000
0000
0001
0000
1000
0010
1000
0000
,
0001
0000
1000
0100
1000
0000
0001
0000
,
1000
0010
1000
0000
0001
0000
1000
0100
,
1000
0000
0010
0000
0100
0000
0001
0100
,
0001
0000
1000
0000
0001
0010
0001
0000
,
1000
0000
0001
0100
0001
0000
1000
0000
,
0001
0010
0001
0000
1000
0000
0001
0100
,
0001
0000
0000
0000
1000
0000
0100
0000
1000
0000
0000
0000
0020
0030
0000
0000
,
0000
1000
0100
0001
,
0100
0010
0001
1000
,
0001
0100
0010
0001
,
0010
1000
0001
0000
,
0110
0000
1000
0001
,
0010
1000
0010
0100
,
1000
0001
1000
0010
,
0100
0001
0010
0000
,
0110
0000
0001
1000
,
0000
0110
0000
0000
,
1001
0000
0100
0010
,
0000
1001
0000
0000
,
0110
0000
0000
0000
0001
0100
0001
0000
,
1000
0100
1000
0000
0001
1000
0001
0000
,
0010
0100
0001
0000
,
0100
1000
0000
0020
,
0000
0130
1000
0100
,
0001
0010
0001
1000
,
0010
0000
1000
0100
1000
0000
0001
0100
,
0001
1000
0001
0000
,
0110
0000
1000
0100
,
0001
0100
1000
0001
,
1000
0000
0001
0100
0001
0000
1000
0100
,
1000
0010
0100
0000
,
1001
0000
0100
0010
,
0000
1001
0000
0000
,
0110
0000
0001
1000
,
0000
0110
0000
0000
,
1001
0000
0000
0000
1000
0010
0100
0000
,
0001
0010
0100
0000
1000
0001
1000
0000
,
0010
0000
1000
0000
1010
0000
0000
1100
,
0000
0000
0001
0000
0000
0011
0000
0000
,
0101
0000
0000
1000
,
0100
0001
0100
0010
,
1000
0010
0001
1000
,
0010
0000
1100
0000
,
0011
0000
1000
0001
,
0000
0110
0000
0000
,
1001
0000
0100
0010
,
0000
0000
0101
0000
0000
1100
0000
0000
,
1001
0000
0000
0001
,
0100
1000
0100
0010
,
0001
0010
1000
0100
,
0010
0000
1001
0000
,
0110
0000
0001
1000
,
0000
0110
0000
0000
,
1001
0000
0100
0010
,
0000
1001
0000
0110
,
0000
0000
0000
0000
,
0000
0000
0000
0000
,
0000
0000
0001
0100
0010
1000
0001
0100
,
0010
1000
0001
0000
0000
0000
0000
0000
,
0000
0000
1000
0100
0010
0001
1000
0100
,
0010
0001
1000
0000
0000
0000
0000
0000
,
0000
0000
0001
0100
0010
1000
0001
0000
,
1000
0100
0010
0001
1000
0000
0001
1000
,
0001
1000
0200
0000
0000
0000
0000
0000
,
0000
0300
0000
0000
,
0000
2002
0000
0000
,
0000
3003
0000
0000
,
0000
2002
0000
0000
,
0000
3003
0000
0000
,
0000
0000
0000
2002
0000
0000
0000
0000
0000
0000
0000
3003
,
0000
0000
0000
2002
0000
0000
0000
0000
0000
0000
0000
3003
,
0000
0000
0000
2002
0000
0000
0000
0000
0000
0000
0000
3003
,
0000
0000
0000
2002
0000
0000
0000
0000
0000
0000
0000
3003
,
0000
0001
1000
0000
,
0001
1000
0001
0000
,
1000
0001
0000
1000
,
0000
0001
0000
1000
,
0000
0001
1000
0001
,
1000
0001
1000
0001
,
1000
0001
1000
0001
,
1000
0001
1000
0001
,
1000
0001
1000
0001
,
1000
0001
1000
0001
,
1000
0001
1000
0001
,
1000
0001
1000
0001
,
1000
0001
1000
0001
,
1000
0001
1000
0001
,
1000
0001
1000
0001
,
1000
0001
1000
0001
,
1000
0000
0000
0000
,
0000
0000
0000
0000
,
0000
0001
0100
0001
,
0100
0010
0000
1000
,
0000
0100
0000
0010
,
0001
1000
0000
0001
,
0000
1000
0010
0100
,
0001
1000
0000
0100
,
0000
0010
0001
0010
,
0001
1000
0000
0010
,
0000
0100
0010
1000
,
0001
1000
0000
0100
,
0000
0010
0000
0001
,
1000
0001
0000
0100
,
0000
0001
0000
1000
,
0010
0100
0001
1000
,
0000
0001
0000
1000
,
0100
0010
0001
1000
,
0000
0001
1000
0001
,
1000
0010
0000
0100
,
0000
0010
0000
1000
,
0100
0010
0000
0001
,
0000
1000
0001
0100
,
0001
0010
0000
0100
,
0000
1000
0010
0100
,
0001
0010
0000
1001
,
0000
0000
0000
0000
,
0000
0001
0100
0001
,
0100
0010
1000
0010
,
1000
0100
0000
0100
,
0000
1000
0000
0001
,
0010
0100
1000
0001
,
0000
1000
0000
0001
,
0100
0010
1000
0001
,
0000
0000
0000
0000
,
0000
0000
0000
0000
,
0000
0000
0000
0000
,
0000
0000
0000
0000
,
0000
0000
0000
0000
,
0000
0000
0000
0000
,
0000
0000
0000
0000
,
0000
0000
0000
0000
,
0000
1000
0100
1000
,
0010
0100
0001
0010
,
0001
1000
0000
0000
,
0000
0000
0000
0000
,
0000
0001
0100
0001
,
0010
0100
1000
0010
,
1000
0001
0000
0000
,
0000
0000
0000
0000
,
0000
1000
0100
1000
,
0010
1000
0000
0001
,
0100
0001
0010
0001
,
0000
1000
0001
1000
,
0001
1000
0010
0100
,
0001
0100
0010
1000
,
0000
2002
0000
0000
,
0000
0000
0000
0000
,
0000
0000
0000
0000
,
0000
0000
0000
0000
,
0000
3003
0000
0000
,
0000
0000
0000
0000
,
0000
0000
0000
0000
,
0000
0000
0000
0000
,
0000
0000
0000
0000
,
0000
0000
0000
0000
,
0000
0000
0000
0000
,
0000
0000
0000
0000
,
0000
0000
0000
0000
0000
0000
1002
0000
0100
0000
0010
0003
2001
0000
0100
0000
0010
3000
0202
0303
2200
3300
0220
0330
,
2002
3003
0000
0000
;

//--------------- dance-double - forcednature ----------------
#NOTEDATA:;
#STEPSTYPE:dance-double;
#DESCRIPTION:forcednature;
#DIFFICULTY:Easy;
#METER:13;
#RADARVALUES:0,0,0,0,0;
#CREDIT:forcednature;
#CREDIT:forcednature;
#NOTES:
00000000
00000000
00000000
00000000
,
00000000
00000000
00000000
00000000
,
00000000
00000000
00000000
00000000
,
00000000
00000000
00000000
00000000
,
00000000
00000000
00000000
00000000
,
00010000
00000000
00000000
00001000
00000010
00000000
00000100
00000000
00000010
00000000
00000000
00000000
,
00001000
00000000
00000000
00010000
00100000
00000000
01000000
00000000
00100000
00000000
00000000
00000000
,
00010000
00000000
00000100
00000000
00010000
00000000
00001000
00000000
01000000
00000000
00001000
00000000
,
00020000
00000000
00000000
00000000
00000000
00000000
00000000
00000000
00000000
00000000
00000000
00000000
00000000
00000000
00000000
00000000
02030000
00000000
00000000
00000000
00000000
00000000
00000000
00000000
00000000
00000000
00000000
00000000
00000000
00000000
00000000
00000000
23000000
00000000
00000000
00000000
00000000
00000000
00000000
00000000
00000000
00000000
00000000
00000000
00000000
00000000
00000000
00000000
30200000
00000000
00000000
00300000
00000000
00000000
00000000
00000000
00000000
00000000
00000000
00000000
00000000
00000000
00000000
00000000
00000000
00000000
00000000
00000000
00000000
00000000
00000000
00000000
00000000
00000000
00000000
00000000
00000000
00000000
00000000
00000000
00000000
00000000
00000000
00000000
00000000
00000000
00000000
00000000
00000000
00000000
00000000
00000000
00000000
00000000
00000000
00000000
,
01000000
00001000
01000000
00001000
01000000
00000000
00000000
00000000
,
00000100
00010000
00000100
00010000
00000100
00000000
00000000
00000000
,
00010000
00001000
00000000
00010000
00001000
00000000
00010000
00000000
,
00022000
00000000
00000000
00033000
00000000
00000000
00000000
00000000
,
00000100
00001000
00000100
00000010
,
00000001
00001000
00000001
00000000
00000100
00000000
00000010
00000000
,
00010000
00001000
01000000
00010000
,
00100000
00100000
01000000
01000000
,
10000000
00010000
01000000
00010000
,
00100000
00001000
00100000
00000000
00010000
00000000
01000000
00000000
,
00000000
00011000
00010000
00000100
,
00000010
00000010
00000001
00000001
,
00000000
00000000
00000000
00000000
,
00002002
00000000
00000000
00003003
00000000
00000000
00000000
00000000
,
00000000
00000000
00000000
00010000
,
00001000
00010000
00100000
10000000
,
01000000
00000000
00000000
00000000
00100000
00000000
00000000
00000000
00001000
00000000
00000000
00010000
00000000
00000000
00001000
00000000
,
00020000
00000000
00000000
00030000
00000000
00000000
00000000
00000000
,
00000000
00000000
00000100
00000100
,
00001000
00000001
00000100
00000010
,
00001000
00000100
00001000
00000000
00000000
00000000
00000000
00000000
,
00000010
00000000
00010000
00000000
,
00001000
01000000
00001000
00010000
,
01000000
00000000
00100000
00000000
,
00001000
00000000
00010000
00000000
00022000
00000000
00000000
00033000
,
00000000
00000100
00001000
00000100
,
00000020
00000000
00000001
00000030
,
00000100
00010000
00001000
00010000
,
01000000
00010000
00001000
00010000
,
00100000
10000000
00010000
10000000
,
01000000
00010000
00001000
00000000
,
00000010
00000001
00001000
00000001
,
00000100
00000000
00000000
00000000
00001000
00000000
00000000
00000000
00010000
00000000
00000000
00001000
00000000
00000000
00010000
00000000
,
00002000
00000000
00003000
00000000
,
00000000
00000000
00000000
01000000
,
00022000
00000000
00033000
00000000
,
00000000
00000000
00000000
00000000
00000000
00000000
00000100
00000000
00010000
00000000
00000100
00000000
,
00020000
00000000
00030000
00000000
,
00000010
00000000
00000000
00000010
00000000
00000000
00000010
00000000
,
00000100
00000000
00000000
00001000
00000000
00000000
00010000
00000000
,
00000000
01000000
00000000
00000000
00100000
00000000
00010000
00000000
,
10000000
00000000
00000000
00100000
00000000
00000000
00010000
00000000
,
00000000
00001000
00000000
00000000
00000010
00000000
00000100
00000000
,
00002002
00003003
00000000
00000000
00000000
00000000
00000000
00000000
00001000
00000000
00000000
00000000
00000000
00000000
00000000
00000000
00000010
00000000
00000000
00000000
00000000
00000000
00000000
00000000
00001000
00000000
00000000
00000000
00000000
00000000
00000000
00000000
,
00000100
00000000
00010000
00000000
00001000
00000000
01000000
00010000
,
00000000
01010000
00000000
00000000
10000000
00000000
00100000
00000000
,
10000000
00000000
01000000
00000000
00100000
00000000
00010000
10000000
,
00000000
10010000
00000000
00000000
00010000
00000000
01000000
00000000
,
00000000
00011000
00000000
00000000
00010000
00000000
00000100
00000000
,
00000000
00001001
00000000
00000000
00000001
00000000
00000100
00000000
,
00000010
00000000
00010000
00001000
00000000
00010000
00001000
00000000
,
00100000
01000000
00100000
01000000
,
10000000
00000000
00100000
00000000
10000000
00000000
00010000
01000000
,
00000000
10010000
00000000
00000000
10000000
00000000
01000000
00000000
,
00010000
00000000
00001000
00000000
00010000
00000000
00000100
00001000
,
00000000
00001001
00000000
00000000
00001000
00000000
00000100
00000000
,
00000000
00011000
00000000
00000000
00001000
00000000
01000000
00000000
,
00000000
10010000
00000000
00000000
10000000
00000000
01000000
00000000
,
00100000
00000000
00000000
00000000
00010000
00000000
10000000
00000000
00000000
00010000
00000000
00000000
10000000
00000000
00000000
00010000
,
00000000
10000000
00000000
00000000
01100000
00000000
10000000
00000000
,
01000000
00000000
00010000
00000000
00001000
00010000
00000000
00000100
,
00000000
00001100
00000000
00001000
00000001
00000000
00000001
00000000
,
00000000
00000000
00001100
00000000
00000000
00000000
00001000
00000000
00000001
00000000
00000000
00000000
00000100
00000000
00000000
00000001
,
00000000
00000100
00000000
00000000
00000010
00000000
00010000
00000000
,
00001000
00000000
01000000
00000000
00010000
10000000
00000000
01000000
,
00000000
11000000
00000000
10000000
00010000
00000000
00010000
00000000
,
00000000
11000000
00000000
10000000
00010000
00000000
01000000
00000000
,
00001000
00000000
00000000
00000000
,
00000000
00000000
00010000
00000100
00010000
00000100
00010000
00000000
,
00000000
00000000
00001000
01000000
00001000
01000000
00001000
00000000
,
00000000
00000000
00010000
00001000
00000000
00010000
00001000
00000000
,
00010000
00022000
00000000
00033000
,
00000000
00011000
00000000
00011000
,
00000000
00010000
00001000
00010000
,
00001000
00000000
00000000
00000000
00010000
00000000
00000000
00001000
00000000
00000000
00000000
00010000
00000000
00000000
00001000
00000000
,
00010000
00001000
00010000
00001000
00010000
00001000
00010000
00001000
,
00010000
00001000
00010000
00001000
00010000
00001000
00010000
00001000
,
00010000
00001000
00010000
00001000
00010000
00001000
00010000
00001000
,
00010000
00001000
00000000
00000000
00000000
00000000
01000000
00010000
,
01000000
00010000
01000000
00000000
00100000
00000000
10000000
01000000
,
10000000
00000000
01000000
10000000
01000000
00000000
00100000
00010000
,
00100000
00010000
00100000
00000000
00001000
00000000
00011000
00000000
,
00011000
00000000
00011000
00000000
00011000
00000000
00000010
00001000
,
00000010
00001000
00000010
00000000
00000100
00000000
00000001
00001000
,
00000001
00000000
00001000
00000100
00001000
00000100
00000000
00000000
,
00000010
00000001
00000100
00000110
,
00000110
00000110
00000110
00000000
,
00000000
00000000
00000000
00000000
,
00000000
00000000
00000000
00000000
00000000
00000000
00010000
00000100
,
00010000
00001000
00010000
00000000
00000000
00000000
00001000
01000000
,
00001000
00010000
00001000
00000000
00000000
00000000
00100000
00010000
,
00100000
00010000
10000000
00100000
10000000
00100000
00000000
00000000
,
00000000
20020000
00000000
00000000
,
00000000
30030000
00000000
00000000
,
00000000
00000000
00000000
00000000
,
00000000
00000000
00000000
10000000
00000000
01000000
00000000
00010000
00000000
00001000
00000000
00000100
,
00000000
00000001
00000000
00000020
00000000
00000230
00000000
00020300
00000000
00032000
00000000
00000000
,
00000000
00003000
00000000
00000000
;

//--------------- dance-double - forcednature ----------------
#NOTEDATA:;
#STEPSTYPE:dance-double;
#DESCRIPTION:forcednature;
#DIFFICULTY:Medium;
#METER:15;
#RADARVALUES:0,0,0,0,0;
#CREDIT:forcednature;
#CREDIT:forcednature;
#NOTES:
00000000
00000000
00000000
00000000
,
00000000
00000000
00000000
00000000
,
00000000
00000000
00000000
00000000
,
00000000
00000000
00000000
00000000
,
00000000
00000000
00000000
00000000
,
00011000
00000000
00000000
00010000
01000000
00000000
10000000
00000000
01100000
00000000
00000000
00000000
,
00011000
00000000
00000000
00001000
00000100
00000000
00000001
00000000
00000110
00000000
00000000
00000000
,
00011000
00000000
01000000
00000000
00100000
00000000
00011000
00000000
00000100
00000000
00000010
00000000
,
00001001
00000000
00000000
00000000
00000000
00000000
00000000
00000000
00000000
00000000
00000000
00000000
00000000
00000000
00000000
00000000
00011000
00000000
00000000
00000000
00000000
00000000
00000000
00000000
00000000
00000000
00000000
00000000
00000000
00000000
00000000
00000000
10010000
00000000
00000000
00000000
00000000
00000000
00000000
00000000
00000000
00000000
00000000
00000000
00000000
00000000
00000000
00000000
02200000
00000000
00000000
03300000
00000000
00000000
00000000
00000000
00000000
00000000
00000000
00000000
00000000
00000000
00000000
00000000
00000000
00000000
00000000
00000000
00000000
00000000
00000000
00000000
00000000
00000000
00000000
00000000
00000000
00000000
00000000
00000000
00000000
00000000
00000000
00000000
00000000
00000000
00000000
00000000
00000000
00000000
00000000
00000000
00000000
00000000
00000000
00000000
,
10000000
01000000
00100000
00010000
10000000
00000000
00000000
00000000
,
00010000
01000000
00001000
00010000
00001000
00000000
00000000
00000000
,
00000010
00000001
00001000
00000001
00000100
00000010
00001000
00000010
,
00020000
00000000
00000000
00030000
00000000
00000000
00000000
00000000
,
00001000
00010000
00001000
00100000
00010000
00000000
01000000
00000000
,
00010000
10000000
00010000
00000000
10000000
00010000
10000000
00000000
,
00100000
10000000
00010000
10000000
01000000
00000000
00100000
00000000
,
00101000
00101000
00010100
00010100
,
00000100
00001000
00000001
00001000
00000010
00000000
00000100
00000000
,
00000001
00000010
00000001
00000000
00001000
00000010
00001000
00000000
,
00000000
00000000
00011000
00000000
00100000
00010000
00100000
00000000
,
01001000
01001000
00010010
00010010
,
00000000
00000000
00000000
00000000
,
00022000
00000000
00000000
00033000
00000000
00000000
00000000
00000000
,
00000000
00000000
00000000
00000100
,
00001000
00000001
00000100
00000001
00000010
00000100
00001000
00000000
,
00000010
00000000
00010000
00000000
00001000
00000000
01000000
00000000
00001000
00000000
00000000
00010000
00000000
00000000
00001000
00000000
,
00200000
00000000
00000000
00300000
00000000
00000000
00000000
00000000
,
00000000
00000000
01000000
01000000
,
10000000
00010000
00100000
00010000
01000000
00001000
00010000
00000000
,
00000100
00001000
00000100
00001000
00000010
00000000
00000010
00000000
,
00000110
00000000
00000100
00000001
00000000
00000010
00000000
00000100
,
00000000
00010000
00001000
00100000
,
00001000
00000000
00010000
00100000
00000000
01000000
00000000
00010000
,
00000000
00000000
10000000
00000000
20020000
00000000
00000000
30030000
,
00000000
10000000
01000000
00010000
,
00022000
00033000
00000220
00000330
,
00000001
00000010
00000100
00000000
00010000
00001000
00100000
00000000
,
00010000
01000000
00100000
00000000
10000000
01000000
00100000
00000000
,
00010000
01000000
00001000
00010000
00000000
00000100
00001000
00000000
,
00000010
00010000
00000010
00000000
00010000
00001000
00010000
00000000
,
00001000
00100000
00010000
00100000
00000000
01000000
10000000
00000000
,
00100000
00000000
10000000
00000000
00100000
00000000
00000000
00000000
01000000
00000000
00000000
01000000
00000000
00000000
00001000
00000000
,
00020000
00000000
00030000
00000000
,
00000000
00000000
00000000
00000100
,
00000220
00000000
00000330
00000000
,
00000000
00000000
00000000
00000000
00000000
00000000
00000001
00000000
00001000
00000000
00000001
00000000
,
00002002
00000000
00003003
00000000
,
00011000
00000000
00000000
00011000
00000000
00000000
00011000
00000000
,
01000000
00010000
00000000
01000000
10000000
00000000
01000000
00010000
,
00000000
01000000
00001000
00000000
00010000
00000010
00001000
00000000
,
00000100
00001000
00000000
00000100
00000001
00000000
00000100
00001000
,
00000000
00000100
00010000
00000000
00001000
00100000
00010000
00000000
,
20020000
30030000
00000000
00000000
00000000
00000000
00000000
00000000
10000000
00000000
00000000
00000000
00100000
00000000
00000000
00000000
10000000
00000000
00000000
00000000
00000000
00000000
00000000
00000000
00010000
00000000
00000000
00000000
00100000
00000000
00000000
00000000
,
00010000
00000000
01000000
00000000
00001000
00000000
00010000
00000100
,
00000000
00000110
00000000
00000000
00000010
00000000
00000001
00001000
,
00000001
00000000
00000100
00000010
00000100
00000000
00001000
00010000
,
00000000
00011000
00000000
01000000
00010000
00000000
10100000
00000000
,
00000000
11000000
00000000
00010000
00100000
00000000
00011000
00000000
,
00000000
00010100
00000000
00000010
00001000
00000010
00000100
00000001
,
00000100
00000010
00001000
00000001
00000000
00001000
00000001
00000000
,
00000010
00000000
00000100
00001000
00000100
00000000
00010000
00001000
,
00010000
00000000
00000010
00001000
00000010
00010000
00001000
01000000
,
00000000
01010000
00000000
00000000
10000000
00000000
01000000
00100000
,
01000000
00000000
10000000
00010000
01000000
00010000
00100000
00001000
,
00000000
00011000
00000000
00010000
00000100
00000000
00000110
00000000
,
00000000
00001001
00000000
00000001
00000100
00000000
00000110
00000000
,
00000000
00011000
00000000
01000000
00010000
00000000
10000000
00100000
,
10000000
00000000
00000000
00000000
01000000
00000000
01000000
00000000
00000000
01000000
00000000
00000000
00100000
00000000
00000000
00100000
,
00000000
00100000
00000000
00000000
00001000
00000000
00010000
00000100
,
00010000
00000000
00001000
00000000
00000100
00000001
00000000
00000010
,
00000000
00000110
00000000
00001000
00010000
00000000
00011000
00000000
,
00000000
00000000
01100000
00000000
00000000
00000000
10000000
00000000
00010000
00000000
00000000
00000000
01000000
00000000
00000000
01000000
,
00000000
01000000
00000000
00000000
00100000
00000000
10000000
00000000
,
01000000
00000000
00010000
00000000
00001000
00000010
00000000
00000001
,
00000000
00000110
00000000
00001000
00010000
00000000
01100000
00000000
,
00000000
10010000
00000000
10000000
01000000
00000000
00110000
00000000
,
00110000
00000000
00000000
00000000
,
00000000
00000000
01000000
00001000
00010000
00001000
00000010
00000000
,
00000000
00000000
00000100
00010000
00001000
00010000
00100000
00000000
,
00000000
00000000
01000000
00001000
00010000
00000100
00010000
00001000
,
00100000
00010000
02000000
00000000
00000000
00000000
03000000
00000000
,
00000000
00022000
00033000
00022000
,
00033000
00011000
00011000
00011000
,
00011000
00000000
00000000
00000000
00010000
00001000
00000000
00010000
00001000
00010000
00000000
00001000
00010000
00000000
00001000
00000000
,
00010000
00000000
00000000
00001000
00000000
00000000
00010000
00000000
00000000
00001000
00000000
00000000
00010000
00000000
00000000
00001000
00000000
00000000
00010000
00000000
00001000
00000000
00010000
00000000
,
00001000
00010000
00001000
00010000
00001000
00010000
00001000
00010000
00001000
00010000
00001000
00010000
,
00001000
00010000
00001000
00010000
00001000
00010000
00001000
00010000
00001000
00010000
00001000
00010000
,
00001000
00000000
00010000
00000000
00001000
00000000
00000000
00000000
00000000
00000000
00000000
00000000
00000000
00000000
00000000
00000000
00000000
00000000
01000000
00000000
00000000
00010000
00000000
00000000
,
01000000
00010000
10000000
00100000
10000000
00000000
00010000
00100000
,
00010000
00000000
01000000
00001000
01000000
00000000
00001000
00010000
,
00001000
00010000
00000100
00001000
00000100
00000000
00000110
00000000
,
00000110
00000000
00001001
00000000
00001001
00000000
00000001
00000100
,
00000001
00000100
00000010
00001000
00000010
00000000
00010000
00001000
,
00100000
00000000
00010000
00100000
00001000
00100000
00000000
00000000
,
01000000
10000000
01000000
00100000
00010000
00000000
01100000
00000000
,
01100000
10010000
10010000
00000000
,
00000000
00000000
00000000
00000000
,
00000000
00000000
00000000
00000000
00000000
00000000
00001000
00010000
,
00000100
00010000
00000010
00000000
00000000
00000000
00010000
00001000
,
01000000
00001000
00100000
00000000
00000000
00000000
01000000
00010000
,
01000000
00100000
00010000
00100000
00001000
00100000
00000000
00000000
,
00000000
00022000
00000000
00000000
,
00000000
00033000
00000000
00000000
,
00000000
00000000
00000000
00000000
,
00000000
00000000
00000000
00010100
00000000
00000010
00000000
00000010
00000000
01001000
00000000
00100000
,
00000000
00100000
00000000
01010000
00000000
00011000
00000000
00001100
00000000
00022000
00000000
00000000
,
00000000
00033000
00000000
00000000
;

//--------------- dance-double - forcednature ----------------
#NOTEDATA:;
#STEPSTYPE:dance-double;
#DESCRIPTION:forcednature;
#DIFFICULTY:Hard;
#METER:18;
#RADARVALUES:0,0,0,0,0;
#CREDIT:forcednature;
#CREDIT:forcednature;
#NOTES:
00000000
00000000
00000000
00000000
,
00000000
00000000
00000000
00000000
,
00000000
00000000
00000000
00000000
,
00000000
00000000
00000000
00000000
,
00000000
00000000
00000000
00000000
,
00012000
00000000
00000000
01000000
01000000
00000000
00010000
00000000
00100000
00003000
00000000
00000000
,
00021000
00000000
00000000
00000100
00000100
00000000
00001000
00000000
00000010
00030000
00000000
00000000
,
00102000
00000000
00010000
00000000
01003000
00000000
00020010
00000000
00001000
00000000
00030100
00000000
,
00020200
00000000
00000000
00000000
00000000
00000000
00000000
00000000
00030300
00000000
00000000
00000000
00000000
00000000
00000000
00000000
02002000
00000000
00000000
00000000
00000000
00000000
00000000
00000000
03003000
00000000
00000000
00000000
00000000
00000000
00000000
00000000
00202000
00000000
00000000
00000000
00000000
00000000
00000000
00000000
00303000
00000000
00000000
00000000
00000000
00000000
00000000
00000000
00020020
00000000
00000000
00030030
00000000
00000000
00000000
00000000
00000000
00000000
00000000
00000000
00000000
00000000
00000000
00000000
00000000
00000000
00000000
00000000
00000000
00000000
00000000
00000000
00000000
00000000
00000000
00000000
00000000
00000000
00000000
00000000
00000000
00000000
00000000
00000000
00000000
00000000
00000000
00000000
00000000
00000000
00000000
00000000
00000000
00000000
00000000
00000000
,
00000001
00000100
00000001
00000100
00000010
00001000
00000010
00001000
00000010
00000000
00000000
00000000
00000000
00000000
00000000
00000000
,
00010000
00001000
00010000
00001000
00100000
00010000
00100000
00010000
00100000
00000000
00000000
00000000
00000000
00000000
00000000
00000000
,
01000000
10000000
01000000
10000000
01000000
00000000
00100000
00010000
00100000
00010000
00100000
00000000
00001000
00010000
00001000
00010000
,
00002000
00000000
00000000
00003000
00000000
00000000
00000000
00000000
,
00100000
00010000
00100000
00000000
01000000
00000000
10000000
00000000
00100000
00000000
10000000
00000000
00010000
01000000
00010000
00000000
,
00100000
00000000
00001000
00000000
00010000
00000000
00000010
00000000
00001000
00000001
00001000
00000000
00000100
00000000
00000010
00000000
,
00000001
00000100
00000001
00000000
00000010
00000000
00000100
00000000
00010000
00000000
00001000
00010000
00001000
00000000
01000000
00000000
,
01010000
01010000
10100000
10100000
,
10000000
00010000
10000000
00000000
00100000
00000000
01000000
00000000
00010000
00000000
01000000
00000000
00001000
00010000
00001000
00000000
,
00100000
00000000
00010000
00000000
01000000
00000000
00001000
00000000
00010000
00000100
00010000
00000000
00000100
00001000
00000200
00000000
,
00000000
00000000
00000310
00000001
00000010
00000000
00000100
00000000
00001000
00000000
00000001
00000100
00000001
00000000
00000010
00000000
,
00000011
00000011
00001100
00001100
,
00000000
00000000
00000000
00000000
,
00022000
00000000
00000000
00033000
00000000
00000000
00000000
00000000
,
00000000
00000000
00000000
01000000
,
00010000
00000000
00100000
00000000
01000000
00000000
10000000
00000000
00100000
10000000
00100000
00000000
01000000
00000000
00010000
10000000
,
00010000
00000000
00100000
00000000
00010000
00000000
01000000
00000000
00001000
00000000
00000000
00001000
00000000
00000000
00010000
00000000
,
00022000
00000000
00000000
00033000
00000000
00000000
00000000
00000000
,
00000000
00000000
00000100
00000100
,
00001000
00000000
00000001
00000000
00000100
00000000
00000001
00000000
00001000
00000100
00001000
00000000
00000010
00000000
00010000
00001000
,
00010000
00000100
00010000
00000010
00001000
00000000
00001000
00000000
,
00001001
00000000
00000001
00000100
00000000
00001000
00000000
00010000
,
01000000
00100000
00001000
00010000
,
00100000
00000000
10000000
00010000
00000000
10000000
00000000
01000000
,
00010000
00001000
00022000
00033000
,
00000100
00010000
00001000
00000100
,
00000220
00000330
00022000
00033000
,
00000100
00001000
00000100
00000000
00000000
00000000
00000000
00000000
01000000
00010000
01000000
00000000
00000000
00000000
00000000
00000000
,
00000010
00001000
00000010
00000000
00000000
00000000
00000000
00000000
00100000
00010000
00100000
00000000
00000000
00000000
00000000
00000000
,
00001000
01000000
00010000
10000000
00000000
01000000
00100000
00010000
,
00000000
01000000
00001000
00010000
00000100
00010000
00001000
00100000
,
00001000
00010000
00000010
00010000
00000000
00000100
00001000
00000100
,
00000000
00000000
00000010
00000000
00000001
00000000
00001000
00000000
00000010
00000000
00000000
00000010
00000000
00000000
00010000
00001000
,
00020000
00000000
00030000
00000000
,
00000000
00000000
00000000
00000100
,
00022000
00000000
00033000
00000000
,
00000000
00000000
00000000
00000000
00000000
00000000
01000000
00000000
01000000
00000000
01000000
00000000
,
00200000
00000000
00300000
00000000
,
10000000
00000000
00000000
00010000
00000000
00000000
10000000
00000000
,
01000000
00010000
00001000
00000100
00001000
00010000
00100000
00010000
,
00001000
00000010
00001000
00010000
00000100
00010000
00001000
01000000
,
00100000
00010000
00001000
00000010
00001000
00010000
01000000
00010000
,
00001000
00000100
00001000
00010000
00100000
10000000
01000000
00010000
,
00002000
00003000
00000000
00000000
00000000
00000000
00000000
00000000
01000000
00000000
00000000
00000000
00010000
00000000
00000000
00000000
00100000
00000000
00000000
00000000
00010000
00000000
00000000
00000000
01000000
00000000
00000000
00000000
00001000
00000000
00000000
00000000
,
00010000
00001000
00100000
00010000
00100000
01000000
10000000
00010000
,
00000000
10010000
00000000
10000000
00010000
01000000
00010000
00100000
,
00001000
00010000
00001000
01000000
00001000
00010000
00000010
00001000
,
00000000
00000110
00000000
00000001
00001000
00000000
00001100
00000000
,
00000000
00000011
00000000
00001000
00000001
00000000
00000101
00000000
,
00000000
00000000
00001010
00000000
00000000
00000000
00010000
00001000
00010000
00000000
00001000
00010000
00001000
00000000
00010000
00001000
,
00010000
00000100
00001000
00000010
00000000
00000010
00010000
00000000
,
00200000
00000000
01300000
00010000
10000000
00010000
00100000
01000000
,
00100000
00000000
00010000
00000000
10000000
01000000
10000000
00000000
00010000
00100000
00010000
00000000
01000000
00000000
00001000
00000000
,
00000000
00011000
00000000
00010000
00000100
00001000
00000100
00000010
,
00000001
00000000
00001000
00000000
00000001
00000100
00000001
00000000
00001000
00000100
00001000
00000000
00000010
00000000
00010000
00000000
,
00000000
00011000
00000000
00100000
00010000
00000000
10010000
00000000
,
00000000
01100000
00000000
00010000
00001000
00000000
00000110
00000000
,
00000000
00000000
00001001
00000000
00000000
00000000
00000001
00000100
00000001
00000000
00000100
00000001
00000100
00000000
00000001
00000100
,
00000001
00000000
00000010
00000000
00000100
00000000
00000100
00000000
00000000
00010000
00000000
00000000
00100000
00000000
00000000
00100000
,
00000000
10000000
00000000
00000000
00010000
01000000
00100000
10000000
,
00010000
10000000
01000000
00100000
00010000
00100000
00000000
00110000
,
00000000
00101000
00000000
00010000
00000010
00000000
00001010
00000000
,
00000000
00000000
00001001
00000000
00000000
00000000
00000001
00000000
00000100
00000000
00000000
00000000
00000010
00000000
00000000
00001000
,
00000000
00010000
00000000
00000000
01000000
00100000
10000000
00010000
,
10000000
01000000
00100000
00001000
00010000
00001000
00000000
00010100
,
00000000
01001000
00000000
10000000
00010000
00000000
01100000
00000000
,
00000000
00011000
00000000
00000100
00000010
00000000
00000110
00000000
,
00001001
00000000
00000000
00000000
,
00000000
00000000
00000000
00000000
00000001
00000100
00000001
00001000
00000010
00010000
00000010
00010000
00001000
00000000
00000000
00000000
,
00000000
00000000
00000000
00000000
10000000
01000000
10000000
00010000
00100000
00001000
00100000
00001000
00010000
00000000
00000000
00000000
,
00000000
00000000
00000000
00000000
00000100
00010000
00000100
00010000
00001000
00000000
01000000
00001000
01000000
00001000
00010000
00000000
,
00001000
00010000
00001000
00010000
00002000
00000000
00000000
00000000
00000000
00000000
00000000
00000000
00003000
00000000
00000000
00000000
,
00000000
00022000
00033000
00022000
,
00033000
00000000
00000000
00022000
00000000
00033000
00022000
00000000
00033000
00022000
00000000
00033000
,
00022000
00000000
00000000
00000000
00000000
00000000
00000000
00000000
00033000
00000000
00000000
00000000
00001000
00000000
00000000
00010000
00000000
00000000
00000000
00000000
00000000
00001000
00000000
00000000
00010000
00000000
00000000
00001000
00000000
00000000
00000000
00000000
00000000
00010000
00000000
00000000
00001000
00000000
00000000
00000000
00000000
00000000
00010000
00000000
00000000
00000000
00000000
00000000
,
00001000
00000000
00010000
00000000
00001000
00010000
00001000
00010000
00001000
00010000
00001000
00010000
00001000
00010000
00001000
00010000
,
00001000
00010000
00001000
00010000
00001000
00010000
00001000
00010000
00001000
00010000
00001000
00010000
00001000
00010000
00001000
00010000
,
00001000
00010000
00001000
00010000
00001000
00010000
00001000
00010000
00001000
00010000
00001000
00010000
00001000
00010000
00001000
00010000
,
00001000
00010000
00001000
00010000
00000000
00000000
00000000
00000000
00000000
00000000
00000000
00000000
00000100
00001000
00000100
00001000
,
00000100
00000000
00000010
00000000
00000001
00000000
00001000
00000001
00001000
00000000
00000010
00000000
00010000
00001000
00010000
00001000
,
01000000
00000000
00010000
00000000
10000000
00100000
10000000
00100000
01000000
00000000
00010000
00000000
00100000
01000000
00100000
01000000
,
00100000
00000000
00010000
00000000
10000000
00000000
00010000
01000000
00010000
00000000
00100000
00000000
00001000
00000000
00010000
00000100
,
00010000
00000100
00001000
00000000
00000001
00000000
00000100
00000001
00000100
00000001
00001000
00000000
00000100
00010000
00000100
00010000
,
00001000
00000000
01000000
00000000
00010000
00000000
10000000
01000000
10000000
00000000
00100000
00000000
01000000
00010000
01000000
00010000
,
01000000
00000000
00001000
00000000
00010000
00001000
00010000
00001000
00100000
00000000
01000000
00000000
00000000
00000000
00000000
00000000
,
10000000
00100000
10000000
00100000
01000000
00010000
01000000
00001000
00010000
00000000
00000100
00000000
00001000
00000000
00000100
00000010
,
00000001
00001000
00000001
00000000
00000100
00000000
00000001
00000010
00000100
00001000
00000010
00000000
00000000
00000000
00000000
00000000
,
00000000
00000000
00000000
00000000
,
00000000
00000000
00000000
00000000
00000000
00000000
00000000
00000000
00000000
00000000
00000000
00000000
00010000
00000100
00010000
00001000
,
00100000
00001000
00010000
00000100
00010000
00000000
00000000
00000000
00000000
00000000
00000000
00000000
00001000
01000000
00001000
00010000
,
00000010
00010000
00001000
01000000
00001000
00000000
00000000
00000000
00000000
00000000
00000000
00000000
00010000
00000100
00010000
00001000
,
00100000
00000000
00001000
01000000
00001000
00010000
00000010
00000000
00010000
00001000
00010000
00001000
00020000
00000000
00000000
00000000
,
00000000
02030000
00000000
00000000
,
00000000
03000000
00000000
00000000
,
00000000
00000000
00000000
00000000
,
00000000
00000000
00000000
10000000
00000000
00010000
00000000
00001000
00000000
00000001
00000000
00001000
,
00000000
00010000
00000000
01100000
00000000
00011000
00000000
00000110
00000000
00022000
00000000
00000000
,
00000000
00033000
00000000
00000000
;

//--------------- dance-double - forcednature (BPM 30-999) ----------------
#NOTEDATA:;
#STEPSTYPE:dance-double;
#DESCRIPTION:forcednature (BPM 30-999);
#DIFFICULTY:Challenge;
#METER:19;
#RADARVALUES:0,0,0,0,0;
#OFFSET:1.847;
#BPMS:0.000=65.000
,16.000=60.000
,17.000=55.000
,18.000=40.000
,18.500=30.000
,19.000=500.000
,609.000=560.000
,617.000=620.000
,625.000=680.000
,633.000=740.000
,641.000=800.000
,649.000=860.000
,657.000=920.000
,665.000=960.000
,697.000=999.000
,969.000=60.000
,970.000=55.000
,971.000=40.000
,971.500=30.000
;
#STOPS:19.000=1.440
,367.000=1.680
;
#TIMESIGNATURES:0.000=4=4,
4.000=3=4,
19.000=4=4,
367.000=2=4,
369.000=4=4
;
#DISPLAYBPM:30.000:999.000;
#CREDIT:forcednature (BPM 30-999);
#NOTES:
00000000
00000000
00000000
00000000
,
00000000
00000000
00000000
00000000
,
00000000
00000000
00000000
00000000
,
00021000
00000000
00000000
00000100
00000100
00000000
00001000
00000000
00000010
00030000
00000000
00000000
00012000
00000000
00000000
01000000
01000000
00000000
00010000
00000000
00100000
00003000
00000000
00000000
,
00020010
00000000
00000000
00000000
00000000
00000000
00000000
00000000
00000000
00000000
00000000
00000000
00000000
00000000
00000000
00000000
00001000
00000000
00000000
00000000
00000000
00000000
00000000
00000000
00000000
00000000
00000000
00000000
00000000
00000000
00000000
00000000
00030100
00000000
00000000
00000000
00000000
00000000
00000000
00000000
00000000
00000000
00000000
00000000
00000000
00000000
00000000
00000000
00102000
00000000
00000000
00000000
00000000
00000000
00000000
00000000
00000000
00000000
00000000
00000000
00000000
00000000
00000000
00000000
00010000
00000000
00000000
00000000
00000000
00000000
00000000
00000000
00000000
00000000
00000000
00000000
00000000
00000000
00000000
00000000
01003000
00000000
00000000
00000000
00000000
00000000
00000000
00000000
00000000
00000000
00000000
00000000
00000000
00000000
00000000
00000000
02002000
00000000
00000000
00000000
00000000
00000000
00000000
00000000
03003000
00000000
00000000
00000000
00000000
00000000
00000000
00000000
00020200
00000000
00000000
00000000
00000000
00000000
00000000
00000000
00030300
00000000
00000000
00000000
00000000
00000000
00000000
00000000
00020020
00000000
00000000
00000000
00000000
00000000
00000000
00000000
00030030
00000000
00000000
00000000
00000000
00000000
00000000
00000000
00202000
00000000
00000000
00303000
00000000
00000000
00000000
00000000
00000000
00000000
00000000
00000000
00000000
00000000
00000000
00000000
00000000
00000000
00000000
00000000
00000000
00000000
00000000
00000000
00000000
00000000
00000000
00000000
00000000
00000000
00000000
00000000
00000000
00000000
00000000
00000000
00000000
00000000
00000000
00000000
00000000
00000000
00000000
00000000
00000000
00000000
00000000
00000000
,
00000000
00000000
00000000
00000000
00000000
00000000
10000000
01000000
,
10000000
01000000
00100000
00010000
00100000
00010000
00100000
00000000
,
00000000
00000000
00000000
00000000
00000000
00000000
00001000
00010000
,
00001000
00010000
00000010
00001000
00000010
00001000
00000010
00000000
,
00000000
00000000
00000000
00000000
00000000
00000000
00000100
00000001
,
00000100
00000001
00000100
00000000
00000010
00001000
00000010
00001000
,
00000010
00000000
00010000
00001000
00010000
00001000
00020000
00000000
,
00000000
00000000
00030000
00000000
,
00000000
00000000
00000000
00000000
00000000
00000000
00000010
00001000
,
00000010
00000100
00000001
00000010
,
00000001
00000000
00001000
00000100
00001000
00000000
00000010
00000000
,
00010000
00000000
00001000
00000000
00100000
00000000
00010000
10000000
,
00010000
00000000
01000000
00000000
00100000
00000000
10000000
01000000
,
10000000
00100000
01000000
00001000
,
00010000
00001000
00010000
00000000
00000100
00000000
00001100
00000000
,
00000000
00001100
00000000
00000011
,
00000000
00000000
00000011
00000000
00000000
00000000
00000001
00001000
,
00000001
00000010
00000100
00001000
,
00000100
00000000
00010000
00001000
00010000
00000000
00000010
00000000
,
00001000
00000000
00000100
00000000
00010000
00000000
00001000
01000000
,
00001000
00000000
01000000
00010000
02000000
00000000
00000000
00000000
,
03100000
10000000
00100000
00000000
01000000
00000000
00010000
00000000
,
10000000
01000000
10000000
00000000
00100000
00000000
10100000
00000000
,
00000000
10100000
00000000
01010000
,
00000000
01010000
00000000
00000000
,
00000000
00000000
00000000
00000000
,
00000000
00000000
00000000
00022000
,
00000000
00000000
00033000
00000000
,
00000000
00000000
00000000
00000000
,
00000000
00000000
00000000
00000000
,
00000000
00000100
00000000
00001000
,
00000010
00000000
00000100
00000000
00000001
00000000
00000010
00000001
,
00000010
00000000
00000100
00000000
00001000
00000001
00001000
00000000
,
00000010
00001000
00000100
00010000
,
00000000
00010000
00000000
00000000
00001000
00000000
00022000
00000000
,
00000000
00000000
00033000
00000000
,
00000000
00000000
00000000
00000000
,
00000000
00000000
00000000
01000000
,
00000000
01000000
00000000
00010000
,
10000000
00000000
01000000
00000000
10000000
00000000
00010000
01000000
,
00010000
00000000
00100000
00000000
00001000
00010000
00001000
00000000
,
01000000
00001000
00100000
00010000
,
00000000
00010000
00000000
10010000
,
00000000
10000000
01000000
00000000
,
00010000
00000000
00001000
00000100
,
00000000
00000010
00000000
00010000
,
00000000
00001000
00000000
00000010
,
00000000
00000001
00001000
00000000
,
00000001
00000000
00000100
00001000
,
00000000
00010000
00000000
00022000
,
00000000
00033000
00000000
01000000
,
00000000
00001000
00000000
00010000
,
00000000
01000000
00000000
02200000
,
00000000
03300000
00000000
00022000
,
00000000
00000000
00033000
00000000
00000000
00000000
01000000
00010000
,
01000000
00000000
00000000
00000000
00000000
00000000
00000100
00001000
,
00000100
00000000
00000000
00000000
00000000
00000000
00100000
00010000
,
00100000
00000000
00000000
00000000
00000000
00000000
00000010
00001000
,
00000010
00000000
00000000
00010000
,
00000100
00001000
00000001
00000000
,
00000100
00000010
00001000
00000000
,
00000100
00010000
00001000
01000000
,
00001000
00010000
00000010
00010000
,
00001000
00100000
00001000
00000000
,
01000000
00010000
01000000
00000000
,
00100000
10000000
00010000
00100000
,
00000000
00100000
00000000
00000000
00001000
00010000
00002000
00000000
,
00000000
00000000
00000000
00003000
,
00000000
00000000
00000000
00000000
,
00000000
00000000
00000000
00000000
,
00000000
01000000
00000000
00022000
,
00000000
00000000
00000000
00033000
,
00000000
00000000
00000000
00000000
,
00000000
00000000
00000000
00000100
,
00000000
00000100
00000000
00000000
00000000
00000100
00000000
00000000
00000000
00000020
00000000
00000000
,
00000000
00000000
00000000
00000030
,
00000000
00000000
00000000
00000001
,
00000000
00000000
00001000
00000000
,
00000000
00000001
00000000
00000100
,
00001000
00010000
01000000
00010000
,
00001000
00000010
00001000
00010000
,
00100000
00010000
00001000
01000000
,
00001000
00010000
00000100
00000010
,
00001000
00010000
00100000
00010000
,
00001000
00000100
00001000
00010000
,
01000000
00010000
00001000
00000010
,
00000001
00000000
00000000
00000000
00000100
00000000
00000000
00000000
00001000
00000000
00000000
00000000
00020000
00030000
00000000
00000000
,
00000000
00000100
00001000
00000010
,
00001000
00000100
00010000
00001000
,
00010000
00000010
00001000
00000010
,
00000100
00000001
00001000
00000000
,
00001001
00000000
00000001
00001000
,
00000100
00001000
00000010
00010000
,
00001000
00010000
00000100
00010000
,
00001000
00100000
00010000
00000000
,
01100000
00000000
10000000
00010000
,
00000000
01010000
00000000
00000000
,
10100000
00000000
00010000
10000000
,
00000000
11000000
00000000
00000000
,
00110000
00000000
00000000
00000000
00001000
00010000
00001000
00000000
,
00010000
00001000
00010000
00000000
00001000
00010000
00001000
00000000
,
01000000
00010000
00100000
00000000
,
00100000
00001000
00000000
00000020
,
00000000
00000130
00001000
00000001
,
00001000
00000010
00000100
00000010
,
00001000
00000000
00000001
00000100
00000001
00000000
00001000
00000010
,
00001000
00000100
00010000
00000000
,
00011000
00000000
00001000
01000000
,
00010000
01000000
00100000
10000000
,
00010000
00000000
10000000
01000000
10000000
00000000
00010000
01000000
,
00010000
00100000
00001000
00000000
,
00011000
00000000
00000010
00001000
,
00000000
00001001
00000000
00000000
,
00000110
00000000
00001000
00010000
,
00000000
01100000
00000000
00000000
,
10010000
00000000
00000000
00000000
10000000
01000000
10000000
00000000
,
01000000
10000000
01000000
00000000
10000000
01000000
10000000
00000000
,
00100000
00000000
01000000
00000000
01000000
00000000
00000000
00001000
,
00000000
00000000
00000010
00000000
00000000
00000010
00000000
00000000
,
00000001
00000000
00000000
00001000
,
00000100
00000010
00000001
00001000
,
00000001
00000100
00000010
00001000
,
00000010
00000000
00001010
00000000
,
00010010
00000000
00001000
00100000
,
00000000
00110000
00000000
00000000
,
10010000
00000000
10000000
01000000
,
00000000
00000000
00100000
00000000
00000000
00010000
00000000
00000000
,
00001000
00000000
00000000
00000100
,
00000010
00000001
00001000
00000001
,
00000100
00000010
00010000
00001000
,
00010000
00000000
01001000
00000000
,
00010100
00000000
00000001
00001000
,
00000000
00000110
00000000
00000000
,
00011000
00000000
01000000
00100000
,
00000000
01100000
00000000
10010000
,
00000000
00000000
00000000
00000000
,
00000000
00000000
00000000
00000000
,
00000000
00000000
10000000
01000000
10000000
00010000
00100000
00001000
,
00100000
00001000
00010000
00000000
00000000
00000000
00000000
00000000
,
00000000
00000000
00000001
00000100
00000001
00001000
00000010
00010000
,
00000010
00010000
00001000
00000000
00000000
00000000
00000000
00000000
,
00000000
00000000
01000000
00001000
01000000
00001000
00010000
00000000
,
00000100
00010000
00000100
00010000
00001000
00000000
00010000
00001000
,
00010000
00001000
00020000
00000000
00000000
00000000
00000000
00000000
,
00000000
00030000
00000000
00000000
,
00000000
00022000
00000000
00000000
,
00000000
00033000
00000000
00000000
,
00000000
00022000
00000000
00000000
,
00000000
00033000
00000000
00000000
,
00000000
00000000
00000000
00022000
00000000
00000000
00000000
00000000
00000000
00000000
00000000
00033000
,
00000000
00000000
00000000
00022000
00000000
00000000
00000000
00000000
00000000
00000000
00000000
00033000
,
00000000
00000000
00000000
00022000
00000000
00000000
00000000
00000000
00000000
00000000
00000000
00033000
,
00000000
00000000
00000000
00022000
00000000
00000000
00000000
00000000
00000000
00000000
00000000
00033000
,
00000000
00010000
00001000
00000000
,
00010000
00001000
00010000
00000000
,
00001000
00010000
00000000
00001000
,
00000000
00010000
00000000
00001000
,
00000000
00010000
00001000
00010000
,
00001000
00010000
00001000
00010000
,
00001000
00010000
00001000
00010000
,
00001000
00010000
00001000
00010000
,
00001000
00010000
00001000
00010000
,
00001000
00010000
00001000
00010000
,
00001000
00010000
00001000
00010000
,
00001000
00010000
00001000
00010000
,
00001000
00010000
00001000
00010000
,
00001000
00010000
00001000
00010000
,
00001000
00010000
00001000
00010000
,
00001000
00010000
00001000
00010000
,
00001000
00000000
00000000
00000000
,
00000000
00000000
00000000
00000000
,
00000000
01000000
00010000
01000000
,
00010000
01000000
00000000
00100000
,
00000000
10000000
00000000
00010000
,
10000000
00010000
00000000
00100000
,
00000000
00001000
00010000
00001000
,
00010000
00000100
00000000
00001000
,
00000000
00000001
00000010
00000001
,
00000010
00000100
00000000
00001000
,
00000000
00000010
00000100
00000010
,
00000100
00000010
00000000
00001000
,
00000000
00000001
00000000
00001000
,
00000100
00001000
00000000
00000010
,
00000000
00010000
00000000
00001000
,
01000000
00001000
01000000
00010000
,
00000000
10000000
00000000
01000000
,
10000000
01000000
10000000
00010000
,
00000000
01000000
00001000
01000000
,
00001000
00010000
00000000
00000100
,
00000000
00001000
00000000
00000001
,
00000100
00000001
00000000
00000010
,
00000000
00000100
00001000
00000100
,
00001000
00000100
00000000
00010000
,
00000000
00001000
00010000
00001000
,
00010000
00000010
00000000
00000100
,
00000000
00000000
00000000
00000000
,
00000000
00000001
00000010
00000001
,
00000010
00000100
00001000
00000100
,
00010000
00001000
00000000
01000000
,
00000000
00010000
00000000
01000000
,
00100000
10000000
00010000
10000000
,
00000000
01000000
00000000
10000000
,
00100000
01000000
00010000
00100000
,
00000000
00000000
00000000
00000000
,
00000000
00000000
00000000
00000000
,
00000000
00000000
00000000
00000000
,
00000000
00000000
00000000
00000000
,
00000000
00000000
00000000
00000000
,
00000000
00000000
00000000
00000000
,
00000000
00000000
00000000
00000000
,
00000000
00000000
00000000
00000000
,
00000000
00001000
01000000
00001000
,
00010000
00000010
00010000
00001000
,
01000000
00001000
00000000
00000000
,
00000000
00000000
00000000
00000000
,
00000000
00010000
00000100
00010000
,
00001000
00100000
00001000
00010000
,
00000100
00010000
00000000
00000000
,
00000000
00000000
00000000
00000000
,
00000000
00001000
01000000
00001000
,
00010000
00000010
00000000
00010000
,
00000100
00010000
00001000
00100000
,
00000000
00001000
00010000
00001000
,
00010000
00002000
00000000
00000000
,
00000000
00000000
00000000
00000000
,
00000000
00003200
00000000
00000000
,
00000000
00000000
00000000
00000000
,
00000000
00000000
00000000
00000000
,
00000000
00000000
00000000
00000000
,
00000000
00000300
00000000
00000000
,
00000000
00000000
00000000
00000000
,
00000000
00000000
00000000
00000000
,
00000000
00000000
00000000
00000000
,
00000000
00000000
00000000
00000000
,
00000000
00000000
00000000
00000000
,
00000000
00000000
00000000
00000000
,
00000000
00000000
00000000
00000000
,
00000000
00000000
00000000
00000001
00001000
00010000
10000000
00010000
00001000
00000110
00011000
01100000
,
00022000
00033000
00000000
00000000
;
