#VERSION:0.83;
#TITLE:Chocolate Planet;
#SUBTITLE:;
#ARTIST:Freezer feat. 妃苺;
#TITLETRANSLIT:;
#SUBTITLETRANSLIT:;
#ARTISTTRANSLIT:;
#GENRE:;
#CREDIT:;
#MUSIC:Chocolate Planet.ogg;
#BANNER:Chocolate Planet.png;
#BACKGROUND:Chocolate Planet-bg.png;
#CDTITLE:./CDTitles/SDVX IV HEAVENLY HAVEN.png;
#SAMPLESTART:44.068;
#SAMPLELENGTH:15.000;
#SELECTABLE:YES;
#OFFSET:0.000;
#BPMS:0.000=185.000;
#STOPS:;
#TIMESIGNATURES:0.000=4=4;
#DISPLAYBPM:185.000;
#BGCHANGES:0.000=../BGAs/19po.mp4=1.000=0=0=0=StretchNoLoop====,
99999.000=-nosongbg-=1.000=0=0=0=StretchNoLoop====
;
#FGCHANGES:;

//--------------- dance-single - forcednature ----------------
#NOTEDATA:;
#STEPSTYPE:dance-single;
#DESCRIPTION:forcednature;
#CREDIT:forcednature;
#DIFFICULTY:Beginner;
#METER:2;
#RADARVALUES:0,0,0,0,0;
#NOTES:
0000
0000
0000
0000
,
0000
0000
0000
0000
,
0000
0000
0000
0000
,
0000
0000
0000
0000
,
0000
0000
0000
0000
,
0000
0000
0000
0000
,
1000
0000
0000
0000
,
0001
0000
0000
0000
,
0100
0000
0000
0000
,
0010
0000
0000
0000
,
1001
0000
0000
0000
,
0000
0000
0000
0000
,
0001
0000
0000
0000
,
0100
0000
0000
0000
,
0001
0000
0000
0000
,
0000
0000
0000
0000
,
1000
0000
0000
0000
,
0100
0000
0000
0000
,
0010
0000
0000
0000
,
0001
0000
0000
0000
,
0100
0000
0000
0000
,
0001
0000
0000
0000
,
1000
0000
0000
0000
,
0010
0000
0000
0000
,
1000
0000
0000
0000
,
0100
0000
0000
0000
,
0010
0000
0000
0000
,
0001
0000
0000
0000
,
1000
0000
0000
0000
,
0010
0000
0000
0000
,
1001
0000
0000
0000
,
1000
0000
0000
0000
,
0001
0000
0000
0000
,
0100
0000
0000
0000
,
0001
0000
1000
0000
,
0001
0000
1000
0000
,
0100
0000
0000
0000
,
0010
0000
0000
0000
,
0001
0000
1000
0000
,
0001
0000
1000
0000
,
0010
0000
0000
0000
,
0010
0000
0000
0000
,
1000
0000
0001
0000
,
1000
0000
0001
0000
,
0010
0000
0000
0000
,
0100
0000
0000
0000
,
1000
0000
0001
0000
,
1000
0000
0001
0000
,
0100
0000
0000
0000
,
0010
0000
0000
0000
,
1000
0000
0000
0000
,
0000
0000
0000
0000
,
0100
0000
0000
0000
,
0010
0000
0000
0000
,
0001
0000
0000
0000
,
0000
0000
0000
0000
,
0100
0000
0000
0000
,
0010
0000
0000
0000
,
1000
0000
0000
0000
,
1000
0000
0000
0000
,
0100
0000
0000
0000
,
0010
0000
0000
0000
,
0001
0000
0000
0000
,
0001
0000
0000
0000
,
0100
0000
0000
0000
,
0010
0000
0000
0000
,
0000
0000
1000
0000
,
0000
0000
1000
0000
,
0000
0000
0001
0000
,
0000
0000
0001
0000
,
0000
0000
0010
0000
,
0000
0000
0010
0000
,
0000
0000
0100
0000
,
0000
0000
0000
0000
,
1000
0000
1000
0000
,
0001
0000
0001
0000
,
0100
0000
0000
0000
,
0010
0000
0000
0000
,
1000
0000
1000
0000
,
0001
0000
0001
0000
,
0010
0000
0000
0000
,
0100
0000
0000
0000
,
0010
0000
0010
0000
,
0100
0000
0100
0000
,
1000
0000
0000
0000
,
0001
0000
0000
0000
,
0100
0000
0100
0000
,
0010
0000
0010
0000
,
1000
0000
0000
0000
,
0001
0000
0000
0000
,
1001
0000
0000
0000
;

//--------------- dance-single - forcednature ----------------
#NOTEDATA:;
#STEPSTYPE:dance-single;
#DESCRIPTION:forcednature;
#CREDIT:forcednature;
#DIFFICULTY:Easy;
#METER:6;
#RADARVALUES:0,0,0,0,0;
#NOTES:
0000
0000
0000
0000
,
0000
0000
0000
0000
,
0000
0000
0000
0000
,
0000
0000
0000
0000
,
0000
0000
0000
0000
,
0000
0000
0000
0000
,
1000
0000
0001
0000
,
0100
0010
0100
0000
,
0001
0000
1000
0000
,
0100
0010
0000
0001
,
0000
0100
0001
0000
,
0100
0000
0001
0000
,
1000
0000
0010
0000
,
1000
0000
0001
0000
,
0010
0000
0001
0000
,
0010
0000
0100
0000
,
1000
0000
0001
0000
,
0200
0000
0000
0300
,
0010
1000
0000
1000
,
0000
0001
0000
0001
,
0010
0100
0000
0100
,
0000
1000
0000
1000
,
0010
0100
0000
0100
,
0000
0001
0000
0001
,
1000
0100
0000
0100
,
0010
0010
0010
0000
,
0001
0000
0001
0100
,
0001
0000
0001
1000
,
0001
0000
0001
0010
,
0001
0000
0001
0100
,
0010
0000
0010
1000
,
0001
0000
0001
1000
,
0100
0100
0010
0010
,
0002
0000
0000
0003
,
1000
0010
1000
0001
,
1000
0100
1000
0001
,
0100
0000
0010
0000
,
0010
0000
1000
0000
,
0001
0100
0001
1000
,
0001
0010
0001
1000
,
0010
0000
0100
0000
,
0001
0001
0001
0000
,
1000
0100
0010
0100
,
1000
0001
0010
0001
,
0100
0000
0010
0000
,
0010
0000
1000
0000
,
0001
0100
0010
0100
,
0001
1000
0010
1000
,
0001
0000
0010
0000
,
0100
0100
1000
0000
,
0010
0000
0100
0000
,
0001
0000
1000
0000
,
0100
0010
0100
0000
,
0010
0100
0010
0000
,
0001
0000
1000
0000
,
0010
0000
0100
0000
,
0001
1000
0001
0000
,
0010
0010
0010
0000
,
0110
0000
1000
0000
,
0001
0000
1000
0000
,
0100
0000
1000
0000
,
0001
0000
0100
0000
,
0010
1000
0010
0000
,
0100
0001
0100
0000
,
0001
0010
0100
1000
,
0020
0000
0000
0030
,
0100
0001
0001
0010
,
0010
0100
0100
1000
,
0000
0010
0010
0100
,
0100
0001
0001
1000
,
0000
0100
0100
0010
,
0010
0001
0001
1000
,
0000
0010
0010
0100
,
0002
0000
0003
0000
,
1000
0100
0010
0001
,
0010
0100
1000
0001
,
0100
0000
0010
0000
,
1000
0000
0001
0000
,
0010
0100
1000
0001
,
0100
0010
1000
0001
,
0010
0000
0001
0000
,
0100
0100
0100
0000
,
0010
1000
0001
0100
,
0001
0010
0100
1000
,
0010
0000
0100
0000
,
0001
0000
1000
0000
,
0100
0010
0001
1000
,
0010
0100
0001
1000
,
0100
0000
0010
0000
,
0200
0000
0000
0300
,
2002
0000
0000
0000
,
3003
0000
0000
0000
;

//--------------- dance-single - forcednature ----------------
#NOTEDATA:;
#STEPSTYPE:dance-single;
#DESCRIPTION:forcednature;
#CREDIT:forcednature;
#DIFFICULTY:Medium;
#METER:10;
#RADARVALUES:0,0,0,0,0;
#NOTES:
0000
0000
0000
0000
,
0000
0000
0000
0000
,
0000
0000
0000
0000
,
0000
0000
0000
0000
,
0000
0000
0000
0000
,
0000
0000
0000
0000
,
1000
0000
0100
0000
1000
0010
0100
0000
,
0001
0000
0010
0000
0100
1000
0001
0000
,
0100
0000
1000
0000
0100
0001
0010
0000
,
0100
0000
2000
0000
3001
0001
0001
0000
,
1001
0000
1000
0000
0001
0100
0000
0001
,
0000
0000
1000
0000
0100
1000
0000
0000
,
0010
0000
0100
0000
0001
0010
0000
0001
,
0000
0000
1000
0000
0010
1000
0000
0000
,
0100
0000
0010
0000
0001
0100
0000
0010
,
0000
0000
1000
0000
0100
1000
0000
0000
,
0010
0000
0100
0000
0001
0010
0000
0000
,
0200
2300
3002
0203
,
0310
1001
1000
0001
,
0100
0001
0100
0000
0010
1000
0010
0000
,
1000
0110
0001
0110
,
1000
0000
0100
0000
0010
0001
0010
0000
,
1001
0000
0100
0000
0001
1000
0010
0000
,
1000
0000
0001
0000
0100
0010
0100
0000
,
0001
0000
0010
0000
0100
1000
0010
0000
,
2000
0001
3001
1001
,
1000
0000
0100
0010
0001
0000
0101
0000
,
0001
0000
0100
0010
1000
0000
1100
0000
,
1000
0000
0001
0010
0100
0000
1001
0000
,
1000
0000
0010
0100
0001
0000
0020
0000
,
0130
0000
0000
0000
1000
0000
0000
0000
0001
0000
0000
0001
0000
0000
0001
0000
,
0100
0000
0000
0000
0010
0000
0000
0000
1000
0000
0000
1000
0000
0000
1000
0000
,
0100
1000
0001
0100
,
0010
0000
0010
0000
1000
0001
1000
0000
,
0002
2003
3200
0320
,
0032
0203
0320
2030
,
3100
0000
0100
0000
1000
0001
1000
0000
,
0100
0000
0100
0000
0001
1000
0001
0000
,
2000
3020
0230
0302
,
0023
0230
2300
3002
,
1003
0000
0010
0100
0001
0000
0010
0000
,
0100
1000
0001
0100
,
0020
2030
3200
2300
,
3002
0023
0032
0203
,
0310
0000
1000
0001
1000
0000
0100
0000
,
0010
0000
0001
1000
0001
0000
0100
0000
,
0020
0032
0023
2030
,
3200
0320
0032
2003
,
3010
0010
0110
0000
,
0001
1000
0001
1000
,
0100
1100
0010
0011
,
0001
0101
1000
1010
,
0001
1000
0001
0000
1000
0000
0100
0000
,
1000
0001
1000
0000
0001
0000
0100
0000
,
0010
1010
0010
0011
,
0100
0101
0100
1100
,
1000
0000
0001
0000
0100
0010
0100
0000
,
0001
1000
0001
1000
,
1001
0000
0001
0100
0010
0000
1010
0000
,
1000
0000
0100
0010
0001
0000
0011
0000
,
0001
0000
1000
0010
0100
0000
1001
0000
,
1000
0000
0001
0000
0100
0100
0100
0000
,
0010
0000
0000
0000
1000
0000
0000
0000
0100
0000
0000
0100
0000
0000
0100
0000
,
0010
0000
0000
0000
0001
0000
0000
0000
0100
0000
0000
0100
0000
0000
0100
0000
,
0010
1000
0001
0010
,
0100
0000
0100
0000
1000
0001
1000
0000
,
1001
0200
1000
0001
,
1000
0000
0301
0000
0100
0100
0100
0000
,
1001
0020
0001
1000
,
0001
0000
1030
0000
0010
0010
0010
0000
,
1001
2000
0100
0001
,
0010
0000
3001
0000
1000
1000
1000
0000
,
1001
0002
0100
1000
,
0013
0010
0010
0000
0100
0100
0100
0000
,
2000
3020
0032
0023
,
0230
0302
2003
3020
,
1030
0000
0001
0000
0100
0010
1000
0000
,
0001
0000
0010
0000
0100
1000
0001
0000
,
0200
0320
2030
3002
,
0023
0230
2300
3002
,
1003
0000
0010
0000
1000
0100
0010
0000
,
0101
1001
1100
1001
,
0002
0023
0230
2300
,
3020
0230
0302
2003
,
3100
0000
1000
0000
0010
0100
0010
0000
,
0100
0000
0001
0000
0010
0100
0010
0000
,
0200
2300
3002
0203
,
0320
2030
3002
0023
,
0130
0000
0000
1000
0001
0000
0100
0000
,
0010
0000
0010
0000
1000
0001
1000
0000
,
2002
0000
0000
0000
,
3003
0000
0000
0000
;

//--------------- dance-single - forcednature ----------------
#NOTEDATA:;
#STEPSTYPE:dance-single;
#DESCRIPTION:forcednature;
#CREDIT:forcednature;
#DIFFICULTY:Hard;
#METER:12;
#RADARVALUES:0,0,0,0,0;
#NOTES:
0000
0000
0000
0000
,
0000
0000
0000
0000
,
0000
0000
0000
0000
,
0000
0000
0000
0000
,
0000
0000
0000
0000
,
0000
0000
0000
0000
,
0001
0000
0101
0000
1000
0010
1000
0000
,
0100
0010
0001
0100
0010
1000
0001
0000
,
0010
0000
1100
0000
0001
0100
0010
0000
,
1000
1000
0002
0000
0103
0010
0100
0000
,
1001
0000
1000
0100
0010
0001
0000
0100
,
0000
0000
0010
1000
0000
0001
0000
0000
,
0010
0000
0100
0010
0000
0001
0010
0000
,
0100
0000
1000
0001
0000
0100
0001
0001
,
0001
0000
0010
0100
1000
0001
0100
0010
,
0000
1000
0001
1000
0000
0010
0000
0000
,
0100
0000
0001
0010
0000
0110
0000
0000
,
2000
3002
0203
0320
,
0130
0000
1001
0000
0010
1000
0001
0000
,
0010
0100
1000
0001
0000
0100
0000
0000
,
0010
0000
1000
0001
0000
1000
0100
0000
,
0010
0000
0001
0100
0000
0010
2000
0000
,
3001
0110
1000
0101
,
1000
0000
0100
0020
0000
0000
0031
0000
,
0100
0000
1001
0000
0100
0001
0000
0010
,
0100
1100
0101
1001
,
1000
0000
0001
0100
1000
0000
0101
0000
,
0001
0000
1000
0100
0001
0000
1100
0000
,
0001
0000
1000
0010
0001
0000
1010
0000
,
1000
0000
0001
0010
1000
0010
0100
0000
,
1010
0000
0000
0000
0001
0000
0000
0000
0010
0000
0000
0100
0000
0000
1000
0000
,
0001
0000
0000
0000
0100
0000
0000
0000
0010
0000
0000
1000
0000
0000
0001
0000
,
0010
0100
0010
0100
1000
1000
0001
0001
,
0200
0000
0320
0000
1030
0001
0010
0000
,
1100
1010
0101
0011
,
0110
1001
0110
1001
,
1000
0100
1000
0000
0001
0100
0001
0000
,
1000
0010
0100
0000
0001
0010
0100
0000
,
1010
0011
1100
0101
,
1100
1010
0011
0101
,
1000
0000
0001
0100
0010
0000
1000
0001
,
0100
1000
0010
0001
,
1010
1001
1100
1001
,
0101
1001
0011
1001
,
1000
0001
0100
0000
0010
1000
0001
0000
,
1000
0100
0010
0000
0001
0100
0010
0000
,
1010
0110
0101
1001
,
1100
0110
0011
1001
,
0001
0000
0000
1000
0010
1000
0000
0100
,
0020
0000
0100
0000
0031
0010
0100
0000
,
2000
3020
0032
0023
,
0230
0302
0023
0230
,
1300
0001
0100
0000
0010
1000
0100
0000
,
0010
0000
0100
0000
1000
0000
0001
0000
0100
0000
0000
0010
1000
0000
0000
0000
,
0200
0302
0203
0320
,
0032
2003
3020
0230
,
1300
0100
0010
0000
1000
0100
0010
0000
,
0101
1100
1010
0011
,
0110
0000
1000
0100
0001
0000
1100
0000
,
0110
0000
0001
0100
1000
0000
0101
0000
,
0110
0000
1000
0010
0001
0000
1010
0000
,
0110
0000
0001
0010
1000
0010
0100
0000
,
1100
0000
0000
0000
0001
0000
0000
0000
0100
0000
0000
0010
0000
0000
1000
0000
,
0001
0000
0000
0000
1000
0000
0000
0000
0100
0000
0000
1000
0000
0000
0010
0000
,
0100
0001
1000
0100
0010
0010
0100
0100
,
2000
0000
3002
0000
0103
0100
0100
0000
,
1001
0000
0000
0000
0001
0100
0000
0000
0001
0100
0000
0000
0001
0100
0000
0000
,
0001
0100
0000
0000
0100
0000
0010
0000
1000
0000
0100
0000
0020
0000
0000
0000
,
0032
0000
0000
0000
1003
0100
0000
0000
1000
0100
0000
0000
1000
0100
0000
0000
,
1000
0100
0000
0000
0100
0000
0010
0000
0001
0000
0001
0000
1000
0000
1000
0000
,
0020
0000
0000
0000
0130
0010
0000
0000
1000
0001
0000
0000
0010
0100
0000
0000
,
1000
0001
0000
0000
0100
0000
0010
0000
1000
0000
0001
0000
0020
0000
0000
0000
,
0230
0000
0000
0000
1300
0100
0000
0000
0010
0100
0000
0000
0001
0100
0000
0000
,
0010
0010
0001
1000
0010
0100
0010
0000
,
0110
1010
0101
0110
,
0011
1100
0110
1001
,
1000
0100
1000
0000
0010
0100
0001
0000
,
0010
0100
1000
0000
0001
0100
0010
0000
,
1010
0011
1100
0101
,
0110
1001
0110
1001
,
0001
0000
0010
0100
1000
0001
0100
0000
,
0010
0001
0100
1000
,
1010
1100
0011
0101
,
1010
0011
0101
1100
,
0001
0100
0010
0000
1000
0100
0010
0000
,
0001
1000
0010
0000
1000
0001
0010
0000
,
0110
1100
0011
0110
,
1010
0101
0110
1001
,
1000
0000
0001
0010
0100
1000
0001
0000
,
0100
0010
1000
0001
0010
0100
1000
0000
,
2002
0000
0000
0000
,
3003
0000
0000
0000
;

//--------------- dance-single - forcednature ----------------
#NOTEDATA:;
#STEPSTYPE:dance-single;
#DESCRIPTION:forcednature;
#CREDIT:forcednature;
#DIFFICULTY:Challenge;
#METER:16;
#RADARVALUES:0,0,0,0,0;
#NOTES:
0000
0000
0000
0000
,
0000
0000
0000
0000
,
0000
0000
0000
0000
,
0000
0000
0000
0000
,
0000
0000
0000
0000
,
0000
0000
0000
0000
,
0001
0000
1000
0000
0010
1000
0000
0100
,
0010
0001
0100
0010
0000
1000
0001
0010
,
0200
0000
0301
0000
0100
1000
0010
0000
,
1000
0000
0001
0000
1000
0100
1000
0100
0010
0000
0001
0000
0100
0000
0000
0000
,
0110
0000
0001
1000
0010
1000
0000
0001
,
0000
0000
0010
0100
0000
1100
0000
0000
,
1000
0000
0001
0100
0000
0110
0000
1001
,
0000
0000
1100
0000
0000
0000
0001
0000
0010
0000
0001
0000
0100
0001
0100
0001
,
1000
0000
0010
1000
0100
0001
0100
0010
,
0000
0100
1000
0010
0000
1001
0000
0000
,
0101
0000
1000
0100
0000
0110
0000
0000
,
1000
0001
0100
0010
,
1100
0000
0010
0001
0100
0001
1000
0010
,
1000
0000
0100
0010
0001
0000
0100
0000
0010
0000
1000
0000
0010
0000
0000
0000
,
0100
1000
0100
0001
0010
0001
0100
0010
,
1000
0000
0100
1000
0010
0000
0100
0000
0010
0000
1000
0000
0001
0100
0001
0100
,
0001
0000
0010
1000
0010
0100
1000
0001
,
1000
0000
0010
0100
0001
0000
1000
0000
0100
0000
0010
0000
0001
0000
0000
0000
,
0100
0000
1001
0000
1000
0100
0000
0010
,
0001
0100
0001
0000
1000
0100
1000
0000
0010
0100
0010
0000
0000
0000
0000
0000
,
1100
0000
0100
0010
0001
0000
0101
0000
,
1010
0000
0010
0100
0001
0000
0011
0000
,
1100
0000
1000
0010
0001
0000
0010
0100
,
0001
0000
0000
0000
0010
0000
0100
0000
1000
0001
1000
0000
0010
0000
0000
0000
,
0100
0000
1000
0000
0100
0000
0001
0000
0100
0000
0010
1000
0000
0001
0100
0000
,
0001
0000
0010
0000
0100
0000
0001
0000
0100
0000
0010
0001
0000
1000
0100
0000
,
1000
0000
0010
0000
1000
0000
0001
0000
0100
0001
0100
0001
1000
0100
1000
0100
,
0010
0000
0000
0000
0010
0000
0000
0000
0001
1000
0001
1000
0100
0000
0000
0000
,
1000
0000
0000
1000
0100
0000
0000
0100
0010
0000
0000
0010
0001
0000
0000
0001
,
0100
0000
0000
0100
0010
0000
0000
0010
1000
0000
0000
1000
0001
0000
0000
0000
,
0010
1000
0010
0100
0010
0001
0100
0000
,
0010
0001
0010
1000
0100
0010
0001
0100
,
0010
0000
0000
0010
1000
0000
0000
1000
0001
0000
0000
0001
1000
0000
0000
1000
,
0100
0000
0000
0100
0010
0000
0000
0010
0001
0000
0000
0001
0100
0000
0000
0000
,
0010
0000
0001
0010
1000
0000
0100
0000
,
0011
0110
1100
1001
,
1000
0000
0000
1000
0010
0000
0000
0010
0001
0000
0000
0001
0010
0000
0000
0010
,
0100
0000
0000
0100
0001
0000
0000
0001
0100
0000
0000
0100
0010
0000
0000
0000
,
1000
0100
0010
0001
0100
1000
0100
0000
,
0001
0010
0100
0001
0100
0010
0001
1000
,
0010
0000
0000
0010
0001
0000
0000
0001
0010
0000
0000
0010
1000
0000
0000
1000
,
0100
0000
0000
0100
0001
0000
0000
0001
0100
0000
0000
0100
1000
0100
1000
0100
,
1000
0000
0000
0000
0000
0000
0001
0010
0001
0000
0100
0000
0000
0000
0001
0000
,
1000
0100
1000
0000
0001
0100
0001
0000
1000
0001
1000
0001
1000
0000
0000
0000
,
0020
0032
0023
0230
,
0302
2003
3200
0320
,
0031
0000
1000
0010
1000
0000
0100
0000
0010
0000
0001
0100
0001
0000
0010
0000
,
0100
0000
1000
0001
1000
0000
0010
0000
0100
0000
0001
0010
0100
1000
0100
1000
,
0002
0203
0320
0032
,
2003
3200
0320
2030
,
3001
0000
0010
0100
0010
0000
0001
0000
1000
0000
0010
0100
0010
0000
1000
0000
,
1001
0101
1100
1001
,
1100
0000
1000
0001
0100
0000
0110
0000
,
1001
0000
0001
0010
0100
0000
1100
0000
,
1010
0000
0010
0100
0001
0000
0010
0100
,
1000
0000
0000
0000
0010
0000
0100
0000
0001
1000
0001
0000
0010
0000
0000
0000
,
0100
0000
0001
0000
0100
0000
1000
0000
0010
0000
1000
0001
0000
0010
0100
0000
,
1000
0000
0010
0000
0100
0000
0001
0000
0100
0000
0001
0010
0000
0001
0100
0000
,
0010
0000
1000
0000
0100
0000
0010
0000
0001
0100
0001
0100
0010
1000
0010
1000
,
0010
0000
0000
0000
1000
0000
0100
0000
0010
0001
1000
0010
0100
0000
0000
0000
,
0101
0000
0000
0001
1000
0000
0100
0000
0001
0000
0100
0000
0010
0001
0000
0000
,
1000
0000
0000
0010
1000
0000
0001
0100
0001
0000
0010
0000
0200
0000
0000
0000
,
1300
0000
0000
0010
1000
0000
0100
0000
0010
0000
0001
0000
1000
0001
0000
0000
,
0100
0001
0100
0000
0010
1000
0010
0000
1000
0100
1000
0100
0010
0001
0010
0001
,
0100
0000
0000
0001
1000
0000
0010
0000
1000
0000
0001
0000
1000
0100
0000
0000
,
0010
0000
0000
0001
0100
0000
0001
1000
0001
0000
1000
0000
0020
0000
0000
0000
,
1030
0000
0000
0100
0010
0000
0001
0000
1000
0000
0010
0000
0100
0001
0000
0000
,
1000
0000
0100
0000
0010
0001
0010
0001
0100
0000
0010
0000
0100
0000
0000
0000
,
0001
0000
0000
0001
0010
0000
0000
0010
0100
0000
0000
0100
0001
0000
0000
0001
,
0100
0000
0000
0100
0010
0000
0000
0010
1000
0000
0000
1000
0010
0000
0000
0000
,
0100
1000
0001
0100
1000
0001
0010
0000
,
1000
0100
0001
1000
0010
0001
1000
0010
,
0100
0000
0000
0100
1000
0000
0000
1000
0001
0000
0000
0001
0010
0000
0000
0010
,
1000
0000
0000
1000
0001
0000
0000
0001
0010
0000
0000
0010
0100
0000
0000
0000
,
0001
0000
0100
0010
0001
1000
0010
0000
,
1010
1100
0011
0101
,
0001
0000
0000
0001
0010
0000
0000
0010
0100
0000
0000
0100
0001
0000
0000
0001
,
1000
0000
0000
1000
0010
0000
0000
0010
0100
0000
0000
0100
1000
0000
0000
0000
,
0010
0100
0001
1000
0010
0001
0010
0000
,
0100
0001
1000
0100
0001
1000
0010
0001
,
1000
0000
0000
1000
0010
0000
0000
0010
0100
0000
0000
0100
1000
0000
0000
1000
,
0001
0000
0000
0001
0010
0000
0000
0010
0100
0000
0000
0100
0001
0100
0001
0100
,
0001
0000
0000
0000
0000
0000
1000
0100
1000
0000
0010
0000
0000
0000
0100
0000
,
0001
0010
0001
0000
1000
0010
1000
0000
0001
1000
0001
1000
0100
0000
0000
0000
,
2002
0000
0000
0000
,
3003
0000
0000
0000
;

//--------------- dance-double - forcednature ----------------
#NOTEDATA:;
#STEPSTYPE:dance-double;
#DESCRIPTION:forcednature;
#CREDIT:forcednature;
#DIFFICULTY:Easy;
#METER:7;
#RADARVALUES:0,0,0,0,0;
#NOTES:
00000000
00000000
00000000
00000000
,
00000000
00000000
00000000
00000000
,
00000000
00000000
00000000
00000000
,
00000000
00000000
00000000
00000000
,
00000000
00000000
00000000
00000000
,
00000000
00000000
00000000
00000000
,
00001000
00000000
00010000
00000000
,
00000100
00001000
00000100
00000000
,
00000010
00000000
00000001
00000000
,
00000100
00000001
00000000
00000001
,
00000000
00000010
00000100
00000000
,
00001000
00000000
00000100
00000000
,
00010000
00000000
00001000
00000000
,
01000000
00000000
00010000
00000000
,
00100000
00000000
00010000
00000000
,
10000000
00000000
00100000
00000000
,
10000000
00000000
00010000
00000000
,
02000000
00000000
00000000
03000000
,
00001000
00010000
00000000
00010000
,
00000000
00000100
00000000
00000100
,
00001000
00000001
00000000
00000001
,
00000000
00000100
00000000
00000100
,
00000010
00001000
00000000
00001000
,
00000000
00000100
00000000
00000100
,
00010000
00001000
00000000
00001000
,
01000000
01000000
01000000
00000000
,
00010000
00000000
00010000
00100000
,
00010000
00000000
00010000
10000000
,
00010000
00000000
00010000
01000000
,
00010000
00000000
00010000
00100000
,
00001000
00000000
00001000
00010000
,
00000010
00000000
00001000
00000010
,
00000100
00000100
00000001
00000001
,
00002000
00000000
00000000
00003000
,
00000100
00010000
00001000
00010000
,
00000010
00010000
00001000
00010000
,
00000100
00000000
00001000
00000000
,
00000010
00000000
00010000
00000000
,
00001000
01000000
00001000
00010000
,
00001000
00100000
00001000
00010000
,
00001000
00000000
01000000
00000000
,
00010000
00010000
00010000
00000000
,
10000000
01000000
00100000
00010000
,
00100000
00001000
00010000
00000100
,
00001000
00000000
00000010
00000000
,
00000010
00000000
00000100
00000000
,
00000001
00000100
00000010
00001000
,
00000010
00010000
00001000
01000000
,
00010000
00000000
00100000
00000000
,
01000000
01000000
10000000
00000000
,
00100000
00000000
01000000
00000000
,
00010000
00000000
01000000
00000000
,
00001000
00010000
00001000
00000000
,
00010000
00001000
00010000
00000000
,
00000100
00000000
00001000
00000000
,
00000001
00000000
00000100
00000000
,
00000010
00000100
00000010
00000000
,
00010000
00010000
00010000
00000000
,
00011000
00000000
00000000
00000000
,
00001000
00000000
00000000
00000000
,
01000000
00000000
00000000
00000000
,
00010000
00000000
00100000
00000000
,
01000000
00000000
01000000
00000000
,
10000000
00000000
10000000
00000000
,
00010000
01000000
00010000
01000000
,
00002000
00000000
00000000
00003000
,
00010000
00000100
00000100
00001000
,
00001000
00000001
00000001
00000100
,
00000000
00000010
00000010
00010000
,
00010000
00001000
00001000
01000000
,
00000000
00010000
00010000
00100000
,
00100000
01000000
01000000
10000000
,
00000000
00010000
00010000
01000000
,
00002000
00000000
00003000
00000000
,
00010000
00000100
00001000
00000010
,
00010000
00001000
00100000
00010000
,
01000000
00000000
00100000
00000000
,
10000000
00000000
00010000
00000000
,
00100000
00001000
01000000
00010000
,
00100000
00001000
00010000
00000010
,
00001000
00000000
00000100
00000000
,
00000010
00000010
00000010
00000000
,
00000001
00000100
00000010
00010000
,
00001000
01000000
00100000
10000000
,
01000000
00000000
00100000
00000000
,
00001000
00000000
00010000
00000000
,
00100000
10000000
00010000
10000000
,
01000000
00100000
00001000
00010000
,
00000100
00000000
00001000
00000000
,
00000020
00000000
00000000
00000030
,
00002002
00000000
00000000
00000000
,
00003003
00000000
00000000
00000000
;

//--------------- dance-double - forcednature ----------------
#NOTEDATA:;
#STEPSTYPE:dance-double;
#DESCRIPTION:forcednature;
#CREDIT:forcednature;
#DIFFICULTY:Medium;
#METER:11;
#RADARVALUES:0,0,0,0,0;
#NOTES:
00000000
00000000
00000000
00000000
,
00000000
00000000
00000000
00000000
,
00000000
00000000
00000000
00000000
,
00000000
00000000
00000000
00000000
,
00000000
00000000
00000000
00000000
,
00000000
00000000
00000000
00000000
,
00010000
00000000
00001000
00000000
00000100
00000001
00000100
00000000
,
00000010
00000000
00001000
00000000
00000100
00010000
00001000
00000000
,
00100000
00000000
00010000
00000000
01000000
00100000
10000000
00000000
,
01000000
00010000
00001000
00000000
00000010
00000010
00000100
00000000
,
00001001
00000000
00001000
00000000
00000010
00000000
00000000
00011000
,
00000000
00001000
00010000
00100000
,
01000000
00000000
00010000
00000000
10000000
00100000
00000000
10000000
,
00000000
00000000
01000000
00100000
00000000
01000000
10000000
00000000
,
00010000
00000000
01000000
00000000
00001000
00010000
00000000
00001010
,
00000000
00000000
00000100
00000001
00000000
00000010
00000100
00000000
,
00001000
00000000
00000001
00000000
00001000
00000010
00010000
00000000
,
00002000
00023000
00230000
20300000
,
31000000
00000000
10010000
00000000
00100000
00001000
00010000
00000000
,
00000100
00000000
00001000
00000000
00000001
00000100
00000010
00000000
,
00010000
00000000
00001000
00000000
00100000
00010000
01000000
00000000
,
00100000
00000000
10000000
00000000
01000000
00010000
00001000
00000000
,
00001000
00000000
00010000
00000000
00001000
00000010
00000001
00000000
,
00001000
00000000
00000010
00000000
00010000
00000100
00001000
00000000
,
00000010
00000000
00010000
00000000
00001000
00100000
00010000
00000000
,
02000000
10000000
00100000
03010000
,
01000000
00000000
00001000
00010000
00000100
00000000
00000100
00000000
,
00001000
00000000
00000001
00000100
00000010
00000000
00000010
00000000
,
00010000
00000000
00001000
00100000
00010000
00000000
00010000
00000000
,
01000000
00000000
00001000
00010000
00000100
00000000
00000000
00000000
,
00000110
00000000
00000000
00000000
00001000
00000000
00000000
00000000
00000001
00000000
00000000
00000001
00000000
00000000
00000001
00000000
,
00000010
00000000
00000000
00000000
00000100
00000000
00000000
00000000
00010000
00000000
00000000
00010000
00000000
00000000
00010000
00000000
,
00001000
00100000
00001000
00000000
00100000
00010000
00100000
00000000
,
00020000
00000000
02030000
00000000
03001000
00010000
00000010
00000000
,
00000200
00002300
00023000
00030200
,
00000320
00000032
00000203
00002300
,
00013000
00000000
00100000
00000000
10000000
01000000
00100000
00000000
,
01000000
10000000
00010000
00000000
01000000
00001000
00010000
00000000
,
00000200
00020300
00032000
02003000
,
03200000
20300000
30020000
00230000
,
01300000
00000000
00100000
00001000
00010000
00000000
00000010
00010000
,
00001000
00001100
00000110
00010100
,
00020000
00032000
00003020
00000230
,
00020300
00032000
02003000
03200000
,
00310000
00001000
00010000
00000000
00100000
10000000
00100000
00000000
,
01000000
00010000
01000000
00000000
00001000
00010000
00000100
00000000
,
00000020
00002030
00023000
02030000
,
03200000
00302000
00023000
00030020
,
00001030
00000000
00000000
00000001
00000010
00000000
00000000
00000100
,
00002000
00000000
00003020
00000000
00020030
00000000
00031000
01000000
,
00020000
00230000
02300000
23000000
,
30200000
00320000
00032000
00003020
,
00000130
00001000
00000100
00000001
,
00000010
00000100
00010000
00001000
,
02000000
03020000
20030000
30200000
,
20300000
32000000
03020000
00032000
,
01003000
00010000
00100000
00001000
,
00011000
00010100
00001100
00000110
,
00001000
00000000
00000001
00001000
00000010
00000000
00000010
00000000
,
00010000
00000000
00001000
00100000
00010000
00000000
00010000
00000000
,
10000000
00000000
00010000
01000000
00100000
00000000
00100000
00000000
,
01000000
00000000
00001000
00010000
00000010
00000000
00000100
00000000
,
00001001
00000000
00000000
00000000
00000001
00000000
00000010
00000000
00000100
00000000
00000000
00000100
00000000
00000000
00000100
00000000
,
00001000
00000000
00000000
00000000
00000010
00000000
00010000
00000000
00001000
00000000
00000000
00001000
00000000
00000000
00001000
00000000
,
00100000
00010000
00100000
00010000
10000000
01000000
10000000
01000000
,
20000000
00000000
30200000
00000000
00310000
00001000
00010000
00000000
,
00001100
00020000
00000100
00001000
,
00000010
00000000
00031000
00000000
00010000
00010000
00010000
00000000
,
01001000
00002000
01000000
00010000
,
00100000
00000000
00013000
00000000
00001000
00001000
00001000
00000000
,
00011000
02000000
10000000
00100000
,
00010000
00000000
03001000
00000000
01000000
01000000
01000000
00000000
,
01001000
00002000
00100000
00010000
,
01003000
00000000
00001000
00000000
00010000
00000100
00010000
00000000
,
00000020
00002030
00003200
00000320
,
00002030
00023000
00230000
02300000
,
03010000
10000000
00100000
00000000
10000000
01000000
10000000
00000000
,
01000000
00100000
00010000
00000000
01000000
00001000
00010000
00000000
,
00000200
00002300
00003020
00020030
,
00032000
00003200
00000302
00000023
,
00000130
00000000
00010000
00001000
00100000
00000000
00010000
00000000
,
01010000
10010000
00110000
00101000
,
00002000
00023000
00030020
00002030
,
00003002
00000023
00000230
00002300
,
00003010
00010000
00000010
00000000
00010000
00001000
01000000
00000000
,
00010000
10000000
01000000
00000000
00100000
00010000
01000000
00000000
,
00200000
00320000
00032000
00003020
,
00000230
00002300
00003002
00002003
,
00003010
00000000
00000000
00010000
00001000
00000000
00000000
00100000
,
00020000
02030000
03002000
00013000
,
00022000
00000000
00000000
00000000
,
00033000
00000000
00000000
00000000
;

//--------------- dance-double - forcednature ----------------
#NOTEDATA:;
#STEPSTYPE:dance-double;
#DESCRIPTION:forcednature;
#CREDIT:forcednature;
#DIFFICULTY:Hard;
#METER:14;
#RADARVALUES:0,0,0,0,0;
#NOTES:
00000000
00000000
00000000
00000000
,
00000000
00000000
00000000
00000000
,
00000000
00000000
00000000
00000000
,
00000000
00000000
00000000
00000000
,
00000000
00000000
00000000
00000000
,
00000000
00000000
00000000
00000000
,
00001000
00000000
00110000
00000000
01000000
00010000
10000000
00000000
,
00100000
10000000
01000000
00100000
00010000
01000000
00001000
00000000
,
00010000
00000000
00001100
00000000
00000001
00000100
00000010
00000000
,
00001000
00000100
00000002
00000000
00000103
00000010
00000001
00000000
,
00000110
00000000
00001000
00000000
00000010
00010000
00000000
00210000
,
00000000
00000000
01300000
00010000
00000000
10010000
00000000
00000000
,
10000000
00000000
00010000
01000000
00000000
00011000
00000000
00000100
,
00000000
00000110
00000000
00001000
00000001
00000100
00000010
00000010
,
00000010
00000000
00001000
00000100
00010000
00000100
00010000
00001000
,
00000000
01000000
00010000
01000000
00000000
00100000
00000000
00000000
,
10000000
00000000
01000000
00100000
00000000
00022000
00000000
00000000
,
00033000
00000000
00000000
00000000
,
00010100
00000000
00100000
00000000
00010000
01000000
00000000
00200000
,
00000000
00000000
10300000
01000000
00000000
00010000
00001000
00000000
,
00000110
00000000
00001000
00000001
00000000
00000100
00001000
00000000
,
00011000
00000000
00100000
00001000
00010000
00100000
10000000
00000000
,
01000000
00000000
00100000
00000000
00010000
01000000
00001000
00000000
,
00010000
00000100
00001000
00000001
00000100
00000000
00000010
00000000
,
00001000
00000000
00000100
00000000
00000010
00001000
00010000
00000010
,
00020000
00230000
20300000
30000000
,
01001000
00000000
00100000
00001000
00010000
00000000
00010100
00000000
,
00000010
00000000
00001000
00000100
00000010
00000000
00001100
00000000
,
00010000
00000000
00001000
01000000
00010000
00000000
01100000
00000000
,
10000000
00000000
00010000
00100000
01000000
00010000
00001000
00000000
,
00011000
00000000
00000000
00000000
00000100
00000000
00000000
00000000
00001000
00000000
00000000
00000001
00000000
00000000
00000100
00000000
,
00000010
00000000
00000000
00000000
00001000
00000000
00000000
00000000
00000100
00000000
00000000
00010000
00000000
00000000
00001000
00000000
,
01000000
00010000
01000000
00010000
10000000
00100000
10000000
00100000
,
20000000
00000000
32000000
00000000
03010000
00001000
00010000
00000000
,
00010100
00011000
00010010
00011000
,
01001000
00011000
00101000
00011000
,
00001000
01000000
00010000
00000000
10000000
01000000
00100000
00000000
,
00001000
00010000
00000010
00000000
00001000
00000001
00000100
00000000
,
00000110
00001100
00011000
00110000
,
01100000
01010000
00011000
00001010
,
00001000
00000000
00000001
00000010
00000100
00000000
00001000
00000010
,
00010000
01000000
10000000
00100000
,
00110000
00010010
00110000
00010010
,
01001000
00001100
01001000
00001100
,
00001000
00010000
00000100
00000000
00001000
00000001
00000100
00000000
,
00000010
00010000
00001000
00000000
00100000
00001000
00010000
00000000
,
01010000
00011000
00010010
00011000
,
00101000
00011000
00001100
00011000
,
00000010
00000000
00010000
00001000
00000100
00000000
00000001
00000010
,
00000200
00000000
00020300
00000000
00130000
01000000
00010000
00000000
,
20010000
32000000
03020000
00032000
,
00003020
00000032
00000203
00000320
,
00000130
00001000
00010000
00000000
00100000
00010000
00001000
00000000
,
00010000
01000000
10000000
00010000
01000000
00001000
00010000
00000000
,
00000020
00002030
00003002
00000023
,
00002030
00023000
00230000
20300000
,
31000000
00010000
01000000
00010000
00001000
00010000
00001000
00000000
,
00001010
00011000
00110000
00011000
,
00010010
00000000
00010000
00000100
00001000
00000000
00001001
00000000
,
00000101
00000000
00000010
00001000
00000100
00000000
00010100
00000000
,
01001000
00000000
01000000
00010000
10000000
00000000
01100000
00000000
,
10010000
00000000
00010000
01000000
00001000
00001000
00010000
00000000
,
00001100
00000000
00000000
00000000
00010000
00000000
00000000
00000000
00001000
00000000
00000000
01000000
00000000
00000000
00010000
00000000
,
10000000
00000000
00000000
00000000
01000000
00000000
00000000
00000000
00100000
00000000
00000000
00001000
00000000
00000000
00010000
00000000
,
00000010
00010000
00000010
00010000
00100000
00010000
00100000
00010000
,
00002000
00000000
00003020
00000000
00000130
00001000
00000001
00000000
,
00001010
00000000
00000000
00000000
00000100
00010000
00000000
00000000
00001000
00010000
00000000
00000000
00000010
00010000
00000000
00000000
,
00001000
00010000
00000000
00000000
00010000
00000000
00100000
00000000
01000000
00000000
00010000
00000000
00200000
00000000
00000000
00000000
,
00302000
00000000
00000000
00000000
01003000
00001000
00000000
00000000
00010000
00001000
00000000
00000000
00100000
00001000
00000000
00000000
,
00010000
00001000
00000000
00000000
00001000
00000000
00000010
00000000
00000001
00000000
00000001
00000000
00000100
00000000
00000100
00000000
,
00002000
00000000
00000000
00000000
00013000
00001000
00000000
00000000
00000100
00001000
00000000
00000000
00010000
00001000
00000000
00000000
,
00000010
00001000
00000000
00000000
00010000
00000000
00100000
00000000
01000000
00000000
00001000
00000000
00020000
00000000
00000000
00000000
,
00032000
00000000
00000000
00000000
00103000
00001000
00000000
00000000
00010000
00001000
00000000
00000000
00000010
00001000
00000000
00000000
,
00010000
00010000
02000000
00000000
13000000
00010000
01000000
00000000
,
10010000
01001000
00010100
00001001
,
00001001
00010010
00101000
10010000
,
10000000
00010000
01000000
00001000
00010000
00000100
00001000
00000000
,
00000001
00000100
00000010
00001000
00000100
00000010
00000001
00000000
,
00000110
00011000
01100000
00011000
,
00000110
00011000
01100000
00011000
,
00000100
00000000
00010000
00001000
01000000
00010000
01000000
00000000
,
00100000
00001000
00000010
00010000
,
00001100
01010000
00001100
01010000
,
00001010
00110000
00001010
00110000
,
00001000
00010000
00000100
00001000
00000001
00000100
00000010
00000000
,
00001000
00000100
00010000
00001000
01000000
00010000
00100000
00000000
,
11000000
00110000
00001100
00000011
,
00000101
00001010
01010000
10100000
,
00011000
00000000
00000100
00010000
00001000
00000000
00000010
00000001
,
00000200
00000000
00002300
00000000
00013000
00100000
10000000
00000000
,
20020000
00000000
00000000
00000000
,
30030000
00000000
00000000
00000000
;

//--------------- dance-double - forcednature ----------------
#NOTEDATA:;
#STEPSTYPE:dance-double;
#DESCRIPTION:forcednature;
#CREDIT:forcednature;
#DIFFICULTY:Challenge;
#METER:16;
#RADARVALUES:0,0,0,0,0;
#NOTES:
00000000
00000000
00000000
00000000
,
00000000
00000000
00000000
00000000
,
00000000
00000000
00000000
00000000
,
00000000
00000000
00000000
00000000
,
00000000
00000000
00000000
00000000
,
00000000
00000000
00000000
00000000
,
00010000
00000000
00001000
00000000
00000100
00000001
00000000
00000010
,
00000100
00001000
00010000
00100000
00000000
01000000
10000000
00010000
,
02000000
00000000
03100000
00000000
00010000
00001000
00000010
00000000
,
00000100
00000000
00001000
00000000
00000001
00000100
00000001
00000100
00000010
00000000
00001000
00000000
00000001
00000000
00000000
00000000
,
00000110
00000000
00001000
00000100
00010000
00001000
00000000
01000000
,
00000000
00000000
00100000
10000000
00000000
11000000
00000000
00000000
,
00100000
00000000
00001000
00010000
00000000
00010100
00000000
00001001
,
00000000
00000000
00000110
00000000
00000000
00000000
00001000
00000000
00000100
00000000
00010000
00000000
00001000
01000000
00001000
01000000
,
00010000
00000000
00100000
01000000
10000000
00100000
00010000
00100000
,
00000000
00010000
00001000
00100000
00000000
00010100
00000000
00000000
,
01001000
00000000
00001000
00010000
00000000
00001010
00000000
00000000
,
00000001
00001000
00010000
10000000
,
01100000
00000000
00010000
01000000
00010000
00100000
00001000
00000010
,
00001000
00000000
00010000
00000100
00001000
00000000
00000010
00000000
00010000
00000000
00000100
00000000
00001000
00000000
00000000
00000000
,
01000000
00100000
00010000
10000000
00100000
00010000
00001000
00010000
,
01000000
00000000
00100000
00010000
01000000
00000000
00001000
00000000
00010000
00000000
00000100
00000000
00000010
00000001
00000010
00000001
,
00000010
00000000
00000100
00010000
01000000
00010000
00001000
01000000
,
00100000
00000000
10000000
01000000
00100000
00000000
00010000
00000000
01000000
00000000
00001000
00000000
00010000
00000000
00000000
00000000
,
00000100
00000000
00001001
00000000
00000001
00000100
00000000
00000010
,
00010000
00001000
00010000
00000000
00001000
00100000
00001000
00000000
01000000
00010000
01000000
00000000
00000000
00000000
00000000
00000000
,
01100000
00000000
01000000
00010000
00001000
00000000
00011000
00000000
,
00000110
00000000
00000100
00001000
00010000
00000000
00011000
00000000
,
01010000
00000000
01000000
00100000
00010000
00000000
00001000
00000010
,
00000100
00000000
00000000
00000000
00001000
00000000
00000001
00000000
00000100
00000001
00000100
00000000
00000010
00000000
00000000
00000000
,
00000100
00000000
00001000
00000000
01000000
00000000
00001000
00000000
00010000
00000000
00001000
00100000
00000000
00010000
10000000
00000000
,
00100000
00000000
00010000
00000000
00000010
00000000
00010000
00000000
00001000
00000000
00000010
00000100
00000000
00001000
00000001
00000000
,
00000100
00000000
00001000
00000000
00010000
00000000
01000000
00000000
00100000
00010000
00100000
00010000
10000000
00100000
10000000
00100000
,
01000000
00000000
00000000
00000000
01000000
00000000
00000000
00000000
00001000
00010000
00001000
00010000
00001000
00000000
00000000
00000000
,
00000010
00000000
00000000
00000010
00001000
00000000
00000000
00001000
00010000
00000000
00000000
00010000
01000000
00000000
00000000
01000000
,
10000000
00000000
00000000
10000000
00010000
00000000
00000000
00010000
01000000
00000000
00000000
01000000
00001000
00000000
00000000
00000000
,
00100000
10000000
00100000
00001000
00010000
00100000
00010000
00000000
,
00001000
00000010
00001000
00010000
00000010
00000001
00000010
00000100
,
00001000
00000000
00000000
00001000
00010000
00000000
00000000
00010000
01000000
00000000
00000000
01000000
00100000
00000000
00000000
00100000
,
00001000
00000000
00000000
00001000
00000010
00000000
00000000
00000010
00001000
00000000
00000000
00001000
00010000
00000000
00000000
00000000
,
00100000
00000000
00001000
00000010
00001000
00000000
00000100
00000000
,
00010100
01001000
00110000
00001010
,
00010000
00000000
00000000
00010000
00001000
00000000
00000000
00001000
00000010
00000000
00000000
00000010
00000100
00000000
00000000
00000100
,
00001000
00000000
00000000
00001000
00100000
00000000
00000000
00100000
10000000
00000000
00000000
10000000
00010000
00000000
00000000
00000000
,
10000000
01000000
00100000
00010000
00001000
00000100
00000010
00000000
,
00000001
00000100
00000010
00001000
00010000
01000000
00100000
10000000
,
01000000
00000000
00000000
01000000
00010000
00000000
00000000
00010000
00000100
00000000
00000000
00000100
00010000
00000000
00000000
00010000
,
00001000
00000000
00000000
00001000
00000010
00000000
00000000
00000010
00000001
00000000
00000000
00000001
00000100
00000001
00000100
00000001
,
00000100
00000000
00000000
00000000
00000000
00000000
00000010
00001000
00000010
00000000
00010000
00000000
00000000
00000000
00001000
00000000
,
01000000
00010000
01000000
00000000
00100000
10000000
00100000
00000000
10000000
01000000
10000000
01000000
10000000
00000000
00000000
00000000
,
00200000
00302000
00003020
00020030
,
02030000
03002000
00003200
00020300
,
00130000
00000000
10000000
00010000
10000000
00000000
01000000
00000000
00100000
00000000
00001000
00010000
00001000
00000000
00000100
00000000
,
00000010
00000000
00001000
00000001
00001000
00000000
00000100
00000000
00010000
00000000
00001000
01000000
00100000
10000000
00100000
10000000
,
02000000
03020000
00030200
00000302
,
00002003
00003020
00020030
00230000
,
00301000
00000000
00010000
00000100
00010000
00000000
00001000
00000000
00000100
00000000
00000001
00001000
00000001
00000000
00000010
00000000
,
00000110
00011000
01100000
00011000
,
01001000
00000000
00001000
00010000
01000000
00000000
01100000
00000000
,
00101000
00000000
00001000
00000010
00000100
00000000
00001100
00000000
,
00001001
00000000
00000001
00000100
00001000
00000000
00010000
00100000
,
10000000
00000000
00000000
00000000
01000000
00000000
00100000
00000000
00001000
00010000
00001000
00000000
00000010
00000000
00000000
00000000
,
00000100
00000000
00001000
00000000
00000100
00000000
00010000
00000000
00000010
00000000
00001000
00000001
00000000
00000100
00000010
00000000
,
00001000
00000000
00100000
00000000
00010000
00000000
00001000
00000000
00010000
00000000
01000000
10000000
00000000
00010000
01000000
00000000
,
00100000
00000000
00010000
00000000
00000010
00000000
00010000
00000000
00000100
00001000
00000100
00001000
00000001
00000100
00000001
00000100
,
00000010
00000000
00000000
00000000
00000010
00000000
00001000
00000000
00000100
00010000
00001000
00010000
00001000
00000000
00000000
00000000
,
01010000
00000000
00000000
01000000
00010000
00000000
10000000
00000000
01000000
00000000
00010000
00000000
00001000
00010000
00000000
00000000
,
00100000
00000000
00000000
00010000
00001000
00000000
00000010
00000100
00000010
00000000
00000001
00000000
00002000
00000000
00000000
00000000
,
00003010
00000000
00000000
00010000
00001000
00000000
01000000
00000000
00100000
00000000
00010000
00000000
00100000
10000000
00000000
00000000
,
01000000
10000000
01000000
00000000
00100000
00010000
00100000
00000000
00001000
00010000
00001000
00010000
00000100
00001000
00000100
00001000
,
00000010
00000000
00000000
00001000
00000001
00000000
00000010
00000000
00001000
00000000
00000010
00000000
00000100
00001000
00000000
00000000
,
00010000
00000000
00000000
00100000
01000000
00000000
10000000
00010000
10000000
00000000
00100000
00000000
00020000
00000000
00000000
00000000
,
00031000
00000000
00000000
00000010
00000100
00000000
00001000
00000000
00000001
00000000
00000100
00000000
00000010
00001000
00000000
00000000
,
00010000
00000000
01000000
00000000
00010000
00100000
00010000
00100000
01000000
00000000
10000000
00000000
00010000
00000000
00000000
00000000
,
01000000
00000000
00000000
01000000
00001000
00000000
00000000
00001000
00000100
00000000
00000000
00000100
00000001
00000000
00000000
00000001
,
00001000
00000000
00000000
00001000
00000100
00000000
00000000
00000100
00010000
00000000
00000000
00010000
00100000
00000000
00000000
00000000
,
01000000
00010000
10000000
01000000
00010000
00001000
00100000
00000000
,
00001000
00000010
00000100
00001000
00000001
00000100
00010000
00000100
,
00000010
00000000
00000000
00000010
00010000
00000000
00000000
00010000
00100000
00000000
00000000
00100000
00010000
00000000
00000000
00010000
,
00001000
00000000
00000000
00001000
00000010
00000000
00000000
00000010
00010000
00000000
00000000
00010000
00100000
00000000
00000000
00000000
,
01000000
00000000
10000000
00010000
01000000
00001000
00010000
00000000
,
00001100
01010000
00110000
00001010
,
00010000
00000000
00000000
00010000
00001000
00000000
00000000
00001000
00000010
00000000
00000000
00000010
00000100
00000000
00000000
00000100
,
00010000
00000000
00000000
00010000
00100000
00000000
00000000
00100000
01000000
00000000
00000000
01000000
00010000
00000000
00000000
00000000
,
10000000
01000000
00010000
00001000
01000000
10000000
01000000
00000000
,
00010000
00100000
00001000
00000010
00000100
00001000
00000001
00000100
,
00000010
00000000
00000000
00000010
00010000
00000000
00000000
00010000
00100000
00000000
00000000
00100000
00010000
00000000
00000000
00010000
,
00001000
00000000
00000000
00001000
00010000
00000000
00000000
00010000
01000000
00000000
00000000
01000000
10000000
01000000
10000000
01000000
,
10000000
00000000
00000000
00000000
00000000
00000000
00010000
00100000
00010000
00000000
01000000
00000000
00000000
00000000
00001000
00000000
,
00010000
00000100
00010000
00000000
00000100
00001000
00000100
00000000
00000010
00000001
00000010
00000001
00000100
00000000
00000000
00000000
,
00022000
00000000
00000000
00000000
,
00033000
00000000
00000000
00000000
;
