#VERSION:0.83;
#TITLE:Chocolate Parade;
#SUBTITLE:;
#ARTIST:Freezer feat.妃苺;
#TITLETRANSLIT:;
#SUBTITLETRANSLIT:;
#ARTISTTRANSLIT:;
#GENRE:;
#CREDIT:;
#MUSIC:Chocolate Parade.ogg;
#BANNER:Chocolate Parade.png;
#BACKGROUND:Chocolate Parade-bg.png;
#CDTITLE:./CDTitles/SDVX VIVID WAVE.png;
#SAMPLESTART:46.717;
#SAMPLELENGTH:15.000;
#SELECTABLE:YES;
#OFFSET:0.000;
#BPMS:0.000=190.000;
#STOPS:;
#TIMESIGNATURES:0.000=4=4;
#BGCHANGES:0.000=../BGAs/20te.mp4=1.000=0=0=0=StretchNoLoop====,
99999.000=-nosongbg-=1.000=0=0=0=StretchNoLoop====
;
#FGCHANGES:;

//--------------- dance-single - forcednature ----------------
#NOTEDATA:;
#STEPSTYPE:dance-single;
#DESCRIPTION:forcednature;
#DIFFICULTY:Beginner;
#METER:3;
#RADARVALUES:0,0,0,0,0;
#CREDIT:forcednature;
#NOTES:
0000
0000
0000
0000
,
0000
0000
0000
0000
,
0000
0000
0000
0000
,
0000
0000
0000
0000
,
0000
0000
0000
0000
,
1000
0000
0000
0000
,
0001
0000
0000
0000
,
0100
0000
0000
0000
,
0001
0000
0000
0000
,
0010
0000
0000
0000
,
0100
0000
0000
0000
,
1000
0000
0000
0000
,
0001
0000
0000
0000
,
1001
0000
0000
0000
,
1000
0000
0000
0000
,
0010
0000
0000
0000
,
1000
0000
0000
0000
,
0001
0000
0000
0000
,
0010
0000
0000
0000
,
0100
0000
0000
0000
,
0010
0000
0000
0000
,
1001
0000
0000
0000
,
1000
0000
0000
0000
,
0010
0000
0000
0000
,
1000
0000
0000
0000
,
0001
0000
0000
0000
,
0100
0000
0000
0000
,
0001
0000
0000
0000
,
0010
0000
0000
0000
,
0100
0000
0000
1000
,
0000
0000
0000
1000
,
0000
0000
0000
0000
,
0001
0000
0001
0000
,
0000
1000
0000
1000
,
0000
0001
0000
0001
,
0000
0010
0010
0010
,
0000
0000
0000
0000
,
1000
0000
1000
0000
,
0001
0000
0000
0000
,
0001
0000
0001
0000
,
1000
0000
0000
0000
,
0010
0000
0000
0000
,
0100
0000
0000
0000
,
0001
0000
1000
0000
,
0001
0000
0000
0000
,
0010
0000
0010
0000
,
0100
0000
0000
0000
,
0100
0000
0100
0000
,
0010
0000
0000
0000
,
0001
0000
0000
0000
,
1000
0000
0000
0000
,
0010
0000
0100
0000
,
0010
0000
0000
0000
,
1000
0000
0000
0000
,
0000
0000
0000
0000
,
0001
0000
0000
0000
,
0010
0000
0000
0000
,
1001
0000
0000
0000
,
1000
0000
0000
0000
,
0100
0000
0000
0000
,
1000
0000
0000
0000
,
0000
0010
0000
0010
,
0000
0100
0000
0100
,
0000
0001
0000
0001
,
0000
0000
0000
0000
,
1001
0000
0000
0000
,
0100
0000
0000
0000
,
1001
0000
0000
0000
,
0010
0000
0000
0000
,
0100
0000
0000
0000
,
0001
0000
0000
0000
,
1000
0000
0000
0000
,
0010
0000
0000
0000
,
1000
0000
0001
0000
,
1000
0000
0000
0000
,
0001
0000
1000
0000
,
0001
0000
0000
0000
,
0010
0000
0000
0000
,
0100
0000
0000
0000
,
1000
0000
0001
0000
,
1000
0000
0000
0000
,
1001
0000
0000
0000
,
0000
0000
0000
0000
,
0100
0000
0000
0000
,
0010
0000
0000
0000
,
1001
0000
0000
0000
,
1000
0000
0000
0000
,
0100
0000
0000
0000
,
1000
0000
0000
0000
,
0001
0000
0000
0000
,
0100
0000
0000
0000
,
0010
0000
0000
0000
,
1000
0000
0001
0000
,
1001
0000
0000
0000
;

//--------------- dance-single - forcednature ----------------
#NOTEDATA:;
#STEPSTYPE:dance-single;
#DESCRIPTION:forcednature;
#DIFFICULTY:Easy;
#METER:7;
#RADARVALUES:0,0,0,0,0;
#CREDIT:forcednature;
#NOTES:
0000
0000
0000
0000
,
0000
0000
0000
0000
,
0000
0000
0000
0000
,
0000
0000
0000
0000
,
0000
0000
0000
0000
,
1000
0000
0000
0000
,
0100
0000
1000
0000
,
0100
0000
0000
0000
,
0010
0000
0001
0000
,
0100
0000
0000
0110
,
0000
0000
0010
0000
0000
0000
0000
1001
,
0000
0000
0000
0000
0100
0000
0000
0010
,
0000
0010
0000
0010
0000
0000
0110
0000
,
0000
0001
0000
0100
,
0000
0001
0100
0010
,
0000
1000
0000
0001
,
0000
0010
0100
1000
,
0000
0001
0000
0100
,
0000
0010
1000
0001
,
0000
0000
0010
0000
0000
0000
0000
0100
,
0000
0100
0000
0100
0000
0000
1000
0000
,
0000
0001
0100
0001
,
0000
1000
0010
1000
,
0000
0001
0010
0001
,
0000
1000
0100
1000
,
0000
0010
0000
0100
,
0000
0001
0000
0010
,
0000
0000
0100
0000
1000
0000
0000
0010
,
0000
0010
0000
0000
0100
0000
0100
0000
,
0001
0000
0001
1000
,
0001
0000
0001
0010
,
0001
0000
0001
0100
,
0010
0010
0020
0030
,
1000
0100
1000
0100
,
0010
0001
0010
0001
,
1000
0010
0010
0010
,
0000
0100
0100
0000
,
0001
0010
0001
0010
,
0100
1000
0001
0000
,
1000
0010
1000
0010
,
0100
0000
0001
0000
1000
0000
0000
0100
,
0000
0000
0100
0000
0100
0000
0000
0010
,
0000
0010
0000
0010
0000
0000
0000
0000
,
0001
0000
0000
0000
0001
0000
0000
1000
,
0000
1000
0000
1000
0000
0000
0000
0000
,
0001
0010
0001
0100
,
0010
1000
0001
0000
,
1000
0100
0010
0001
,
0100
0000
0010
0000
0000
0000
0000
1000
,
0000
1000
0000
1000
0000
0000
0000
0001
,
0000
0001
0000
0001
0000
0000
0000
1001
,
0000
0000
1000
0010
,
0100
0001
0010
0000
,
0220
0000
0000
0000
,
0000
0000
0330
0000
,
1001
0000
0110
0000
,
1000
1000
1000
0001
,
0100
0000
0010
1000
,
0001
1000
0100
0010
,
0001
0000
0100
0010
,
1000
1000
0001
0001
,
0010
0100
0000
0100
,
1000
0010
0001
0010
,
0100
0100
0001
0001
,
0000
0010
0010
0000
,
1001
0000
0000
0000
,
0110
0000
0000
0000
,
1001
0000
0000
0000
,
0110
0000
0000
0000
0000
0000
0000
0001
,
0000
0000
0001
0000
0001
0000
0000
1000
,
0000
1000
0000
1000
0000
0000
0000
0220
,
0000
0000
0000
0000
0330
0000
0000
1000
,
0000
1000
0000
0000
0001
0000
0000
0000
,
0010
0100
1000
0100
,
0010
0001
1000
0000
,
0010
0100
0001
0100
,
0010
0000
1000
0000
0000
0000
0000
0001
,
0000
0001
0000
0001
0000
0000
0000
1000
,
0000
1000
0000
1000
0000
0000
0000
0110
,
0000
0000
0001
0010
,
0100
1000
0010
0000
,
0220
0000
0000
0000
,
0000
0000
0330
0000
,
1001
0000
0110
0000
,
1000
0001
1000
0010
,
0100
0000
0001
0010
,
0001
0100
0010
1000
,
0001
0010
0100
0000
,
1000
0000
0100
0000
0010
0000
0000
0001
,
0000
0001
0000
0001
0000
0000
0000
1000
,
0000
1000
0000
1000
0000
0000
0000
0110
,
0000
0000
0001
1000
,
0010
0100
0001
0000
,
2002
0000
0000
0000
,
3003
0000
0000
0000
;

//--------------- dance-single - forcednature ----------------
#NOTEDATA:;
#STEPSTYPE:dance-single;
#DESCRIPTION:forcednature;
#DIFFICULTY:Medium;
#METER:10;
#RADARVALUES:0,0,0,0,0;
#CREDIT:forcednature;
#NOTES:
0000
0000
0000
0000
,
0000
0000
0000
0000
,
0000
0000
0000
0000
,
0000
0000
0000
0000
,
0000
0000
0000
0000
,
1001
0100
0001
0100
,
0010
1000
0010
1000
,
0100
0010
0001
0100
,
0001
0000
1000
0000
0010
0000
1000
0001
,
0000
0010
0100
0000
0100
0000
1000
0001
,
0000
0100
0000
0110
0000
0001
0000
1000
,
0000
0100
0010
0000
0100
0000
1000
0001
,
0000
0100
0000
0001
1000
0000
1001
0000
,
0100
1000
0001
0100
,
0001
0000
1000
0000
0010
1000
0010
0000
,
0100
0001
0000
0001
,
0010
0000
0100
0000
1000
0001
1000
0000
,
0010
1000
0000
1000
,
0100
0010
0001
0100
,
0100
0000
0010
0000
1000
0000
0001
0100
,
0000
1000
0000
0100
0000
0001
1000
0000
,
1001
0100
0001
1000
,
0100
0000
1000
0000
0010
0000
0100
0010
,
0100
0000
0001
0000
0010
0000
0100
1000
,
0100
0000
0010
0000
0001
0000
1000
1000
,
0000
0000
0001
0001
0000
0000
0100
0100
,
0000
0000
0010
0000
1000
0000
0001
0002
,
0000
0000
1000
0000
1000
0000
1003
0001
,
0000
0100
0010
0100
0010
0000
0100
0000
,
1001
0000
0100
0110
,
0001
0000
0010
1001
,
0100
0000
1000
0110
,
1001
0110
1001
0000
,
1000
1001
0001
1001
,
0100
0110
0010
0110
,
1000
1001
1001
1001
,
0000
0001
1000
0001
1000
0000
0000
0000
,
1001
0100
1001
0010
,
1000
0001
0100
0000
,
1001
1000
0110
0001
,
0100
0000
0001
0000
1000
0000
0010
1000
,
0000
0001
0000
1000
0001
0000
0100
0010
,
0000
1000
0000
0001
0000
0010
0000
1001
,
0000
0000
0100
0000
0001
0000
0100
0010
,
0000
1000
0000
0001
1000
0000
1001
0000
,
1001
0100
1001
0010
,
1000
0001
0100
0000
,
0010
1000
0100
0010
,
0001
0000
0100
0000
0100
0000
0010
1000
,
0000
0001
0000
1000
0000
0001
0000
0100
,
0000
0010
0000
1000
0000
0100
0000
1001
,
0000
0000
0100
0000
0010
0000
1000
0001
,
0000
0100
0000
0100
0100
0000
1001
0000
,
0110
0001
0100
0001
,
1000
0100
1000
0100
,
1001
0000
0000
0000
0110
0000
0000
1000
,
0001
0000
0000
0000
0000
0000
0100
0000
0000
0100
0000
0000
0100
0000
0000
0000
,
1001
0000
0100
0000
0010
0001
0010
0000
,
0100
1000
0100
0000
0010
0001
0010
0000
,
1001
0000
0100
0000
0001
1000
0010
0000
,
0100
0100
0100
0000
1001
0000
0000
0000
,
0110
0001
0110
1000
,
0020
2030
3002
0203
,
0310
1001
0110
1001
,
0000
0100
0010
0100
0010
0000
0000
0000
,
1001
0100
0001
0100
,
1001
0100
1000
0000
,
0110
0001
1000
0001
,
0110
0000
1000
0000
0001
0000
0100
0010
,
0000
1000
0000
0001
1000
0000
0000
0001
,
0000
1000
0000
0001
0000
0010
0000
1001
,
0000
0000
1000
0000
0001
0000
1000
0100
,
0000
0010
0000
0001
1000
0000
1001
0000
,
1001
0100
1001
0100
,
0001
0010
0100
0000
,
0010
0001
0100
0010
,
1000
0000
0001
0000
1000
0000
0100
0010
,
0000
0001
0000
1000
0000
0010
0000
0100
,
0000
0001
0000
0010
0000
0100
0000
1001
,
0000
0000
1000
0000
0010
0000
1000
0001
,
0000
0100
0000
0001
1000
0000
0110
0000
,
1001
0100
0100
0010
,
0010
1000
1000
0001
,
0110
0001
0110
1000
,
0001
0000
0002
2003
,
3010
0100
0001
0100
,
0010
1000
0010
0000
0100
0001
0100
0000
,
0001
0000
0010
0000
0100
0000
1000
0001
,
1000
0000
0010
0000
0100
0001
0100
0001
,
0000
1000
0000
0001
1000
0000
0100
0010
,
0000
0001
0000
1000
0000
0001
0000
0110
,
0000
0000
0001
0000
1000
0000
0010
1000
,
0000
0001
0000
0010
0100
0000
1001
0000
,
0220
0000
0000
0000
,
0330
0000
0000
0000
;

//--------------- dance-single - forcednature ----------------
#NOTEDATA:;
#STEPSTYPE:dance-single;
#DESCRIPTION:forcednature;
#DIFFICULTY:Hard;
#METER:13;
#RADARVALUES:0,0,0,0,0;
#CREDIT:forcednature;
#NOTES:
0000
0000
0000
0000
,
0000
0000
0000
0000
,
0000
0000
0000
0000
,
0000
0000
0000
0000
,
0000
0000
0000
0000
,
1001
0000
0000
0000
0101
0000
0000
0000
0001
0000
0000
0010
0000
0000
0100
0000
,
0000
0000
1000
0000
0001
0000
0000
0000
1000
0000
0000
0010
0000
0000
1000
0000
,
0100
0000
0000
0000
0010
0000
0000
0000
0001
0000
0000
0100
0000
0000
0010
0000
,
0000
0000
1000
0000
0100
0000
0000
0000
0010
0000
0000
0001
0000
0000
0100
0000
,
0000
0010
1000
0001
0100
0000
0001
1000
,
0000
0100
0010
0001
0000
0110
0000
1001
,
0000
0000
1000
0000
0010
0000
0000
0000
0100
0000
0000
0001
0000
0000
0110
0000
,
0000
1001
0000
1000
0100
0010
0001
0000
,
1001
0000
0001
0000
0100
0000
0010
1000
,
0010
0000
0100
0001
0000
1000
0000
0001
,
0000
0000
1000
0000
0100
0010
0001
0010
,
0000
0100
0000
1000
0000
0001
1000
0001
,
0000
0000
0100
0000
0010
1000
0001
0100
,
0000
0001
1000
0001
0000
0010
0100
1000
,
0000
0000
0010
0000
0100
0001
1000
0010
,
0000
0110
0000
1001
0000
0001
0100
0010
,
1000
0000
1100
0000
0001
0100
0001
0010
,
0000
0100
1000
0100
0000
0010
0000
1001
,
0000
0000
0001
0100
0000
1000
0000
0110
,
0000
0000
1000
0000
0001
0010
0001
1000
,
0000
0001
0100
0001
0000
1000
0100
0010
,
0000
0100
1000
0010
0000
0100
0001
0020
,
0000
0100
0130
0000
0010
0001
1000
0001
,
0000
0100
0100
0100
0100
0000
1001
0000
,
0210
0000
0000
0001
0301
0000
0101
0000
,
0020
0000
0000
1000
1030
0000
1010
0000
,
2000
0000
0000
0001
3001
0000
1001
0000
,
0110
0000
1001
0000
0100
0100
0010
0000
,
1000
0101
0001
1100
,
0100
0011
0100
1010
,
0001
1000
0001
1000
0100
0010
0100
0010
,
0000
0100
1000
0001
0100
0000
1001
0000
,
0110
1001
0110
1001
,
1000
0100
0010
0001
0100
0000
0000
0000
,
0101
1100
0101
1100
,
0001
1000
0010
0100
0001
0000
1000
0001
,
0000
0010
0100
0010
0100
0000
1000
0001
,
0000
0100
0010
0100
0000
0001
0000
1000
,
0000
0100
0010
0001
1000
0000
0010
0100
,
0000
0110
0000
1000
0001
0000
1001
0000
,
1100
0011
0101
1010
,
0001
1000
0100
0010
0001
0000
0000
0100
,
0010
0000
0100
0001
0000
1000
0000
0010
,
0000
0000
1000
0001
0000
0010
0100
0010
,
0000
0001
1000
0001
0000
0101
0000
1100
,
0000
1000
0010
1000
0000
0110
0000
1001
,
0000
0001
0010
0100
1000
0010
0100
0001
,
0000
0110
0000
1000
0001
0000
0110
0000
,
1001
0001
0100
1000
,
0100
0001
0010
0100
,
1001
0000
0010
0000
1001
0000
1000
0001
,
0100
0000
0100
0000
0010
0000
0100
0000
0000
0100
0000
0000
0020
0000
0030
0000
,
1001
0000
0100
0001
0100
0100
0010
0000
,
1000
0100
0010
0100
1000
0001
0100
0000
,
0110
0000
1001
0000
0100
0001
0010
0000
,
0100
1000
0100
0001
0100
1000
0100
0001
,
0100
0000
0110
0000
0001
1000
0010
0000
,
0100
0100
0001
0001
1000
1000
0010
0010
,
1000
0100
0010
0001
1000
0010
0001
0010
,
0000
0100
0100
0100
0100
0000
1001
0000
,
0110
0001
1000
0001
,
0100
0010
1000
0001
0100
0000
0000
0000
,
0110
1000
0001
1000
,
0100
0010
0001
1000
0100
0000
0010
0001
,
0000
0100
0010
0100
0001
0000
1000
0010
,
0000
1000
0100
0010
0000
0110
0000
1001
,
0000
0001
0100
0001
0010
0100
1000
0010
,
0000
0110
0000
1000
0001
0000
0110
0000
,
1100
0101
0011
1010
,
0001
1000
0100
0010
0100
0000
1000
0001
,
0100
0000
0010
1000
0000
0001
0000
0100
,
0000
0000
0001
0010
0000
0100
1000
0100
,
0000
0010
0001
0100
0000
1001
0000
0110
,
0000
0010
1000
0100
0000
0110
0000
1001
,
0000
1000
0100
0010
0001
0100
0010
1000
,
0000
1001
0000
0100
0010
0000
1001
0000
,
0110
0001
0100
0001
,
1000
0010
1000
0001
,
0110
0000
1000
0001
1000
0100
0010
0001
,
0000
0000
0000
0100
0000
0000
0010
0000
0000
0000
0000
0000
1000
0000
0001
0000
1000
0000
0001
0000
0010
0000
0100
0000
,
1000
1010
0001
0011
,
0100
0010
1000
0001
0100
0100
0010
1000
,
0002
0000
0023
0000
0230
0000
1300
0001
,
2000
0000
3020
0000
0130
0001
1000
0001
,
0000
0100
0010
0100
0010
0000
1000
0100
,
0000
0010
0001
0010
0000
1001
0000
0110
,
0000
0000
0001
0000
0010
0000
0000
0000
0100
0000
0000
1000
0000
0000
0010
0000
,
0000
0110
0000
1000
0001
0000
0110
0000
,
2002
0000
0000
0000
,
3003
0000
0000
0000
;

//--------------- dance-single - forcednature ----------------
#NOTEDATA:;
#STEPSTYPE:dance-single;
#DESCRIPTION:forcednature;
#DIFFICULTY:Challenge;
#METER:16;
#RADARVALUES:0,0,0,0,0;
#CREDIT:forcednature;
#NOTES:
0000
0000
0000
0000
,
0000
0000
0000
0000
,
0000
0000
0000
0000
,
0000
0000
0000
0000
,
0000
0000
0000
0000
,
1001
0000
0000
0000
0101
0000
0000
0000
0001
0000
0010
0100
0000
1000
0001
0000
,
0000
0000
0100
0000
0001
0000
0000
0000
1000
0000
0010
1000
0000
0001
0100
0000
,
0010
0000
0000
0000
1100
0000
0000
0000
0001
0000
0010
0100
0000
1000
0100
0000
,
0000
0000
0010
0000
0001
0000
0000
0000
1000
0000
0001
0100
0000
0010
1000
0000
,
0000
0001
0010
0100
1000
0000
1001
0001
,
0000
0100
0010
1000
0000
0110
0000
1001
,
0000
0000
1000
0000
0100
0000
0000
0000
0010
0000
0001
0100
0000
0001
1000
0000
,
0000
0000
1001
0000
0000
0000
1000
0000
0001
0100
0001
0000
1001
0000
0000
0000
,
1100
0000
0002
0000
0203
0000
0310
1000
,
0010
0000
0100
0001
0000
0010
0100
1000
,
0001
0000
1000
0000
0010
0001
0010
1000
,
0000
0100
0010
0100
0000
0010
0001
1000
,
0001
0000
0110
0000
1000
0100
0001
0100
,
0000
1000
0001
0100
0000
0010
1000
0001
,
0010
0000
0110
0000
0100
1000
0001
0101
,
0000
0000
1001
0000
0000
0000
1010
0000
0000
0000
1000
0001
1000
0000
0001
0000
,
0101
0000
1020
0000
1030
0100
0010
0001
,
0000
0100
0010
1000
0001
0010
0100
2000
,
0000
3001
0100
1000
0100
0001
0010
0200
,
0000
1300
0001
0000
0100
0010
1000
1001
,
0000
0001
0010
0110
0000
1000
0010
1001
,
0000
1000
0001
0010
0000
0100
1000
1020
,
0000
0100
0100
0000
0001
0000
0130
0110
,
0000
0001
0010
0100
1000
0000
1001
0000
,
0110
0000
0001
0010
0100
0000
1001
0000
,
0110
0000
1000
0100
0010
0000
1001
0000
,
0110
0000
1000
0100
0001
0000
1001
0000
,
0110
0000
0000
0000
1001
0000
0000
0000
0001
1000
0001
0000
0200
0000
0000
0000
,
0301
1000
0100
0010
0001
1000
0100
0010
,
0001
0100
0010
1000
0001
0100
0010
1000
,
0001
0010
0001
0010
0100
1000
0100
1000
0010
0100
0010
0100
0001
1000
0001
1000
,
0000
0100
0010
0001
1000
0000
0110
0000
,
0101
0000
0000
0001
0100
0000
0000
0000
1010
0000
0000
1000
0010
0000
0000
0000
,
1000
0001
0010
0100
2100
0000
3001
0000
,
1100
0000
0000
0100
1000
0000
0000
0000
0011
0000
0000
0010
0001
0000
0000
0000
,
0100
0010
1000
0001
2000
0000
3001
0011
,
0000
0001
0100
0010
1000
0000
1001
0001
,
0000
0100
0010
1000
0000
0110
0000
2001
,
0000
3001
0010
0100
1000
0001
0100
0110
,
0000
0000
1001
0000
0000
0000
0001
0000
1000
0010
1000
0000
1100
0000
0000
0000
,
0011
0000
0000
0001
0100
0000
0000
0000
1010
0000
0000
1000
0100
0000
0000
0000
,
0010
0001
0100
0001
1000
0000
0010
0100
,
0210
0000
0301
0010
0000
0110
0000
1002
,
0000
0000
1003
0100
0000
0010
0001
0101
,
0000
0001
1000
0010
0000
0110
0000
1001
,
0000
1000
0100
0001
0000
0110
0000
1001
,
0000
0001
0010
1000
0010
0100
1000
1100
,
0000
0000
1010
0000
0000
0000
1000
0000
0001
0010
0001
0000
1001
0000
0000
0000
,
0101
0001
1000
0020
0000
2030
0000
3200
,
0000
0310
0001
0200
0000
0310
1000
0001
,
1001
0000
0001
0010
0100
1000
0010
0100
,
0001
0100
0001
0000
1000
0000
0100
1000
0000
0001
0010
0000
0100
0000
0000
0000
,
1001
0000
0000
0000
0001
0000
1000
0000
0100
1000
0100
0000
0010
0001
0010
0000
,
0001
0000
0100
0000
0010
0000
1000
0001
0000
0100
0001
0000
0010
0000
0000
0000
,
0110
0000
0000
0000
1000
0000
0001
0000
0100
0000
0010
0000
1000
0100
1000
0000
,
0001
0010
0001
1000
0100
1000
0001
0100
0010
0000
1000
0000
0001
0000
0010
0000
,
1001
0000
0000
0000
0110
0000
0001
0000
1000
0000
0010
0000
0100
0001
0100
0000
,
0001
1000
0100
1000
0010
0100
0001
0010
0001
0100
0010
1000
0100
0010
0001
0100
,
0010
0000
1000
0000
0001
0000
0010
0000
0100
1000
0001
0100
0010
1000
0001
0010
,
0000
0100
0100
0010
0010
0000
1001
0000
,
0102
1003
0102
1003
,
1001
1000
0100
0010
0002
0000
0003
0000
,
2100
3001
2100
3001
,
1001
0001
0100
0010
2000
0000
3010
0110
,
0000
0001
0010
0100
1000
0000
1001
1000
,
0000
0010
1000
0001
0000
0110
0000
1001
,
0000
0000
0001
0000
0010
0000
0100
1000
0100
0000
0010
0000
0001
0000
0101
0000
,
0000
0000
1010
0000
0000
0000
1000
0000
0001
0100
0001
0000
0011
0000
0000
0000
,
1100
0000
0000
0010
0001
0000
0000
0000
0101
0000
0000
0010
1000
0000
0000
0000
,
0001
1000
0100
0010
0001
0000
0100
0010
,
0120
0000
1030
1001
0000
1010
0000
0102
,
0000
0000
1003
0100
0000
0010
0001
0011
,
0000
0001
0100
0010
0000
1001
0000
1100
,
0000
0001
0100
1000
0000
0110
0000
1001
,
0000
1000
0001
0100
0010
1000
0001
0011
,
0000
0000
1100
0000
0000
0000
0001
0000
1000
0100
1000
0000
1010
0000
0000
0000
,
0001
0100
0010
2000
0000
3200
0000
0320
,
0000
0031
0100
0020
0000
1030
0001
0010
,
0110
0000
0100
1000
0001
0100
0001
1000
,
0010
0000
0000
1000
0000
0000
0010
0000
0000
0000
0000
0000
0100
0000
0000
0000
0000
0000
0000
0000
0000
0000
0000
0000
0001
0000
0000
0000
0010
0000
0000
0000
0100
0000
0000
0000
1000
0000
0000
0000
0010
0000
0000
0000
0100
0000
0000
0000
,
0001
1100
1000
0101
,
0001
0000
0100
0000
1000
0000
0100
0000
0001
0000
0010
0100
0010
0000
0001
0000
,
1000
0000
0110
0000
0002
0000
1003
0100
,
0010
0001
0100
0000
0010
1000
0001
1001
,
0000
1000
0100
0010
0001
0000
0110
0001
,
0000
1000
0010
0001
0000
0110
0000
1001
,
0000
1000
0100
0001
0100
0010
0001
1001
,
0000
0000
0110
0000
0000
0000
1000
0000
0001
0010
0001
0000
0101
0000
0000
0000
,
2002
0000
0000
0000
,
3003
0000
0000
0000
;

//--------------- dance-double - forcednature ----------------
#NOTEDATA:;
#STEPSTYPE:dance-double;
#DESCRIPTION:forcednature;
#DIFFICULTY:Easy;
#METER:7;
#RADARVALUES:0,0,0,0,0;
#CREDIT:forcednature;
#NOTES:
00000000
00000000
00000000
00000000
,
00000000
00000000
00000000
00000000
,
00000000
00000000
00000000
00000000
,
00000000
00000000
00000000
00000000
,
00000000
00000000
00000000
00000000
,
00001000
00000000
00000000
00000000
,
01000000
00000000
00010000
00000000
,
01000000
00000000
00000000
00000000
,
00100000
00000000
10000000
00000000
,
01000000
00000000
00000000
00100000
,
00000000
00000000
00100000
00000000
00000000
00000000
00000000
00001000
,
00000000
00000000
00000000
00000000
00000000
00000000
00000000
00010000
,
00000000
00000000
00000000
00010000
00000000
00000000
00000000
00000000
,
00000000
00001000
00000000
00010000
,
00000000
00000100
00001000
00000100
,
00000000
00000010
00000000
00000001
,
00000000
00001000
00000010
00001000
,
00000000
00000100
00000000
00010000
,
00000000
00001000
01000000
00001000
,
00000000
00000000
00010000
00000000
00000000
00000000
00000000
00100000
,
00000000
00100000
00000000
00100000
00000000
00000000
10000000
00000000
,
00000000
00010000
01000000
00010000
,
00000000
01000000
00001000
01000000
,
00000000
00001000
00010000
00001000
,
00000000
00010000
00000100
00010000
,
00000000
00001000
00000000
00000100
,
00000000
00000001
00000000
00000010
,
00000000
00000000
00000100
00000000
00001000
00000000
00000000
00000010
,
00000000
00000010
00000000
00000000
00010000
00000000
00010000
00000000
,
00001000
00000000
00001000
01000000
,
00001000
00000000
00001000
00010000
,
00001000
00000000
00001000
00100000
,
00010000
00010000
00020000
00030000
,
01000000
00001000
01000000
00001000
,
00010000
00000100
00010000
00000100
,
00001000
00000010
00000010
00000010
,
00000000
00000100
00000100
00000000
,
00000001
00000010
00000001
00000010
,
00000100
00010000
00001000
00000000
,
01000000
00010000
01000000
00010000
,
10000000
00000000
01000000
00000000
00100000
00000000
00000000
00010000
,
00000000
00000000
00010000
00000000
00010000
00000000
00000000
01000000
,
00000000
01000000
00000000
01000000
00000000
00000000
00000000
00000000
,
00001000
00000000
00000000
00000000
00001000
00000000
00000000
00010000
,
00000000
00010000
00000000
00010000
00000000
00000000
00000000
00000000
,
00000100
00001000
00000100
00001000
,
00000001
00000100
00000010
00000000
,
00001000
00000100
00010000
00001000
,
01000000
00000000
00010000
00000000
00000000
00000000
00000000
00100000
,
00000000
00100000
00000000
00100000
00000000
00000000
00000000
01000000
,
00000000
01000000
00000000
01000000
00000000
00000000
00000000
10010000
,
00000000
00000000
00010000
01000000
,
00001000
00010000
00000100
00000000
,
00002002
00000000
00000000
00000000
,
00000000
00000000
00003003
00000000
,
00001000
00000000
00000001
00000000
,
00000100
00000100
00000100
00000010
,
00001000
00000000
00000100
00010000
,
00001000
01000000
00010000
01000000
,
00100000
00000000
10000000
00010000
,
00100000
00100000
01000000
01000000
,
00100000
00001000
00000000
00001000
,
00010000
00000010
00001000
00000010
,
00000100
00000100
00000001
00000001
,
00000000
00000010
00000010
00000000
,
00000110
00000000
00000000
00000000
,
00011000
00000000
00000000
00000000
,
01100000
00000000
00000000
00000000
,
00011000
00000000
00000000
00000000
00000000
00000000
00000000
01000000
,
00000000
00000000
01000000
00000000
01000000
00000000
00000000
00010000
,
00000000
00010000
00000000
00010000
00000000
00000000
00000000
02200000
,
00000000
00000000
00000000
00000000
03300000
00000000
00000000
10000000
,
00000000
10000000
00000000
00000000
00010000
00000000
00000000
00000000
,
00100000
00001000
00100000
00001000
,
00010000
00000010
00001000
00000000
,
00000100
00000010
00000001
00000010
,
00000100
00000000
00010000
00000000
00000000
00000000
00000000
00001000
,
00000000
00001000
00000000
00001000
00000000
00000000
00000000
01000000
,
00000000
01000000
00000000
01000000
00000000
00000000
00000000
01100000
,
00000000
00000000
00100000
10000000
,
00010000
10000000
01000000
00000000
,
02200000
00000000
00000000
00000000
,
00000000
00000000
03300000
00000000
,
10000000
00000000
00010000
00000000
,
01000000
00010000
01000000
00001000
,
00010000
00000000
00000100
00001000
,
00000100
00000010
00000001
00001000
,
00000001
00000100
00000010
00000000
,
00001000
00000000
00000010
00000000
00010000
00000000
00000000
00001000
,
00000000
00001000
00000000
00001000
00000000
00000000
00000000
00100000
,
00000000
00100000
00000000
00100000
00000000
00000000
00000000
10010000
,
00000000
00000000
10000000
00010000
,
01000000
00001000
00010000
00000000
,
00022000
00000000
00000000
00000000
,
00033000
00000000
00000000
00000000
;

//--------------- dance-double - forcednature ----------------
#NOTEDATA:;
#STEPSTYPE:dance-double;
#DESCRIPTION:forcednature;
#DIFFICULTY:Medium;
#METER:11;
#RADARVALUES:0,0,0,0,0;
#CREDIT:forcednature;
#NOTES:
00000000
00000000
00000000
00000000
,
00000000
00000000
00000000
00000000
,
00000000
00000000
00000000
00000000
,
00000000
00000000
00000000
00000000
,
00000000
00000000
00000000
00000000
,
00011000
01000000
00010000
10000000
,
00100000
10000000
01000000
00010000
,
00001000
00000010
00000001
00000100
,
00000010
00000000
00001000
00000000
00000001
00000000
00000010
00000100
,
00000000
00010000
00001000
00000000
00100000
00000000
00010000
10000000
,
00000000
00100000
00000000
01000000
00000000
00001000
00000000
00011000
,
00000000
00000000
00010000
00000000
00000100
00000000
00001000
00000001
,
00000000
00001000
00000000
00000010
00000100
00000000
00001001
00000000
,
00000110
00000001
00000000
00000100
,
00001000
00010000
00000000
00100000
,
00000000
10000000
00010000
10000000
,
01000000
00010000
00000000
01000000
,
00100000
00001000
00010000
00000100
,
00000000
00001000
00000000
00000001
,
00000100
00000000
00000010
00000000
00001000
00000000
00000100
00000010
,
00000000
00000100
00000000
00001000
00000000
00000001
00000100
00000000
,
00001001
00000010
00001000
00010000
,
01000000
00100000
10000000
00010000
,
10000000
01000000
00010000
00001000
,
00000010
00000000
00000001
00000000
00000100
00000000
00000010
00000010
,
00000000
00000000
00000100
00000100
00000000
00000000
00001000
00001000
,
00000000
00000000
00010000
00000000
00100000
00000000
10000000
00020000
,
00000000
00000000
10000000
00000000
01000000
00000000
00130000
00010000
,
00000000
00001000
00000100
00001000
00000100
00000000
00000110
00000000
,
00001001
00000000
00000000
00000001
00000100
00000000
00000110
00000000
,
00000100
00000000
00000000
00001000
00010000
00000000
00011000
00000000
,
00100000
00000000
00000000
00010000
10000000
00000000
10010000
00000000
,
10100000
00000000
10010000
00000000
01000000
00010000
01000000
00000000
,
00001000
00011000
00000100
00000110
,
00000100
00000101
00001000
00011000
,
00100000
00110000
10010000
11000000
,
00000000
10000000
00010000
01000000
00001000
00000000
00011000
00000000
,
00001000
00010100
00001000
00010100
,
00000100
00001000
00000001
00000000
,
00000100
00001010
00000100
00001010
,
00000010
00000000
00010000
00000000
00001000
00000000
00100000
00010000
,
00000000
10000000
00010000
00000000
01000000
00000000
00100000
00010000
,
00000000
00001000
00000000
00000010
00000000
00000100
00000000
00001001
,
00000000
00000000
00000001
00000000
00000100
00000000
00001000
00010000
,
00000000
01000000
00000000
10000000
00010000
00000000
01100000
00000000
,
10000000
01010000
00100000
01010000
,
00001000
00010000
00000100
00000010
,
00000001
00000100
00000010
00000100
,
00001000
00000000
00010000
00000000
00100000
00000000
01000000
00010000
,
00000000
10000000
00000000
01000000
00000000
00100000
00000000
00001000
,
00000000
00000100
00000000
00000010
00000000
00001000
00000000
00000101
,
00000000
00000000
00000001
00000000
00000010
00000000
00000100
00010000
,
00000000
00001000
00000000
01000000
00010000
00000000
10010000
00000000
,
01100000
10000000
00010000
00001000
,
00000001
00000100
00000010
00010000
,
00000110
00001000
01100000
00001000
,
00010000
00000000
00001000
00000000
00000000
00000000
01000000
00000000
00000000
00010000
00000000
00000000
00100000
00000000
00000000
00000000
,
01100000
10010000
00010000
01000000
,
00001000
00010000
00001000
00000000
00000100
00000001
00000010
00000000
,
00001001
00000000
00000100
00000000
00000001
00000010
00000100
00000000
,
00010000
00001000
00010000
00001000
00010000
00000000
00100000
00000000
,
10010000
01100000
10000000
01010000
,
00010000
00100000
00001000
00010000
00000100
00001000
00000010
00000100
,
00000001
00001000
00000001
00001000
00000100
00000010
00000100
00000010
,
00000000
00000100
00010000
00001000
01000000
00000000
00011000
00000000
,
00110000
00010000
10000000
00100000
,
01100000
00010000
00001000
00000000
,
00000110
00000001
00001000
00000010
,
00000110
00000000
00001000
00000000
00010000
00000000
00000100
00001000
,
00000000
00000010
00000000
00010000
00001000
00000000
00100000
00010000
,
00000000
10000000
00000000
00100000
00000000
00010000
00000000
00011000
,
00000000
00000000
00000100
00000000
00001000
00000000
00000001
00000100
,
00000000
00001000
00000000
00010000
01000000
00000000
10010000
00000000
,
01000000
00110000
00001000
00110000
,
01000000
00001000
00010000
00000100
,
00001000
00000010
00000001
00000010
,
00000100
00000000
00000001
00000000
00000010
00000000
00000100
00010000
,
00000000
00001000
00000000
01000000
00000000
00010000
00000000
10000000
,
00000000
00100000
00000000
00010000
00000000
00001000
00000000
00011000
,
00000000
00000000
00000100
00000000
00010000
00000000
00001000
01000000
,
00000000
00010000
00000000
10000000
00100000
00000000
10010000
00000000
,
01100000
00010000
00001000
00000010
,
00000001
00000100
00000010
00001000
,
00001001
00000001
00000110
00001000
,
00000100
00000010
00000100
00000000
00010000
00000000
00001000
00000000
,
00011000
00001000
01000000
00010000
,
10000000
00000000
00100000
00000000
00010000
00001000
00010000
00000000
,
00000200
00000000
00002300
00000000
00003020
00000000
00000130
00000001
,
00000200
00000000
00000320
00000000
00002030
00000000
00003100
00000010
,
00000000
00000100
00000000
00010000
00001000
00000000
00100000
00010000
,
00000000
10000000
00000000
00100000
00000000
00010000
00000000
00011000
,
00000000
00000000
00001000
00000000
01000000
00000000
00010000
10000000
,
00000000
01000000
00000000
00010000
00001000
00000000
00000110
00000000
,
00002002
00000000
00000000
00000000
,
00003003
00000000
00000000
00000000
;

//--------------- dance-double - forcednature ----------------
#NOTEDATA:;
#STEPSTYPE:dance-double;
#DESCRIPTION:forcednature;
#DIFFICULTY:Hard;
#METER:13;
#RADARVALUES:0,0,0,0,0;
#CREDIT:forcednature;
#NOTES:
00000000
00000000
00000000
00000000
,
00000000
00000000
00000000
00000000
,
00000000
00000000
00000000
00000000
,
00000000
00000000
00000000
00000000
,
00000000
00000000
00000000
00000000
,
00011000
00000000
00000000
00000000
01000000
00000000
00000000
00000000
00010000
00000000
00000000
00100000
00000000
00000000
01000000
00000000
,
00000000
00000000
10000000
00000000
00010000
00000000
00000000
00000000
10000000
00000000
00000000
00100000
00000000
00000000
00010000
00000000
,
00001000
00000000
00000000
00000000
00100000
00000000
00000000
00000000
00001000
00000000
00000000
00010000
00000000
00000000
00000100
00000000
,
00000000
00000000
00001000
00000000
00000001
00000000
00000000
00000000
00000100
00000000
00000000
00000010
00000000
00000000
00001001
00000000
,
00000000
00000001
00000010
00000100
00001000
00000000
00000010
00001000
,
00000000
00000100
00010000
00001000
00000000
00011000
00000000
00101000
,
00000000
00000000
00010000
00000000
10000000
00000000
00000000
00000000
01000000
00000000
00000000
00010000
00000000
00000000
00001000
00000000
,
00000000
00110000
00000000
00001000
00010000
00000000
00001100
00000000
,
00001001
00000000
00000001
00000000
00000100
00000000
00001000
00010000
,
00001000
00000000
00100000
00010000
00000000
01000000
00000000
00100000
,
00000000
00000000
10000000
00000000
00010000
10000000
00100000
01000000
,
00000000
00001000
00000000
00010000
00000000
00000100
00001000
00000100
,
00000000
00000000
00000010
00000000
00000001
00000100
00000010
00001000
,
00000000
00000100
00010000
00001000
00000000
00100000
00010000
01000000
,
00000000
00000000
00100000
00000000
00010000
00001000
00010000
00000100
,
00000000
00000110
00000000
00001001
00000000
00000010
00010000
00001000
,
01000000
00000000
01100000
00000000
00010000
10000000
01000000
00100000
,
00000000
01000000
10000000
00010000
00000000
01000000
00000000
00001000
,
00000000
00000000
00000100
00000010
00000000
00001000
00000000
00000001
,
00000000
00000000
00000010
00000000
00000100
00001000
00000001
00000100
,
00000000
00001000
00010000
00100000
00000000
00010000
00001000
00000010
,
00000000
00001000
00010000
01000000
00000000
10000000
00010000
01000000
,
00000000
00100000
00010000
00000000
00001000
00010000
00001000
00000010
,
00000000
00000100
00000100
00000100
00000100
00000000
00001001
00000000
,
00000110
00000000
00000000
00000001
00000100
00000000
00011000
00000000
,
00100000
00000000
00000000
10000000
00010000
00000000
01100000
00000000
,
10000000
00000000
00000000
01000000
00010000
00000000
00001010
00000000
,
00000011
00000000
00000101
00000000
00001000
00001000
00000001
00000000
,
00000100
00011000
00100000
00011000
,
00000010
00011000
01000000
00011000
,
00000100
00010000
00001000
01000000
00100000
00010000
00001000
00000010
,
00000000
00000100
00000100
00000100
00000100
00000000
00001001
00000000
,
00000101
00001100
00011000
00110000
,
10000000
01000000
00100000
00010000
01000000
00000000
00000000
00000000
,
11000000
01010000
00011000
00001010
,
00000001
00000010
00000100
00001000
00000010
00000000
00000100
00001000
,
00000000
00010000
00100000
00010000
00001000
00000000
00000010
00001000
,
00000000
00010000
01000000
10000000
00000000
01100000
00000000
10010000
,
00000000
10000000
01000000
00010000
00001000
00000000
00000010
00000001
,
00000000
00000110
00000000
00000001
00001000
00000000
00000110
00000000
,
00000101
00010010
01001000
10100000
,
10000000
00010000
01000000
00100000
10000000
00000000
00000000
01000000
,
00010000
00000000
00001000
00000010
00000000
00000100
00000000
00001000
,
00000000
00000000
00000001
00000100
00000000
00000010
00001000
00000001
,
00000000
00000100
00001000
00010000
00000000
00000100
00000000
00010000
,
00000000
01000000
00100000
00010000
00000000
10000000
00000000
00100000
,
00000000
10000000
01000000
00010000
00001000
00000100
00000001
00000010
,
00000000
00000110
00000000
00001000
00000001
00000000
00000110
00000000
,
00000101
00001000
00010000
01000000
,
00100000
00010000
00001000
00000010
,
00011000
00000000
00100000
00001000
00010000
00000100
00010000
00001000
,
01000000
00000000
00010000
00000000
00100000
00000000
01000000
00000000
00000000
10000000
00000000
00000000
00020000
00000000
00000000
00000000
,
01030000
00000000
00100000
00010000
00001000
00010000
00100000
00000000
,
00010000
00001000
00000010
00001000
00010000
00000010
00001000
00000000
,
00000110
00000000
00000001
00000100
00001000
00010000
00000100
00000000
,
00001000
00000100
00001000
00000010
00010000
00100000
00010000
00001000
,
00100000
00000000
01100000
00000000
10000000
00010000
01000000
00000000
,
00100000
00001000
00000010
00001000
00000100
00010000
01000000
00010000
,
00001000
00000100
00000001
00000010
00000100
00001000
00000001
00000100
,
00000000
00001000
00010000
00001000
00010000
00000000
01100000
00000000
,
01010000
10000000
00010000
00100000
,
00001000
00010000
00001000
00010000
00001000
00000000
00000000
00000000
,
00000110
00000001
00001000
00000010
,
00001000
00000100
00001000
00000100
00001000
00000000
00000010
00000100
,
00000000
00001000
00010000
00001000
00100000
00000000
00010000
10000000
,
00000000
01000000
00010000
00001000
00000000
00000110
00000000
00001001
,
00000000
00000001
00000100
00000010
00001000
00000100
00000010
00000001
,
00000000
00000110
00000000
00001000
00010000
00000000
01100000
00000000
,
10010000
11000000
00110000
00011000
,
00000010
00001000
00000100
00000001
00000100
00000000
00001000
00000001
,
00000100
00000000
00001000
00010000
00000000
00000100
00000000
00010000
,
00000000
00000000
01000000
00100000
00000000
00010000
10000000
00100000
,
00000000
00010000
00001000
00000010
00000000
00010100
00000000
00101000
,
00000000
00001000
00010000
00000010
00000000
00010010
00000000
01001000
,
00000000
00001000
00010000
00100000
01000000
00010000
10000000
01000000
,
00000000
01100000
00000000
00010000
00001000
00000000
00000110
00000000
,
00001001
00000001
00000100
00001000
,
00010000
01000000
10000000
00010000
,
01100000
00000000
00010000
00001000
00000010
00000100
00001000
00000001
,
00000100
00000000
00000000
00001000
00000000
00000000
00010000
00000000
00000000
00000000
00000000
00000000
00001000
00000000
00010000
00000000
00000100
00000000
00001000
00000000
00000100
00000000
00000010
00000000
,
00000001
00000110
00000001
00000110
,
00000001
00000100
00001000
00010000
01000000
10000000
00010000
00100000
,
02000000
00000000
03020000
00000000
00032000
00000000
00003010
00000001
,
00000200
00000000
00002300
00000000
00013000
00100000
10000000
00010000
,
00000000
00100000
01000000
00010000
00001000
00000000
00000010
00000100
,
00000000
00001000
00000001
00000100
00000000
00011000
00000000
00010100
,
00000000
00000000
00100000
00000000
00001000
00000000
00000000
00000000
00010000
00000000
00000000
00100000
00000000
00000000
01010000
00000000
,
00000000
00101000
00000000
00010000
00001000
00000000
00000110
00000000
,
00022000
00000000
00000000
00000000
,
00033000
00000000
00000000
00000000
;

//--------------- dance-double - forcednature ----------------
#NOTEDATA:;
#STEPSTYPE:dance-double;
#DESCRIPTION:forcednature;
#DIFFICULTY:Challenge;
#METER:16;
#RADARVALUES:0,0,0,0,0;
#CREDIT:forcednature;
#NOTES:
00000000
00000000
00000000
00000000
,
00000000
00000000
00000000
00000000
,
00000000
00000000
00000000
00000000
,
00000000
00000000
00000000
00000000
,
00000000
00000000
00000000
00000000
,
00011000
00000000
00000000
00000000
00010000
00000000
00000100
00000000
00001000
00000000
00000100
00000010
00000000
00000001
00000010
00000000
,
00000100
00000000
00001000
00000000
00000100
00000000
00010000
00000000
00001000
00000000
01000000
00010000
00000000
01000000
00100000
00000000
,
10000000
00000000
00000000
00000000
11000000
00000000
00000000
00000000
01000000
00000000
00100000
00010000
00000000
00100000
00001000
00000000
,
00010000
00000000
00000010
00000000
00001000
00000000
00000010
00000000
00000100
00000000
00000001
00001000
00000000
00000001
00000010
00000000
,
00000000
00000100
00010000
00001000
00100000
00000000
10010000
01000000
,
00000000
00010000
00001000
00100000
00000000
01001000
00000000
00010010
,
00000000
00000000
00000010
00000000
00001000
00000000
00000001
00000000
00000010
00000000
00000100
00001000
00000000
00000100
00010000
00000000
,
00000000
00011000
00000000
00001000
00100000
01000000
10010000
00000000
,
10000000
01000000
00010000
00000000
00001000
00100000
00010000
00100000
,
00001000
00000000
00010000
00000010
00001000
00000010
00010000
00000000
,
00001000
00000010
00000001
00000000
00000100
00000001
00000010
00000001
,
00000100
00000000
00000010
00001000
00000100
00001000
00000010
00000000
,
00001001
00000000
00000001
00000100
00001000
00010000
00001000
00010000
,
00100000
00000000
01000000
00010000
10000000
00010000
00100000
01000000
,
00010000
00000000
00001000
00100000
01000000
00010000
00000100
00001000
,
00000000
00001100
00000000
00000011
00000000
00000001
00000100
00001000
,
00000000
00000000
00010000
00000000
00001000
00000000
00100000
00000000
00010000
00000000
00100000
00010000
00100000
00000000
01000000
00000000
,
10000000
00000000
00010000
00000000
01000000
00000000
00010000
00000000
00100000
00000000
00001000
00010000
00001000
00000000
00010000
00000000
,
00000010
00000000
00001000
00000000
00000010
00000000
00000100
00000000
00000001
00000000
00000010
00000001
00000010
00000000
00000100
00000000
,
00001000
00000100
00010000
00001000
01000000
00010000
00100000
01100000
,
00000000
01000000
00010000
00011000
00000000
00001000
00000010
00000110
,
00000000
00000100
00001000
00000001
00000000
00000100
00001000
00011000
,
00000000
00000000
00010000
00000000
00001000
00000000
00100000
00000000
00010000
00000000
00100000
01000000
10000000
00000000
11000000
00000000
,
00000000
01000000
00010000
00001000
00000010
00000000
00000110
00000000
,
00002001
00000000
00000100
00000000
00000001
00000000
00003010
00001000
,
00020000
00000000
01000000
00000000
10000000
00000000
00130000
00010000
,
00002000
00000000
00000100
00000000
00000001
00000000
00003010
00001000
,
00010000
00000000
00000000
00000000
01000000
00000000
00000000
00000000
00100000
10000000
00010000
01000000
00200000
00000000
00000000
00000000
,
10300000
01000000
00010000
01000000
10000000
00100000
00010000
00100000
,
10000000
01000000
00010000
00001000
00000100
00000001
00000010
00000000
,
00000001
00000100
00000001
00000100
00000010
00000100
00000010
00000100
00000001
00001000
00000010
00001000
00000001
00001000
00000010
00001000
,
00000000
00000001
00000010
00001000
00010000
00000000
00011000
00000000
,
00001000
00100000
00000000
00010000
00100000
00000000
00001000
00000000
00010000
00000010
00000000
00001000
00000010
00000000
00010000
00000000
,
00001000
00000010
00000001
00001000
00000100
00000000
00000110
00000000
,
00000010
00000001
00000000
00000100
00000001
00000000
00001000
00000000
00000010
00001000
00000000
00000100
00001000
00000000
00000001
00000000
,
00000100
00001000
00010000
00100000
01100000
00000000
01000000
01010000
,
00000000
10000000
01000000
00010000
00001000
00000000
00101000
00010000
,
00000000
00000010
00010000
00001000
00000000
00000110
00000000
00001001
,
00000000
00000000
00000001
00000100
00000001
00000000
00000100
00000000
00000010
00000100
00000010
00000000
00001000
00000000
00001010
00000000
,
00000000
00010000
00001000
00100000
01000000
00000000
01100000
00000000
,
00010000
01000000
00000000
00001000
00010000
00000000
00000010
00000000
00001000
00000100
00000000
00010000
00001000
00000000
00100000
00000000
,
00010000
00100000
00010000
00000000
00100000
01000000
00100000
00000000
01000000
10000000
00000000
00010000
10000000
00000000
00100000
00000000
,
00020000
00000000
00030010
00001000
00000001
00000010
00000100
00020000
,
00000000
00130000
01000000
00010000
10000000
01000000
00010000
00011000
,
00000000
00001000
00000010
00000001
00000000
00000110
00000000
00001001
,
00000000
00000001
00000100
00001000
00000000
00011000
00000000
01100000
,
00000000
00000000
10000000
00100000
10000000
00000000
00100000
00000000
01000000
00010000
10000000
00000000
00010000
00000000
01010000
00000000
,
00000000
00000000
00011000
00000000
00000000
00000000
00000010
00000000
00001000
00000001
00000100
00000010
00001000
00000000
00000000
00000000
,
00000001
00000010
00001000
00010000
00000000
00001000
00010000
02000000
,
00000000
03010000
01000000
20000000
00000000
31000000
10000000
00100000
,
10100000
00000000
10000000
01000000
00010000
00001000
00000100
00000001
,
00000000
00000010
00000001
00000010
00000001
00000000
00000010
00000100
00000000
00001000
00000100
00000000
00010000
00000000
00000000
00000000
,
00011000
00000000
00000000
00000000
00001000
00000000
00100000
00000000
00010000
00100000
00010000
00000000
01000000
00010000
01000000
00000000
,
00100000
00000000
10000000
00000000
01000000
00000000
00100000
01000000
00000000
10000000
01000000
00000000
00020000
00000000
00000000
00000000
,
00031000
00000000
00000010
00000000
00000001
00000010
00000001
00000000
00000010
00000000
00000100
00001000
00000001
00000010
00000001
00000000
,
00000100
00000000
00001000
00000000
00010000
00000000
00100000
00000000
01000000
00000000
00010000
01000000
00010000
01000000
00100000
10000000
,
00010000
00000000
10000000
01000000
00010000
00001000
00000010
00000001
,
00001000
00000100
00001000
00000100
00010000
00001000
00010000
00001000
00100000
00010000
00100000
00010000
10000000
01000000
10000000
01000000
,
00100000
00000000
00001000
00000000
00010000
00000000
00001000
00000000
01000000
00010000
01000000
00001000
00010000
00001000
01000000
00010000
,
00000000
00100000
00010000
00001000
00000100
00000000
00000110
00000000
,
00002001
00000100
00000001
00000010
,
00023000
01000000
10000000
00100000
,
00032000
00000100
00000001
00000010
,
00023000
00000000
01000000
00000000
10000000
00000000
00130000
10010000
,
00000000
10000000
01000000
00010000
00001000
00000000
00000110
00001000
,
00000000
00000001
00000100
00001000
00000000
00011000
00000000
01100000
,
00000000
10000000
00100000
00010000
00001000
00010000
01000000
10000000
,
00000000
01100000
00000000
00010000
00001000
00000000
00011000
00000000
,
00000010
00001000
00000000
00000010
00010000
00000000
00001000
00000000
00100000
00010000
00000000
00100000
00001000
00000000
00010000
00000000
,
00000100
00001000
00000001
00000100
00001000
00000000
00010000
00100000
,
02100000
00000000
03010000
00100000
01000000
00010000
00001000
00102000
,
00000000
00003010
00000100
00001000
00000001
00000100
00001000
00011000
,
00000000
00010000
00100000
10000000
00000000
10010000
00000000
01100000
,
00000000
10000000
01000000
00010000
00000000
00011000
00000000
00000110
,
00000000
00000000
00000001
00000010
00000001
00000000
00000010
00000000
00000100
00001000
00000100
00000000
00001000
00000000
00001010
00000000
,
00000000
00011000
00000000
01000000
01010000
00000000
10100000
00000000
,
10000000
01000000
00010000
00001000
00000000
00010000
00001000
00000020
,
00000000
00001030
00000010
00000002
00000000
00000013
00000001
00000100
,
00000101
00000000
00000001
00000010
00001000
00010000
01000000
10000000
,
00000000
00000000
00000000
00010000
00000000
00000000
00100000
00000000
00000000
00010000
00000000
00000000
10000000
00000000
00000000
00000000
00000000
00000000
00000000
00000000
00000000
00000000
00000000
00000000
00100000
00000000
00000000
00000000
10000000
00000000
00000000
00000000
00010000
00000000
00000000
00000000
01000000
00000000
00000000
00000000
00001000
00000000
00000000
00000000
00010000
00000000
00000000
00000000
,
00000010
00000000
00001000
00000010
00001000
00000000
00000001
00000000
00000100
00000000
00000001
00000100
00000001
00000000
00000100
00000000
,
00000010
00001000
00000010
00000000
00010000
00001000
00010000
00000000
00000100
00001000
00000100
00010000
00001000
00000000
00100000
00000000
,
00010000
00000000
00000000
00010000
01000000
00000000
00000000
01000000
00100000
10000000
00010000
01000000
00100000
00000000
10000000
00000000
,
00010000
00000000
00000000
00010000
00100000
00000000
00000000
00100000
00001000
00010000
00001000
00010000
00000100
00000000
00001100
00000000
,
00000000
00000001
00000010
00001000
00010000
00000000
00011000
00100000
,
00000000
00001000
00010000
00100000
00000000
01100000
00000000
10010000
,
00000000
00000000
10000000
01000000
00100000
00000000
01000000
00000000
00100000
00010000
10000000
00000000
00100000
00000000
00010000
00000000
,
00000000
00000000
00011000
00000000
00000000
00000000
00001000
00000000
00000010
00000000
00000001
00001000
00000100
00000000
00000000
00000000
,
00002002
00000000
00000000
00000000
,
00003003
00000000
00000000
00000000
;
