#VERSION:0.83;
#TITLE:Chewingood!!!;
#SUBTITLE:;
#ARTIST:TORIENA;
#TITLETRANSLIT:;
#SUBTITLETRANSLIT:;
#ARTISTTRANSLIT:;
#GENRE:CHIP RAVE;
#CREDIT:;
#MUSIC:Chewingood!!!.ogg;
#BANNER:Chewingood!!!.png;
#BACKGROUND:Chewingood!!!-bg.png;
#CDTITLE:./CDTitles/bm IIDX 28 BISTROVER.png;
#SAMPLESTART:75.500;
#SAMPLELENGTH:15.000;
#SELECTABLE:YES;
#OFFSET:0.270;
#BPMS:0.000=190.000;
#STOPS:;
#TIMESIGNATURES:0.000=4=4;
#BGCHANGES:4.000=Chewingood!!!.mp4=1.000=0=0=0=StretchNoLoop====,
99999.000=-nosongbg-=1.000=0=0=0=StretchNoLoop====
;
#FGCHANGES:;

//--------------- dance-single - forcednature ----------------
#NOTEDATA:;
#STEPSTYPE:dance-single;
#DESCRIPTION:forcednature;
#CREDIT:forcednature;
#DIFFICULTY:Beginner;
#METER:1;
#RADARVALUES:0,0,0,0,0;
#NOTES:
0000
0000
0000
0000
,
0000
0000
0000
0000
,
0000
0000
0000
0000
,
0000
0000
0000
0000
,
0000
0000
0000
0000
,
0000
0000
0000
0000
,
0000
0000
0000
0000
,
0000
0000
0000
0000
,
0000
0000
0000
0000
,
0001
0000
0000
0000
,
0000
0000
0000
0000
,
0000
0000
0000
0000
,
0000
0000
0000
0000
,
1000
0000
0000
0000
,
0000
0000
0000
0000
,
0000
0000
0000
0000
,
0000
0000
0000
0000
,
0010
0000
0000
0000
,
0000
0000
0000
0000
,
0100
0000
0000
0000
,
0000
0000
0000
0000
,
0000
0000
0000
0000
,
0000
0000
0000
0000
,
0001
0000
0000
0000
,
0000
0000
0000
0000
,
0000
0000
0000
0000
,
0000
0000
0000
0000
,
0010
0000
0000
0000
,
0000
0000
0000
0000
,
0000
0000
0000
0000
,
0000
0000
0000
0000
,
0100
0000
0000
0000
,
0000
0000
0000
0000
,
0000
0000
0000
0000
,
0000
0000
0000
0000
,
1000
0000
0000
0000
,
0000
0000
0000
0000
,
0000
0000
0000
0000
,
0000
0000
0000
0000
,
0000
0000
0000
0000
,
0000
0000
0000
0000
,
0000
0000
0000
0000
,
0000
0000
0000
0000
,
0001
0000
0000
0000
,
0000
0000
0000
0000
,
0100
0000
0000
0000
,
0000
0000
0000
0000
,
0010
0000
0000
0000
,
0000
0000
0000
0000
,
1000
0000
0000
0000
,
0000
0000
0000
0000
,
0000
0000
0000
0000
,
1001
0000
0000
0000
,
0000
0000
0000
0000
,
0001
0000
0000
0000
,
0000
0000
0000
0000
,
0010
0000
0000
0000
,
0000
0000
0000
0000
,
0100
0000
0000
0000
,
0000
0000
0000
0000
,
1001
0000
0000
0000
,
0000
0000
0000
0000
,
0010
0000
0000
0000
,
0000
0000
0000
0000
,
1001
0000
0000
0000
,
0000
0000
0000
0000
,
0100
0000
0000
0000
,
0000
0000
0000
0000
,
1001
0000
0000
0000
,
0000
0000
0000
0000
,
0000
0000
0000
0000
,
0000
0000
0000
0000
,
1000
0000
0000
0000
,
0000
0000
0000
0000
,
0010
0000
0000
0000
,
0000
0000
0000
0000
,
0100
0000
0000
0000
,
0000
0000
0000
0000
,
0000
0000
0000
0000
,
0000
0000
0000
0000
,
0001
0000
0000
0000
,
0000
0000
0000
0000
,
0000
0000
0000
0000
,
0000
0000
0000
0000
,
0010
0000
0000
0000
,
0000
0000
0000
0000
,
0010
0000
0000
0000
,
0000
0000
0000
0000
,
0001
0000
0000
0000
,
1000
0000
0000
0000
,
0001
0000
0000
0000
,
1000
0000
0000
0000
;

//--------------- dance-single - forcednature ----------------
#NOTEDATA:;
#STEPSTYPE:dance-single;
#DESCRIPTION:forcednature;
#CREDIT:forcednature;
#DIFFICULTY:Easy;
#METER:5;
#RADARVALUES:0,0,0,0,0;
#NOTES:
0000
0000
0000
0000
,
0000
0000
0000
0000
,
0000
0000
0000
0000
,
0000
0000
0000
0000
,
0000
0000
0000
0000
,
0000
0000
0000
0000
,
0000
0000
0000
0000
,
0000
0000
0000
0000
,
0000
0000
0000
0000
,
1000
0000
1000
0000
,
0100
0000
0010
0000
,
0001
0000
0001
0000
,
0100
0000
0010
0000
,
1000
0000
1000
0000
,
0001
0000
0010
0000
,
0100
0000
0100
0000
,
1000
0000
0002
0000
,
0103
0000
0000
0000
,
0010
0000
0000
0000
,
1001
0000
1000
0000
,
0100
0000
0000
0000
,
0010
0000
0001
0000
,
1000
0000
0001
0000
,
0100
0000
0010
0000
,
1000
0000
0000
0000
,
0001
0000
0010
0000
,
0100
0000
1000
0000
,
1001
0000
0000
0000
,
0001
0000
0100
0000
,
0001
0000
0010
0000
,
0100
0000
1000
0000
,
0010
0000
0000
0000
,
1000
0000
0001
0000
,
0010
0000
0001
0000
,
0100
0000
0010
0000
,
1001
0000
0000
0000
,
0100
0000
0000
0000
,
0010
0000
0000
0000
,
0001
0000
0000
0000
,
0100
0000
0000
0000
,
0010
0000
0000
0000
,
1000
0000
0000
0000
,
0001
0000
0000
0000
,
0010
0000
0010
0000
,
0010
0000
0000
0000
,
0100
0000
0100
0000
,
0100
0000
0000
0000
,
1000
0000
0001
0000
,
1000
0000
0001
0000
,
0100
0000
0100
0000
,
0010
0010
0010
0000
,
0110
0000
0000
0000
,
1001
0000
0100
0000
,
1000
0001
1000
0000
,
1001
0000
0100
0000
,
0001
1000
0001
0000
,
1001
0000
0010
0000
,
1000
0001
1000
0000
,
1001
0000
0010
0000
,
0001
1000
0001
0000
,
0110
0000
1001
0000
,
0100
0010
0110
0000
,
1001
0000
0110
0000
,
0001
1000
1001
0000
,
0110
0000
1001
0000
,
0010
0100
0110
0000
,
1001
0000
0110
0000
,
1000
0001
1001
0000
,
1000
0000
0100
0000
,
1000
0000
0010
0000
,
1000
0000
0001
0000
,
0010
0010
0010
0000
,
0001
0000
0100
0000
,
0001
0000
0010
0000
,
0001
0000
1000
0000
,
0010
0010
0010
0000
,
0100
0000
0000
0000
,
0001
0000
0000
0000
,
1000
0000
0000
0000
,
0010
0000
0000
0000
,
1000
0000
0000
0000
,
0100
0000
0000
0000
,
0010
0000
0000
0000
,
0001
0000
0000
0000
,
0100
0000
0010
0000
,
1000
1000
1000
0000
,
0100
0000
0010
0000
,
0001
0001
0001
0000
,
0100
0010
1000
0000
,
0100
0010
0001
0000
,
0100
0010
1000
0100
,
0010
0001
0200
0320
,
0030
0000
0000
0000
;

//--------------- dance-single - forcednature ----------------
#NOTEDATA:;
#STEPSTYPE:dance-single;
#DESCRIPTION:forcednature;
#CREDIT:forcednature;
#DIFFICULTY:Medium;
#METER:10;
#RADARVALUES:0,0,0,0,0;
#NOTES:
0000
0000
0000
0000
,
0000
0000
0000
0000
,
0000
0000
0000
0000
,
0000
0000
0000
0000
,
0000
0000
0000
0000
,
0000
0000
0000
0000
,
0000
0000
0000
0000
,
0000
0000
0000
0000
,
0000
0000
0000
0000
,
1000
0100
0100
0010
,
0010
0001
0001
1000
,
0001
0100
0100
0010
,
0010
1000
1000
0001
,
0010
0000
0010
0100
1000
0000
1000
0000
,
0010
0000
0010
0100
0001
0000
0001
0000
,
0010
0100
1000
0000
0010
0100
0001
0000
,
0010
0100
0010
0100
2000
0000
0000
0000
,
3001
0000
0000
0000
0000
0100
0001
0100
,
0020
0000
0000
1000
0000
1000
0030
0000
,
0001
0100
0001
0000
0101
0000
0000
0000
,
1000
0010
1000
0000
1010
0000
0000
0000
,
0001
0010
0100
0010
,
0100
1000
0100
0000
1100
0000
0000
0000
,
0001
0000
1000
0010
1000
0000
0001
0000
,
0100
0000
0001
0010
0001
0000
0100
0000
,
0110
0010
0110
1000
,
0001
1000
0001
0000
0020
0000
0130
0000
,
1000
0001
1000
0000
1001
0000
0001
0000
,
0100
0010
1000
0001
,
0010
0100
0000
0010
0100
0000
1000
0000
,
0010
0100
0110
1001
,
0001
0000
0100
0010
0000
0100
0010
0000
,
1000
0100
0110
0000
,
1000
0001
1000
0010
,
0100
0001
0100
0000
0010
0000
0000
0000
,
2000
0000
3200
0000
,
0320
0000
0031
1000
,
0002
0000
0203
0000
,
0320
0000
0000
0000
1030
0001
1000
0001
,
2000
0000
3200
0000
,
0320
0000
0031
1000
,
0002
0000
0203
0000
,
0320
0000
0000
0000
1030
0001
1000
0001
,
2000
0100
0100
0001
,
0001
0010
3010
1000
,
0002
0100
0100
1000
,
1000
0010
0013
0001
,
0100
0110
0010
0110
,
1000
1001
0001
1001
,
1000
0100
0010
0000
0001
0100
0010
0000
,
1000
0001
1000
0001
0020
0000
0000
0000
,
0130
0000
0000
0110
,
1001
1000
0010
0001
,
0010
0110
1001
0000
,
1001
0001
0010
1000
,
0010
0110
1001
0000
,
1001
1000
0100
0001
,
0100
0110
1001
0000
,
1001
0001
0100
1000
,
0100
0110
2002
3003
,
1000
0100
0010
0000
0001
0100
0010
0000
,
0110
1001
0220
0330
,
0001
0100
0010
0000
1000
0100
0010
0000
,
0110
1001
0220
0330
,
1000
0010
0100
0000
0001
0010
0100
0000
,
1001
0110
2002
3003
,
0001
0010
0100
0000
1000
0010
0100
0000
,
1001
0110
2002
3003
,
1000
0100
0010
0000
0110
0000
0000
0000
,
0001
0100
0010
0000
0110
0000
0000
0000
,
1000
0001
0100
0001
,
1000
0010
0100
0000
0110
0000
0000
0000
,
0001
0000
0010
0100
1000
0000
0001
0000
,
1000
0000
0010
0100
0001
0000
0010
0000
,
0011
0100
1100
0001
,
0100
0010
1000
0000
0001
0000
0000
0000
,
1001
0000
1000
0000
,
0100
0010
0100
0000
,
0010
0000
0001
0000
,
0100
0010
0110
1001
,
0001
0000
0010
0000
,
0100
1000
0001
0000
,
0100
0000
0010
0000
,
1000
0001
0010
0000
,
0100
1000
0100
0000
1000
0010
1000
0000
,
1010
0101
2020
3030
,
0001
0100
0001
0000
0010
0001
0010
0000
,
0011
1100
0022
0033
,
1000
0100
0010
0000
0001
0100
0010
0000
,
1000
0100
0010
0000
0001
0100
0010
0000
,
1000
0001
0010
0000
0001
1000
0010
0000
,
0100
0010
0100
0010
2000
0000
3002
0000
,
0003
0000
0000
0000
;

//--------------- dance-single - forcednature ----------------
#NOTEDATA:;
#STEPSTYPE:dance-single;
#DESCRIPTION:forcednature;
#CREDIT:forcednature;
#DIFFICULTY:Hard;
#METER:15;
#RADARVALUES:0,0,0,0,0;
#NOTES:
0000
0000
0000
0000
,
0000
0000
0000
0000
,
0000
0000
0000
0000
,
0000
0000
0000
0000
,
0000
0000
0000
0000
,
0000
0000
0000
0000
,
0000
0000
0000
0000
,
0000
0000
0000
0000
,
0000
0000
0000
0000
,
1100
0001
0011
1000
,
1100
0000
0001
0000
0011
0000
0010
0100
,
1000
0010
0101
0001
,
1010
0000
1000
0000
0001
0010
0100
1000
,
0001
0000
0001
0100
0010
0000
0010
1000
,
0100
0000
0100
0010
0001
0000
0001
1000
,
0010
0100
0010
0100
0001
1000
0001
1000
,
0100
0010
0100
0000
0010
0100
0010
0000
0001
1000
0001
1000
0001
1000
0001
1000
,
0020
0000
0000
0000
0030
0100
0100
0100
,
0002
0000
0000
0000
1003
0000
2000
0000
0000
0000
3100
0010
0002
0000
0000
0000
,
0103
0010
1000
0010
0001
0000
0010
1000
,
0001
0100
0001
1000
0100
0000
0010
0001
,
1000
0100
0001
0100
0000
1000
0001
0010
,
0001
1000
0010
0100
0001
0000
0110
0000
,
1000
0100
1000
0001
0010
0100
0010
0001
,
1000
0010
1000
0001
0100
0010
1000
0000
,
1100
0000
0011
0000
0011
0000
0001
1000
,
0010
1000
0001
0100
0020
0000
1030
0000
,
0001
0010
0100
0000
0011
0000
0001
0100
,
1000
0100
0001
1000
0010
1000
0001
0010
,
0100
1000
0100
0001
0000
0110
0000
1000
,
0001
0010
0001
1000
0020
0000
0230
0000
,
0301
0001
1000
0001
0000
0010
0001
0100
,
0010
1000
0100
0000
0110
0000
0010
0001
,
1000
0010
1000
0000
0001
0010
0001
0100
,
0010
1000
0100
0010
0002
0000
0003
0000
,
2000
0100
3200
0010
,
0320
0000
0001
0000
0031
0000
1000
0010
,
0200
0001
0302
0010
,
0023
0000
0100
0000
0130
1000
0001
0100
,
0020
1000
2030
0100
,
3200
0000
0010
0000
0310
0000
0100
1000
,
0002
0100
0203
0010
,
0320
0000
1000
0000
1030
0001
0010
0100
,
1000
0000
0010
0100
0001
0000
0010
0100
,
1000
0000
0010
0100
0001
0000
1000
0100
,
0010
0000
0001
0100
0010
0000
1000
0100
,
0010
0000
0001
0100
0010
1000
0001
0010
,
0100
0000
0100
1000
0010
0000
0010
0100
,
0001
0000
0001
0010
0100
0000
0100
1000
,
0001
0100
0001
0100
0010
1000
0010
1000
,
0100
0010
0100
0000
0010
0100
0010
0000
0001
1000
0001
1000
0001
1000
0001
1000
,
0010
0000
0200
0000
0000
0301
1000
0000
,
0001
0010
1000
0000
0010
0001
1000
0000
,
1100
0011
1200
0301
,
1000
0010
0001
0000
0010
1000
0001
0000
,
0101
1010
0201
1300
,
0100
0001
1000
0000
0010
0100
0001
0000
,
0011
0101
0021
1030
,
0010
0100
1000
0000
0010
0100
0001
0000
,
1010
0000
0000
0000
1100
0000
0000
0000
0001
1000
0001
1000
0001
0000
0000
0000
,
1000
0000
0100
1000
0100
0000
0010
0000
0001
0000
0100
0001
0100
0000
0010
0000
,
1000
0001
0010
0000
0001
1000
0010
0000
0100
0000
0010
0000
1001
0000
0000
0000
,
0001
0000
0100
0001
0100
0000
0010
0000
1000
0000
0100
1000
0100
0000
0010
0000
,
0001
1000
0010
0000
1000
0001
0010
0000
0100
0000
0010
0000
1001
0000
0000
0000
,
0001
0000
0100
0010
0100
0000
0001
0000
1000
0000
0100
0010
0100
0000
1000
0000
,
0010
0100
0001
0000
0010
0100
1000
0000
0010
0000
0100
0000
1001
0000
0000
0000
,
1000
0000
0010
0100
0010
0000
1000
0000
0001
0000
0010
0100
0010
0000
0001
0000
,
0100
0010
1000
0000
0100
0010
0001
0000
0200
0000
0000
0000
0320
0000
0000
0000
,
1030
0100
0010
0001
0011
0000
0001
1000
,
0001
0100
0010
1000
1010
0000
0001
0010
,
0100
0010
0001
1000
0100
0001
0100
1000
,
0001
0100
0010
1000
1010
0000
1100
0000
,
0001
0010
1000
0010
0001
1000
0100
1000
,
0010
0100
1000
0100
0001
1000
1010
0000
,
1010
0000
0101
0000
0101
0000
0001
0010
,
0100
1000
0010
0100
0210
0000
0301
0000
,
0100
1000
0100
0000
0001
0000
1000
0010
,
0100
0001
1000
0100
0010
0100
1000
0001
,
0010
0001
1000
0010
0000
0110
0000
0100
,
0001
0010
0100
1000
0020
0000
0230
0000
,
0301
0001
1000
0001
0001
1000
0010
0100
,
0001
0010
0200
0000
2300
0000
3001
0100
,
0010
1000
0100
0000
0010
0001
0100
0001
,
1000
0100
0010
0001
0200
0000
0300
0000
,
0010
1000
0100
0000
0010
0001
0100
0000
,
0110
1001
0220
0330
,
1000
0100
0010
0000
0001
0100
0010
0000
,
0110
1001
0220
0330
,
0001
1000
1000
0100
1000
0001
0001
0010
,
0001
0000
0100
0001
0100
0000
0010
1000
0010
0000
0100
0000
0001
0000
0010
0000
,
0100
0000
0010
0100
1000
0000
0010
0000
0100
0000
0010
0100
0001
0000
0010
0000
,
0100
1000
0100
0000
0010
0001
0010
0000
0001
1000
0001
1000
0001
1000
0001
1000
;

//--------------- dance-double - forcednature ----------------
#NOTEDATA:;
#STEPSTYPE:dance-double;
#DESCRIPTION:forcednature;
#CREDIT:forcednature;
#DIFFICULTY:Easy;
#METER:5;
#RADARVALUES:0,0,0,0,0;
#NOTES:
00000000
00000000
00000000
00000000
,
00000000
00000000
00000000
00000000
,
00000000
00000000
00000000
00000000
,
00000000
00000000
00000000
00000000
,
00000000
00000000
00000000
00000000
,
00000000
00000000
00000000
00000000
,
00000000
00000000
00000000
00000000
,
00000000
00000000
00000000
00000000
,
00000000
00000000
00000000
00000000
,
00001000
00000000
00001000
00000000
,
00010000
00000000
00010000
00000000
,
00000100
00000000
00000100
00000000
,
00010000
00000000
00010000
00000000
,
00001000
00000000
00001000
00000000
,
01000000
00000000
01000000
00000000
,
00010000
00010000
00010000
00000000
,
10000000
00000000
00200000
00000000
,
01300000
00000000
00000000
00000000
,
00010000
00000000
00000000
00000000
,
10010000
00000000
10000000
00000000
,
00010000
00000000
00000000
00000000
,
00100000
00000000
00001000
00000000
,
00010000
00000000
00000000
00000000
,
00000100
00000000
00001000
00000000
,
00000010
00000000
00000000
00000000
,
00000100
00000100
00000100
00000000
,
00000001
00000000
00000000
00000000
,
00001001
00000000
00000000
00000000
,
00001000
00000000
00000100
00000000
,
00010000
00000000
00001000
00000000
,
00100000
00000000
00100000
00000000
,
00010000
00000000
00000000
00000000
,
01000000
00000000
00010000
00000000
,
10000000
00000000
00100000
00000000
,
10000000
00000000
00000000
00000000
,
10010000
00000000
00000000
00000000
,
00010000
00000000
00000000
00000000
,
00100000
00000000
00000000
00000000
,
00001000
00000000
00001000
00000000
,
00010000
00000000
00000000
00000000
,
00000100
00000000
00000000
00000000
,
00001000
00000000
00000000
00000000
,
00000001
00000000
00000001
00000000
,
00000010
00000000
00000010
00000000
,
00000010
00000000
00000000
00000000
,
00000100
00000000
00000100
00000000
,
00000100
00000000
00000000
00000000
,
00010000
00000000
00010000
00000000
,
00001000
00000000
00001000
00000000
,
00010000
00001000
00010000
00001000
,
00010000
00001000
00020000
00000000
,
00031000
00000000
00000000
00000000
,
00011000
00000000
01000000
00000000
,
00010000
00000000
00100000
00000000
,
00011000
00000000
00000100
00000000
,
00001000
00000000
00000010
00000000
,
00011000
00000000
00100000
00000000
,
00010000
00000000
01000000
00000000
,
00011000
00000000
00000010
00000000
,
00001000
00000000
00000100
00000000
,
00011000
00000000
00011000
00000000
,
01000000
00010000
01000000
00000000
,
00011000
00000000
00011000
00000000
,
00000100
00001000
00000100
00000000
,
00011000
00000000
00011000
00000000
,
00100000
00010000
00100000
00000000
,
00011000
00000000
00011000
00000000
,
00000010
00001000
00000010
00000000
,
00010000
00000000
00010000
00000000
,
00001000
00000000
00001000
00000000
,
01000000
00000000
00010000
00000000
,
00100000
00100000
00100000
00000000
,
00001000
00000000
00001000
00000000
,
00010000
00000000
00010000
00000000
,
00000100
00001000
00000100
00000000
,
00000010
00000000
00000001
00000000
,
00001001
00000000
00000000
00000000
,
00001000
00000000
00000000
00000000
,
00000010
00000000
00000000
00000000
,
00010000
00000000
00010000
00000000
,
00001000
00000000
00000000
00000000
,
01000000
00000000
00000000
00000000
,
00010000
00000000
00000000
00000000
,
00100000
00000000
00000000
00000000
,
00001000
00000000
00010000
00000000
,
00000010
00000010
00000010
00000000
,
00010000
00000000
00001000
00000000
,
00100000
00100000
00100000
00000000
,
00001000
00010000
00001000
00000000
,
01000000
00010000
01000000
00000000
,
00001000
00010000
00001000
00010000
,
00000100
00001000
00000020
00000000
,
00000030
00000000
00000000
00000000
;

//--------------- dance-double - forcednature ----------------
#NOTEDATA:;
#STEPSTYPE:dance-double;
#DESCRIPTION:forcednature;
#CREDIT:forcednature;
#DIFFICULTY:Medium;
#METER:10;
#RADARVALUES:0,0,0,0,0;
#NOTES:
00000000
00000000
00000000
00000000
,
00000000
00000000
00000000
00000000
,
00000000
00000000
00000000
00000000
,
00000000
00000000
00000000
00000000
,
00000000
00000000
00000000
00000000
,
00000000
00000000
00000000
00000000
,
00000000
00000000
00000000
00000000
,
00000000
00000000
00000000
00000000
,
00000000
00000000
00000000
00000000
,
00001000
00001000
00010000
00010000
,
00100000
00100000
10000000
01000000
,
00010000
00010000
00001000
00001000
,
00000010
00000010
00000001
00000100
,
00001000
00010000
00001000
00010000
,
00100000
01000000
00100000
01000000
,
00010000
00100000
01000000
00010000
,
00001000
00000010
00000200
00000000
,
00001300
00000000
00000000
00000000
,
00000001
00000000
00000000
00000011
00000000
00000011
00000000
00000000
,
00000010
00000100
00001100
00000000
,
00010000
00001000
00011000
00000000
,
01000000
00010000
00100000
01000000
,
10000000
00100000
01100000
00000000
,
00010000
10000000
01000000
10000000
,
00100000
10000000
01000000
00010000
,
00010000
00001000
00001000
00000010
,
00000001
00001000
00000020
00000030
,
00000100
00000001
00000101
00000000
,
00001000
00000010
00010000
00001000
,
00100000
00010000
01000000
00100000
,
10000000
00010000
10010000
01100000
,
10000000
00010000
00100000
00010000
,
01000000
00001000
00011000
00000000
,
00000010
00001000
00000100
00000010
,
00000001
00000100
00000110
00000000
,
00001000
00001000
00000100
00000100
,
00010000
00010000
00001000
00100000
,
00010000
00010000
01000000
01000000
,
00001000
00001000
00010000
00000010
,
00001000
00001000
00000100
00000100
,
00010000
00010000
00001000
00100000
,
00010000
00010000
01000000
01000000
,
00001000
00001000
00010000
00000010
,
00001010
00000000
00011000
00000000
,
00001100
00000000
00011000
00000000
,
00110000
00000000
00011000
00000000
,
01010000
00000000
00011000
00000000
,
00000010
00001000
00000100
00010000
,
00001000
01000000
00010000
00100000
,
01000000
10000000
01000000
00000000
00100000
00010000
00100000
00000000
,
00001000
00010000
00001000
00010000
00002000
00000000
00000000
00000000
,
00013000
00000000
00000000
00000000
,
00000100
00010000
00001000
00100000
,
00101000
00110000
00101000
00000000
,
01000000
00001000
00010000
00000010
,
00010010
00001010
00010010
00000000
,
00000100
00010000
00001000
00100000
,
00101000
00110000
00101000
00000000
,
01000000
00001000
00010000
00000010
,
00010010
00001010
00000110
00000000
,
00000001
00000100
00001000
00010000
,
00011000
01001000
01010000
00000000
,
10000000
01000000
00010000
00001000
,
00011000
00010100
00001100
00000000
,
00000001
00000100
00001000
00010000
,
00011000
01001000
01010000
00000000
,
10000000
01000000
00010000
00001000
,
00011000
00010100
00002200
00003300
,
00000001
00000010
00000110
00000000
,
00001000
00000010
00000110
00000000
,
00000001
00000010
00001000
00010000
,
00100000
10000000
10010000
00000000
,
00010000
00100000
01000000
00010000
,
01000000
10000000
00010000
00100000
,
00100000
00001000
00001000
00010000
,
00000100
00001000
00000010
00000000
,
00000110
00000000
00000001
00000001
,
00001000
00001000
00000010
00000100
,
00000001
00000000
00000010
00000000
,
00001000
00010000
00011000
00000000
,
01000000
00010000
00100000
00000000
,
01000000
10000000
00100000
00000000
,
10000000
01000000
00010000
00000000
,
00001000
00000010
00000001
00000000
,
00000110
00000000
00001001
00000000
,
00010000
00001000
00010000
00000000
,
01100000
00000000
10010000
00000000
,
00001000
00010000
00001000
00000000
,
00100000
00010000
01000000
00001000
,
00010000
00000100
00001000
00000010
,
00000100
00001000
00010000
00100000
,
01000000
01000000
00020000
20030000
,
30000000
00000000
00000000
00000000
;

//--------------- dance-double - forcednature ----------------
#NOTEDATA:;
#STEPSTYPE:dance-double;
#DESCRIPTION:forcednature;
#CREDIT:forcednature;
#DIFFICULTY:Hard;
#METER:15;
#RADARVALUES:0,0,0,0,0;
#NOTES:
00000000
00000000
00000000
00000000
,
00000000
00000000
00000000
00000000
,
00000000
00000000
00000000
00000000
,
00000000
00000000
00000000
00000000
,
00000000
00000000
00000000
00000000
,
00000000
00000000
00000000
00000000
,
00000000
00000000
00000000
00000000
,
00000000
00000000
00000000
00000000
,
00000000
00000000
00000000
00000000
,
00001000
00010000
00100000
00010000
,
00001000
00000000
00010000
00000000
01000000
00000000
00010000
00001000
,
00010000
00001000
00000010
00001000
,
00010000
00000000
00001000
00000000
00000100
00000010
00001000
00000001
,
00000010
00000000
00000010
00001000
00010000
00000000
00010000
00001000
,
00000100
00000000
00000100
00001000
00010000
00000000
00010000
00100000
,
10000000
00010000
10000000
00010000
00100000
01000000
00100000
01000000
,
00010000
00000000
00001000
00000000
00000010
00000000
00000100
00000000
00001000
00000001
00001000
00000001
00001000
00000001
00001000
00000001
,
00000020
00000000
00000000
00000000
00000030
00000001
00000001
00000001
,
00000200
00000000
00001300
00002000
00000000
00013000
00020000
00000000
,
00130000
01000000
00010000
01000000
10000000
00000000
01000000
00010000
,
10000000
00100000
10000000
01000000
00010000
00000000
00001000
00000010
,
00000100
00001000
00000001
00000010
00000000
00000001
00000100
00000001
,
00001000
00000010
00000100
00001000
00010000
00000000
00011000
00000000
,
01000000
00010000
00100000
01000000
00010000
00001000
00100000
00010000
,
10000000
00100000
10000000
01000000
00010000
00001000
00100000
00000000
,
00101000
00000000
00010100
00000000
00010100
00000000
00000100
00001000
,
00000010
00000100
00000001
00000010
00002000
00000000
00013000
00000000
,
00001000
00000010
00001000
00000000
00011000
00000000
00010000
00100000
,
01000000
00100000
10000000
00010000
01000000
00010000
10000000
01000000
,
00010000
00001000
00100000
00001000
00000000
00011000
00000000
00010000
,
00000010
00000100
00001000
00000100
00000002
00000000
00002003
00000000
,
00003010
00000010
00000100
00000010
00000000
00001000
00000001
00000010
,
00000100
00010000
00001000
00000000
00011000
00000000
00100000
00010000
,
10000000
00100000
10000000
00000000
00010000
00100000
00010000
01000000
,
00100000
10000000
01000000
00010000
00002000
00000000
00003000
00000000
,
00200000
00010000
00302000
00010000
,
02003000
00000000
00010000
00000000
03001000
00000000
00001000
00010000
,
00000020
00001000
00020030
00001000
,
00030200
00000000
00001000
00000000
00010300
00001000
00100000
00010000
,
02000000
00010000
03002000
00010000
,
00203000
00000000
00010000
00000000
00301000
00000000
00001000
00010000
,
00000020
00001000
00020030
00001000
,
00030200
00000000
00001000
00000000
00010300
00001000
00100000
00001000
,
00010000
00000000
00000010
00010000
00001000
00000000
00100000
00001000
,
00010000
00000000
00000010
00010000
00001000
00000000
01000000
00001000
,
00010000
00000000
00000100
00010000
00001000
00000000
01000000
00001000
,
00010000
00000000
00000100
00010000
00001000
00100000
00010000
01000000
,
00100000
00000000
00100000
10000000
01000000
00000000
01000000
00010000
,
00001000
00000000
00001000
00000010
00000001
00000000
00000001
00000100
,
00000010
00001000
00000010
00001000
00010000
01000000
00010000
01000000
,
00100000
00000000
10000000
00000000
01000000
00000000
00100000
00000000
00010000
10000000
00010000
10000000
00010000
10000000
00010000
10000000
,
00100000
00000000
02000000
00000000
00000000
03010000
10000000
00000000
,
01000000
00010000
00001000
00000000
00000100
00001000
00010000
00000000
,
00010010
00101000
00022000
00033000
,
00001000
00010000
00100000
00000000
00010000
00001000
00000010
00000000
,
00010100
01001000
00022000
00033000
,
00000100
00010000
00001000
00000000
01000000
00001000
00010000
00000000
,
00101000
00010010
00022000
00033000
,
00010000
00001000
00000100
00000000
00001000
00010000
01000000
00000000
,
00101000
00000000
00000000
00000000
00010010
00000000
00000000
00000000
00010000
00001000
00010000
00001000
00010000
00000000
00000000
00000000
,
00000100
00000000
00001000
00000100
00001000
00000000
00000001
00000000
00000100
00000000
00000001
00000100
00000001
00000000
00001000
00000000
,
00000010
00000100
00001000
00010000
00011000
00100000
00010000
00000000
,
01000000
00000000
00010000
01000000
00010000
00000000
10000000
00000000
01000000
00000000
10000000
01000000
10000000
00000000
00010000
00000000
,
00100000
01000000
00010000
00001000
00011000
00000100
00001000
00000000
,
00000010
00000000
00001000
00000010
00001000
00000000
00000001
00000000
00000010
00000000
00000001
00000010
00000001
00000000
00001000
00000000
,
00000100
00000010
00001000
00010000
00011000
01000000
00010000
00000000
,
00100000
00000000
00010000
00100000
00010000
00000000
10000000
00000000
00100000
00000000
10000000
00100000
10000000
00000000
00010000
00000000
,
01000000
00100000
00010000
00001000
00021000
00000000
00030100
00000000
,
00010000
00001000
00000010
00001000
00010000
00000000
00001000
00100000
,
00001000
00010000
00100000
00010000
00001000
00000000
00010000
00000010
,
00010000
00001000
00000010
00000100
00000000
00001000
00000001
00000100
,
00001000
00010000
01000000
10000000
00100000
00000000
10010000
00000000
,
10000000
01000000
00010000
01000000
10000000
00000000
00010000
00100000
,
01000000
00010000
00001000
00100000
00001000
00010000
00010010
00000000
,
00010010
00000000
01001000
00000000
01001000
00000000
01000000
00010000
,
00100000
01000000
00010000
00001000
00012000
00000000
00103000
00000000
,
00001000
00010000
00100000
00000000
00010000
00000000
00001000
00000010
,
00001000
00010000
00000100
00001000
00000010
00000100
00000001
00000010
,
00001000
00010000
00001000
01000000
00000000
01100000
00000000
00100000
,
10000000
01000000
00100000
00010000
00002000
00000000
00003200
00000000
,
00010300
00010000
00001000
00010000
00010000
00000010
00001000
00000100
,
00000010
00000001
00000200
00000000
00000320
00000000
00001030
00000001
,
00000100
00001000
00010000
00000000
01000000
00010000
00001000
00100000
,
00010000
01000000
00100000
10000000
00020000
00000000
00030000
00000000
,
10000000
01000000
00010000
00000000
00001000
00000010
00000001
00000000
,
00001001
00000110
00002002
00003003
,
00000001
00000100
00001000
00000000
00010000
00100000
10000000
00000000
,
10010000
01100000
20020000
30030000
,
10000000
01000000
10000000
01000000
00100000
00010000
00100000
00010000
,
00001000
00000100
00001000
00000100
00000010
00000001
00000010
00000001
,
00000100
00001000
00000100
00001000
00010000
00100000
00010000
00100000
,
10000000
00000000
00010000
00000000
10000000
00000000
00010000
00000000
00100000
01000000
00100000
01000000
00100000
01000000
00100000
01000000
;
