#VERSION:0.83;
#TITLE:Caterpillar;
#SUBTITLE:;
#ARTIST:Eagle;
#TITLETRANSLIT:;
#SUBTITLETRANSLIT:;
#ARTISTTRANSLIT:;
#GENRE:HARD TRAP;
#CREDIT:;
#MUSIC:Caterpillar.ogg;
#BANNER:Caterpillar.png;
#BACKGROUND:Caterpillar-bg.png;
#CDTITLE:./CDTitles/bm IIDX 24 SINOBUZ.png;
#SAMPLESTART:12.333;
#SAMPLELENGTH:15.000;
#SELECTABLE:YES;
#OFFSET:0.358;
#BPMS:0.000=170.000;
#STOPS:;
#TIMESIGNATURES:0.000=4=4;
#BGCHANGES:0.000=Caterpillar.mp4=1.000=0=0=0=StretchNoLoop====,
99999.000=-nosongbg-=1.000=0=0=0=StretchNoLoop====
;
#FGCHANGES:;

//--------------- dance-single - forcednature ----------------
#NOTEDATA:;
#STEPSTYPE:dance-single;
#DESCRIPTION:forcednature;
#DIFFICULTY:Beginner;
#METER:3;
#RADARVALUES:0,0,0,0,0;
#CREDIT:forcednature;
#NOTES:
0000
0000
0000
0000
,
0000
0000
0000
0000
,
0000
0000
0000
0000
,
0000
0000
0000
0000
,
0000
0000
0000
0000
,
0001
0000
0000
0000
,
0000
0000
0000
0000
,
1000
0000
0000
0000
,
0000
0000
0000
0000
,
0010
0000
0000
0000
,
0100
0000
0000
0000
,
0001
0000
0000
0000
,
0100
0000
0000
0000
,
0010
0000
0000
0000
,
1000
0000
0000
0000
,
0001
0000
0000
0000
,
1000
0000
0000
0000
,
1001
0000
0000
0000
,
0001
0000
0000
0000
,
0100
0000
0000
0000
,
0001
0000
0000
0000
,
0010
0000
0000
0000
,
0100
0000
0000
0000
,
1000
0000
0000
0000
,
0100
0000
0000
0000
,
0010
0000
0000
0000
,
0001
0000
0000
0000
,
0100
0000
0000
0000
,
0001
0000
0000
0000
,
1000
0000
0000
0000
,
0010
0000
0000
0000
,
1000
0000
0000
0000
,
0001
0000
0000
0000
,
1001
0000
0000
0000
,
1000
0000
0100
0000
,
1000
0000
0000
0000
,
0001
0000
0100
0000
,
0001
0000
0000
0000
,
0010
0000
0100
0000
,
0010
0000
0000
0000
,
0001
0000
1000
0000
,
0010
0000
0000
0000
,
0000
0000
0000
0000
,
0100
0000
0000
0000
,
0000
0000
0000
0000
,
0001
0000
0000
0000
,
0000
0000
0000
0000
,
1000
0000
0000
0000
,
0000
0000
0000
0000
,
0100
0000
0000
0000
,
0000
0000
0000
0000
,
0010
0000
0000
0000
,
0000
0000
0000
0000
,
0001
0000
0000
0000
,
0100
0000
0000
0000
,
0010
0000
0000
0000
,
1000
0000
0000
0000
,
0001
0000
0000
0000
,
0010
0000
0000
0000
,
0100
0000
0000
0000
,
1000
0000
0000
0000
,
1001
0000
0001
0000
,
0100
0000
0001
0000
,
0000
0000
1000
0000
,
0100
0000
1000
0000
,
1001
0000
0001
0000
,
0010
0000
0001
0000
,
0000
0000
1000
0000
,
0010
0000
1000
0000
,
1000
0000
0001
0000
,
0000
0000
0100
0000
,
0001
0000
1000
0000
,
0000
0000
0001
0000
,
0010
0000
0100
0000
,
0000
0000
1000
0000
,
0100
0000
0010
0000
,
0000
0000
0100
0000
,
1000
0000
0010
0000
,
0000
0000
0100
0000
,
0001
0000
0010
0000
,
0000
0000
0001
0000
,
0100
0000
0010
0000
,
1000
0000
0001
0000
,
0010
0000
0100
0000
,
1000
0000
0001
0000
,
2002
0000
0000
0000
,
0000
0000
3003
0000
;

//--------------- dance-single - forcednature ----------------
#NOTEDATA:;
#STEPSTYPE:dance-single;
#DESCRIPTION:forcednature;
#DIFFICULTY:Easy;
#METER:10;
#RADARVALUES:0,0,0,0,0;
#CREDIT:forcednature;
#NOTES:
0000
0000
0000
0000
,
0000
0000
0000
0000
,
0000
0000
0000
0000
,
0000
0000
0000
0000
,
0000
0000
0000
0000
,
0001
0000
0000
0000
1000
0000
0000
1000
,
0000
0010
0000
0000
0010
0000
0000
0010
,
0000
0100
0000
0000
0100
0000
0000
0100
,
0000
0001
0000
0000
1000
0000
0001
0000
,
1001
0000
1000
0001
,
0100
0000
0010
0000
1000
0000
0001
0010
,
0001
0000
0100
0010
,
1000
0001
0010
0000
,
0100
0000
1000
0000
0001
0100
0001
0000
,
1000
0000
0010
0000
1000
0000
0100
0010
,
0100
0100
1000
1000
,
0002
0100
1000
0013
,
2002
0000
3003
0000
1000
0100
1000
0000
,
0010
0100
0001
1000
,
0002
0000
0003
0000
0010
0100
0010
0000
,
0001
1000
0010
0100
,
2002
3003
1000
0100
,
1000
0000
0010
0000
0100
0001
0100
0000
,
0020
0030
1000
0001
,
0010
0000
0100
0000
1000
0001
1000
0000
,
0020
0000
0130
0101
,
0100
0000
0101
0000
0001
1000
0001
0000
,
0020
0000
0000
0030
0100
0000
1100
0000
,
0100
1100
1000
0001
,
2002
3003
0001
0011
,
0001
0000
0011
0000
1000
0010
1000
0000
,
0001
0100
0010
1000
,
0100
0100
0020
0030
,
1001
0000
1000
0001
,
0100
1000
0100
0001
,
1001
0000
0001
1000
,
0100
0001
0100
1000
,
1001
0000
0001
0100
,
0010
1000
0001
0010
,
0100
1000
0100
0000
0010
0001
0010
0000
,
0200
0001
0010
1300
,
0000
0100
0010
0001
,
1000
0001
1000
0010
,
0100
0000
0001
1000
,
0000
0001
0000
1000
0001
0000
0000
0000
,
0000
0010
0100
1000
,
0010
0100
0001
1000
,
0100
0000
0010
0100
,
0000
0010
0000
0100
0010
0000
0100
0000
,
0000
1000
0001
0100
,
0010
1000
0001
0010
,
0100
0000
1000
0001
,
0000
1000
0000
0001
1000
0000
0000
0000
,
0001
0000
0100
0001
0100
0000
0010
0000
,
1000
0000
0100
1000
0100
0000
0010
0000
,
0001
0000
1000
0010
1000
0000
0100
0000
,
1000
0000
0001
0010
0001
0000
0100
0000
,
0001
0000
1000
0100
1000
0000
0010
0000
,
1000
0000
0001
0100
0001
0000
0010
0000
,
0001
0000
0100
0010
0100
0000
0001
0000
,
2000
0100
0001
3010
,
1001
0000
1000
0000
0001
0100
0001
0000
,
0001
1000
0001
0000
0001
0010
0001
0000
,
1000
0100
1000
0000
1000
0001
1000
0000
,
0001
0100
0001
0000
1000
0100
1000
0000
,
1001
0000
0000
0000
1000
0010
1000
0000
,
1000
0001
1000
0000
1000
0100
1000
0000
,
0001
0010
0001
0000
0001
1000
0001
0000
,
0001
0100
0001
0000
0010
0000
0100
0000
,
0110
0100
1001
0000
,
0101
1000
1010
0000
,
1100
0100
0011
0000
,
1001
0010
0110
0000
,
1001
0000
0000
0000
1000
0000
0000
0000
0010
0000
0000
0100
0000
0000
0001
0000
,
0100
0000
0000
0000
0001
0000
0000
0000
0010
0000
0000
0100
0000
0000
1000
0000
,
0100
0000
0000
0000
0010
0000
0000
0000
0001
0000
0000
1000
0000
0000
0001
0000
,
0100
0000
0010
0000
1000
0001
1000
0000
,
1001
0000
0001
0000
0010
0100
1000
0000
,
0001
0000
0100
0000
0010
1000
0001
0000
,
0010
0000
0100
0000
1000
0010
0100
0000
,
0001
0000
1000
0000
0100
0010
0001
0000
,
1001
0000
1000
0001
0100
0000
0010
1000
,
0001
0000
0010
0100
1000
0000
0001
0000
,
0100
0000
0010
1000
0001
0000
0010
0100
,
1000
0000
0001
0100
0010
1000
0001
0000
,
2002
0000
0000
0000
,
0000
0000
3003
0000
;

//--------------- dance-single - forcednature ----------------
#NOTEDATA:;
#STEPSTYPE:dance-single;
#DESCRIPTION:forcednature;
#DIFFICULTY:Medium;
#METER:13;
#RADARVALUES:0,0,0,0,0;
#CREDIT:forcednature;
#NOTES:
0000
0000
0000
0000
,
0000
0000
0000
0000
,
0000
0000
0000
0000
,
0000
0000
0000
0000
,
0000
0000
0000
0000
,
1001
0000
0000
0000
0000
0000
1000
0000
0100
0000
0000
0100
0000
0000
0010
0000
,
0000
0000
0001
0000
0000
0001
0000
0000
0001
0000
0000
0001
0000
0000
0001
0000
,
0000
0000
0100
0000
0000
0000
0100
0000
0010
0000
0000
0010
0000
0000
1000
0000
,
0000
1000
0000
1000
0001
0000
0010
0000
,
1001
0000
1000
0001
0010
0100
1000
0000
,
1100
0000
1010
0000
0101
0000
0001
0010
,
0100
1000
1010
0101
,
0001
0010
0000
0100
1000
0000
0010
0010
,
0100
0000
0001
0010
0001
0100
0010
0000
,
1010
0000
1100
0000
1001
0000
1000
0100
,
0010
0001
0010
0001
1000
0010
1000
0010
,
0200
0302
2003
3002
0023
0230
2300
3000
,
0020
0000
0000
0000
0130
0001
0001
0000
,
0010
0000
0001
0000
0001
0000
0000
0000
0100
0000
0000
0100
0010
0000
1000
0000
,
0002
0000
0013
0100
1000
0010
0010
0000
,
0100
0001
2000
0000
3200
0000
0310
0001
,
0011
0000
2000
3000
0001
0100
0010
1000
,
0001
0000
0100
0000
0010
0000
1000
0000
0001
0000
0000
0001
0010
0000
0100
0000
,
2000
0000
3010
1000
0001
0010
0010
0000
,
0200
0300
2000
3000
0001
0100
0010
1000
,
0002
0000
0000
0000
0013
0100
1000
0100
,
0010
0000
0100
0000
1000
0000
0100
0000
0010
0000
0000
0010
0001
0000
1000
0000
,
0020
0000
0130
0001
0010
0001
0100
0000
,
0001
0010
0100
0100
2000
0000
3001
0001
,
0020
0000
0030
0000
0100
1000
0100
0010
,
0100
0000
1000
0000
0100
0000
0010
0000
0001
0000
0000
0001
0100
0000
0010
0000
,
1000
0000
1000
0001
0010
0100
1000
0000
,
1001
0000
0110
0000
0001
0100
0010
0000
,
1001
0000
0000
0000
0001
0000
0000
0000
1000
0000
0000
0010
0000
0100
0001
0000
,
1000
0000
0000
0010
0000
0100
0001
0000
1000
0000
0001
0000
0010
0000
0000
0000
,
1001
0000
0000
0000
1000
0000
0000
0000
0001
0000
0000
0010
0000
0100
1000
0000
,
0001
0000
0000
0010
0000
0100
1000
0000
0001
0000
0100
0000
0010
0000
0000
0000
,
1001
0000
0001
0100
0001
0010
0001
0100
,
0001
0000
1000
0100
1000
0010
1000
0000
,
1000
1000
0001
0001
0100
0010
1000
0000
,
0100
0100
0100
0000
0010
0001
1000
0000
,
1001
0000
2000
3002
0023
0230
2300
3000
,
0010
0000
0100
0000
0001
0000
0010
0100
,
1000
0000
0001
0100
,
0000
0010
0000
1000
0001
0000
0000
0000
,
0000
0000
2000
3002
0023
0230
2300
3000
,
0010
0000
0100
0000
0001
0000
1000
0100
,
0010
0000
0001
0100
,
0000
0010
0000
1000
0001
0000
0010
0000
,
0110
0000
0000
0000
0100
0000
1000
0000
0001
0000
0000
0001
0000
0000
0100
0000
,
0000
0000
0010
0000
0000
0010
0000
0000
0010
0000
0000
0010
0000
0000
0010
0000
,
0000
0000
1000
0000
0000
0000
1000
0000
0001
0000
0000
0001
0000
0000
0010
0000
,
0000
0010
0000
0010
0100
0000
1000
0000
,
1001
0000
0001
0100
0010
1000
0001
0000
,
0011
0000
0101
0000
1001
0000
1000
0010
,
0001
0010
0101
1010
,
0001
0010
0000
0100
1000
0000
0010
0000
,
1000
0100
1000
0010
1000
0100
1000
0000
,
0001
0100
0001
0010
0001
0100
0001
0000
,
0010
0100
1000
0001
0100
0010
1000
0000
,
0200
2300
3002
2003
3020
0230
0302
0003
,
2002
0000
0000
0000
3003
0000
0000
0000
1000
0000
0000
0100
0000
0010
0001
0000
,
1000
0000
0000
0100
0000
0010
0001
0000
1000
0000
0000
0100
0010
0000
0000
0000
,
0001
0000
0000
0100
0000
0010
1000
0000
0001
0000
0000
0100
0000
0010
1000
0000
,
0001
1000
0000
1000
0000
1000
0100
0000
0010
0000
0000
0000
0001
0000
0000
0000
,
2002
0000
0000
0000
3003
0000
0000
0000
1000
0000
0000
0001
0000
0100
0010
0000
,
1000
0000
0000
0001
0000
0010
0100
0000
1000
0000
0000
0001
0100
0000
0000
0000
,
0001
0000
0000
1000
0000
0010
0100
0000
0001
0000
0000
1000
0000
0100
0010
0000
,
0001
1000
0000
1000
0000
1000
0010
0000
0100
0000
0000
0000
0001
0000
0000
0000
,
1001
0000
1000
0100
0001
0000
0110
0000
,
1001
0000
1000
0010
0001
0010
1000
0000
,
1001
0000
0001
0100
1000
0000
0110
0000
,
1001
0000
0001
0010
1000
0010
0001
0000
,
0110
0000
0000
0000
0001
0000
0010
0000
0100
0000
0000
1100
0000
0000
1000
0000
,
0001
0000
0000
0000
1000
0000
0010
0000
0100
0000
0000
0101
0000
0000
0001
0000
,
1000
0000
0000
0000
0001
0000
0100
0000
0010
0000
0000
1010
0000
0000
1000
0000
,
0001
0000
1000
0100
0010
0010
0001
0000
,
1001
0000
0000
0001
0100
0000
0010
0000
1000
0000
0001
0000
0020
0000
0000
0000
,
0130
0000
0000
0100
1000
0000
0010
0000
0100
0000
0100
0000
0001
0000
0000
0000
,
1000
0000
0000
1000
0100
0000
0010
0000
0001
0000
1000
0000
0020
0000
0000
0000
,
0130
0000
0000
0100
0001
0000
1000
0000
0100
0000
0100
0000
0010
0000
0000
0000
,
0110
0000
0100
0001
0100
1000
0020
0000
,
0130
1000
0100
0001
0020
0030
0200
0300
,
1000
0100
1000
0010
0100
0001
0020
0000
,
0130
0001
0100
1000
0010
0100
0001
0000
,
2002
0000
0000
0000
,
0000
0000
3003
0000
;

//--------------- dance-single - forcednature ----------------
#NOTEDATA:;
#STEPSTYPE:dance-single;
#DESCRIPTION:forcednature;
#DIFFICULTY:Hard;
#METER:15;
#RADARVALUES:0,0,0,0,0;
#CREDIT:forcednature;
#NOTES:
0000
0000
0000
0000
,
0000
0000
0000
0000
,
0000
0000
0000
0000
,
0000
0000
0000
0000
,
0000
0000
0000
0000
,
1001
0000
0000
0000
0000
0000
0001
0000
0100
0000
0000
0100
0000
0000
0010
0000
,
0000
0000
1000
0000
0000
0100
0000
0000
1000
0000
0000
0100
0000
0000
1000
0000
,
0000
0000
0010
0000
0000
0000
0010
0000
0100
0000
0000
0100
0000
0000
0001
0000
,
0000
0001
0000
0001
0010
0000
0100
0000
,
1001
0000
1000
0001
0010
0100
1000
0010
,
0001
0000
0010
0100
0001
0000
1000
0100
,
0010
0000
0100
1000
0001
0100
0010
0100
,
0000
0001
0010
0100
0001
0100
1000
1000
,
0010
0000
0000
0010
0100
0000
0001
0000
1000
0000
0000
1000
0100
0000
0010
0000
,
0001
0000
0000
0001
1000
0000
0010
0000
0100
0000
0000
0100
0001
0000
0010
0000
,
0100
0100
1000
1000
0001
0001
0100
0100
,
0002
0000
0023
0000
0230
0000
2300
0000
3020
0000
0230
0000
0302
2003
3000
0000
,
0201
0000
0000
0000
1300
0100
0001
0010
,
1000
0000
0010
0000
0001
0000
0100
0000
0010
0000
1000
0001
1000
0000
0100
0000
,
0020
0000
0031
0100
1000
0100
0100
0001
,
1000
0000
0010
0000
0100
0001
0100
0001
2000
0000
0000
0000
3100
0000
0010
0000
,
0110
0000
1001
0000
0001
0100
0010
0100
,
1000
0000
0100
0000
0010
0000
0100
0000
0001
0000
1000
0010
1000
0000
0001
0000
,
0020
0000
0130
0001
0100
1000
0001
1000
,
0010
0000
0100
0000
0010
0000
1000
0000
0001
0000
0001
0010
0100
0000
1000
0000
,
0020
0000
0000
0000
1030
0100
0001
0100
,
1000
0000
0100
0000
0001
0000
0100
0000
0010
0000
0001
1000
0010
0000
0100
0000
,
0002
0000
0103
1000
0100
0001
0100
1000
,
0100
0000
0001
0000
1000
0010
1000
0010
0200
0000
0000
0000
0301
0000
0001
0000
,
2002
0000
3003
0000
0001
0100
1000
0100
,
0001
0000
0100
0000
1000
0000
0100
0000
0010
0000
0010
1000
0001
0000
0010
0000
,
0110
0000
0100
1000
0001
0100
1000
0000
,
0110
0000
1001
0000
0010
0100
0110
0000
,
1001
0000
0000
0000
1000
0000
0100
0000
0010
0001
0000
1000
0000
0001
0100
0000
,
0010
1000
0000
0001
0000
1000
0100
0000
0010
0000
0001
1000
0001
0000
0100
0000
,
0110
0000
0000
0000
0001
0000
0010
0000
0100
1000
0000
0001
0000
1000
0010
0000
,
0100
0001
0000
1000
0000
0001
0010
0000
0100
0000
1000
0001
1000
0000
0010
0000
,
0100
0100
0001
0001
1000
1000
0100
0100
,
0010
1000
0010
0001
1000
0010
0100
0001
,
1000
1000
0001
0001
0100
0100
0010
0010
,
1000
0100
1000
0000
0001
0100
0001
0000
1000
0100
0010
0001
0100
0000
0000
0000
,
1001
0000
2000
3002
0023
0230
2300
3000
,
0001
0000
0100
0000
0010
0000
1000
0001
,
1000
0000
1100
0011
,
0000
0001
0000
1000
0020
0000
0030
0000
,
0000
0000
0200
0302
0023
0230
2300
3000
,
0010
0000
0100
0000
0001
0000
1000
0100
,
1000
0000
0101
1010
,
0000
1001
0000
0100
0010
0000
0100
0000
,
1001
0000
0000
0000
0001
0000
0100
0000
0010
0000
0000
0010
0000
0000
1000
0000
,
0000
0000
0001
0000
0000
0010
0000
0000
0001
0000
0000
0010
0000
0000
0100
0000
,
0000
0000
1000
0000
0000
0000
1000
0000
0001
0000
0000
0001
0000
0000
0100
0000
,
0000
0010
0000
1000
0001
0000
0010
0000
,
0110
0000
0000
0100
1000
0000
0001
0000
0100
0000
0000
0100
0010
0000
1000
0000
,
0001
0000
0000
0001
0010
0000
0100
0000
1000
0000
0000
1000
0010
0000
0100
0000
,
0001
0000
0000
0001
1000
0000
0100
0000
1000
0000
0000
1000
0001
0000
0100
0000
,
0010
0000
0000
0010
1000
0000
0001
0000
0010
0000
0100
1000
0100
0000
0010
0000
,
0001
0000
1000
0010
1000
0000
0001
0000
0100
0000
0010
0000
1010
0000
0000
0000
,
1000
0000
0001
0010
0001
0000
1000
0000
0100
0000
0010
0000
0011
0000
0000
0000
,
1000
1000
0001
0001
0100
0100
0010
0010
,
2000
0000
3200
0000
0320
0000
0032
0000
2003
0000
3020
0000
0230
0302
0003
0000
,
1001
0000
0000
0000
0110
0000
0000
0000
0001
1000
0000
0100
0000
1000
0010
0000
,
1000
0001
0000
0100
0000
0001
0010
0000
0001
1000
0000
0100
0020
0000
0000
0000
,
0031
1000
0000
0010
0000
1000
0100
0000
1000
0001
0000
0010
0000
0001
0100
0000
,
0010
1000
0000
0001
0000
1000
0100
0000
0010
0000
0001
1000
0010
0000
0010
0000
,
0110
0000
0000
0000
1001
0000
0000
0000
1000
0100
0000
0001
0000
0100
0010
0000
,
0001
0100
0000
1000
0000
0100
0010
0000
1000
0100
0000
0010
0002
0000
0000
0000
,
1003
0010
0000
0001
0000
0010
0100
0000
0001
0010
0000
1000
0000
0010
0100
0000
,
1000
0001
0000
0100
0000
0010
1000
0000
0200
0000
0000
0000
0310
0000
0001
0000
,
1001
0000
0001
0100
1010
0000
0002
0000
,
0023
0000
0000
0000
0130
0000
1000
0000
0001
0100
0010
0000
1000
0000
0000
0000
,
1001
0000
1000
0100
0011
0000
2000
0000
,
3010
0000
0000
0000
1000
0000
0100
0000
0010
0001
1000
0000
0010
0000
0000
0000
,
0101
0000
0000
0000
1000
0000
0001
0000
0011
0000
0000
1100
0000
0000
0001
0000
,
1000
0000
0000
0000
0001
0000
0100
0000
1010
0000
0000
1100
0000
0000
0001
0000
,
0020
0000
0000
0000
0130
0000
1000
0000
1001
0000
0000
0101
0000
0000
1000
0000
,
0010
0000
0000
0000
0100
0000
0001
0000
1000
0000
0001
0010
0100
0000
1000
0000
,
0001
0000
0000
0001
0100
0000
0010
0000
1000
0000
0001
0010
0200
0000
0000
0000
,
1300
0000
0000
1000
0010
0000
1000
0000
0100
0010
0001
0000
0100
0000
0010
0000
,
1000
0000
0000
1000
0001
0000
0010
0000
0100
0000
1000
0001
0100
0000
0010
0000
,
1000
0000
0000
1000
0100
0000
0010
0000
0001
0000
1000
0000
1001
0000
0000
0000
,
0001
0000
1000
0010
1000
0000
0001
0000
0100
0000
0001
0010
0200
0000
0000
0000
,
1300
0000
0001
0010
0001
0000
0100
0000
0010
1000
0001
0000
0020
0000
0000
0000
,
0130
0100
1000
1000
0001
0001
0100
0100
,
0001
0010
0001
0000
1000
0010
1000
0000
0001
0010
0100
1000
0010
0000
0000
0000
,
2002
0000
0000
0000
,
0000
0000
3003
0000
;

//--------------- dance-double - forcednature ----------------
#NOTEDATA:;
#STEPSTYPE:dance-double;
#DESCRIPTION:forcednature;
#DIFFICULTY:Easy;
#METER:10;
#RADARVALUES:0,0,0,0,0;
#CREDIT:forcednature;
#NOTES:
00000000
00000000
00000000
00000000
,
00000000
00000000
00000000
00000000
,
00000000
00000000
00000000
00000000
,
00000000
00000000
00000000
00000000
,
00000000
00000000
00000000
00000000
,
00001000
00000000
00000000
00000000
00010000
00000000
00000000
00010000
,
00000000
00000100
00000000
00000000
00000100
00000000
00000000
00000100
,
00000000
00001000
00000000
00000000
00001000
00000000
00000000
00001000
,
00000000
00000001
00000000
00000000
00000100
00000000
00000010
00000000
,
00000110
00000000
00000100
00001000
,
00010000
00000000
00001000
00000000
01000000
00000000
00010000
10000000
,
00010000
00000000
00100000
01000000
,
00010000
00001000
00010000
00000000
,
00000100
00000000
00001000
00000000
00000001
00000100
00000001
00000000
,
00000010
00000000
00000100
00000000
00010000
00000000
00001000
00010000
,
00001000
00001000
01000000
01000000
,
00020000
00100000
10000000
01030000
,
20020000
00000000
30030000
00000000
10000000
01000000
00100000
00000000
,
00010000
01000000
00001000
00010000
,
00000200
00000000
00000300
00000000
00000010
00000001
00000100
00000000
,
00000010
00001000
00000100
00010000
,
00022000
00033000
00001000
01000000
,
00010000
00000000
00100000
00000000
01000000
10000000
01000000
00000000
,
00020000
00030000
00001000
00010000
,
00000100
00000000
00001000
00000000
00000001
00000010
00000001
00000000
,
00000200
00000000
00000310
00001010
,
00000010
00000000
00001010
00000000
00001000
00000100
00001000
00000000
,
00000020
00000000
00000000
00000030
00010000
00000000
00011000
00000000
,
00010000
00011000
00001000
01000000
,
02020000
03030000
10000000
10100000
,
10000000
00000000
10100000
00000000
00010000
00100000
00010000
00000000
,
01000000
00001000
00010000
00000100
,
00000010
00000010
00000002
00001003
,
00001001
00000000
00000001
00000100
,
00001000
00010000
01000000
10000000
,
10010000
00000000
10000000
01000000
,
00010000
00001000
00000100
00000001
,
00001001
00000000
00000001
00000010
,
00001000
00010000
00100000
10000000
,
01000000
10000000
01000000
00000000
00100000
00010000
00100000
00000000
,
00002000
01000000
00010000
00103000
,
00000000
00001000
00010000
00000010
,
00001000
00000100
00000010
00000100
,
00010000
00000000
00001000
01000000
,
00000000
00001000
00000000
01000000
00010000
00000000
00000000
00000000
,
00000000
00100000
00001000
00010000
,
00000010
00001000
00000100
00001000
,
00000010
00000000
00000100
00000001
,
00000000
00000100
00000000
00000001
00001000
00000000
00000010
00000000
,
00000000
00010000
00001000
00100000
,
01000000
10000000
01000000
00010000
,
00001000
00000000
00000010
00000100
,
00000000
00000010
00000000
00000100
00001000
00000000
00000000
00000000
,
00000001
00000000
00000100
00000001
00000100
00000000
00000010
00000000
,
00001000
00000000
00000100
00001000
00000100
00000000
00010000
00000000
,
00001000
00000000
01000000
00010000
01000000
00000000
00100000
00000000
,
10000000
00000000
00010000
00100000
00010000
00000000
01000000
00000000
,
00001000
00000000
00010000
00000100
00010000
00000000
00001000
00000000
,
00010000
00000000
00001000
01000000
00001000
00000000
00010000
00000000
,
00000100
00001000
00000100
00000000
00010000
00001000
00010000
00000000
,
00000200
00001000
00000010
00000301
,
00000110
00000000
00000010
00000000
00000001
00000100
00000010
00000000
,
00000010
00010000
00001000
00000000
00001000
01000000
00010000
00000000
,
10000000
01000000
00100000
00000000
00100000
00001000
00010000
00000000
,
00010000
00000100
00001000
00000000
00001000
00000001
00000100
00000000
,
00000110
00000000
00000000
00000000
00001000
00000001
00000100
00000000
,
00000100
00000010
00001000
00000000
00001000
00000100
00010000
00000000
,
00001000
01000000
00010000
00000000
00010000
00100000
01000000
00000000
,
01000000
10000000
00100000
00000000
01000000
00000000
00001000
00000000
,
00011000
00000100
00001010
00000000
,
00011000
01000000
00110000
00000000
,
00011000
00000010
00001100
00000000
,
00011000
00100000
01010000
00000000
,
00011000
00000000
00000000
00000000
00001000
00000000
00000000
00000000
00010000
00000000
00000000
00000100
00000000
00000000
00001000
00000000
,
00000100
00000000
00000000
00000000
00000010
00000000
00000000
00000000
00000001
00000000
00000000
00001000
00000000
00000000
00000001
00000000
,
00000100
00000000
00000000
00000000
00000010
00000000
00000000
00000000
00010000
00000000
00000000
00001000
00000000
00000000
00100000
00000000
,
00001000
00000000
00010000
00000000
00100000
01000000
00100000
00000000
,
10010000
00000000
10000000
00000000
01000000
00100000
00010000
00000000
,
01000000
00000000
00001000
00000000
00010000
00000100
00001000
00000000
,
00000010
00000000
00010000
00000000
00001000
00000010
00000100
00000000
,
00001000
00000000
00000001
00000000
00000100
00000010
00010000
00000000
,
00011000
00000000
00001000
01000000
00010000
00000000
00100000
01000000
,
10000000
00000000
00100000
01000000
00010000
00000000
00100000
00000000
,
00001000
00000000
00010000
00000010
00001000
00000000
00000100
00000010
,
00000001
00000000
00001000
00000010
00000100
00000001
00000010
00000000
,
00002002
00000000
00000000
00000000
,
00000000
00000000
00003003
00000000
;

//--------------- dance-double - forcednature ----------------
#NOTEDATA:;
#STEPSTYPE:dance-double;
#DESCRIPTION:forcednature;
#DIFFICULTY:Medium;
#METER:13;
#RADARVALUES:0,0,0,0,0;
#CREDIT:forcednature;
#NOTES:
00000000
00000000
00000000
00000000
,
00000000
00000000
00000000
00000000
,
00000000
00000000
00000000
00000000
,
00000000
00000000
00000000
00000000
,
00000000
00000000
00000000
00000000
,
00011000
00000000
00000000
00000000
00000000
00000000
00010000
00000000
00001000
00000000
00000000
00001000
00000000
00000000
00000010
00000000
,
00000000
00000000
00000100
00000000
00000000
00000100
00000000
00000000
00000100
00000000
00000000
00000100
00000000
00000000
00000100
00000000
,
00000000
00000000
00001000
00000000
00000000
00000000
00001000
00000000
00000001
00000000
00000000
00000001
00000000
00000000
00000100
00000000
,
00000000
00000100
00000000
00000100
00001000
00000000
00010000
00000000
,
00011000
00000000
00010000
00100000
01000000
00100000
10000000
00000000
,
11000000
00000000
01010000
00000000
00011000
00000000
00010000
00001000
,
00000010
00000100
00001100
00000011
,
00000001
00000100
00000000
00001000
00000100
00000000
00000010
00000010
,
00001000
00000000
00010000
01000000
00010000
00100000
01000000
00000000
,
01100000
00000000
00101000
00000000
00011000
00000000
00010000
00000010
,
00001000
00000100
00001000
00000100
00010000
00001000
00010000
00001000
,
02000000
03020000
20030000
30020000
00230000
02300000
03020000
00030000
,
00002000
00000000
00000000
00000000
00003010
00001000
00001000
00000000
,
00010000
00000000
00001000
00000000
00001000
00000000
00000000
00000000
01000000
00000000
00000000
01000000
00010000
00000000
00100000
00000000
,
00002000
00000000
00013000
00000010
00001000
00000100
00000100
00000000
,
00000010
00001000
00020000
00000000
00030200
00000000
00000310
00000001
,
00001001
00000000
00020000
00030000
00000010
00000100
00001000
00010000
,
00000010
00000000
00000100
00000000
00001000
00000000
00010000
00000000
00000100
00000000
00000000
00000100
00010000
00000000
00001000
00000000
,
00200000
00000000
01300000
00010000
00001000
00100000
00100000
00000000
,
02000000
03000000
20000000
30000000
00010000
01000000
00100000
00010000
,
00002000
00000000
00000000
00000000
00003010
00000100
00001000
00000100
,
00000010
00000000
00000100
00000000
00001000
00000000
00000100
00000000
00000010
00000000
00000000
00000010
00000001
00000000
00001000
00000000
,
00000020
00000000
00000130
00001000
00010000
00001000
00100000
00000000
,
01000000
00010000
00001000
00001000
00200000
00000000
01300000
01000000
,
20000000
00000000
30000000
00000000
00100000
00010000
00100000
10000000
,
00100000
00000000
00010000
00000000
00100000
00000000
10000000
00000000
00010000
00000000
00000000
00010000
00100000
00000000
00001000
00000000
,
00010000
00000000
00000010
00010000
00001000
00000010
00000100
00000000
,
00000110
00000000
00001001
00000000
00000001
00000100
00001000
00000000
,
00011000
00000000
00000000
00000000
00010000
00000000
00000000
00000000
00001000
00000000
00000000
00100000
00000000
00010000
01000000
00000000
,
00001000
00000000
00000000
00100000
00000000
00010000
01000000
00000000
00100000
00000000
10000000
00000000
00010000
00000000
00000000
00000000
,
00011000
00000000
00000000
00000000
00001000
00000000
00000000
00000000
00010000
00000000
00000000
00000010
00000000
00001000
00000100
00000000
,
00010000
00000000
00000000
00000010
00000000
00001000
00000100
00000000
00000010
00000000
00000001
00000000
00001000
00000000
00000000
00000000
,
00001001
00000000
00000001
00000100
00000001
00000010
00001000
00010000
,
00001000
00000000
01000000
00100000
01000000
00010000
00100000
00000000
,
01000000
01000000
00010000
00010000
00001000
00010000
00000100
00000000
,
00000010
00000010
00000010
00000000
00000001
00000100
00001000
00000000
,
00011000
00000000
02000000
03020000
00230000
02300000
23000000
30000000
,
00100000
00000000
00010000
00000000
00001000
00000000
00000010
00000100
,
00001000
00000000
00000010
00000100
,
00000000
00000001
00000000
00001000
00000100
00000000
00000000
00000000
,
00000000
00000000
00020000
00030020
00000230
00002300
00023000
00030000
,
00100000
00000000
01000000
00000000
00010000
00000000
10000000
01000000
,
00010000
00000000
00001000
00000010
,
00000000
00000100
00000000
00010000
00001000
00000000
00000100
00000000
,
00000110
00000000
00000000
00000000
00000010
00000000
00001000
00000000
00000001
00000000
00000000
00000001
00000000
00000000
00000010
00000000
,
00000000
00000000
00000100
00000000
00000000
00000100
00000000
00000000
00000100
00000000
00000000
00000100
00000000
00000000
00000100
00000000
,
00000000
00000000
00010000
00000000
00000000
00000000
00010000
00000000
00001000
00000000
00000000
00001000
00000000
00000000
01000000
00000000
,
00000000
01000000
00000000
01000000
00010000
00000000
10000000
00000000
,
10010000
00000000
10000000
01000000
00100000
00001000
00010000
00000000
,
00010100
00000000
00011000
00000000
00010010
00000000
00010000
00001000
,
00000010
00000100
00001100
00000011
,
00000001
00000100
00000000
00001000
00000100
00000000
00000010
00000000
,
00010000
00000100
00010000
00001000
00010000
00000010
00010000
00000000
,
00001000
01000000
00001000
00010000
00001000
00100000
00001000
00000000
,
01000000
00010000
00100000
00001000
00010000
00000010
00001000
00000100
,
00000020
00000032
00002003
00003002
00000203
00002300
00023000
00030000
,
00022000
00000000
00000000
00000000
00033000
00000000
00000000
00000000
01000000
00000000
00000000
00001000
00000000
00100000
00010000
00000000
,
01000000
00000000
00000000
00001000
00000000
00100000
00010000
00000000
01000000
00000000
00000000
00001000
00010000
00000000
00000000
00000000
,
00000100
00000000
00000000
00010000
00000000
00000010
00001000
00000000
00000100
00000000
00000000
00010000
00000000
00000010
00001000
00000000
,
00000001
00000010
00000000
00000010
00000000
00000010
00000100
00000000
00010000
00000000
00000000
00000000
00001000
00000000
00000000
00000000
,
00022000
00000000
00000000
00000000
00033000
00000000
00000000
00000000
00000010
00000000
00000000
00010000
00000000
00000100
00001000
00000000
,
00000010
00000000
00000000
00010000
00000000
00000100
00001000
00000000
00000010
00000000
00000000
00010000
00001000
00000000
00000000
00000000
,
00100000
00000000
00000000
00001000
00000000
01000000
00010000
00000000
00100000
00000000
00000000
00001000
00000000
01000000
00010000
00000000
,
10000000
01000000
00000000
01000000
00000000
01000000
00100000
00000000
00001000
00000000
00000000
00000000
00010000
00000000
00000000
00000000
,
00011000
00000000
00001000
00000010
00000100
00000000
00001100
00000000
,
00000011
00000000
00000001
00000100
00001000
00010000
00001000
00000000
,
00011000
00000000
00010000
00100000
10000000
00000000
10010000
00000000
,
01100000
00000000
10000000
01000000
00010000
01000000
00100000
00000000
,
00101000
00000000
00000000
00000000
00001000
00000000
00010000
00000000
00000010
00000000
00000000
00001010
00000000
00000000
00001000
00000000
,
00000001
00000000
00000000
00000000
00000010
00000000
00001000
00000000
00010000
00000000
00000000
00011000
00000000
00000000
00001000
00000000
,
01000000
00000000
00000000
00000000
00100000
00000000
10000000
00000000
00010000
00000000
00000000
00110000
00000000
00000000
00100000
00000000
,
01000000
00000000
00010000
00001000
00000010
00000010
00000100
00000000
,
00001001
00000000
00000000
00000001
00000100
00000000
00000010
00000000
00001000
00000000
00010000
00000000
02000000
00000000
00000000
00000000
,
03100000
00000000
00000000
00100000
10000000
00000000
00010000
00000000
00100000
00000000
00100000
00000000
01000000
00000000
00000000
00000000
,
10000000
00000000
00000000
10000000
01000000
00000000
00100000
00000000
00010000
00000000
00001000
00000000
00000200
00000000
00000000
00000000
,
00000310
00000000
00000000
00000010
00000001
00000000
00001000
00000000
00000010
00000000
00000100
00000000
00000001
00000000
00000000
00000000
,
00001001
00000000
00001000
00000100
00000010
00001000
00020000
00000000
,
00130000
01000000
00100000
10000000
00020000
00030000
00200000
00300000
,
01000000
00010000
00001000
00010000
00000010
00001000
00000200
00000000
,
00010300
00001000
00000100
00001000
00010000
01000000
00100000
00000000
,
20020000
00000000
00000000
00000000
,
00000000
00000000
30030000
00000000
;

//--------------- dance-double - forcednature ----------------
#NOTEDATA:;
#STEPSTYPE:dance-double;
#DESCRIPTION:forcednature;
#DIFFICULTY:Hard;
#METER:16;
#RADARVALUES:0,0,0,0,0;
#CREDIT:forcednature;
#NOTES:
00000000
00000000
00000000
00000000
,
00000000
00000000
00000000
00000000
,
00000000
00000000
00000000
00000000
,
00000000
00000000
00000000
00000000
,
00000000
00000000
00000000
00000000
,
00011000
00000000
00000000
00000000
00000000
00000000
00010000
00000000
00100000
00000000
00000000
00100000
00000000
00000000
01000000
00000000
,
00000000
00000000
00010000
00000000
00000000
10000000
00000000
00000000
00010000
00000000
00000000
10000000
00000000
00000000
00010000
00000000
,
00000000
00000000
00100000
00000000
00000000
00000000
00100000
00000000
00001000
00000000
00000000
00001000
00000000
00000000
00010000
00000000
,
00000000
00010000
00000000
00010000
00000010
00000000
00000100
00000000
,
00001001
00000000
00001000
00000010
00000100
00001000
00010000
00100000
,
01000000
00000000
00010000
00100000
01000000
00000000
00010000
00001000
,
00000010
00000000
00000100
00010000
00001000
00000100
00000010
00000100
,
00000000
00001000
00010000
01000000
00100000
01000000
10000000
10000000
,
00010000
00000000
00000000
00010000
01000000
00000000
00100000
00000000
10000000
00000000
00000000
10000000
01000000
00000000
00010000
00000000
,
00001000
00000000
00000000
00001000
00010000
00000000
00000010
00000000
00001000
00000000
00000000
00001000
00000100
00000000
00000010
00000000
,
00000001
00000001
00000100
00000100
00001000
00001000
00010000
00010000
,
00200000
00000000
02300000
00000000
03020000
00000000
20030000
00000000
32000000
00000000
03020000
00000000
00032000
00023000
00030000
00000000
,
00010200
00000000
00000000
00000000
00000310
00000100
00001000
00000100
,
00010000
00000000
00000100
00000000
00001000
00000000
00000100
00000000
00000010
00000000
00000001
00001000
00000001
00000000
00000100
00000000
,
00002000
00000000
00013000
00100000
01000000
00100000
00100000
10000000
,
00010000
00000000
10000000
00000000
01000000
00100000
01000000
00100000
00002000
00000000
00000000
00000000
00013000
00000000
00001000
00000000
,
00011000
00000000
00000100
00000000
00001000
00000010
00000100
00000010
,
00000001
00000000
00000010
00000000
00000100
00000000
00000010
00000000
00001000
00000000
00000010
00010000
00001000
00000000
01000000
00000000
,
00020000
00000000
00130000
01000000
10000000
01000000
00010000
01000000
,
00100000
00000000
00010000
00000000
00001000
00000000
00000100
00000000
00000010
00000000
00000010
00000001
00001000
00000000
00000001
00000000
,
00000200
00000000
00000000
00000000
00001300
00010000
00100000
00010000
,
00001000
00000000
00010000
00000000
01000000
00000000
00010000
00000000
00001000
00000000
01000000
00010000
10000000
00000000
00100000
00000000
,
02000000
00000000
03010000
00100000
01000000
00100000
10000000
00100000
,
01000000
00000000
00100000
00000000
00010000
00100000
00010000
00100000
00002000
00000000
00000000
00000000
00013000
00000000
00001000
00000000
,
00022000
00000000
00033000
00000000
00001000
00100000
01000000
00100000
,
00010000
00000000
00100000
00000000
10000000
00000000
00100000
00000000
00010000
00000000
00010000
01000000
00001000
00000000
00010000
00000000
,
00011000
00000000
00001000
00000010
00000100
00001000
00000010
00000000
,
00000110
00000000
00001001
00000000
00000001
00000100
00001000
00000000
,
00011000
00000000
00000000
00000000
00010000
00000000
00100000
00000000
01000000
00010000
00000000
00100000
00000000
00001000
00010000
00000000
,
00000100
00001000
00000000
00000010
00000000
00010000
00001000
00000000
01000000
00000000
00010000
10000000
00010000
00000000
00100000
00000000
,
01100000
00000000
00000000
00000000
01000000
00000000
00010000
00000000
00001000
00010000
00000000
00000100
00000000
00001000
00000010
00000000
,
00010000
00001000
00000000
01000000
00000000
00010000
00100000
00000000
00001000
00000000
00010000
00000010
00010000
00000000
00001000
00000000
,
00000010
00000010
00000100
00000100
00001000
00001000
00000001
00000001
,
00000100
00001000
00010000
00001000
00100000
00010000
01000000
00010000
,
00100000
00100000
01000000
01000000
00010000
00010000
00001000
00001000
,
00010000
00000100
00010000
00000000
00001000
01000000
00001000
00000000
00010000
00000010
00001000
00000010
00000100
00000000
00000000
00000000
,
00001001
00000000
00002000
00003002
00000023
00000230
00002300
00003000
,
00000010
00000000
00001000
00000000
00010000
00000000
01000000
00010000
,
10000000
00000000
11000000
01010000
,
00000000
00001000
00000000
00010000
00002000
00000000
00003000
00000000
,
00000000
00000000
02000000
03002000
00023000
00230000
02300000
03000000
,
00010000
00000000
10000000
00000000
01000000
00000000
00010000
00001000
,
00010000
00000000
00010010
00101000
,
00000000
00011000
00000000
00010000
00001000
00000000
00000010
00000000
,
00000110
00000000
00000000
00000000
00000100
00000000
00001000
00000000
00000001
00000000
00000000
00000001
00000000
00000000
00000100
00000000
,
00000000
00000000
00001000
00000000
00000000
00010000
00000000
00000000
00001000
00000000
00000000
00010000
00000000
00000000
00001000
00000000
,
00000000
00000000
01000000
00000000
00000000
00000000
01000000
00000000
00010000
00000000
00000000
00010000
00000000
00000000
00100000
00000000
,
00000000
00100000
00000000
01000000
00010000
00000000
00001000
00000000
,
00011000
00000000
00000000
00010000
00000100
00000000
00001000
00000000
00000010
00000000
00000000
00010000
00000100
00000000
00001000
00000000
,
00000010
00000000
00000000
00010000
00001000
00000000
00100000
00000000
00010000
00000000
00000000
01000000
00001000
00000000
00010000
00000000
,
00100000
00000000
00000000
01000000
00010000
00000000
10000000
00000000
01000000
00000000
00000000
00100000
00010000
00000000
01000000
00000000
,
00001000
00000000
00000000
00010000
00000100
00000000
00001000
00000000
00000010
00000000
00000100
00000001
00000100
00000000
00001000
00000000
,
00010000
00000000
00000100
00001000
00000100
00000000
00010000
00000000
00001000
00000000
01000000
00000000
01100000
00000000
00000000
00000000
,
00001000
00000000
01000000
00010000
01000000
00000000
00001000
00000000
00010000
00000000
00000100
00000000
00000110
00000000
00000000
00000000
,
00000001
00000100
00000010
00001000
00010000
01000000
00100000
10000000
,
02000000
00000000
03020000
00000000
00032000
00000000
00023000
00000000
00030020
00000000
00002030
00000000
00003200
00000320
00000030
00000000
,
00001001
00000000
00000000
00000000
00000110
00000000
00000000
00000000
00010000
00001000
00000000
00100000
00000000
01000000
00010000
00000000
,
00001000
00010000
00000000
00000010
00000000
00000100
00001000
00000000
00010000
00001000
00000000
01000000
00020000
00000000
00000000
00000000
,
00130000
01000000
00000000
00010000
00000000
00001000
00000100
00000000
00000010
00000100
00000000
00001000
00000000
00010000
01000000
00000000
,
00100000
00001000
00000000
00010000
00000000
00001000
00000100
00000000
00001000
00000000
00010000
00000100
00001000
00000000
00001000
00000000
,
00001001
00000000
00000000
00000000
00000110
00000000
00000000
00000000
00001000
00000100
00000000
00000010
00000000
00000100
00001000
00000000
,
00010000
01000000
00000000
00100000
00000000
01000000
00010000
00000000
00001000
00000100
00000000
00001000
00000020
00000000
00000000
00000000
,
00010030
00001000
00000000
00000010
00000000
00000100
00000010
00000000
00001000
00010000
00000000
00100000
00000000
01000000
00100000
00000000
,
10000000
00010000
00000000
00100000
00000000
01000000
10000000
00000000
02000000
00000000
00000000
00000000
03010000
00000000
00001000
00000000
,
00011000
00000000
00000100
00001000
00000010
00000000
00000200
00000000
,
00002300
00000000
00000000
00000000
00013000
00000000
00100000
00000000
01000000
00010000
10000000
00000000
01000000
00000000
00000000
00000000
,
01100000
00000000
00100000
00001000
00000010
00000000
00000200
00000000
,
00001300
00000000
00000000
00000000
00000001
00000000
00000100
00000000
00000010
00001000
00000001
00000000
00000010
00000000
00000000
00000000
,
00000110
00000000
00000000
00000000
00000100
00000000
00010000
00000000
00001000
00000000
00000000
00101000
00000000
00000000
00100000
00000000
,
00010000
00000000
00000000
00000000
01000000
00000000
00001000
00000000
00010000
00000000
00000000
00010010
00000000
00000000
00000010
00000000
,
00002000
00000000
00000000
00000000
00003100
00000000
00000010
00000000
00001000
00000000
00000000
00011000
00000000
00000000
00010000
00000000
,
00100000
00000000
01000000
00010000
00100000
01000000
00010000
00001000
,
00011000
00000000
00000000
00010000
00001000
00000000
00000010
00000000
00000100
00000000
00001000
00000001
00000200
00000000
00000000
00000000
,
00001300
00000000
00000000
00001000
00010000
00000000
00100000
00000000
01000000
00010000
10000000
00000000
01000000
00000000
00100000
00000000
,
00001000
00000000
00000000
00001000
00010000
00000000
00000010
00000000
00001000
00000000
00000100
00000010
00000001
00000000
00000100
00000000
,
00000010
00000000
00000000
00000010
00001000
00000000
00010000
00000000
01000000
00000000
00100000
00000000
01100000
00000000
00000000
00000000
,
00010000
00000000
10000000
00100000
10000000
00000000
01000000
00000000
00010000
00000000
00001000
00010000
00002000
00000000
00000000
00000000
,
00003010
00000000
00000100
00001000
00000100
00000000
00000010
00000000
00000001
00001000
00000010
00000000
00000200
00000000
00000000
00000000
,
00001300
00010000
00100000
01000000
00001000
00010000
01000000
00100000
,
00010000
01000000
00010000
00000000
10000000
01000000
10000000
00000000
00010000
00100000
00001000
00010000
00002000
00000000
00000000
00000000
,
00003200
00000000
00000000
00000000
,
00000000
00000000
00000300
00000000
;
